osu file format v14

[General]
AudioFilename: audio.mp3
AudioLeadIn: 0
PreviewTime: 174163
Countdown: 0
SampleSet: Normal
StackLeniency: 0.7
Mode: 1
LetterboxInBreaks: 0
WidescreenStoryboard: 0

[Editor]
Bookmarks: 2063,14863,27663,40463,50063,59663,86863,99663,112463,122063,131663,158863,174863,187663,205263,218063,223463
DistanceSpacing: 1.3
BeatDivisor: 4
GridSize: 32
TimelineZoom: 2.599999

[Metadata]
Title:Daydream cafe
TitleUnicode:Daydream café
Artist:Petit Rabbit's
ArtistUnicode:Petit Rabbit's
Creator:eiri-
Version:Futsuu
Source:ご注文はうさぎですか?
Tags:Ayyri Gochuumon wa Usagi Desu ka Is The Order A Rabbit Gochiusa ごちうさ Opening OP Cocoa Hoto 保登 心愛 Ayane Sakura 佐倉 綾音 Chino Kafū Kafuu 香風 智乃 Inori Minase 水瀬 いのり Rize Tedeza 天々座 理世 Risa Taneda 種田 梨沙 Chiya Ujimatsu 宇治松 千夜 Satomi Satou 佐藤 聡美 Sharo Kirima 桐間 紗路 Maaya Uchida 内田 真礼 Aki Hata 畑 亜貴 Kaoru Okubo 大久保薫 jubeat saucer fulfill BeatStream KONAMI BEMANI
BeatmapID:1809871
BeatmapSetID:865586

[Difficulty]
HPDrainRate:6
CircleSize:2
OverallDifficulty:4
ApproachRate:10
SliderMultiplier:1.4
SliderTickRate:1

[Events]
//Background and Video events
0,0,"Lolis 486.jpg",0,50
//Break Periods
//Storyboard Layer 0 (Background)
//Storyboard Layer 1 (Fail)
//Storyboard Layer 2 (Pass)
//Storyboard Layer 3 (Foreground)
//Storyboard Sound Samples

[TimingPoints]
2063,400,4,1,0,50,1,0
2063,-125,4,1,0,50,0,0
8463,-111.111111111111,4,1,0,75,0,0
11263,-105.263157894737,4,1,0,75,0,0
11663,-100,4,1,0,75,0,0
59663,-100,4,1,0,100,0,1
86863,-100,4,1,0,100,0,0
87663,-100,4,1,0,75,0,0
100063,-105.263157894737,4,1,0,75,0,0
100463,-111.111111111111,4,1,0,75,0,0
106063,-100,4,1,0,75,0,0
131663,-100,4,1,0,100,0,1
158863,-100,4,1,0,100,0,0
159463,-100,4,1,0,75,0,0
174463,-105.263157894737,4,1,0,65,0,0
174863,-111.111111111111,4,1,0,60,0,0
175263,-117.647058823529,4,1,0,50,0,0
175663,-125,4,1,0,50,0,0
181263,-111.111111111111,4,1,0,60,0,0
184063,-105.263157894737,4,1,0,60,0,0
184463,-100,4,1,0,65,0,0
185863,-100,4,1,0,70,0,0
186263,-100,4,1,0,75,0,0
187663,-100,4,1,0,100,0,1
205263,-100,4,1,0,100,0,0
206063,-100,4,1,0,75,0,0
218463,-100,4,1,0,50,0,0
219663,-100,4,1,0,75,0,0
220063,-100,4,1,0,50,0,0
221263,-100,4,1,0,75,0,0
221863,-100,4,1,0,85,0,0
222463,-100,4,1,0,95,0,0
223063,-100,4,1,0,100,0,0

[HitObjects]
256,192,2063,5,0,0:0:0:0:
256,192,2463,1,0,0:0:0:0:
256,192,2863,1,0,0:0:0:0:
256,192,3063,1,8,0:0:0:0:
256,192,3463,1,0,0:0:0:0:
256,192,4063,1,0,0:0:0:0:
256,192,4463,1,0,0:0:0:0:
256,192,4863,1,8,0:0:0:0:
256,192,5263,1,0,0:0:0:0:
256,192,5663,1,8,0:0:0:0:
256,192,6063,1,0,0:0:0:0:
256,192,6663,1,8,0:0:0:0:
256,192,7063,1,0,0:0:0:0:
256,192,7263,1,8,0:0:0:0:
256,192,7663,1,0,0:0:0:0:
256,192,8463,1,4,0:0:0:0:
256,192,8863,1,0,0:0:0:0:
256,192,9263,1,0,0:0:0:0:
256,192,9463,1,8,0:0:0:0:
256,192,9863,1,0,0:0:0:0:
256,192,10663,1,8,0:0:0:0:
256,192,11263,1,0,0:0:0:0:
256,192,11663,1,12,0:0:0:0:
256,192,12063,1,0,0:0:0:0:
256,192,12263,1,0,0:0:0:0:
256,192,12463,1,8,0:0:0:0:
256,192,12863,1,0,0:0:0:0:
256,192,13063,1,12,0:0:0:0:
256,192,13463,1,12,0:0:0:0:
256,192,13663,1,12,0:0:0:0:
256,192,14463,1,12,0:0:0:0:
256,192,14863,1,4,0:0:0:0:
256,192,15663,1,0,0:0:0:0:
256,192,15863,1,8,0:0:0:0:
256,192,16063,1,0,0:0:0:0:
256,192,16463,1,0,0:0:0:0:
256,192,17063,1,8,0:0:0:0:
256,192,17463,1,0,0:0:0:0:
256,192,17863,1,8,0:0:0:0:
256,192,18063,1,0,0:0:0:0:
256,192,18863,1,0,0:0:0:0:
256,192,19063,1,0,0:0:0:0:
256,192,19263,1,8,0:0:0:0:
256,192,19663,1,0,0:0:0:0:
256,192,20063,1,8,0:0:0:0:
256,192,20263,1,0,0:0:0:0:
256,192,20663,1,8,0:0:0:0:
256,192,21063,1,0,0:0:0:0:
256,192,21263,1,12,0:0:0:0:
256,192,22063,1,8,0:0:0:0:
256,192,22263,1,0,0:0:0:0:
256,192,22463,1,8,0:0:0:0:
256,192,22863,1,0,0:0:0:0:
256,192,23463,1,8,0:0:0:0:
256,192,23863,1,0,0:0:0:0:
256,192,24263,1,8,0:0:0:0:
256,192,24463,1,0,0:0:0:0:
256,192,24863,1,8,0:0:0:0:
256,192,25263,1,8,0:0:0:0:
256,192,25663,1,0,0:0:0:0:
256,192,25863,1,0,0:0:0:0:
256,192,26063,1,12,0:0:0:0:
256,192,26663,1,12,0:0:0:0:
256,192,27663,1,4,0:0:0:0:
256,192,28063,1,0,0:0:0:0:
256,192,28463,1,8,0:0:0:0:
256,192,29063,1,0,0:0:0:0:
256,192,29663,1,8,0:0:0:0:
256,192,30063,1,8,0:0:0:0:
256,192,30863,1,8,0:0:0:0:
256,192,31263,1,0,0:0:0:0:
256,192,31663,1,8,0:0:0:0:
256,192,32263,1,8,0:0:0:0:
256,192,32663,1,0,0:0:0:0:
256,192,33063,1,8,0:0:0:0:
256,192,33263,1,0,0:0:0:0:
256,192,34063,1,12,0:0:0:0:
256,192,34463,1,0,0:0:0:0:
256,192,34863,1,0,0:0:0:0:
256,192,35063,1,8,0:0:0:0:
256,192,35463,1,0,0:0:0:0:
256,192,36063,1,8,0:0:0:0:
256,192,36463,1,8,0:0:0:0:
256,192,37263,1,8,0:0:0:0:
256,192,37663,1,0,0:0:0:0:
256,192,37863,1,0,0:0:0:0:
256,192,38063,1,8,0:0:0:0:
256,192,38463,1,8,0:0:0:0:
256,192,38663,1,0,0:0:0:0:
256,192,39063,1,8,0:0:0:0:
256,192,39463,1,0,0:0:0:0:
256,192,39663,1,8,0:0:0:0:
256,192,40463,1,4,0:0:0:0:
256,192,40863,1,8,0:0:0:0:
256,192,41263,1,0,0:0:0:0:
256,192,41663,1,8,0:0:0:0:
256,192,42063,1,8,0:0:0:0:
256,192,42263,1,8,0:0:0:0:
256,192,42463,1,0,0:0:0:0:
256,192,42863,1,0,0:0:0:0:
256,192,43263,1,8,0:0:0:0:
256,192,43863,1,8,0:0:0:0:
256,192,44063,1,0,0:0:0:0:
256,192,44463,1,8,0:0:0:0:
256,192,45063,1,0,0:0:0:0:
256,192,45663,1,8,0:0:0:0:
256,192,46063,1,0,0:0:0:0:
256,192,46863,1,12,0:0:0:0:
256,192,47263,1,8,0:0:0:0:
256,192,47663,1,0,0:0:0:0:
256,192,48263,1,0,0:0:0:0:
256,192,48463,1,8,0:0:0:0:
256,192,48863,1,0,0:0:0:0:
256,192,49263,1,8,0:0:0:0:
256,192,50063,1,12,0:0:0:0:
256,192,50263,1,0,0:0:0:0:
256,192,50463,1,0,0:0:0:0:
256,192,50863,1,8,0:0:0:0:
256,192,51263,1,0,0:0:0:0:
256,192,51463,1,12,0:0:0:0:
256,192,51863,1,0,0:0:0:0:
256,192,52063,1,0,0:0:0:0:
256,192,52463,1,8,0:0:0:0:
256,192,52863,1,0,0:0:0:0:
256,192,53063,1,12,0:0:0:0:
256,192,53863,1,0,0:0:0:0:
256,192,54263,1,0,0:0:0:0:
256,192,54663,1,12,0:0:0:0:
256,192,55463,1,0,0:0:0:0:
256,192,55863,1,0,0:0:0:0:
256,192,56263,1,12,0:0:0:0:
256,192,56663,1,0,0:0:0:0:
256,192,56863,1,8,0:0:0:0:
256,192,57063,1,0,0:0:0:0:
256,192,57463,1,0,0:0:0:0:
256,192,57863,1,12,0:0:0:0:
256,192,58263,1,4,0:0:0:0:
256,192,58463,1,4,0:0:0:0:
256,192,58663,1,12,0:0:0:0:
256,192,59263,1,12,0:0:0:0:
256,192,59663,1,4,0:0:0:0:
256,192,60063,1,4,0:0:0:0:
256,192,60463,1,8,0:0:0:0:
256,192,61063,1,8,0:0:0:0:
256,192,62063,1,0,0:0:0:0:
256,192,62263,1,0,0:0:0:0:
256,192,62463,1,8,0:0:0:0:
256,192,62863,1,0,0:0:0:0:
256,192,63263,1,8,0:0:0:0:
256,192,63663,1,0,0:0:0:0:
256,192,64263,1,8,0:0:0:0:
256,192,64663,1,0,0:0:0:0:
256,192,64863,1,8,0:0:0:0:
256,192,65263,1,8,0:0:0:0:
256,192,65463,1,0,0:0:0:0:
256,192,65663,1,0,0:0:0:0:
256,192,66063,1,4,0:0:0:0:
256,192,66863,1,0,0:0:0:0:
256,192,67063,1,8,0:0:0:0:
256,192,67463,1,8,0:0:0:0:
256,192,68063,1,0,0:0:0:0:
256,192,68263,1,8,0:0:0:0:
256,192,68863,1,0,0:0:0:0:
256,192,69263,1,12,0:0:0:0:
256,192,69663,1,0,0:0:0:0:
256,192,70063,1,8,0:0:0:0:
256,192,70463,1,0,0:0:0:0:
256,192,70663,1,12,0:0:0:0:
256,192,71063,1,4,0:0:0:0:
256,192,71263,1,4,0:0:0:0:
256,192,71463,1,12,0:0:0:0:
256,192,72063,1,12,0:0:0:0:
256,192,72463,1,4,0:0:0:0:
256,192,72863,1,4,0:0:0:0:
256,192,73263,1,8,0:0:0:0:
256,192,73863,1,8,0:0:0:0:
256,192,74863,1,0,0:0:0:0:
256,192,75663,1,0,0:0:0:0:
256,192,76063,1,8,0:0:0:0:
256,192,76463,1,0,0:0:0:0:
256,192,77063,1,8,0:0:0:0:
256,192,77463,1,8,0:0:0:0:
256,192,77663,1,0,0:0:0:0:
256,192,78063,1,8,0:0:0:0:
256,192,78263,1,0,0:0:0:0:
256,192,78463,1,0,0:0:0:0:
256,192,78863,1,4,0:0:0:0:
256,192,79263,1,4,0:0:0:0:
256,192,79663,1,8,0:0:0:0:
256,192,80263,1,12,0:0:0:0:
256,192,80663,1,0,0:0:0:0:
256,192,80863,1,0,0:0:0:0:
256,192,81063,1,12,0:0:0:0:
256,192,81663,1,0,0:0:0:0:
256,192,82063,1,12,0:0:0:0:
256,192,82863,1,0,0:0:0:0:
256,192,83263,1,0,0:0:0:0:
256,192,83463,1,12,0:0:0:0:
256,192,83863,1,0,0:0:0:0:
256,192,84063,1,0,0:0:0:0:
256,192,84463,1,8,0:0:0:0:
256,192,85063,1,12,0:0:0:0:
256,192,85463,1,12,0:0:0:0:
256,192,85663,1,12,0:0:0:0:
256,192,86463,1,12,0:0:0:0:
256,192,86863,1,4,0:0:0:0:
256,192,87663,1,0,0:0:0:0:
256,192,87863,1,8,0:0:0:0:
256,192,88063,1,0,0:0:0:0:
256,192,88463,1,0,0:0:0:0:
256,192,89063,1,8,0:0:0:0:
256,192,89463,1,0,0:0:0:0:
256,192,89863,1,8,0:0:0:0:
256,192,90063,1,0,0:0:0:0:
256,192,90863,1,0,0:0:0:0:
256,192,91063,1,0,0:0:0:0:
256,192,91263,1,8,0:0:0:0:
256,192,91663,1,0,0:0:0:0:
256,192,92063,1,8,0:0:0:0:
256,192,92263,1,0,0:0:0:0:
256,192,92663,1,8,0:0:0:0:
256,192,93063,1,0,0:0:0:0:
256,192,93263,1,12,0:0:0:0:
256,192,94063,1,8,0:0:0:0:
256,192,94263,1,0,0:0:0:0:
256,192,94463,1,8,0:0:0:0:
256,192,94863,1,0,0:0:0:0:
256,192,95463,1,8,0:0:0:0:
256,192,95863,1,0,0:0:0:0:
256,192,96263,1,8,0:0:0:0:
256,192,96463,1,0,0:0:0:0:
256,192,96863,1,8,0:0:0:0:
256,192,97263,1,8,0:0:0:0:
256,192,97663,1,0,0:0:0:0:
256,192,97863,1,0,0:0:0:0:
256,192,98063,1,12,0:0:0:0:
256,192,98663,1,12,0:0:0:0:
256,192,99663,1,12,0:0:0:0:
256,192,100063,1,0,0:0:0:0:
256,192,100463,1,8,0:0:0:0:
256,192,101063,1,8,0:0:0:0:
256,192,102063,1,8,0:0:0:0:
256,192,102863,1,8,0:0:0:0:
256,192,103263,1,0,0:0:0:0:
256,192,103663,1,8,0:0:0:0:
256,192,104263,1,8,0:0:0:0:
256,192,105063,1,8,0:0:0:0:
256,192,105263,1,0,0:0:0:0:
256,192,106063,1,12,0:0:0:0:
256,192,106463,1,0,0:0:0:0:
256,192,106863,1,0,0:0:0:0:
256,192,107063,1,8,0:0:0:0:
256,192,107463,1,8,0:0:0:0:
256,192,108063,1,0,0:0:0:0:
256,192,108463,1,8,0:0:0:0:
256,192,109263,1,8,0:0:0:0:
256,192,109663,1,0,0:0:0:0:
256,192,109863,1,0,0:0:0:0:
256,192,110063,1,8,0:0:0:0:
256,192,110463,1,8,0:0:0:0:
256,192,110663,1,0,0:0:0:0:
256,192,111063,1,8,0:0:0:0:
256,192,111463,1,0,0:0:0:0:
256,192,111663,1,8,0:0:0:0:
256,192,112463,1,4,0:0:0:0:
256,192,112863,1,8,0:0:0:0:
256,192,113263,1,0,0:0:0:0:
256,192,113663,1,8,0:0:0:0:
256,192,114063,1,8,0:0:0:0:
256,192,114263,1,8,0:0:0:0:
256,192,114463,1,0,0:0:0:0:
256,192,114863,1,0,0:0:0:0:
256,192,115263,1,8,0:0:0:0:
256,192,115863,1,8,0:0:0:0:
256,192,116063,1,0,0:0:0:0:
256,192,116463,1,8,0:0:0:0:
256,192,117063,1,0,0:0:0:0:
256,192,117463,1,0,0:0:0:0:
256,192,117663,1,8,0:0:0:0:
256,192,118063,1,0,0:0:0:0:
256,192,118863,1,12,0:0:0:0:
256,192,119263,1,8,0:0:0:0:
256,192,119663,1,0,0:0:0:0:
256,192,119863,1,0,0:0:0:0:
256,192,120063,1,8,0:0:0:0:
256,192,120463,1,8,0:0:0:0:
256,192,120863,1,0,0:0:0:0:
256,192,121263,1,8,0:0:0:0:
256,192,122063,1,12,0:0:0:0:
256,192,122263,1,0,0:0:0:0:
256,192,122463,1,0,0:0:0:0:
256,192,122863,1,8,0:0:0:0:
256,192,123263,1,0,0:0:0:0:
256,192,123463,1,12,0:0:0:0:
256,192,123863,1,0,0:0:0:0:
256,192,124063,1,0,0:0:0:0:
256,192,124463,1,8,0:0:0:0:
256,192,124863,1,0,0:0:0:0:
256,192,125063,1,12,0:0:0:0:
256,192,125863,1,4,0:0:0:0:
256,192,126263,1,0,0:0:0:0:
256,192,126663,1,12,0:0:0:0:
256,192,127463,1,4,0:0:0:0:
256,192,127863,1,0,0:0:0:0:
256,192,128263,1,12,0:0:0:0:
256,192,128663,1,0,0:0:0:0:
256,192,128863,1,8,0:0:0:0:
256,192,129063,1,0,0:0:0:0:
256,192,129463,1,0,0:0:0:0:
256,192,129863,1,12,0:0:0:0:
256,192,130263,1,4,0:0:0:0:
256,192,130463,1,4,0:0:0:0:
256,192,130663,1,12,0:0:0:0:
256,192,131263,1,12,0:0:0:0:
256,192,131663,1,4,0:0:0:0:
256,192,132063,1,4,0:0:0:0:
256,192,132463,1,8,0:0:0:0:
256,192,133063,1,8,0:0:0:0:
256,192,134063,1,0,0:0:0:0:
256,192,134263,1,0,0:0:0:0:
256,192,134463,1,8,0:0:0:0:
256,192,134863,1,0,0:0:0:0:
256,192,135263,1,8,0:0:0:0:
256,192,135663,1,0,0:0:0:0:
256,192,136263,1,8,0:0:0:0:
256,192,136663,1,0,0:0:0:0:
256,192,136863,1,8,0:0:0:0:
256,192,137263,1,8,0:0:0:0:
256,192,138063,1,4,0:0:0:0:
256,192,138463,1,8,0:0:0:0:
256,192,138863,1,0,0:0:0:0:
256,192,139063,1,8,0:0:0:0:
256,192,139463,1,8,0:0:0:0:
256,192,140063,1,0,0:0:0:0:
256,192,140263,1,8,0:0:0:0:
256,192,140863,1,0,0:0:0:0:
256,192,141263,1,12,0:0:0:0:
256,192,141663,1,0,0:0:0:0:
256,192,142063,1,8,0:0:0:0:
256,192,142463,1,0,0:0:0:0:
256,192,142663,1,12,0:0:0:0:
256,192,143063,1,4,0:0:0:0:
256,192,143263,1,4,0:0:0:0:
256,192,143463,1,12,0:0:0:0:
256,192,144063,1,12,0:0:0:0:
256,192,144463,1,4,0:0:0:0:
256,192,144863,1,4,0:0:0:0:
256,192,145263,1,8,0:0:0:0:
256,192,145863,1,8,0:0:0:0:
256,192,146863,1,0,0:0:0:0:
256,192,147663,1,0,0:0:0:0:
256,192,148063,1,8,0:0:0:0:
256,192,148463,1,0,0:0:0:0:
256,192,149063,1,8,0:0:0:0:
256,192,149463,1,8,0:0:0:0:
256,192,149663,1,0,0:0:0:0:
256,192,150063,1,8,0:0:0:0:
256,192,150263,1,0,0:0:0:0:
256,192,150463,1,0,0:0:0:0:
256,192,150863,1,4,0:0:0:0:
256,192,151663,1,8,0:0:0:0:
256,192,152263,1,12,0:0:0:0:
256,192,152663,1,0,0:0:0:0:
256,192,152863,1,0,0:0:0:0:
256,192,153063,1,12,0:0:0:0:
256,192,153663,1,0,0:0:0:0:
256,192,154063,1,12,0:0:0:0:
256,192,154863,1,0,0:0:0:0:
256,192,155263,1,0,0:0:0:0:
256,192,155463,1,12,0:0:0:0:
256,192,155863,1,0,0:0:0:0:
256,192,156063,1,0,0:0:0:0:
256,192,156463,1,8,0:0:0:0:
256,192,156863,1,0,0:0:0:0:
256,192,157063,1,12,0:0:0:0:
256,192,157463,1,12,0:0:0:0:
256,192,157663,1,12,0:0:0:0:
256,192,158463,1,12,0:0:0:0:
256,192,158863,1,4,0:0:0:0:
256,192,159463,1,8,0:0:0:0:
256,192,160063,1,8,0:0:0:0:
256,192,160263,1,0,0:0:0:0:
256,192,160663,1,0,0:0:0:0:
256,192,160863,1,8,0:0:0:0:
256,192,161663,1,8,0:0:0:0:
256,192,161863,1,0,0:0:0:0:
256,192,162263,1,0,0:0:0:0:
256,192,162463,1,8,0:0:0:0:
256,192,163263,1,0,0:0:0:0:
256,192,163463,1,12,0:0:0:0:
256,192,164063,1,8,0:0:0:0:
256,192,164263,1,0,0:0:0:0:
256,192,164663,1,8,0:0:0:0:
256,192,165263,1,12,0:0:0:0:
256,192,165863,1,12,0:0:0:0:
256,192,166263,1,8,0:0:0:0:
256,192,166463,1,0,0:0:0:0:
256,192,166663,1,12,0:0:0:0:
256,192,167463,1,8,0:0:0:0:
256,192,167863,1,0,0:0:0:0:
256,192,168263,1,12,0:0:0:0:
256,192,169063,1,4,0:0:0:0:
256,192,169863,1,12,0:0:0:0:
256,192,170663,1,4,0:0:0:0:
256,192,171463,1,12,0:0:0:0:
256,192,171863,1,0,0:0:0:0:
256,192,172063,1,8,0:0:0:0:
256,192,172263,1,0,0:0:0:0:
256,192,172663,1,0,0:0:0:0:
256,192,173063,1,12,0:0:0:0:
256,192,173463,1,4,0:0:0:0:
256,192,173663,1,4,0:0:0:0:
256,192,173863,1,12,0:0:0:0:
256,192,174463,1,0,0:0:0:0:
256,192,174863,1,12,0:0:0:0:
256,192,175263,1,8,0:0:0:0:
256,192,175663,1,0,0:0:0:0:
256,192,176263,1,0,0:0:0:0:
256,192,176663,1,0,0:0:0:0:
256,192,176863,1,8,0:0:0:0:
256,192,177263,1,0,0:0:0:0:
256,192,178063,1,0,0:0:0:0:
256,192,178463,1,8,0:0:0:0:
256,192,178863,1,0,0:0:0:0:
256,192,179463,1,8,0:0:0:0:
256,192,179863,1,0,0:0:0:0:
256,192,180063,1,8,0:0:0:0:
256,192,180463,1,0,0:0:0:0:
256,192,181263,1,12,0:0:0:0:
256,192,181663,1,0,0:0:0:0:
256,192,182063,1,8,0:0:0:0:
256,192,182263,1,0,0:0:0:0:
256,192,182663,1,8,0:0:0:0:
256,192,183263,1,0,0:0:0:0:
256,192,183463,1,8,0:0:0:0:
256,192,184063,1,0,0:0:0:0:
256,192,184463,1,12,0:0:0:0:
256,192,184863,1,0,0:0:0:0:
256,192,185063,1,8,0:0:0:0:
256,192,185263,1,0,0:0:0:0:
256,192,185663,1,8,0:0:0:0:
256,192,185863,1,4,0:0:0:0:
256,192,186263,1,12,0:0:0:0:
256,192,186463,1,4,0:0:0:0:
256,192,186663,1,12,0:0:0:0:
256,192,187263,1,12,0:0:0:0:
256,192,187663,1,4,0:0:0:0:
256,192,188063,1,4,0:0:0:0:
256,192,188463,1,8,0:0:0:0:
256,192,189063,1,8,0:0:0:0:
256,192,190063,1,0,0:0:0:0:
256,192,190263,1,0,0:0:0:0:
256,192,190463,1,8,0:0:0:0:
256,192,190863,1,0,0:0:0:0:
256,192,191263,1,8,0:0:0:0:
256,192,191663,1,0,0:0:0:0:
256,192,192263,1,8,0:0:0:0:
256,192,192663,1,0,0:0:0:0:
256,192,192863,1,8,0:0:0:0:
256,192,193263,1,8,0:0:0:0:
256,192,193463,1,0,0:0:0:0:
256,192,193663,1,0,0:0:0:0:
256,192,194063,1,4,0:0:0:0:
256,192,194463,1,4,0:0:0:0:
256,192,194863,1,8,0:0:0:0:
256,192,195463,1,12,0:0:0:0:
256,192,195863,1,0,0:0:0:0:
256,192,196063,1,0,0:0:0:0:
256,192,196263,1,12,0:0:0:0:
256,192,196663,1,0,0:0:0:0:
256,192,196863,1,8,0:0:0:0:
256,192,197263,1,12,0:0:0:0:
256,192,198063,1,0,0:0:0:0:
256,192,198463,1,0,0:0:0:0:
256,192,198663,1,12,0:0:0:0:
256,192,199463,1,4,0:0:0:0:
256,192,199863,1,0,0:0:0:0:
256,192,200263,1,12,0:0:0:0:
256,192,201063,1,4,0:0:0:0:
256,192,201463,1,0,0:0:0:0:
256,192,201863,1,12,0:0:0:0:
256,192,202263,1,0,0:0:0:0:
256,192,202463,1,0,0:0:0:0:
256,192,202863,1,8,0:0:0:0:
256,192,203263,1,0,0:0:0:0:
256,192,203463,1,12,0:0:0:0:
256,192,203863,1,12,0:0:0:0:
256,192,204063,1,12,0:0:0:0:
256,192,204863,1,12,0:0:0:0:
256,192,205263,1,4,0:0:0:0:
256,192,206063,1,0,0:0:0:0:
256,192,206263,1,8,0:0:0:0:
256,192,206463,1,0,0:0:0:0:
256,192,206863,1,0,0:0:0:0:
256,192,207463,1,8,0:0:0:0:
256,192,207863,1,0,0:0:0:0:
256,192,208263,1,8,0:0:0:0:
256,192,208463,1,0,0:0:0:0:
256,192,209263,1,0,0:0:0:0:
256,192,209463,1,0,0:0:0:0:
256,192,209663,1,8,0:0:0:0:
256,192,210063,1,0,0:0:0:0:
256,192,210463,1,8,0:0:0:0:
256,192,210663,1,0,0:0:0:0:
256,192,211063,1,8,0:0:0:0:
256,192,211463,1,0,0:0:0:0:
256,192,211663,1,12,0:0:0:0:
256,192,212463,1,8,0:0:0:0:
256,192,212663,1,0,0:0:0:0:
256,192,212863,1,8,0:0:0:0:
256,192,213263,1,0,0:0:0:0:
256,192,213863,1,8,0:0:0:0:
256,192,214263,1,0,0:0:0:0:
256,192,214663,1,8,0:0:0:0:
256,192,214863,1,0,0:0:0:0:
256,192,215263,1,8,0:0:0:0:
256,192,215663,1,8,0:0:0:0:
256,192,216063,1,0,0:0:0:0:
256,192,216263,1,0,0:0:0:0:
256,192,216463,1,12,0:0:0:0:
256,192,217063,1,12,0:0:0:0:
256,192,217463,1,0,0:0:0:0:
256,192,217663,1,8,0:0:0:0:
256,192,218063,1,12,0:0:0:0:
256,192,218463,1,8,0:0:0:0:
256,192,219263,1,0,0:0:0:0:
256,192,219663,1,12,0:0:0:0:
256,192,220063,1,8,0:0:0:0:
256,192,220863,1,0,0:0:0:0:
256,192,221263,1,12,0:0:0:0:
256,192,221663,1,8,0:0:0:0:
256,192,221863,1,4,0:0:0:0:
256,192,222263,1,0,0:0:0:0:
256,192,222463,1,12,0:0:0:0:
256,192,223063,1,4,0:0:0:0:
256,192,223263,1,4,0:0:0:0:
256,192,223463,1,4,0:0:0:0:
