osu file format v14

[General]
AudioFilename: audio.mp3
AudioLeadIn: 0
PreviewTime: 58991
Countdown: 0
SampleSet: Soft
StackLeniency: 0.5
Mode: 0
LetterboxInBreaks: 0
WidescreenStoryboard: 1

[Editor]
Bookmarks: 59691,86891,131691,158891,168291,187691,218091
DistanceSpacing: 1.1
BeatDivisor: 4
GridSize: 32
TimelineZoom: 2.5

[Metadata]
Title:Daydream cafe
TitleUnicode:Daydream café
Artist:Petit Rabbit's
ArtistUnicode:Petit Rabbit's
Creator:TsumugiP
Version:ThunderBird's Hard
Source:ご注文はうさぎですか?
Tags:ThunderBird2678 Tycani Fuiba Fuyu Gochuumon wa Usagi Desu ka Is The Order A Rabbit Gochiusa ごちうさ Opening OP Cocoa Hoto 保登 心愛 Ayane Sakura 佐倉 綾音 Chino Kafū Kafuu 香風 智乃 Inori Minase 水瀬 いのり Rize Tedeza 天々座 理世 Risa Taneda 種田 梨沙 Chiya Ujimatsu 宇治松 千夜 Satomi Satou 佐藤 聡美 Sharo Kirima 桐間 紗路 Maaya Uchida 内田 真礼 Aki Hata 畑 亜貴 Kaoru Okubo 大久保薫 japanese anime pop
BeatmapID:3755059
BeatmapSetID:1785595

[Difficulty]
HPDrainRate:4
CircleSize:3.8
OverallDifficulty:6
ApproachRate:7.3
SliderMultiplier:1.3
SliderTickRate:1

[Events]
//Background and Video events
0,0,"pyon.jpg",0,0
//Break Periods
//Storyboard Layer 0 (Background)
//Storyboard Layer 1 (Fail)
//Storyboard Layer 2 (Pass)
//Storyboard Layer 3 (Foreground)
//Storyboard Layer 4 (Overlay)
//Storyboard Sound Samples

[TimingPoints]
491,400,4,2,1,55,1,0
8491,-100,4,2,1,65,0,0
13091,-100,4,2,1,75,0,0
13391,-100,4,2,1,5,0,0
13491,-100,4,2,1,75,0,0
14891,-100,4,2,1,80,0,0
26191,-100,4,2,1,5,0,0
26291,-100,4,2,1,80,0,0
26791,-100,4,2,1,5,0,0
26891,-100,4,2,1,80,0,0
27691,-100,4,2,1,65,0,0
53091,-100,4,2,1,70,0,0
57891,-100,4,2,1,80,0,0
58191,-100,4,2,1,5,0,0
58291,-100,4,2,1,80,0,0
59091,-83.3333333333333,4,2,1,80,0,0
59391,-83.3333333333333,4,2,1,5,0,0
59491,-83.3333333333333,4,2,1,80,0,0
70991,-83.3333333333333,4,2,1,5,0,0
71091,-83.3333333333333,4,2,1,80,0,0
85391,-83.3333333333333,4,2,1,5,0,0
85491,-83.3333333333333,4,2,1,80,0,0
86291,-100,4,2,1,80,0,0
98191,-100,4,2,1,5,0,0
98291,-100,4,2,1,80,0,0
98791,-100,4,2,1,5,0,0
98891,-100,4,2,1,80,0,0
99091,-100,4,2,1,70,0,0
99491,-100,4,2,1,60,0,0
99691,-100,4,2,1,50,0,0
100991,-100,4,2,1,5,0,0
101091,-100,4,2,1,50,0,0
102891,-100,4,2,1,55,0,0
106091,-100,4,2,1,65,0,0
125091,-100,4,2,1,70,0,0
129891,-100,4,2,1,80,0,0
130191,-100,4,2,1,5,0,0
130291,-100,4,2,1,80,0,0
131091,-83.3333333333333,4,2,1,80,0,0
131391,-83.3333333333333,4,2,1,5,0,0
131491,-83.3333333333333,4,2,1,80,0,0
142991,-83.3333333333333,4,2,1,5,0,0
143091,-83.3333333333333,4,2,1,80,0,0
157391,-83.3333333333333,4,2,1,5,0,0
157491,-83.3333333333333,4,2,1,80,0,0
168291,-100,4,2,1,80,0,0
173391,-100,4,2,1,5,0,0
173491,-100,4,2,1,80,0,0
174891,-100,4,2,1,50,0,0
176191,-100,4,2,1,5,0,0
176291,-100,4,2,1,50,0,0
177191,-100,4,2,1,5,0,0
177291,-100,4,2,1,50,0,0
177991,-100,4,2,1,5,0,0
178091,-100,4,2,1,50,0,0
178391,-100,4,2,1,5,0,0
178491,-100,4,2,1,50,0,0
178791,-100,4,2,1,5,0,0
178891,-100,4,2,1,50,0,0
179391,-100,4,2,1,5,0,0
179491,-100,4,2,1,50,0,0
180391,-100,4,2,1,5,0,0
180491,-100,4,2,1,50,0,0
181291,-100,4,2,1,60,0,0
184391,-100,4,2,1,5,0,0
184491,-100,4,2,1,70,0,0
185891,-100,4,2,1,80,0,0
186191,-100,4,2,1,5,0,0
186291,-100,4,2,1,80,0,0
187091,-83.3333333333333,4,2,1,80,0,0
199791,-83.3333333333333,4,2,1,5,0,0
199891,-83.3333333333333,4,2,1,80,0,0
203791,-83.3333333333333,4,2,1,5,0,0
203891,-83.3333333333333,4,2,1,80,0,0
216591,-83.3333333333333,4,2,1,5,0,0
216691,-83.3333333333333,4,2,1,80,0,0
217191,-83.3333333333333,4,2,1,5,0,0
217291,-83.3333333333333,4,2,1,80,0,0
218091,-100,4,2,1,65,0,0
221291,-83.3333333333333,4,2,1,75,0,0
223691,-83.3333333333333,4,2,1,30,0,0
224491,-83.3333333333333,4,2,1,5,0,0

[Colours]
Combo1 : 102,195,199
Combo2 : 244,141,156
Combo3 : 111,162,219
Combo4 : 245,175,141
Combo5 : 147,93,173
Combo6 : 196,216,132
Combo7 : 230,102,110
Combo8 : 255,209,124

[HitObjects]
34,46,1491,6,0,P|16:78|22:133,2,65,2|2|2,0:0|0:0|0:0,0:0:0:0:
102,96,2091,6,0,L|221:80,1,97.5,6|0,3:2|0:0,0:0:0:0:
232,109,2491,2,0,L|328:121,1,97.5,2|0,0:0|0:0,0:0:0:0:
367,104,2891,1,2,0:0:0:0:
366,104,3091,2,0,P|375:72|373:40,1,65,2|0,0:0|0:0,0:0:0:0:
392,184,3491,6,0,P|379:230|386:317,1,130,2|2,0:0|0:0,0:0:0:0:
457,362,4091,1,2,0:0:0:0:
457,362,4291,1,2,0:0:0:0:
373,347,4491,2,0,P|339:335|299:336,1,65,2|2,0:0|0:0,0:0:0:0:
297,250,4891,2,0,P|263:262|233:289,1,65,2|2,0:0|0:0,0:0:0:0:
226,363,5291,6,0,L|118:342,1,97.5,2|0,0:0|0:0,0:0:0:0:
103,311,5691,2,0,L|124:209,1,97.5,2|0,0:0|0:0,0:0:0:0:
161,199,6091,1,2,0:0:0:0:
161,199,6691,6,0,B|176:153|176:153|162:100,1,97.5,2|0,0:0|0:0,0:0:0:0:
129,80,7091,1,2,0:0:0:0:
129,80,7291,2,0,L|64:90,2,65,2|2|2,0:0|0:0|0:0,0:0:0:0:
196,28,7891,1,2,0:0:0:0:
247,94,8091,2,0,L|281:96,3,32.5,0|0|0|0,3:0|3:0|3:0|3:0,0:0:0:0:
310,125,8491,6,0,P|341:134|378:129,1,65,6|0,1:2|0:0,0:0:0:0:
449,92,8891,1,10,0:0:0:0:
331,213,9291,5,2,1:2:0:0:
373,286,9491,2,0,L|362:367,1,65,2|10,0:0|0:0,0:0:0:0:
284,292,9891,6,0,P|243:286|154:286,1,130,2|2,0:0|0:0,0:0:0:0:
70,311,10491,1,10,0:0:0:0:
70,311,10691,2,0,L|58:221,1,65,2|0,0:0|1:0,0:0:0:0:
187,366,11291,6,0,P|216:351|235:301,1,65,10|2,0:0|0:0,0:0:0:0:
154,285,11691,2,0,L|142:212,2,65,2|2|10,1:2|0:0|0:0,0:0:0:0:
231,240,12291,2,0,L|243:167,1,65,2|2,0:0|1:2,0:0:0:0:
168,132,12691,5,2,0:0:0:0:
87,157,12891,1,10,0:0:0:0:
87,157,13091,2,0,P|61:106|69:52,1,97.5,6|0,1:2|0:0,0:0:0:0:
94,38,13491,5,8,0:0:0:0:
94,38,13691,1,8,0:0:0:0:
321,150,14291,6,0,L|370:157,2,32.5,0|0|8,1:0|1:0|0:0,0:0:0:0:
241,175,14691,5,8,0:0:0:0:
241,175,14791,1,8,0:0:0:0:
241,175,14891,2,0,L|251:253,1,65,6|2,1:2|0:0,0:0:0:0:
329,214,15291,2,0,L|319:136,1,65,10|2,0:0|0:0,0:0:0:0:
261,89,15691,6,0,P|228:87|183:109,1,65,2|2,1:2|0:0,0:0:0:0:
157,171,16091,2,0,P|127:183|94:182,1,65,10|2,0:0|0:0,0:0:0:0:
27,130,16491,5,2,1:2:0:0:
71,201,16691,1,2,0:0:0:0:
24,272,16891,1,10,0:0:0:0:
24,272,17091,6,0,B|13:308|13:308|22:349,1,65,2|2,0:0|1:2,0:0:0:0:
94,373,17491,2,0,B|105:337|105:337|96:296,1,65,2|8,0:0|0:0,0:0:0:0:
185,334,17891,6,0,L|301:319,1,97.5,2|0,0:0|0:0,0:0:0:0:
318,342,18291,1,2,0:0:0:0:
397,370,18491,2,0,P|400:330|390:299,1,65,10|2,0:0|0:0,0:0:0:0:
326,254,18891,2,0,P|320:221|327:189,2,65,2|2|10,1:2|0:0|0:0,0:0:0:0:
405,225,19491,1,2,0:0:0:0:
327,190,19691,6,0,B|279:179|279:179|216:199,1,97.5,2|0,1:2|0:0,0:0:0:0:
205,219,20091,1,10,0:0:0:0:
124,193,20291,2,0,B|112:162|112:162|121:127,1,65,2|0,0:0|1:0,0:0:0:0:
200,104,20691,2,0,L|194:67,5,32.5,2|2|10|2|2|2,3:2|3:2|3:2|3:2|3:2|3:2,0:0:0:0:
166,40,21291,6,0,L|257:31,1,65,6|0,1:2|0:0,0:0:0:0:
290,93,21691,2,0,L|354:86,1,65,10|2,0:0|0:0,0:0:0:0:
423,135,22091,6,0,P|438:169|437:212,1,65,2|2,1:2|0:0,0:0:0:0:
366,238,22491,2,0,P|352:208|349:176,1,65,10|2,0:0|0:0,0:0:0:0:
441,275,22891,5,2,1:2:0:0:
371,323,23091,1,2,0:0:0:0:
296,282,23291,1,10,0:0:0:0:
296,282,23491,6,0,L|205:275,1,65,2|2,0:0|1:2,0:0:0:0:
221,361,23891,2,0,L|312:368,1,65,2|8,0:0|0:0,0:0:0:0:
196,192,24291,6,0,P|158:216|141:274,1,97.5,2|0,0:0|0:0,0:0:0:0:
152,301,24691,1,2,0:0:0:0:
89,357,24891,2,0,L|7:342,1,65,10|2,0:0|0:0,0:0:0:0:
54,266,25291,5,2,1:2:0:0:
49,181,25491,1,2,0:0:0:0:
41,96,25691,1,10,0:0:0:0:
32,11,25891,1,2,0:0:0:0:
109,45,26091,6,0,P|164:26|196:125,1,162.5,10|0,0:0|0:0,0:0:0:0:
187,140,26691,2,0,P|229:122|306:122,1,97.5,10|0,0:0|0:0,0:0:0:0:
312,144,27091,2,0,P|335:149|361:166,2,32.5,2|0|10,1:2|1:0|0:0,0:0:0:0:
257,209,27491,5,2,1:2:0:0:
257,209,27591,1,0,1:0:0:0:
257,209,27691,2,0,L|250:287,1,65,4|2,1:2|0:0,0:0:0:0:
184,325,28091,1,10,0:0:0:0:
163,243,28291,1,2,0:0:0:0:
266,355,28491,1,2,1:2:0:0:
266,355,28691,2,0,L|388:342,1,97.5,2|0,0:0|0:0,0:0:0:0:
400,364,29091,6,0,B|454:373|454:373|504:349,1,97.5,2|0,0:0|0:0,0:0:0:0:
507,314,29491,1,2,0:0:0:0:
459,244,29691,1,10,0:0:0:0:
377,266,29891,1,2,0:0:0:0:
392,176,30091,6,0,B|397:141|397:141|381:95,2,65,2|2|10,1:2|0:0|0:0,0:0:0:0:
377,266,30691,1,2,0:0:0:0:
377,266,30791,1,2,0:0:0:0:
377,266,30891,6,0,P|340:257|298:252,1,65,2|2,1:2|0:0,0:0:0:0:
242,299,31291,2,0,P|206:309|166:326,1,65,10|2,0:0|0:0,0:0:0:0:
124,383,31691,5,2,1:2:0:0:
99,302,31891,1,2,0:0:0:0:
180,319,32091,1,8,0:0:0:0:
35,358,32291,6,0,P|16:323|25:260,1,97.5,2|0,0:0|0:0,0:0:0:0:
49,235,32691,2,0,P|56:197|41:153,1,65,2|8,0:0|0:0,0:0:0:0:
3,101,33091,1,2,0:0:0:0:
73,52,33291,1,2,1:2:0:0:
73,52,33391,1,8,0:0:0:0:
73,52,33491,5,2,1:2:0:0:
124,119,33691,2,0,P|151:113|201:120,1,65,10|2,0:2|1:2,0:0:0:0:
227,142,33991,1,0,1:0:0:0:
227,142,34091,2,0,P|259:145|290:138,1,65,6|2,1:2|0:0,0:0:0:0:
343,72,34491,1,10,0:0:0:0:
259,59,34691,1,2,0:0:0:0:
375,152,34891,1,2,1:2:0:0:
375,152,35091,2,0,P|370:191|372:252,1,97.5,2|0,0:0|2:0,0:0:0:0:
392,286,35491,6,0,B|294:276,1,97.5,2|0,0:0|0:0,0:0:0:0:
256,294,35891,1,2,0:0:0:0:
174,315,36091,1,10,0:0:0:0:
131,241,36291,1,2,0:0:0:0:
212,218,36491,6,0,B|227:146,2,65,2|2|10,1:2|0:0|0:0,0:0:0:0:
131,241,37091,1,2,0:0:0:0:
131,241,37191,1,0,0:0:0:0:
131,241,37291,6,0,B|96:248|96:248|46:227,1,65,2|2,1:2|0:0,0:0:0:0:
98,157,37691,2,0,B|64:145|64:145|31:102,1,65,10|2,0:0|0:0,0:0:0:0:
114,72,38091,5,2,1:2:0:0:
179,125,38291,1,2,0:0:0:0:
98,157,38491,1,10,0:0:0:0:
192,42,38691,5,10,0:0:0:0:
192,42,39091,6,0,L|280:57,1,65,10|0,0:0|3:0,0:0:0:0:
297,43,39391,1,0,3:0:0:0:
297,43,39491,1,10,0:0:0:0:
314,125,39691,1,10,0:0:0:0:
378,70,39891,1,0,1:0:0:0:
378,70,39991,1,8,0:0:0:0:
378,70,40091,2,0,L|421:61,3,32.5,8|0|8|8,0:0|1:0|0:0|0:0,0:0:0:0:
450,78,40491,6,0,P|459:114|449:151,1,65,6|2,1:2|0:0,0:0:0:0:
380,182,40891,1,10,0:0:0:0:
453,223,41091,1,2,0:0:0:0:
378,263,41291,6,0,L|288:254,1,65,2|2,1:2|0:0,0:0:0:0:
235,290,41691,1,10,0:0:0:0:
304,337,41891,1,2,0:0:0:0:
243,205,42091,6,0,B|231:174|231:174|241:126,1,65,2|2,1:2|0:0,0:0:0:0:
319,161,42491,2,0,B|325:129|325:129|313:98,1,65,10|2,0:0|0:0,0:0:0:0:
237,60,42891,1,2,1:2:0:0:
237,142,43091,2,0,P|203:142|153:138,1,65,2|10,1:2|0:0,0:0:0:0:
49,22,43691,5,4,1:2:0:0:
82,99,43891,1,2,0:0:0:0:
82,99,44091,2,0,P|113:78|130:42,1,65,10|0,0:0|0:0,0:0:0:0:
98,179,44491,5,2,1:2:0:0:
98,179,44691,2,0,P|67:200|50:236,1,65,2|8,0:0|0:0,0:0:0:0:
130,257,45091,6,0,P|132:297|189:338,1,97.5,2|0,0:0|0:0,0:0:0:0:
213,328,45491,1,2,0:0:0:0:
286,369,45691,2,0,L|369:358,1,65,10|2,0:0|0:0,0:0:0:0:
390,374,45991,1,2,0:0:0:0:
390,374,46091,1,2,1:2:0:0:
449,314,46291,2,0,L|494:318,2,32.5,2|2|10,1:2|0:0|0:0,0:0:0:0:
384,258,46691,5,2,1:2:0:0:
384,258,46791,1,0,1:0:0:0:
384,258,46891,2,0,L|370:180,1,65,6|2,1:2|0:0,0:0:0:0:
456,197,47291,2,0,L|460:127,1,65,10|2,0:0|0:0,0:0:0:0:
295,162,47691,6,0,L|182:150,1,97.5,2|0,1:2|0:0,0:0:0:0:
163,175,48091,1,10,0:0:0:0:
84,144,48291,6,0,P|68:113|66:76,1,65,2|0,0:0|1:0,0:0:0:0:
127,25,48691,1,2,0:0:0:0:
127,25,48891,2,0,P|143:56|145:93,1,65,10|2,0:0|0:0,0:0:0:0:
84,144,49291,2,0,L|78:224,1,65,2|2,1:2|1:2,0:0:0:0:
116,284,49691,5,10,0:0:0:0:
68,353,49891,1,2,0:0:0:0:
151,367,50091,2,0,B|208:332|253:353|249:355|284:377|340:358,1,195,6|2,1:2|0:0,0:0:0:0:
299,284,50891,6,0,P|291:251|289:211,1,65,2|2,1:2|0:0,0:0:0:0:
389,289,51291,1,8,0:0:0:0:
389,289,51491,2,0,P|376:230|376:170,1,97.5,2|0,0:0|0:0,0:0:0:0:
394,155,51891,6,0,L|435:163,2,32.5,2|2|10,0:0|0:0|0:0,0:0:0:0:
367,79,52291,1,2,0:0:0:0:
367,79,52491,2,0,B|360:47|360:47|381:4,2,65,2|2|10,1:2|0:0|0:0,0:0:0:0:
302,136,53091,6,0,P|234:133|201:63,1,130,6|2,1:2|1:2,0:0:0:0:
221,48,53591,1,0,1:0:0:0:
221,48,53691,1,10,0:0:0:0:
113,63,53891,6,0,B|109:116|109:116|119:139|119:139|116:201,1,130,2|2,1:2|1:2,0:0:0:0:
86,220,54391,1,0,3:0:0:0:
86,220,54491,1,8,0:0:0:0:
62,308,54691,6,0,B|98:319|127:306|127:306|152:326|186:322,1,130,6|0,1:2|1:0,0:0:0:0:
213,355,55191,1,0,1:0:0:0:
213,355,55291,1,10,0:0:0:0:
291,323,55491,6,0,P|280:254|216:240,1,130,2|2,1:2|1:2,0:0:0:0:
190,242,55991,1,0,1:0:0:0:
190,242,56091,1,8,0:0:0:0:
213,150,56291,6,0,B|244:144|244:144|287:156,1,65,6|0,1:2|0:0,0:0:0:0:
333,77,56691,2,0,B|319:79|319:79|301:75,2,32.5,2|0|10,1:2|1:0|0:0,0:0:0:0:
421,60,57091,1,2,0:0:0:0:
499,90,57291,1,0,1:0:0:0:
504,174,57491,1,2,1:2:0:0:
423,200,57691,1,8,0:0:0:0:
382,274,57891,6,0,P|372:316|396:377,1,97.5,6|0,1:2|0:0,0:0:0:0:
347,354,58291,1,10,0:0:0:0:
263,342,58491,1,10,0:0:0:0:
180,325,58691,1,10,0:0:0:0:
180,325,59091,5,0,0:0:0:0:
29,361,59291,2,0,L|120:372,1,77.999997619629,8|0,0:0|0:0,0:0:0:0:
101,284,59691,6,0,P|114:223|94:171,1,116.999996429443,6|0,1:2|0:0,0:0:0:0:
65,142,60091,2,0,L|194:153,1,116.999996429443,10|8,0:0|0:0,0:0:0:0:
215,124,60491,1,2,1:2:0:0:
255,198,60691,2,0,L|333:191,1,77.999997619629,2|8,1:2|0:0,0:0:0:0:
361,111,61091,6,0,B|404:117|420:161|420:161|411:115|435:82,1,155.999995239258,2|2,1:2|0:0,0:0:0:0:
501,137,61691,1,10,0:0:0:0:
501,137,61891,1,2,0:0:0:0:
490,222,62091,2,0,P|462:242|403:241,1,77.999997619629,2|2,1:2|1:2,0:0:0:0:
390,327,62491,2,0,P|358:312|330:261,1,77.999997619629,10|2,0:0|1:2,0:0:0:0:
332,192,62891,6,0,B|352:144|352:144|331:79,1,116.999996429443,6|0,1:2|2:0,0:0:0:0:
306,47,63291,2,0,B|268:42|268:42|217:64,1,77.999997619629,10|0,0:0|0:0,0:0:0:0:
167,114,63691,1,2,1:2:0:0:
150,39,63891,1,2,1:2:0:0:
150,39,63991,1,2,0:0:0:0:
150,39,64091,1,10,0:0:0:0:
81,90,64291,6,0,B|70:217,1,116.999996429443,2|0,0:0|0:0,0:0:0:0:
37,234,64691,1,2,0:0:0:0:
107,283,64891,2,0,B|113:360,1,77.999997619629,10|2,0:0|0:0,0:0:0:0:
155,214,65291,1,2,1:2:0:0:
155,214,65391,1,2,0:0:0:0:
155,214,65491,1,2,1:2:0:0:
193,290,65691,2,0,L|237:294,3,38.9999988098145,10|2|10|10,0:0|0:0|0:0|0:0,0:0:0:0:
271,276,66091,6,0,P|283:239|278:201,1,77.999997619629,6|0,1:2|0:0,0:0:0:0:
211,146,66491,1,10,0:0:0:0:
211,146,66691,1,0,1:0:0:0:
359,174,66891,5,2,1:2:0:0:
293,119,67091,2,0,L|283:33,1,77.999997619629,2|8,1:2|0:0,0:0:0:0:
365,14,67491,6,0,P|420:20|441:86,1,116.999996429443,2|0,0:0|0:0,0:0:0:0:
420,107,67891,1,2,0:0:0:0:
446,188,68091,2,0,L|436:265,1,77.999997619629,10|2,0:0|0:0,0:0:0:0:
352,280,68491,2,0,L|359:318,3,38.9999988098145,0|0|0|0,1:0|1:0|1:0|1:0,0:0:0:0:
396,340,68891,6,0,P|431:353|483:334,1,77.999997619629,10|2,0:0|0:0,0:0:0:0:
510,261,69291,2,0,P|464:253|433:268,1,77.999997619629,6|2,1:2|0:0,0:0:0:0:
378,193,69691,1,10,0:0:0:0:
378,193,69891,2,0,P|348:228|345:263,1,77.999997619629,2|2,0:0|1:2,0:0:0:0:
305,335,70291,5,2,1:2:0:0:
262,260,70491,1,10,0:0:0:0:
262,260,70691,2,0,L|118:277,1,116.999996429443,6|0,1:2|0:0,0:0:0:0:
120,309,71091,5,10,0:0:0:0:
120,309,71291,1,10,0:0:0:0:
62,228,71491,2,0,P|40:203|77:128,1,116.999996429443,10|0,0:0|0:0,0:0:0:0:
107,121,71891,6,0,P|122:132|133:148,2,38.9999988098145,0|0|8,1:0|1:0|0:0,0:0:0:0:
64,39,72291,1,8,0:0:0:0:
64,39,72391,1,8,0:0:0:0:
64,39,72491,6,0,P|112:35|187:83,1,116.999996429443,6|0,1:2|0:0,0:0:0:0:
204,93,72891,2,0,P|259:59|330:57,1,116.999996429443,10|8,0:0|0:0,0:0:0:0:
334,88,73291,1,2,1:2:0:0:
275,150,73491,2,0,L|263:227,1,77.999997619629,2|8,1:2|0:0,0:0:0:0:
199,284,73891,6,0,B|177:271|176:231|176:231|155:287|189:319,1,155.999995239258,2|2,1:2|0:0,0:0:0:0:
279,314,74491,1,10,0:0:0:0:
279,314,74691,1,2,0:0:0:0:
362,332,74891,2,0,P|359:285|340:255,1,77.999997619629,2|2,1:2|1:2,0:0:0:0:
405,199,75291,2,0,P|361:178|326:179,1,77.999997619629,10|2,0:0|1:2,0:0:0:0:
263,227,75691,6,0,L|118:244,1,116.999996429443,6|0,1:2|2:0,0:0:0:0:
114,212,76091,2,0,L|36:202,1,77.999997619629,10|0,0:0|0:0,0:0:0:0:
175,154,76491,1,2,1:2:0:0:
77,294,76691,1,2,1:2:0:0:
77,294,76791,1,2,0:0:0:0:
77,294,76891,1,10,0:0:0:0:
36,202,77091,6,0,P|23:154|62:96,1,116.999996429443,2|0,0:0|0:0,0:0:0:0:
98,107,77491,1,2,0:0:0:0:
172,64,77691,2,0,B|249:69,1,77.999997619629,10|2,0:0|0:0,0:0:0:0:
330,31,78091,1,2,1:2:0:0:
330,31,78191,1,2,0:0:0:0:
330,31,78291,1,2,1:2:0:0:
364,109,78491,2,0,L|320:113,3,38.9999988098145,10|2|10|10,0:0|0:0|0:0|0:0,0:0:0:0:
295,143,78891,6,0,P|289:181|302:217,1,77.999997619629,6|0,1:2|0:0,0:0:0:0:
388,194,79291,1,10,0:0:0:0:
388,194,79491,1,0,1:0:0:0:
370,278,79691,5,2,1:2:0:0:
302,217,79891,2,0,L|224:226,1,77.999997619629,2|8,1:2|0:0,0:0:0:0:
388,194,80291,6,0,P|421:206|457:277,1,116.999996429443,6|0,1:2|0:0,0:0:0:0:
448,317,80691,1,2,1:2:0:0:
362,355,80891,2,0,L|370:275,1,77.999997619629,10|6,0:0|1:2,0:0:0:0:
284,305,81291,1,0,0:0:0:0:
284,305,81391,1,0,0:0:0:0:
284,305,81491,1,8,0:0:0:0:
204,337,81691,6,0,L|117:327,1,77.999997619629,10|10,0:0|0:0,0:0:0:0:
93,299,81991,1,8,0:0:0:0:
93,299,82091,2,0,L|103:211,1,77.999997619629,6|2,1:2|0:0,0:0:0:0:
31,181,82491,1,10,0:0:0:0:
31,181,82691,2,0,L|21:93,1,77.999997619629,2|2,0:0|1:2,0:0:0:0:
85,45,83091,5,2,1:2:0:0:
22,103,83291,1,10,0:0:0:0:
103,129,83491,2,0,P|152:120|219:115,1,116.999996429443,6|0,1:2|0:0,0:0:0:0:
260,126,83891,5,2,1:2:0:0:
260,126,83991,1,2,1:2:0:0:
260,126,84091,1,10,0:0:0:0:
336,88,84291,1,2,1:2:0:0:
397,148,84491,2,0,L|405:228,2,77.999997619629,2|2|10,1:2|1:2|0:0,0:0:0:0:
435,126,84991,1,2,0:0:0:0:
435,126,85091,2,0,P|486:82|484:-6,1,155.999995239258,6|10,1:2|0:0,0:0:0:0:
406,31,85691,1,10,0:0:0:0:
406,31,86291,6,0,L|373:26,2,32.5,0|0|8,1:0|1:0|0:0,0:0:0:0:
307,89,86691,5,8,0:0:0:0:
307,89,86791,1,8,0:0:0:0:
307,89,86891,2,0,L|236:98,1,65,6|2,1:2|0:0,0:0:0:0:
165,136,87291,2,0,L|100:127,1,65,10|2,0:0|0:0,0:0:0:0:
236,181,87691,6,0,P|239:216|225:253,1,65,2|2,1:2|0:0,0:0:0:0:
302,287,88091,2,0,P|278:318|255:330,1,65,10|2,0:0|0:0,0:0:0:0:
174,306,88491,5,2,1:2:0:0:
145,226,88691,1,2,0:0:0:0:
90,290,88891,1,10,0:0:0:0:
22,239,89091,6,0,B|16:212|16:212|27:176,1,65,2|2,0:0|1:2,0:0:0:0:
90,290,89491,2,0,B|95:316|95:316|84:352,1,65,2|8,0:0|0:0,0:0:0:0:
145,226,89891,6,0,P|196:224|250:205,1,97.5,2|0,0:0|0:0,0:0:0:0:
268,179,90291,1,2,0:0:0:0:
308,104,90491,2,0,L|297:38,1,65,10|2,0:0|0:0,0:0:0:0:
355,171,90891,2,0,L|344:235,2,65,2|2|10,1:2|0:0|0:0,0:0:0:0:
420,117,91491,1,2,0:0:0:0:
442,198,91691,6,0,B|452:315,1,97.5,2|0,1:2|0:0,0:0:0:0:
476,328,92091,1,10,0:0:0:0:
404,373,92291,2,0,B|366:381|366:381|328:362,1,65,2|0,0:0|1:0,0:0:0:0:
294,299,92691,2,0,L|257:306,5,32.5,2|2|2|2|2|2,3:2|3:2|3:2|3:2|3:2|3:2,0:0:0:0:
226,282,93291,6,0,P|208:260|204:212,1,65,6|2,1:2|0:0,0:0:0:0:
258,161,93691,2,0,P|277:186|282:218,1,65,10|2,0:0|0:0,0:0:0:0:
175,143,94091,6,0,L|110:136,1,65,2|2,1:2|0:0,0:0:0:0:
131,54,94491,2,0,L|195:47,1,65,10|2,0:0|0:0,0:0:0:0:
49,75,94891,5,2,1:2:0:0:
91,147,95091,1,2,0:0:0:0:
49,220,95291,1,10,0:0:0:0:
77,299,95491,6,0,P|114:303|164:289,1,65,2|0,0:0|1:2,0:0:0:0:
176,375,95891,2,0,P|206:356|233:320,1,65,2|8,0:0|0:0,0:0:0:0:
210,250,96291,6,0,L|197:152,1,97.5,2|0,0:0|0:0,0:0:0:0:
171,120,96691,1,2,0:0:0:0:
207,44,96891,2,0,P|233:30|284:33,1,65,10|2,0:0|0:0,0:0:0:0:
313,99,97291,5,2,1:2:0:0:
312,183,97491,1,2,0:0:0:0:
307,267,97691,1,10,0:0:0:0:
300,351,97891,1,2,0:0:0:0:
380,376,98091,6,0,P|442:360|489:362,1,97.5,10|0,0:0|0:0,0:0:0:0:
510,336,98491,1,0,3:0:0:0:
510,336,98591,1,0,3:0:0:0:
510,336,98691,2,0,P|506:296|461:264,1,97.5,10|0,0:0|0:0,0:0:0:0:
425,243,99091,2,0,P|404:247|389:263,2,32.5,0|0|8,1:0|1:0|0:0,0:0:0:0:
477,176,99491,5,8,0:0:0:0:
477,176,99591,1,8,0:0:0:0:
477,176,99691,2,0,L|467:108,1,65,6|0,0:0|0:0,0:0:0:0:
498,32,100091,1,2,0:0:0:0:
498,32,100491,2,0,B|427:12|404:50|398:49|374:92|313:72,1,195,2|2,0:0|0:0,0:0:0:0:
316,73,101491,6,0,P|280:62|261:40,1,65,2|0,0:0|0:0,0:0:0:0:
218,114,101891,1,2,0:0:0:0:
218,114,101991,1,2,0:0:0:0:
218,114,102091,2,0,L|211:228,1,97.5,2|0,0:0|0:0,0:0:0:0:
243,239,102491,2,0,L|248:336,1,97.5,2|0,0:0|0:0,0:0:0:0:
226,372,102891,5,2,1:2:0:0:
299,176,103291,1,2,1:2:0:0:
160,294,103691,5,2,1:2:0:0:
244,287,103891,1,2,0:0:0:0:
328,278,104091,1,2,1:2:0:0:
401,319,104291,5,8,0:0:0:0:
212,211,104691,1,0,0:0:0:0:
401,319,105091,2,0,L|487:321,1,65
328,278,105491,5,2,0:0:0:0:
401,236,105691,2,0,P|406:211|397:160,1,65,2|10,0:0|0:0,0:0:0:0:
374,146,105991,1,10,0:0:0:0:
374,146,106091,6,0,P|369:121|378:70,1,65,6|2,1:2|0:0,0:0:0:0:
435,24,106491,1,10,0:0:0:0:
458,105,106691,1,2,0:0:0:0:
351,6,106891,1,2,1:2:0:0:
351,6,107091,2,0,P|309:20|248:27,1,97.5,2|0,0:0|0:0,0:0:0:0:
219,48,107491,6,0,B|121:38,1,97.5,2|0,0:0|0:0,0:0:0:0:
90,66,107891,1,2,0:0:0:0:
133,138,108091,1,10,0:0:0:0:
88,209,108291,1,2,0:0:0:0:
129,282,108491,6,0,B|134:354,2,65,2|2|10,1:2|0:0|0:0,0:0:0:0:
176,213,109091,1,2,0:0:0:0:
176,213,109191,1,2,0:0:0:0:
176,213,109291,6,0,B|209:208|209:208|242:218,1,65,2|2,1:2|0:0,0:0:0:0:
295,280,109691,2,0,B|325:289|325:289|358:284,1,65,10|2,0:0|0:0,0:0:0:0:
429,238,110091,5,2,1:2:0:0:
503,278,110291,1,2,0:0:0:0:
435,328,110491,1,10,0:0:0:0:
503,197,110691,5,10,0:0:0:0:
503,197,111091,6,0,L|511:108,1,65,10|0,0:0|3:0,0:0:0:0:
491,99,111391,1,0,3:0:0:0:
491,99,111491,1,10,0:0:0:0:
421,147,111691,1,10,0:0:0:0:
410,65,111891,1,0,0:0:0:0:
410,65,111991,1,0,0:0:0:0:
410,65,112091,2,0,L|378:71,3,32.5,0|0|8|0,1:0|1:0|0:0|0:0,0:0:0:0:
342,88,112491,6,0,L|275:81,1,65,6|2,1:2|0:0,0:0:0:0:
209,30,112891,1,10,0:0:0:0:
242,107,113091,1,2,0:0:0:0:
195,177,113291,6,0,P|189:211|191:248,1,65,2|2,1:2|0:0,0:0:0:0:
250,301,113691,1,10,0:0:0:0:
176,258,113891,1,2,0:0:0:0:
102,299,114091,6,0,B|66:310|66:310|16:298,1,65,2|2,1:2|0:0,0:0:0:0:
0,228,114491,2,0,B|31:217|31:217|70:228,1,65,10|2,0:0|0:0,0:0:0:0:
111,158,114891,1,2,1:2:0:0:
111,158,115091,2,0,L|118:80,1,65,2|10,1:2|0:0,0:0:0:0:
102,299,115691,5,6,1:2:0:0:
178,334,115891,1,2,0:0:0:0:
178,334,116091,2,0,L|252:322,1,65,8|0,0:0|0:0,0:0:0:0:
298,249,116491,5,2,1:2:0:0:
298,249,116691,2,0,L|224:237,1,65,2|8,0:0|0:0,0:0:0:0:
318,359,117091,6,0,P|343:328|404:323,1,97.5,2|0,0:0|0:0,0:0:0:0:
437,336,117491,1,2,0:0:0:0:
496,276,117691,2,0,P|499:241|485:207,1,65,10|2,0:0|0:0,0:0:0:0:
460,189,117991,1,2,0:0:0:0:
460,189,118091,1,2,1:2:0:0:
377,205,118291,2,0,P|375:223|380:244,2,32.5,2|0|10,1:2|0:0|0:0,0:0:0:0:
397,128,118691,5,10,0:0:0:0:
397,128,118791,1,8,0:0:0:0:
397,128,118891,2,0,B|405:91|405:91|392:51,1,65,6|2,1:2|0:0,0:0:0:0:
319,30,119291,2,0,B|311:67|311:67|324:107,1,65,10|2,0:0|0:0,0:0:0:0:
299,175,119691,6,0,B|259:166|259:166|246:156|246:156|200:146,1,97.5,2|0,1:2|0:0,0:0:0:0:
166,160,120091,1,10,0:0:0:0:
203,235,120291,5,2,0:0:0:0:
203,235,120491,2,0,P|182:265|175:300,1,65,2|2,1:2|0:0,0:0:0:0:
90,285,120891,2,0,P|94:324|108:353,1,65,10|2,0:0|0:0,0:0:0:0:
186,370,121291,2,0,L|271:358,1,65,2|2,1:2|0:0,0:0:0:0:
275,280,121691,5,10,0:0:0:0:
330,343,121891,1,2,0:0:0:0:
360,264,122091,2,0,B|327:188|381:132|381:132|381:156|411:187,1,195,6|2,1:2|0:0,0:0:0:0:
465,121,122891,6,0,P|468:91|483:56,1,65,2|2,1:2|0:0,0:0:0:0:
402,178,123291,1,10,0:0:0:0:
402,178,123491,2,0,P|376:122|388:65,1,97.5,2|0,0:0|0:0,0:0:0:0:
399,50,123891,6,0,P|407:28|420:12,2,32.5,2|2|10,0:0|0:0|0:0,0:0:0:0:
315,34,124291,1,2,0:0:0:0:
315,34,124491,2,0,B|249:26,2,65,2|2|10,1:2|0:0|0:0,0:0:0:0:
294,115,125091,6,0,P|226:112|151:121,1,130,6|2,1:2|1:2,0:0:0:0:
130,102,125591,1,0,1:0:0:0:
130,102,125691,1,10,0:0:0:0:
46,91,125891,6,0,B|39:123|62:149|62:149|46:224,1,130,2|2,1:2|1:2,0:0:0:0:
29,254,126391,1,0,3:0:0:0:
29,254,126491,1,8,0:0:0:0:
112,266,126691,6,0,B|101:306|81:323|81:323|102:306|150:304,1,130,6|2,1:2|1:2,0:0:0:0:
184,325,127191,1,0,1:0:0:0:
184,325,127291,1,10,0:0:0:0:
197,241,127491,6,0,L|326:229,1,130,2|2,1:2|1:2,0:0:0:0:
367,212,127991,1,0,1:0:0:0:
367,212,128091,1,8,0:0:0:0:
442,241,128291,6,0,P|450:209|444:178,1,65,6|0,1:2|0:0,0:0:0:0:
382,119,128691,2,0,P|396:107|414:102,2,32.5,2|8|2,1:2|0:0|1:2,0:0:0:0:
301,146,129091,1,2,1:2:0:0:
236,91,129291,1,8,0:0:0:0:
273,15,129491,1,2,1:2:0:0:
353,41,129691,1,8,0:0:0:0:
217,172,129891,6,0,B|198:205|198:205|215:287,1,97.5,6|0,1:2|0:0,0:0:0:0:
239,293,130291,1,10,0:0:0:0:
323,287,130491,1,10,0:0:0:0:
407,281,130691,1,10,0:0:0:0:
407,281,131091,5,0,0:0:0:0:
512,319,131291,2,0,P|476:334|450:362,1,77.999997619629,8|0,0:0|0:0,0:0:0:0:
472,226,131691,6,0,L|483:95,1,116.999996429443,6|0,1:2|0:0,0:0:0:0:
443,83,132091,2,0,P|401:78|359:144,1,116.999996429443,10|8,0:0|0:0,0:0:0:0:
378,169,132491,1,2,1:2:0:0:
299,203,132691,2,0,P|279:187|266:129,1,77.999997619629,2|8,1:2|0:0,0:0:0:0:
289,55,133091,6,0,B|255:43|208:66|208:66|173:45|134:53,1,155.999995239258,2|2,1:2|0:0,0:0:0:0:
72,105,133691,1,10,0:0:0:0:
72,105,133891,1,2,0:0:0:0:
149,141,134091,2,0,L|144:226,1,77.999997619629,2|2,1:2|1:2,0:0:0:0:
51,192,134491,2,0,L|56:277,1,77.999997619629,10|2,0:0|1:2,0:0:0:0:
130,312,134891,6,0,P|167:302|211:301,1,77.999997619629,6|0,1:2|1:0,0:0:0:0:
231,218,135291,2,0,P|291:230|365:272,1,116.999996429443,10|0,0:0|0:0,0:0:0:0:
347,296,135691,1,2,1:2:0:0:
283,352,135891,1,2,1:2:0:0:
283,352,135991,1,2,0:0:0:0:
283,352,136091,1,10,0:0:0:0:
355,383,136291,6,0,L|487:369,1,116.999996429443,2|0,0:0|0:0,0:0:0:0:
502,340,136691,1,2,0:0:0:0:
437,283,136891,2,0,P|425:247|427:199,1,77.999997619629,10|2,0:0|0:0,0:0:0:0:
508,175,137291,1,2,1:2:0:0:
508,175,137391,1,2,0:0:0:0:
508,175,137491,1,2,1:2:0:0:
437,126,137691,2,0,L|427:75,3,38.9999988098145,10|2|10|10,0:0|0:0|0:0|0:0,0:0:0:0:
410,49,138091,6,0,P|368:40|280:94,1,116.999996429443,6|0,1:2|0:0,0:0:0:0:
296,109,138491,1,10,0:0:0:0:
296,109,138691,1,0,1:0:0:0:
221,65,138891,5,2,1:2:0:0:
144,103,139091,2,0,L|66:94,1,77.999997619629,2|8,1:2|0:0,0:0:0:0:
217,147,139491,6,0,B|242:189|242:189|224:259,1,116.999996429443,2|0,0:0|0:0,0:0:0:0:
189,280,139891,1,2,0:0:0:0:
256,333,140091,2,0,L|333:324,1,77.999997619629,10|2,0:0|0:0,0:0:0:0:
176,364,140491,2,0,L|137:359,3,38.9999988098145,0|0|0|0,1:0|1:0|1:0|1:0,0:0:0:0:
109,327,140891,6,0,P|94:300|101:248,1,77.999997619629,10|2,0:0|0:0,0:0:0:0:
162,197,141291,2,0,P|167:158|150:124,1,77.999997619629,6|2,1:2|0:0,0:0:0:0:
71,103,141691,1,10,0:0:0:0:
71,103,141891,2,0,P|65:141|82:175,1,77.999997619629,2|2,0:0|1:2,0:0:0:0:
210,70,142291,5,2,1:2:0:0:
128,41,142491,1,10,0:0:0:0:
284,34,142691,2,0,P|343:25|421:27,1,116.999996429443,6|0,1:2|0:0,0:0:0:0:
439,43,143091,5,0,0:0:0:0:
451,121,143291,2,0,L|446:164,1,38.9999988098145,10|0,0:0|0:0,0:0:0:0:
414,189,143491,2,0,B|409:238|409:238|428:314,1,116.999996429443,10|0,0:0|0:0,0:0:0:0:
452,337,143891,6,0,L|507:326,2,38.9999988098145,0|0|8,1:0|1:0|0:0,0:0:0:0:
383,384,144291,1,8,0:0:0:0:
383,384,144391,1,8,0:0:0:0:
383,384,144491,6,0,L|249:365,1,116.999996429443,6|0,1:2|0:0,0:0:0:0:
225,378,144891,2,0,P|260:331|238:267,1,116.999996429443,10|8,0:0|0:0,0:0:0:0:
205,268,145291,1,2,1:2:0:0:
134,376,145491,2,0,L|124:298,1,77.999997619629,2|8,1:2|0:0,0:0:0:0:
126,212,145891,6,0,B|138:171|99:143|99:143|71:189|103:215,1,155.999995239258,2|2,1:2|0:0,0:0:0:0:
124,298,146491,1,10,0:0:0:0:
124,298,146691,1,2,0:0:0:0:
205,268,146891,2,0,P|214:222|213:187,1,77.999997619629,2|2,1:2|1:2,0:0:0:0:
295,216,147291,2,0,P|291:167|277:135,1,77.999997619629,10|2,0:0|1:2,0:0:0:0:
199,110,147691,5,6,1:2:0:0:
267,58,147891,1,0,1:0:0:0:
186,28,148091,2,0,L|58:12,1,116.999996429443,10|0,0:0|0:0,0:0:0:0:
32,33,148491,1,2,1:2:0:0:
98,107,148691,1,2,1:2:0:0:
98,107,148791,1,2,0:0:0:0:
98,107,148891,1,10,0:0:0:0:
34,164,149091,6,0,B|22:191|22:191|37:289,1,116.999996429443,2|0,0:0|0:0,0:0:0:0:
76,291,149491,1,2,0:0:0:0:
46,371,149691,2,0,B|84:383|84:383|120:368,1,77.999997619629,10|2,0:0|0:0,0:0:0:0:
163,297,150091,1,2,1:2:0:0:
163,297,150191,1,2,0:0:0:0:
163,297,150291,1,2,1:2:0:0:
204,371,150491,2,0,L|241:380,3,38.9999988098145,10|2|10|10,0:0|0:0|0:0|0:0,0:0:0:0:
284,373,150891,6,0,P|297:336|291:298,1,77.999997619629,6|0,1:2|0:0,0:0:0:0:
236,239,151291,1,10,0:0:0:0:
236,239,151491,1,0,1:0:0:0:
318,214,151691,5,2,1:2:0:0:
291,298,151891,2,0,L|369:289,1,77.999997619629,2|8,1:2|0:0,0:0:0:0:
447,322,152291,5,6,1:2:0:0:
253,158,152691,1,2,1:2:0:0:
310,94,152891,2,0,B|318:52|318:52|306:12,1,77.999997619629,10|6,0:0|1:2,0:0:0:0:
221,17,153291,2,0,L|232:56,3,38.9999988098145,8|8|8|8,0:0|0:0|0:0|0:0,0:0:0:0:
205,88,153691,6,0,B|170:79|170:79|118:92,1,77.999997619629,10|10,0:0|0:0,0:0:0:0:
97,117,153991,1,8,0:0:0:0:
97,117,154091,2,0,B|82:152|82:152|96:191,1,77.999997619629,6|2,1:2|0:0,0:0:0:0:
170,233,154491,1,10,0:0:0:0:
170,233,154691,2,0,B|185:268|185:268|171:307,1,77.999997619629,2|2,0:0|1:2,0:0:0:0:
92,270,155091,5,2,1:2:0:0:
19,223,155291,1,10,0:0:0:0:
170,233,155491,2,0,P|228:229|286:219,1,116.999996429443,6|0,1:2|0:0,0:0:0:0:
321,193,155891,5,2,1:2:0:0:
321,193,155991,1,2,1:2:0:0:
321,193,156091,1,10,0:0:0:0:
360,269,156291,1,2,1:2:0:0:
409,199,156491,2,0,P|410:164|419:113,2,77.999997619629,2|2|10,1:2|1:2|0:0,0:0:0:0:
441,227,156991,1,2,0:0:0:0:
441,227,157091,2,0,P|444:302|389:354,1,155.999995239258,6|10,1:2|0:0,0:0:0:0:
304,341,157691,1,10,0:0:0:0:
304,341,158291,6,0,L|239:333,2,38.9999988098145,0|0|8,1:0|1:0|0:0,0:0:0:0:
351,262,158691,1,8,0:0:0:0:
351,262,158791,1,8,0:0:0:0:
351,262,158891,6,0,L|251:248,1,77.999997619629,6|0,1:2|0:0,0:0:0:0:
193,282,159291,1,8,0:0:0:0:
131,222,159491,1,2,1:2:0:0:
117,235,159591,1,0,1:0:0:0:
109,253,159691,6,0,P|104:294|120:334,1,77.999997619629,0|2,1:0|1:2,0:0:0:0:
208,194,160091,1,10,0:0:0:0:
208,194,160291,2,0,L|198:72,1,116.999996429443,2|0,1:2|0:0,0:0:0:0:
170,44,160691,5,0,1:0:0:0:
94,3,160891,2,0,B|82:43|82:43|97:80,1,77.999997619629,8|0,0:0|1:0,0:0:0:0:
103,94,161191,1,8,0:0:0:0:
116,108,161291,1,2,1:2:0:0:
110,193,161491,2,0,L|62:177,2,38.9999988098145,2|0|10,1:2|1:0|0:0,0:0:0:0:
192,158,161891,1,0,1:0:0:0:
192,158,161991,1,0,1:0:0:0:
192,158,162091,6,0,P|235:151|279:153,1,77.999997619629,0|2,1:0|0:0,0:0:0:0:
287,159,162391,1,2,0:0:0:0:
305,166,162491,1,10,0:0:0:0:
330,84,162691,1,0,0:0:0:0:
386,147,162891,1,2,1:2:0:0:
391,165,162991,1,2,0:0:0:0:
389,184,163091,1,2,0:0:0:0:
327,244,163291,1,8,0:0:0:0:
409,265,163491,6,0,B|431:264|448:247|448:247|418:285|423:334,1,116.999996429443,6|0,0:0|0:0,0:0:0:0:
434,356,163891,1,0,0:0:0:0:
509,314,164091,1,8,0:0:0:0:
344,332,164291,6,0,P|296:323|216:329,1,116.999996429443,2|0,1:2|2:0,0:0:0:0:
188,309,164691,2,0,P|151:324|120:353,1,77.999997619629,2|8,1:2|0:0,0:0:0:0:
42,334,165091,1,10,0:0:0:0:
42,334,165191,1,10,0:0:0:0:
42,334,165291,6,0,L|24:250,2,77.999997619629,6|2|10,1:2|0:0|0:0,0:0:0:0:
111,260,165891,2,0,L|98:133,1,116.999996429443,6|0,1:2|0:0,0:0:0:0:
123,108,166291,1,2,1:2:0:0:
66,43,166491,1,10,0:0:0:0:
150,25,166691,6,0,P|210:45|271:39,1,116.999996429443,6|0,1:2|0:0,0:0:0:0:
302,56,167091,2,0,P|324:49|347:37,3,38.9999988098145,2|2|10|2,0:0|0:0|0:0|0:0,0:0:0:0:
367,10,167491,1,2,0:0:0:0:
367,10,167891,6,0,B|353:46|353:46|370:135,1,116.999996429443,2|0,0:0|0:0,0:0:0:0:
334,149,168291,6,0,P|340:189|427:202,1,130,6|2,1:2|1:2,0:0:0:0:
436,173,168791,1,0,1:0:0:0:
436,173,168891,1,10,0:2:0:0:
249,166,169091,6,0,P|201:137|121:138,1,130,2|2,1:2|1:2,0:0:0:0:
90,148,169591,1,0,1:0:0:0:
90,148,169691,1,8,0:0:0:0:
27,241,169891,6,0,L|185:222,1,130,6|0,1:2|1:0,0:0:0:0:
200,241,170391,1,0,1:0:0:0:
200,241,170491,1,10,0:0:0:0:
284,246,170691,6,0,B|278:286|278:286|253:318|253:318|247:386,1,130,2|2,1:2|1:2,0:0:0:0:
220,341,171191,1,0,1:0:0:0:
220,341,171291,1,8,0:0:0:0:
335,351,171491,6,0,L|409:339,1,65,6|0,1:2|0:0,0:0:0:0:
480,268,171891,2,0,L|447:273,2,32.5,2|0|10,1:2|1:0|0:0,0:0:0:0:
370,248,172291,1,2,1:2:0:0:
329,174,172491,1,8,0:0:0:0:
367,98,172691,1,2,1:2:0:0:
320,27,172891,1,8,0:0:0:0:
242,61,173091,6,0,P|223:100|245:156,1,97.5,6|0,1:2|0:0,0:0:0:0:
199,133,173491,1,10,0:0:0:0:
115,120,173691,1,10,0:0:0:0:
50,174,173891,1,10,0:0:0:0:
50,174,174891,6,0,B|-14:243|48:318|48:318|59:359|59:359|67:348|67:348|141:311|131:259|131:259|114:286|85:298,1,390,6|0,0:0|0:0,0:0:0:0:
219,236,176291,6,0,B|197:184|157:176|157:176|328:134|328:134|382:142|392:184|392:184|397:285|397:285|417:321|449:313,1,520,2|2,0:0|0:0,0:0:0:0:
302,273,178091,6,0,P|262:318|205:324,1,97.5,2|0,0:0|0:0,0:0:0:0:
207,364,178491,2,0,P|148:351|114:305,1,97.5,2|0,0:0|0:0,0:0:0:0:
124,283,178891,1,2,0:0:0:0:
124,283,179491,6,0,L|111:165,1,97.5,2|0,0:0|0:0,0:0:0:0:
132,152,179891,1,2,0:0:0:0:
56,113,180091,2,0,L|60:29,1,65,2|2,0:0|0:0,0:0:0:0:
133,7,180491,1,2,0:0:0:0:
181,79,180691,6,0,L|257:72,2,65,2|2|2,0:0|0:0|0:0,0:0:0:0:
328,107,181291,6,0,P|336:76|328:43,1,65,6|0,0:0|0:0,0:0:0:0:
248,154,181691,1,0,1:0:0:0:
248,154,182091,6,0,P|266:181|274:212,1,65
235,285,182491,1,0,1:2:0:0:
359,190,182891,6,0,L|440:195,1,65
274,212,183291,1,0,1:0:0:0:
161,330,183691,6,0,L|109:328,3,32.5
87,315,184091,1,8,3:0:0:0:
139,249,184291,1,0,0:0:0:0:
70,199,184491,6,0,P|56:166|62:122,1,65,6|0,1:2|0:0,0:0:0:0:
117,78,184891,1,2,1:2:0:0:
150,155,185091,2,0,L|220:145,2,65,2|2|2,0:0|1:2|0:0,0:0:0:0:
34,59,185691,1,2,1:2:0:0:
201,63,185891,6,0,B|240:58|240:58|268:65|268:65|321:57,1,97.5,6|0,1:2|0:0,0:0:0:0:
314,22,186291,5,8,0:0:0:0:
306,106,186491,1,8,0:0:0:0:
300,190,186691,1,8,0:0:0:0:
132,299,187091,5,0,1:0:0:0:
132,299,187191,1,0,1:0:0:0:
132,299,187291,2,0,L|123:221,1,77.999997619629,8|8,0:0|0:0,0:0:0:0:
220,322,187691,6,0,P|258:290|354:292,1,116.999996429443,6|0,1:2|0:0,0:0:0:0:
365,274,188091,2,0,P|421:262|465:218,1,116.999996429443,10|8,0:0|0:0,0:0:0:0:
466,178,188491,1,2,1:2:0:0:
407,115,188691,2,0,P|386:143|384:186,1,77.999997619629,2|8,1:2|0:0,0:0:0:0:
479,81,189091,6,0,L|317:97,1,155.999995239258,2|2,1:2|0:0,0:0:0:0:
249,64,189691,1,10,0:0:0:0:
249,64,189891,1,2,0:0:0:0:
178,112,190091,2,0,B|170:151|170:151|188:193,1,77.999997619629,2|2,1:2|1:2,0:0:0:0:
264,219,190491,2,0,B|272:180|272:180|254:138,1,77.999997619629,10|2,0:0|1:2,0:0:0:0:
194,268,190891,6,0,P|132:271|69:308,1,116.999996429443,6|0,1:2|2:0,0:0:0:0:
52,265,191291,2,0,B|59:188,1,77.999997619629,10|0,0:0|0:0,0:0:0:0:
4,339,191691,1,2,1:2:0:0:
87,384,191891,1,2,1:2:0:0:
87,384,191991,1,2,0:0:0:0:
87,384,192091,1,10,0:0:0:0:
167,354,192291,6,0,P|196:351|299:365,1,116.999996429443,2|0,0:0|0:0,0:0:0:0:
322,378,192691,1,2,0:0:0:0:
395,334,192891,2,0,P|433:337|476:322,1,77.999997619629,10|2,0:0|0:0,0:0:0:0:
502,249,193291,1,2,1:2:0:0:
502,249,193391,1,2,0:0:0:0:
502,249,193491,1,2,1:2:0:0:
439,189,193691,2,0,L|430:141,3,38.9999988098145,10|2|10|10,0:0|0:0|0:0|0:0,0:0:0:0:
403,118,194091,6,0,B|361:113|361:113|305:150,1,77.999997619629,6|0,1:2|0:0,0:0:0:0:
301,215,194491,1,10,0:0:0:0:
301,215,194691,1,0,1:0:0:0:
252,144,194891,5,2,1:2:0:0:
374,257,195091,2,0,L|371:336,1,77.999997619629,2|8,1:2|0:0,0:0:0:0:
301,215,195491,6,0,P|249:230|183:201,1,116.999996429443,6|0,1:2|0:0,0:0:0:0:
169,172,195891,1,2,1:2:0:0:
100,120,196091,2,0,P|86:155|90:197,1,77.999997619629,10|6,0:0|1:2,0:0:0:0:
179,94,196491,2,0,L|184:55,3,38.9999988098145,8|8|8|8,0:0|0:0|0:0|0:0,0:0:0:0:
149,31,196891,6,0,L|71:37,1,77.999997619629,10|10,0:0|0:0,0:0:0:0:
246,0,197291,2,0,P|265:30|263:75,1,77.999997619629,6|2,1:2|0:0,0:0:0:0:
353,67,197691,1,10,0:0:0:0:
353,67,197891,2,0,P|343:114|324:138,1,77.999997619629,2|2,0:0|1:2,0:0:0:0:
241,158,198291,5,2,1:2:0:0:
303,217,198491,1,10,0:0:0:0:
219,237,198691,6,0,P|180:244|170:353,1,155.999995239258,6|2,1:2|1:2,0:0:0:0:
204,363,199191,1,0,1:0:0:0:
204,363,199291,1,8,0:0:0:0:
270,308,199491,6,0,P|358:291|453:293,1,155.999995239258,2|2,1:2|1:2,0:0:0:0:
468,307,199991,1,0,1:0:0:0:
468,307,200091,1,8,0:0:0:0:
509,231,200291,6,0,L|491:76,1,155.999995239258,6|2,1:2|1:2,0:0:0:0:
510,39,200791,1,0,1:0:0:0:
510,39,200891,1,10,0:0:0:0:
408,88,201091,6,0,B|399:70|411:35|411:35|369:92|386:130,1,155.999995239258,2|2,1:2|1:2,0:0:0:0:
416,168,201591,1,0,1:0:0:0:
416,168,201691,1,8,0:0:0:0:
333,195,201891,6,0,B|288:178|254:202|258:202|234:226|181:202,1,155.999995239258,4|2,1:2|1:2,0:0:0:0:
150,183,202391,1,2,1:2:0:0:
150,183,202491,1,10,0:0:0:0:
216,129,202691,1,2,1:2:0:0:
134,101,202891,2,0,B|116:66|116:66|128:29,2,77.999997619629,10|2|10,0:0|1:2|0:0,0:0:0:0:
65,153,203491,6,0,L|54:271,1,116.999996429443,6|0,1:2|0:0,0:0:0:0:
81,302,203891,1,10,0:0:0:0:
150,183,204091,1,10,0:0:0:0:
65,153,204691,6,0,L|50:111,2,38.9999988098145,0|0|8,1:0|1:0|0:0,0:0:0:0:
9,214,205091,5,8,0:0:0:0:
9,214,205191,1,8,0:0:0:0:
9,214,205291,2,0,L|2:301,1,77.999997619629,6|2,1:2|0:0,0:0:0:0:
95,328,205691,2,0,L|89:235,1,77.999997619629,10|2,0:0|0:0,0:0:0:0:
172,224,206091,6,0,P|205:218|248:225,1,77.999997619629,2|2,1:2|0:0,0:0:0:0:
306,288,206491,2,0,P|344:295|382:289,1,77.999997619629,10|2,0:0|0:0,0:0:0:0:
453,230,206891,5,2,1:2:0:0:
417,152,207091,1,2,0:0:0:0:
346,200,207291,1,10,0:0:0:0:
279,145,207491,6,0,B|284:60,1,77.999997619629,2|2,0:0|1:2,0:0:0:0:
245,228,207891,2,0,B|240:313,1,77.999997619629,2|8,0:0|0:0,0:0:0:0:
189,160,208291,6,0,B|138:147|138:147|69:174,1,116.999996429443,2|0,0:0|0:0,0:0:0:0:
38,152,208691,1,2,0:0:0:0:
7,232,208891,2,0,B|1:273|1:273|18:318,1,77.999997619629,10|2,0:0|0:0,0:0:0:0:
96,330,209291,2,0,B|102:289|102:289|85:244,2,77.999997619629,2|2|10,1:2|0:0|0:0,0:0:0:0:
28,383,209891,1,2,0:0:0:0:
177,362,210091,6,0,B|324:344,1,116.999996429443,2|0,1:2|0:0,0:0:0:0:
329,371,210491,1,10,0:0:0:0:
403,328,210691,2,0,P|417:281|403:238,1,77.999997619629,2|0,0:0|1:0,0:0:0:0:
353,190,211091,2,0,P|332:205|330:227,5,38.9999988098145,2|2|2|2|2|2,3:2|3:2|3:2|3:2|3:2|3:2,0:0:0:0:
313,256,211691,6,0,P|273:264|214:244,1,77.999997619629,6|2,1:2|0:0,0:0:0:0:
178,319,212091,2,0,P|151:288|138:227,1,77.999997619629,10|2,0:0|0:0,0:0:0:0:
192,160,212491,6,0,L|273:168,1,77.999997619629,2|0,1:2|0:0,0:0:0:0:
108,174,212891,2,0,L|25:165,1,77.999997619629,10|0,0:0|0:0,0:0:0:0:
129,98,213291,5,2,1:2:0:0:
210,69,213491,1,2,0:0:0:0:
292,91,213691,1,10,0:0:0:0:
371,57,213891,6,0,P|414:52|462:67,1,77.999997619629,2|2,0:0|1:2,0:0:0:0:
486,136,214291,2,0,P|443:141|395:126,1,77.999997619629,2|8,0:0|0:0,0:0:0:0:
331,169,214691,6,0,B|338:196|361:216|361:216|345:245|342:278,1,116.999996429443,2|0,0:0|0:0,0:0:0:0:
358,313,215091,1,2,0:0:0:0:
435,349,215291,2,0,P|441:301|425:265,1,77.999997619629,10|2,0:0|0:0,0:0:0:0:
272,318,215691,5,2,1:2:0:0:
193,352,215891,1,2,0:0:0:0:
116,313,216091,1,10,0:0:0:0:
95,229,216291,1,2,0:0:0:0:
133,152,216491,6,0,P|139:101|131:33,1,116.999996429443,10|0,0:0|0:0,0:0:0:0:
108,13,216891,1,0,0:0:0:0:
227,0,217091,6,0,P|221:56|243:126,1,116.999996429443,10|0,0:0|0:0,0:0:0:0:
267,118,217491,1,0,1:0:0:0:
296,108,217591,1,0,1:0:0:0:
302,77,217691,2,0,P|302:56|313:28,3,38.9999988098145,8|8|8|8,0:0|0:0|0:0|0:0,0:0:0:0:
325,19,218091,5,6,1:2:0:0:
377,152,218491,1,8,0:0:0:0:
377,152,218691,2,0,P|381:106|408:58,1,97.5,0|0,1:0|0:0,0:0:0:0:
438,48,219091,1,0,1:0:0:0:
466,127,219291,2,0,L|476:176,3,32.5,8|0|0|0,0:0|3:0|3:0|3:0,0:0:0:0:
450,195,219691,5,6,1:2:0:0:
276,226,220091,1,8,0:0:0:0:
276,226,220291,2,0,L|379:235,1,97.5,0|0,1:0|0:0,0:0:0:0:
404,262,220691,1,0,1:0:0:0:
338,315,220891,2,0,L|283:310,3,32.5,8|0|0|0,0:0|3:0|3:0|3:0,0:0:0:0:
262,318,221291,6,0,P|221:305|190:259,1,77.999997619629,6|8,1:2|0:0,0:0:0:0:
194,236,221591,1,8,0:0:0:0:
194,236,221691,1,8,0:0:0:0:
108,241,221891,6,0,P|112:203|146:163,1,77.999997619629,14|8,1:2|0:0,0:0:0:0:
172,152,222191,1,8,0:0:0:0:
172,152,222291,1,8,0:0:0:0:
118,84,222491,6,0,P|34:73|-3:3,1,155.999995239258,6|8,1:2|0:0,0:0:0:0:
84,10,223091,5,10,0:0:0:0:
169,7,223291,1,10,0:0:0:0:
254,7,223491,6,0,B|300:31|351:95|370:199|291:270|192:231|165:150|224:91,1,389.999988098145,10|0,0:0|0:0,0:0:0:0:
