osu file format v14

[General]
AudioFilename: audio.mp3
AudioLeadIn: 0
PreviewTime: 58340
Countdown: 0
SampleSet: Soft
StackLeniency: 0.7
Mode: 3
LetterboxInBreaks: 0
SpecialStyle: 0
WidescreenStoryboard: 0

[Editor]
DistanceSpacing: 0.8
BeatDivisor: 16
GridSize: 8
TimelineZoom: 2.699999

[Metadata]
Title:Daydream cafe (TV Size)
TitleUnicode:Daydream café (TV Size)
Artist:Petit Rabbit's
ArtistUnicode:Petit Rabbit's
Creator:Rivals_7
Version:Another
Source:ご注文はうさぎですか?
Tags:koi is the order a rabbit? gochiusa gochuumon wa usagi desu ka opening anime japanese chino kafuu cocoa hoto chiya ujimatsu rize tedeza sharo syaro kirima 保登 心愛 佐倉 綾音 ayane sakura 香風 智乃 水瀬 いのり Inori minase 天々座 理世 種田 梨沙 risa taneda 宇治松 千夜 佐藤 聡美 Satomi Satō satou 桐間 紗路 内田 真礼 maaya uchida season 1
BeatmapID:2217502
BeatmapSetID:1058797

[Difficulty]
HPDrainRate:8
CircleSize:4
OverallDifficulty:8
ApproachRate:5
SliderMultiplier:1.4
SliderTickRate:1

[Events]
//Background and Video events
Video,0,"Video.flv"
0,0,"843166.jpg",0,0
//Break Periods
//Storyboard Layer 0 (Background)
//Storyboard Layer 1 (Fail)
//Storyboard Layer 2 (Pass)
//Storyboard Layer 3 (Foreground)
//Storyboard Layer 4 (Overlay)
//Storyboard Sound Samples

[TimingPoints]
1365,400,4,2,1,55,1,0
57165,-50,4,2,1,55,0,0
57265,-151.515151515152,4,2,1,55,0,0
57565,-66.6666666666667,4,2,1,55,0,0
57665,-200,4,2,1,55,0,0
57765,-66.6666666666667,4,2,1,55,0,0
57865,-200,4,2,1,55,0,0
57965,-50,4,2,1,55,0,0
58065,-151.515151515152,4,2,1,55,0,0
58365,-100,4,2,1,55,0,0
58965,-100,4,2,1,55,0,1
70765,-100,4,2,1,55,0,0
71765,-100,4,2,1,55,0,1
84965,-100,4,2,1,55,0,0

[HitObjects]
192,192,765,5,0,0:0:0:0:
192,192,965,128,0,1165:0:0:0:0:
448,192,1165,128,0,1365:0:0:0:0:
320,192,1365,1,0,0:0:0:0:
64,192,1365,128,4,1565:0:0:0:0:
448,192,1765,1,0,0:0:0:0:
64,192,1765,128,0,1965:0:0:0:0:
320,192,1965,1,0,0:0:0:0:
192,192,2065,1,0,0:0:0:0:
320,192,2165,128,0,2365:0:0:0:0:
64,192,2365,128,0,2565:0:0:0:0:
448,192,2565,1,0,0:0:0:0:
320,192,2765,128,0,2965:0:0:0:0:
192,192,2765,1,0,0:0:0:0:
320,192,3165,128,0,3765:0:0:0:0:
192,192,3365,128,0,3765:0:0:0:0:
64,192,3565,128,0,3765:0:0:0:0:
448,192,3765,128,0,4165:0:0:0:0:
320,192,3965,128,0,4165:0:0:0:0:
64,192,4165,128,0,4565:0:0:0:0:
192,192,4365,128,0,4565:0:0:0:0:
320,192,4565,1,0,0:0:0:0:
448,192,4565,128,0,4765:0:0:0:0:
64,192,4765,1,0,0:0:0:0:
192,192,4965,128,0,5165:0:0:0:0:
320,192,4965,1,0,0:0:0:0:
64,192,5165,1,0,0:0:0:0:
192,192,5365,1,0,0:0:0:0:
448,192,5365,128,0,5565:0:0:0:0:
64,192,5565,1,0,0:0:0:0:
64,192,5765,1,0,0:0:0:0:
448,192,5965,1,0,0:0:0:0:
320,192,5965,128,0,6165:0:0:0:0:
192,192,6165,1,0,0:0:0:0:
448,192,6365,128,0,6565:0:0:0:0:
64,192,6365,1,0,0:0:0:0:
192,192,6565,128,0,6765:0:0:0:0:
64,192,6765,128,0,6965:0:0:0:0:
320,192,6965,1,0,0:0:0:0:
448,192,6965,1,0,0:0:0:0:
448,192,7165,1,0,0:0:0:0:
64,192,7165,128,0,7365:0:0:0:0:
192,192,7265,128,0,7465:0:0:0:0:
320,192,7365,128,0,7565:0:0:0:0:
448,192,7465,128,0,7665:0:0:0:0:
64,192,7465,1,0,0:0:0:0:
192,192,7565,1,0,0:0:0:0:
320,192,7665,1,0,0:0:0:0:
192,192,7765,1,0,0:0:0:0:
64,192,7765,128,4,7965:0:0:0:0:
64,192,8165,1,0,0:0:0:0:
448,192,8165,128,2,8365:0:0:0:0:
320,192,8365,1,0,0:0:0:0:
64,192,8465,1,0,0:0:0:0:
320,192,8565,128,0,8765:0:0:0:0:
448,192,8765,128,0,8965:0:0:0:0:
192,192,8965,1,2,0:0:0:0:
64,192,8965,1,0,0:0:0:0:
320,192,9165,128,0,9365:0:0:0:0:
64,192,9165,1,0,0:0:0:0:
448,192,9365,1,0,0:0:0:0:
192,192,9565,128,0,9765:0:0:0:0:
320,192,9565,1,0,0:0:0:0:
64,192,9765,128,0,9965:0:0:0:0:
448,192,9765,1,2,0:0:0:0:
320,192,9965,128,0,10165:0:0:0:0:
448,192,9965,1,0,0:0:0:0:
320,192,10365,1,0,0:0:0:0:
64,192,10365,1,0,0:0:0:0:
192,192,10565,1,2,0:0:0:0:
448,192,10565,128,0,10765:0:0:0:0:
64,192,10765,128,0,10965:0:0:0:0:
448,192,10865,1,0,0:0:0:0:
192,192,10965,128,4,11165:0:0:0:0:
320,192,10965,1,0,0:0:0:0:
448,192,11165,128,0,11365:0:0:0:0:
320,192,11365,128,2,11565:0:0:0:0:
64,192,11365,1,0,0:0:0:0:
192,192,11565,128,0,11765:0:0:0:0:
64,192,11765,128,0,11965:0:0:0:0:
448,192,11765,128,0,11965:0:0:0:0:
320,192,11865,128,0,12065:0:0:0:0:
192,192,11965,128,0,12165:0:0:0:0:
64,192,12165,1,2,0:0:0:0:
448,192,12165,1,0,0:0:0:0:
64,192,12365,128,8,12965:0:0:0:0:
448,192,12365,128,2,12965:0:0:0:0:
192,192,12765,1,2,0:0:0:0:
320,192,12765,1,8,0:0:0:0:
320,192,12965,1,8,0:0:0:0:
192,192,12965,1,2,0:0:0:0:
64,192,13565,1,2,0:0:0:0:
320,192,13565,1,0,0:0:0:0:
192,192,13615,1,2,0:0:0:0:
448,192,13665,1,2,0:0:0:0:
320,192,13715,1,2,0:0:0:0:
192,192,13765,1,8,0:0:0:0:
64,192,13765,1,0,0:0:0:0:
320,192,13965,1,2,0:0:0:0:
448,192,13965,1,0,0:0:0:0:
320,192,14065,1,2,0:0:0:0:
448,192,14065,1,0,0:0:0:0:
192,192,14165,1,4,0:0:0:0:
64,192,14165,128,2,14365:0:0:0:0:
320,192,14365,128,0,14565:0:0:0:0:
448,192,14565,1,0,0:0:0:0:
192,192,14565,1,8,0:0:0:0:
64,192,14565,128,0,14765:0:0:0:0:
320,192,14765,128,0,14965:0:0:0:0:
64,192,14965,1,0,0:0:0:0:
192,192,14965,128,2,15165:0:0:0:0:
448,192,15165,128,0,15365:0:0:0:0:
320,192,15365,1,0,0:0:0:0:
192,192,15365,128,8,15565:0:0:0:0:
64,192,15365,1,0,0:0:0:0:
448,192,15565,128,0,15765:0:0:0:0:
64,192,15765,128,0,15965:0:0:0:0:
320,192,15765,1,2,0:0:0:0:
448,192,15965,128,0,16165:0:0:0:0:
320,192,16165,128,0,16365:0:0:0:0:
64,192,16165,1,0,0:0:0:0:
192,192,16165,1,8,0:0:0:0:
64,192,16365,128,0,16565:0:0:0:0:
448,192,16565,1,0,0:0:0:0:
192,192,16565,1,2,0:0:0:0:
320,192,16765,128,0,16965:0:0:0:0:
64,192,16965,1,0,0:0:0:0:
192,192,16965,1,8,0:0:0:0:
448,192,16965,1,0,0:0:0:0:
448,192,17165,128,0,17365:0:0:0:0:
320,192,17365,1,2,0:0:0:0:
64,192,17365,1,0,0:0:0:0:
192,192,17565,128,0,17765:0:0:0:0:
448,192,17765,1,0,0:0:0:0:
320,192,17765,128,8,17965:0:0:0:0:
64,192,17765,1,0,0:0:0:0:
192,192,17965,128,0,18165:0:0:0:0:
64,192,18165,1,0,0:0:0:0:
448,192,18165,128,2,18365:0:0:0:0:
192,192,18365,128,0,18565:0:0:0:0:
320,192,18565,128,8,18765:0:0:0:0:
448,192,18565,1,0,0:0:0:0:
64,192,18565,1,0,0:0:0:0:
192,192,18765,128,0,18965:0:0:0:0:
448,192,18965,128,2,19365:0:0:0:0:
64,192,18965,1,0,0:0:0:0:
320,192,19165,1,0,0:0:0:0:
320,192,19365,1,0,0:0:0:0:
64,192,19365,1,0,0:0:0:0:
192,192,19365,1,8,0:0:0:0:
448,192,19565,128,0,19765:0:0:0:0:
320,192,19765,1,2,0:0:0:0:
64,192,19765,1,0,0:0:0:0:
64,192,19965,128,0,20165:0:0:0:0:
320,192,20065,128,0,20265:0:0:0:0:
192,192,20165,128,0,20265:0:0:0:0:
448,192,20165,128,8,20465:0:0:0:0:
64,192,20265,128,0,20465:0:0:0:0:
192,192,20365,128,0,20565:0:0:0:0:
320,192,20465,128,0,20565:0:0:0:0:
64,192,20565,1,4,0:0:0:0:
448,192,20565,128,2,20765:0:0:0:0:
192,192,20765,128,0,20965:0:0:0:0:
64,192,20965,1,0,0:0:0:0:
320,192,20965,128,8,21165:0:0:0:0:
448,192,20965,1,0,0:0:0:0:
64,192,21165,128,0,21365:0:0:0:0:
192,192,21365,1,2,0:0:0:0:
448,192,21365,128,0,21565:0:0:0:0:
320,192,21565,128,0,21765:0:0:0:0:
448,192,21765,1,0,0:0:0:0:
64,192,21765,128,0,21965:0:0:0:0:
192,192,21765,1,8,0:0:0:0:
192,192,21965,128,0,22165:0:0:0:0:
64,192,22165,1,0,0:0:0:0:
448,192,22165,128,2,22365:0:0:0:0:
320,192,22365,128,0,22565:0:0:0:0:
192,192,22365,128,0,22465:0:0:0:0:
448,192,22465,128,0,22565:0:0:0:0:
64,192,22565,128,0,22765:0:0:0:0:
192,192,22565,128,8,22665:0:0:0:0:
320,192,22765,128,0,22965:0:0:0:0:
448,192,22865,128,0,22965:0:0:0:0:
192,192,22965,128,2,23065:0:0:0:0:
64,192,23165,128,0,23365:0:0:0:0:
448,192,23165,128,0,23265:0:0:0:0:
448,192,23365,1,8,0:0:0:0:
192,192,23365,128,0,23465:0:0:0:0:
320,192,23365,1,0,0:0:0:0:
320,192,23565,128,0,23765:0:0:0:0:
64,192,23765,1,0,0:0:0:0:
448,192,23765,1,2,0:0:0:0:
192,192,23965,128,0,24165:0:0:0:0:
320,192,24165,1,8,0:0:0:0:
64,192,24165,1,0,0:0:0:0:
448,192,24165,128,0,24365:0:0:0:0:
64,192,24365,128,0,24565:0:0:0:0:
448,192,24565,1,0,0:0:0:0:
320,192,24565,1,2,0:0:0:0:
192,192,24665,1,0,0:0:0:0:
64,192,24765,1,0,0:0:0:0:
320,192,24865,1,0,0:0:0:0:
448,192,24965,1,8,0:0:0:0:
64,192,24965,1,0,0:0:0:0:
192,192,25065,1,0,0:0:0:0:
320,192,25165,1,0,0:0:0:0:
192,192,25265,1,0,0:0:0:0:
448,192,25365,1,4,0:0:0:0:
64,192,25365,1,0,0:0:0:0:
320,192,25365,1,8,0:0:0:0:
192,192,25565,1,0,0:0:0:0:
192,192,25765,1,0,0:0:0:0:
64,192,25965,1,0,0:0:0:0:
320,192,25965,1,4,0:0:0:0:
448,192,25965,1,8,0:0:0:0:
320,192,26365,1,2,0:0:0:0:
64,192,26365,1,0,0:0:0:0:
192,192,26415,1,2,0:0:0:0:
448,192,26465,1,2,0:0:0:0:
320,192,26515,1,2,0:0:0:0:
64,192,26565,1,0,0:0:0:0:
192,192,26565,1,8,0:0:0:0:
320,192,26765,1,8,0:0:0:0:
448,192,26765,1,0,0:0:0:0:
448,192,26865,1,0,0:0:0:0:
320,192,26865,1,8,0:0:0:0:
192,192,26965,1,4,0:0:0:0:
64,192,26965,128,2,27165:0:0:0:0:
320,192,27165,1,0,0:0:0:0:
192,192,27365,1,8,0:0:0:0:
448,192,27365,128,0,27565:0:0:0:0:
64,192,27365,1,0,0:0:0:0:
320,192,27565,1,0,0:0:0:0:
448,192,27765,1,0,0:0:0:0:
64,192,27765,128,2,27965:0:0:0:0:
192,192,27865,1,0,0:0:0:0:
320,192,27965,1,0,0:0:0:0:
64,192,28165,1,0,0:0:0:0:
448,192,28165,1,0,0:0:0:0:
320,192,28165,1,8,0:0:0:0:
192,192,28265,1,0,0:0:0:0:
448,192,28365,128,0,28965:0:0:0:0:
192,192,28565,1,2,0:0:0:0:
64,192,28565,1,0,0:0:0:0:
320,192,28765,128,0,28965:0:0:0:0:
192,192,28965,1,8,0:0:0:0:
64,192,28965,128,0,29165:0:0:0:0:
320,192,29165,128,0,29365:0:0:0:0:
64,192,29365,128,2,29565:0:0:0:0:
448,192,29365,128,0,29565:0:0:0:0:
320,192,29565,128,0,29765:0:0:0:0:
192,192,29765,128,8,29965:0:0:0:0:
448,192,29765,1,0,0:0:0:0:
64,192,29765,128,0,29965:0:0:0:0:
320,192,29965,128,0,30165:0:0:0:0:
192,192,30065,1,0,0:0:0:0:
448,192,30165,1,0,0:0:0:0:
64,192,30165,128,2,30265:0:0:0:0:
320,192,30365,128,0,30465:0:0:0:0:
192,192,30565,1,8,0:0:0:0:
64,192,30565,1,0,0:0:0:0:
448,192,30565,128,0,30665:0:0:0:0:
64,192,30765,128,0,30865:0:0:0:0:
192,192,30965,1,2,0:0:0:0:
448,192,30965,128,0,31065:0:0:0:0:
320,192,31165,128,0,31265:0:0:0:0:
64,192,31365,128,0,31465:0:0:0:0:
192,192,31365,1,8,0:0:0:0:
448,192,31365,1,0,0:0:0:0:
448,192,31565,128,0,31765:0:0:0:0:
192,192,31765,1,2,0:0:0:0:
64,192,31765,1,0,0:0:0:0:
320,192,31965,128,0,32165:0:0:0:0:
64,192,32165,1,0,0:0:0:0:
448,192,32165,1,0,0:0:0:0:
192,192,32165,1,8,0:0:0:0:
192,192,32365,128,0,32565:0:0:0:0:
64,192,32565,128,0,32765:0:0:0:0:
320,192,32565,1,2,0:0:0:0:
448,192,32665,1,8,0:0:0:0:
448,192,32765,1,8,0:0:0:0:
192,192,32765,1,0,0:0:0:0:
64,192,32965,1,0,0:0:0:0:
320,192,32965,1,8,0:0:0:0:
448,192,32965,1,0,0:0:0:0:
192,192,33165,1,8,0:0:0:0:
64,192,33165,1,0,0:0:0:0:
64,192,33265,1,0,0:0:0:0:
192,192,33265,1,8,0:0:0:0:
320,192,33365,1,2,0:0:0:0:
448,192,33365,128,4,33565:0:0:0:0:
192,192,33565,1,0,0:0:0:0:
64,192,33765,1,0,0:0:0:0:
448,192,33765,1,0,0:0:0:0:
320,192,33765,128,8,33965:0:0:0:0:
192,192,33965,1,0,0:0:0:0:
64,192,34165,128,2,34365:0:0:0:0:
448,192,34165,1,0,0:0:0:0:
320,192,34265,1,0,0:0:0:0:
192,192,34365,1,0,0:0:0:0:
64,192,34565,1,0,0:0:0:0:
320,192,34565,1,8,0:0:0:0:
448,192,34565,1,0,0:0:0:0:
192,192,34665,1,0,0:0:0:0:
448,192,34765,128,0,35165:0:0:0:0:
320,192,34965,1,2,0:0:0:0:
64,192,34965,1,0,0:0:0:0:
192,192,35165,128,0,35365:0:0:0:0:
64,192,35365,128,0,35565:0:0:0:0:
320,192,35365,1,8,0:0:0:0:
448,192,35365,1,0,0:0:0:0:
320,192,35565,128,0,35765:0:0:0:0:
448,192,35765,128,0,35965:0:0:0:0:
64,192,35765,128,2,35965:0:0:0:0:
192,192,35965,128,0,36165:0:0:0:0:
320,192,36165,128,8,36365:0:0:0:0:
64,192,36165,1,0,0:0:0:0:
448,192,36165,128,0,36365:0:0:0:0:
64,192,36365,128,0,36565:0:0:0:0:
192,192,36465,1,0,0:0:0:0:
320,192,36565,1,2,0:0:0:0:
448,192,36565,128,0,36665:0:0:0:0:
192,192,36765,128,0,36865:0:0:0:0:
448,192,36965,1,0,0:0:0:0:
64,192,36965,1,0,0:0:0:0:
320,192,36965,128,8,37065:0:0:0:0:
192,192,37165,128,0,37265:0:0:0:0:
448,192,37365,128,0,37465:0:0:0:0:
320,192,37365,1,2,0:0:0:0:
64,192,37565,128,0,37665:0:0:0:0:
192,192,37765,1,0,0:0:0:0:
448,192,37765,1,0,0:0:0:0:
320,192,37765,128,8,37865:0:0:0:0:
448,192,37965,128,2,38165:0:0:0:0:
192,192,37965,1,0,0:0:0:0:
64,192,37965,1,0,0:0:0:0:
64,192,38365,1,0,0:0:0:0:
448,192,38365,128,0,38565:0:0:0:0:
192,192,38365,1,8,0:0:0:0:
320,192,38465,1,8,0:0:0:0:
64,192,38565,1,0,0:0:0:0:
192,192,38565,1,8,0:0:0:0:
448,192,38665,1,0,0:0:0:0:
320,192,38665,1,8,0:0:0:0:
192,192,38765,1,2,0:0:0:0:
64,192,38765,128,0,38965:0:0:0:0:
448,192,38965,128,0,39165:0:0:0:0:
320,192,38965,1,0,0:0:0:0:
64,192,39165,1,0,0:0:0:0:
192,192,39165,1,2,0:0:0:0:
320,192,39215,1,2,0:0:0:0:
448,192,39265,1,2,0:0:0:0:
192,192,39315,1,2,0:0:0:0:
320,192,39365,1,8,0:0:0:0:
64,192,39365,1,0,0:0:0:0:
64,192,39465,1,0,0:0:0:0:
320,192,39565,1,8,0:0:0:0:
448,192,39565,1,0,0:0:0:0:
448,192,39665,1,0,0:0:0:0:
320,192,39665,1,8,0:0:0:0:
64,192,39765,128,4,40165:0:0:0:0:
192,192,39765,1,2,0:0:0:0:
320,192,39965,128,0,40365:0:0:0:0:
448,192,40165,128,8,40565:0:0:0:0:
192,192,40165,1,0,0:0:0:0:
64,192,40365,128,0,40765:0:0:0:0:
192,192,40565,128,2,40965:0:0:0:0:
320,192,40565,1,0,0:0:0:0:
448,192,40765,128,0,41165:0:0:0:0:
320,192,40965,128,8,41365:0:0:0:0:
64,192,40965,1,0,0:0:0:0:
64,192,41165,128,0,41565:0:0:0:0:
192,192,41365,128,2,41765:0:0:0:0:
448,192,41365,1,0,0:0:0:0:
320,192,41565,128,0,41965:0:0:0:0:
448,192,41765,128,8,42165:0:0:0:0:
64,192,41765,1,0,0:0:0:0:
64,192,41965,128,0,42365:0:0:0:0:
320,192,42165,128,2,42565:0:0:0:0:
192,192,42165,1,0,0:0:0:0:
448,192,42365,128,0,42765:0:0:0:0:
64,192,42565,128,8,42765:0:0:0:0:
192,192,42565,1,0,0:0:0:0:
320,192,42765,1,0,0:0:0:0:
192,192,42865,1,0,0:0:0:0:
64,192,42965,1,2,0:0:0:0:
448,192,42965,1,0,0:0:0:0:
192,192,43165,1,0,0:0:0:0:
448,192,43165,128,0,43265:0:0:0:0:
320,192,43365,1,8,0:0:0:0:
64,192,43365,128,0,43465:0:0:0:0:
448,192,43365,1,0,0:0:0:0:
192,192,43565,1,0,0:0:0:0:
320,192,43765,1,2,0:0:0:0:
448,192,43765,128,0,43865:0:0:0:0:
192,192,43965,1,0,0:0:0:0:
64,192,43965,128,0,44065:0:0:0:0:
64,192,44165,1,0,0:0:0:0:
320,192,44165,1,8,0:0:0:0:
448,192,44165,1,0,0:0:0:0:
192,192,44365,128,0,44565:0:0:0:0:
320,192,44465,1,0,0:0:0:0:
448,192,44565,1,0,0:0:0:0:
64,192,44565,1,2,0:0:0:0:
320,192,44765,128,0,44965:0:0:0:0:
64,192,44965,128,0,45165:0:0:0:0:
192,192,44965,1,8,0:0:0:0:
448,192,44965,1,0,0:0:0:0:
448,192,45165,128,0,45365:0:0:0:0:
320,192,45265,128,0,45465:0:0:0:0:
192,192,45365,128,2,45565:0:0:0:0:
64,192,45365,1,0,0:0:0:0:
448,192,45465,1,8,0:0:0:0:
64,192,45565,1,8,0:0:0:0:
448,192,45665,1,0,0:0:0:0:
320,192,45765,1,0,0:0:0:0:
448,192,45765,1,8,0:0:0:0:
192,192,45765,1,0,0:0:0:0:
64,192,45965,1,0,0:0:0:0:
192,192,45965,1,8,0:0:0:0:
64,192,46065,1,0,0:0:0:0:
192,192,46065,1,8,0:0:0:0:
320,192,46165,1,2,0:0:0:0:
448,192,46165,1,4,0:0:0:0:
192,192,46365,1,0,0:0:0:0:
448,192,46365,1,0,0:0:0:0:
319,192,46565,1,8,0:0:0:0:
64,192,46565,1,0,0:0:0:0:
192,192,46565,1,0,0:0:0:0:
448,192,46765,1,0,0:0:0:0:
64,192,46765,1,0,0:0:0:0:
192,192,46965,1,2,0:0:0:0:
448,192,46965,128,0,47065:0:0:0:0:
320,192,47165,1,0,0:0:0:0:
448,192,47365,1,0,0:0:0:0:
192,192,47365,1,8,0:0:0:0:
64,192,47365,128,0,47465:0:0:0:0:
320,192,47565,1,0,0:0:0:0:
64,192,47565,1,0,0:0:0:0:
192,192,47765,1,2,0:0:0:0:
320,192,47765,1,0,0:0:0:0:
64,192,47965,1,0,0:0:0:0:
448,192,47965,1,0,0:0:0:0:
192,192,48165,1,8,0:0:0:0:
448,192,48165,1,0,0:0:0:0:
64,192,48165,1,0,0:0:0:0:
320,192,48365,1,0,0:0:0:0:
192,192,48365,1,0,0:0:0:0:
320,192,48565,1,0,0:0:0:0:
64,192,48565,128,2,48665:0:0:0:0:
320,192,48765,128,0,48865:0:0:0:0:
192,192,48865,1,0,0:0:0:0:
64,192,48965,128,0,49065:0:0:0:0:
448,192,48965,1,0,0:0:0:0:
320,192,48965,1,8,0:0:0:0:
192,192,49165,1,0,0:0:0:0:
448,192,49165,1,0,0:0:0:0:
320,192,49365,1,2,0:0:0:0:
448,192,49365,1,0,0:0:0:0:
192,192,49365,1,4,0:0:0:0:
64,192,49365,1,0,0:0:0:0:
320,192,49565,1,0,0:0:0:0:
448,192,49665,1,0,0:0:0:0:
320,192,49765,1,8,0:0:0:0:
64,192,49765,1,0,0:0:0:0:
448,192,49865,1,0,0:0:0:0:
320,192,49965,1,0,0:0:0:0:
192,192,50165,1,2,0:0:0:0:
64,192,50165,1,0,0:0:0:0:
64,192,50365,1,0,0:0:0:0:
192,192,50365,1,0,0:0:0:0:
320,192,50565,1,8,0:0:0:0:
448,192,50565,1,0,0:0:0:0:
64,192,50565,1,0,0:0:0:0:
192,192,50765,1,2,0:0:0:0:
64,192,50765,1,0,0:0:0:0:
320,192,50765,1,4,0:0:0:0:
448,192,50765,1,0,0:0:0:0:
192,192,50965,1,2,0:0:0:0:
320,192,50965,1,0,0:0:0:0:
448,192,51165,1,0,0:0:0:0:
64,192,51265,1,0,0:0:0:0:
448,192,51365,1,0,0:0:0:0:
320,192,51365,1,8,0:0:0:0:
192,192,51365,1,0,0:0:0:0:
64,192,51565,1,0,0:0:0:0:
320,192,51565,1,0,0:0:0:0:
192,192,51765,1,2,0:0:0:0:
64,192,51765,1,0,0:0:0:0:
320,192,51965,1,0,0:0:0:0:
448,192,51965,1,0,0:0:0:0:
448,192,52165,1,0,0:0:0:0:
320,192,52165,1,8,0:0:0:0:
64,192,52165,1,0,0:0:0:0:
192,192,52365,1,4,0:0:0:0:
64,192,52365,1,0,0:0:0:0:
320,192,52365,1,2,0:0:0:0:
448,192,52365,128,0,52765:0:0:0:0:
192,192,52765,1,2,0:0:0:0:
64,192,52765,1,0,0:0:0:0:
320,192,52865,1,2,0:0:0:0:
448,192,52965,1,0,0:0:0:0:
64,192,52965,1,0,0:0:0:0:
192,192,52965,1,8,0:0:0:0:
320,192,53165,1,2,0:0:0:0:
448,192,53165,1,0,0:0:0:0:
64,192,53265,1,0,0:0:0:0:
320,192,53365,1,0,0:0:0:0:
64,192,53465,1,8,0:0:0:0:
192,192,53515,1,8,0:0:0:0:
320,192,53565,1,2,0:0:0:0:
448,192,53565,1,0,0:0:0:0:
192,192,53665,1,2,0:0:0:0:
64,192,53765,1,0,0:0:0:0:
320,192,53765,1,8,0:0:0:0:
448,192,53765,1,0,0:0:0:0:
192,192,53965,1,4,0:0:0:0:
320,192,53965,1,2,0:0:0:0:
448,192,53965,1,0,0:0:0:0:
64,192,53965,128,0,54365:0:0:0:0:
320,192,54365,1,2,0:0:0:0:
448,192,54365,1,0,0:0:0:0:
192,192,54465,1,2,0:0:0:0:
64,192,54565,1,0,0:0:0:0:
320,192,54565,1,8,0:0:0:0:
448,192,54565,1,0,0:0:0:0:
192,192,54765,1,2,0:0:0:0:
64,192,54765,1,0,0:0:0:0:
448,192,54865,1,0,0:0:0:0:
192,192,54965,1,0,0:0:0:0:
448,192,55065,1,8,0:0:0:0:
320,192,55115,1,8,0:0:0:0:
192,192,55165,1,2,0:0:0:0:
64,192,55165,1,0,0:0:0:0:
320,192,55265,1,2,0:0:0:0:
448,192,55365,1,0,0:0:0:0:
192,192,55365,1,8,0:0:0:0:
64,192,55365,1,0,0:0:0:0:
192,192,55565,1,4,0:0:0:0:
64,192,55565,1,0,0:0:0:0:
320,192,55565,1,2,0:0:0:0:
448,192,55565,128,0,55965:0:0:0:0:
64,192,55965,1,0,0:0:0:0:
192,192,55965,1,2,0:0:0:0:
320,192,56065,1,2,0:0:0:0:
448,192,56065,1,0,0:0:0:0:
192,192,56165,1,8,0:0:0:0:
64,192,56165,1,0,0:0:0:0:
320,192,56365,1,2,0:0:0:0:
448,192,56365,1,0,0:0:0:0:
192,192,56465,1,2,0:0:0:0:
64,192,56465,1,0,0:0:0:0:
320,192,56565,1,8,0:0:0:0:
448,192,56565,1,0,0:0:0:0:
64,192,56765,128,2,56965:0:0:0:0:
448,192,56765,128,0,56965:0:0:0:0:
192,192,56865,128,2,57065:0:0:0:0:
320,192,56965,128,8,57165:0:0:0:0:
448,192,57065,128,0,57165:0:0:0:0:
192,192,57165,1,4,0:0:0:0:
64,192,57165,1,10,0:0:0:0:
64,192,57565,1,0,0:0:0:0:
192,192,57565,1,4,0:0:0:0:
320,192,57565,1,8,0:0:0:0:
448,192,57565,1,2,0:0:0:0:
448,192,57765,1,2,0:0:0:0:
320,192,57765,1,8,0:0:0:0:
192,192,57765,1,4,0:0:0:0:
64,192,57765,1,0,0:0:0:0:
64,192,57965,1,0,0:0:0:0:
192,192,57965,1,4,0:0:0:0:
320,192,57965,1,8,0:0:0:0:
448,192,57965,1,2,0:0:0:0:
64,192,58365,128,0,58465:0:0:0:0:
448,192,58365,128,0,58465:0:0:0:0:
192,192,58565,128,0,58665:0:0:0:0:
320,192,58565,128,8,58665:0:0:0:0:
64,192,58765,128,0,58865:0:0:0:0:
448,192,58765,128,0,58865:0:0:0:0:
64,192,58965,1,0,0:0:0:0:
192,192,58965,1,4,0:0:0:0:
448,192,58965,128,0,59165:0:0:0:0:
320,192,58965,128,2,59165:0:0:0:0:
192,192,59365,1,8,0:0:0:0:
448,192,59365,128,0,59565:0:0:0:0:
320,192,59365,128,0,59565:0:0:0:0:
64,192,59365,1,0,0:0:0:0:
64,192,59565,1,0,0:0:0:0:
64,192,59665,1,0,0:0:0:0:
320,192,59765,1,2,0:0:0:0:
448,192,59765,128,0,59965:0:0:0:0:
64,192,59965,128,0,60165:0:0:0:0:
192,192,60165,1,8,0:0:0:0:
320,192,60165,1,0,0:0:0:0:
448,192,60165,1,0,0:0:0:0:
320,192,60365,1,0,0:0:0:0:
448,192,60365,128,0,60565:0:0:0:0:
64,192,60565,1,0,0:0:0:0:
192,192,60565,1,2,0:0:0:0:
320,192,60765,1,0,0:0:0:0:
448,192,60765,1,0,0:0:0:0:
64,192,60865,1,0,0:0:0:0:
192,192,60965,1,8,0:0:0:0:
320,192,60965,1,0,0:0:0:0:
448,192,60965,1,0,0:0:0:0:
192,192,61165,1,0,0:0:0:0:
64,192,61165,1,0,0:0:0:0:
64,192,61365,1,0,0:0:0:0:
448,192,61365,1,2,0:0:0:0:
320,192,61565,1,0,0:0:0:0:
448,192,61565,1,0,0:0:0:0:
192,192,61665,1,0,0:0:0:0:
64,192,61765,1,0,0:0:0:0:
320,192,61765,1,8,0:0:0:0:
448,192,61765,1,0,0:0:0:0:
192,192,61865,1,0,0:0:0:0:
64,192,61965,1,0,0:0:0:0:
320,192,62065,1,0,0:0:0:0:
448,192,62165,128,2,62365:0:0:0:0:
64,192,62165,1,0,0:0:0:0:
192,192,62365,1,0,0:0:0:0:
320,192,62465,1,0,0:0:0:0:
448,192,62565,1,0,0:0:0:0:
192,192,62565,1,8,0:0:0:0:
64,192,62565,128,0,62765:0:0:0:0:
320,192,62765,1,0,0:0:0:0:
192,192,62865,1,0,0:0:0:0:
64,192,62965,1,2,0:0:0:0:
448,192,62965,128,0,63165:0:0:0:0:
320,192,63165,1,0,0:0:0:0:
320,192,63265,1,0,0:0:0:0:
448,192,63365,1,0,0:0:0:0:
192,192,63365,1,8,0:0:0:0:
64,192,63365,1,0,0:0:0:0:
320,192,63565,1,0,0:0:0:0:
64,192,63565,1,0,0:0:0:0:
192,192,63765,1,2,0:0:0:0:
320,192,63765,1,0,0:0:0:0:
192,192,63965,1,0,0:0:0:0:
448,192,63965,1,0,0:0:0:0:
64,192,64165,1,0,0:0:0:0:
320,192,64165,1,8,0:0:0:0:
448,192,64165,1,0,0:0:0:0:
64,192,64365,1,0,0:0:0:0:
320,192,64365,1,0,0:0:0:0:
192,192,64565,1,2,0:0:0:0:
448,192,64565,1,0,0:0:0:0:
64,192,64665,1,8,0:0:0:0:
320,192,64765,1,0,0:0:0:0:
448,192,64765,1,8,0:0:0:0:
320,192,64965,1,0,0:0:0:0:
448,192,64965,1,0,0:0:0:0:
192,192,64965,1,8,0:0:0:0:
320,192,65165,1,8,0:0:0:0:
448,192,65165,1,0,0:0:0:0:
192,192,65265,1,8,0:0:0:0:
448,192,65365,1,4,0:0:0:0:
320,192,65365,1,0,0:0:0:0:
64,192,65365,128,2,65565:0:0:0:0:
320,192,65565,1,0,0:0:0:0:
192,192,65765,1,8,0:0:0:0:
64,192,65765,1,0,0:0:0:0:
448,192,65765,128,0,65965:0:0:0:0:
320,192,65965,1,0,0:0:0:0:
320,192,66065,1,0,0:0:0:0:
448,192,66165,1,0,0:0:0:0:
64,192,66165,1,2,0:0:0:0:
192,192,66365,1,0,0:0:0:0:
320,192,66365,1,0,0:0:0:0:
64,192,66565,1,0,0:0:0:0:
192,192,66565,1,8,0:0:0:0:
448,192,66565,1,0,0:0:0:0:
320,192,66765,128,0,66965:0:0:0:0:
448,192,66965,1,0,0:0:0:0:
64,192,66965,1,2,0:0:0:0:
192,192,67165,1,0,0:0:0:0:
448,192,67165,1,0,0:0:0:0:
320,192,67365,1,0,0:0:0:0:
64,192,67365,1,0,0:0:0:0:
192,192,67365,1,8,0:0:0:0:
448,192,67565,1,0,0:0:0:0:
64,192,67565,128,0,67765:0:0:0:0:
192,192,67765,1,2,0:0:0:0:
320,192,67765,1,0,0:0:0:0:
448,192,67965,1,0,0:0:0:0:
192,192,68165,1,8,0:0:0:0:
448,192,68165,1,0,0:0:0:0:
64,192,68165,1,0,0:0:0:0:
320,192,68365,1,0,0:0:0:0:
64,192,68365,1,0,0:0:0:0:
448,192,68565,128,4,68765:0:0:0:0:
192,192,68565,128,2,68765:0:0:0:0:
64,192,68565,1,0,0:0:0:0:
320,192,68765,128,0,68965:0:0:0:0:
64,192,68965,128,0,69165:0:0:0:0:
192,192,68965,1,8,0:0:0:0:
448,192,68965,128,0,69165:0:0:0:0:
320,192,69165,128,0,69365:0:0:0:0:
448,192,69365,128,0,69565:0:0:0:0:
64,192,69365,128,2,69565:0:0:0:0:
192,192,69565,128,0,69765:0:0:0:0:
320,192,69765,128,8,70265:0:0:0:0:
448,192,69765,128,0,70265:0:0:0:0:
192,192,69965,128,8,70265:0:0:0:0:
64,192,69965,128,0,70265:0:0:0:0:
64,192,70365,1,0,0:0:0:0:
192,192,70365,1,8,0:0:0:0:
448,192,70365,1,2,0:0:0:0:
192,192,70565,1,8,0:0:0:0:
64,192,70565,1,0,0:0:0:0:
448,192,70565,1,2,0:0:0:0:
64,192,70765,1,0,0:0:0:0:
192,192,70765,1,2,0:0:0:0:
320,192,70765,1,8,0:0:0:0:
448,192,70765,1,0,0:0:0:0:
64,192,71165,1,2,0:0:0:0:
320,192,71165,1,0,0:0:0:0:
192,192,71215,1,2,0:0:0:0:
448,192,71265,1,2,0:0:0:0:
320,192,71315,1,2,0:0:0:0:
64,192,71365,1,0,0:0:0:0:
192,192,71365,1,8,0:0:0:0:
320,192,71565,1,0,0:0:0:0:
448,192,71565,1,8,0:0:0:0:
448,192,71665,1,8,0:0:0:0:
320,192,71665,1,0,0:0:0:0:
64,192,71765,128,0,71965:0:0:0:0:
192,192,71765,128,0,71965:0:0:0:0:
448,192,71765,1,2,0:0:0:0:
320,192,71765,1,4,0:0:0:0:
192,192,72165,128,0,72365:0:0:0:0:
448,192,72165,1,0,0:0:0:0:
320,192,72165,1,8,0:0:0:0:
64,192,72165,128,0,72365:0:0:0:0:
448,192,72365,1,0,0:0:0:0:
448,192,72465,1,0,0:0:0:0:
64,192,72565,128,0,72765:0:0:0:0:
192,192,72565,1,2,0:0:0:0:
448,192,72765,128,0,72965:0:0:0:0:
64,192,72965,1,0,0:0:0:0:
192,192,72965,1,8,0:0:0:0:
320,192,72965,1,0,0:0:0:0:
64,192,73165,128,0,73365:0:0:0:0:
192,192,73165,1,0,0:0:0:0:
320,192,73365,1,2,0:0:0:0:
448,192,73365,1,0,0:0:0:0:
64,192,73565,1,0,0:0:0:0:
192,192,73565,1,0,0:0:0:0:
448,192,73665,1,0,0:0:0:0:
64,192,73765,1,0,0:0:0:0:
192,192,73765,1,8,0:0:0:0:
320,192,73765,1,0,0:0:0:0:
448,192,73965,1,0,0:0:0:0:
320,192,73965,1,0,0:0:0:0:
64,192,74165,1,2,0:0:0:0:
448,192,74165,1,0,0:0:0:0:
64,192,74365,1,0,0:0:0:0:
192,192,74365,1,0,0:0:0:0:
320,192,74465,1,0,0:0:0:0:
64,192,74565,1,0,0:0:0:0:
192,192,74565,1,8,0:0:0:0:
448,192,74565,1,0,0:0:0:0:
320,192,74665,1,0,0:0:0:0:
448,192,74765,1,0,0:0:0:0:
192,192,74865,1,0,0:0:0:0:
448,192,74965,1,2,0:0:0:0:
64,192,74965,128,0,75165:0:0:0:0:
320,192,75165,1,0,0:0:0:0:
192,192,75265,1,0,0:0:0:0:
448,192,75365,128,0,75565:0:0:0:0:
320,192,75365,1,8,0:0:0:0:
64,192,75365,1,0,0:0:0:0:
192,192,75565,1,0,0:0:0:0:
320,192,75665,1,0,0:0:0:0:
64,192,75765,128,2,75965:0:0:0:0:
448,192,75765,1,0,0:0:0:0:
192,192,75965,1,0,0:0:0:0:
192,192,76065,1,0,0:0:0:0:
448,192,76165,1,0,0:0:0:0:
320,192,76165,1,8,0:0:0:0:
64,192,76165,1,0,0:0:0:0:
448,192,76365,1,0,0:0:0:0:
192,192,76365,1,0,0:0:0:0:
192,192,76565,1,2,0:0:0:0:
320,192,76565,1,0,0:0:0:0:
64,192,76765,1,0,0:0:0:0:
320,192,76765,1,0,0:0:0:0:
64,192,76965,1,0,0:0:0:0:
192,192,76965,1,8,0:0:0:0:
448,192,76965,1,0,0:0:0:0:
192,192,77165,1,0,0:0:0:0:
448,192,77165,1,0,0:0:0:0:
64,192,77365,1,0,0:0:0:0:
320,192,77365,1,2,0:0:0:0:
448,192,77465,1,8,0:0:0:0:
64,192,77565,1,0,0:0:0:0:
192,192,77565,1,8,0:0:0:0:
320,192,77765,1,8,0:0:0:0:
64,192,77765,1,0,0:0:0:0:
192,192,77765,1,0,0:0:0:0:
64,192,77965,1,0,0:0:0:0:
192,192,77965,1,8,0:0:0:0:
320,192,78065,1,8,0:0:0:0:
448,192,78165,128,4,78365:0:0:0:0:
64,192,78165,1,2,0:0:0:0:
192,192,78165,1,0,0:0:0:0:
192,192,78365,1,0,0:0:0:0:
448,192,78565,1,0,0:0:0:0:
64,192,78565,128,0,78765:0:0:0:0:
320,192,78565,1,8,0:0:0:0:
192,192,78765,1,0,0:0:0:0:
192,192,78865,1,0,0:0:0:0:
448,192,78965,1,0,0:0:0:0:
64,192,78965,1,2,0:0:0:0:
192,192,79165,1,0,0:0:0:0:
320,192,79165,1,0,0:0:0:0:
64,192,79365,1,0,0:0:0:0:
320,192,79365,1,8,0:0:0:0:
448,192,79365,1,0,0:0:0:0:
64,192,79565,128,2,79865:0:0:0:0:
192,192,79565,128,0,79865:0:0:0:0:
448,192,79565,128,8,79865:0:0:0:0:
64,192,79965,1,0,0:0:0:0:
192,192,79965,1,8,0:0:0:0:
320,192,79965,1,0,0:0:0:0:
320,192,80165,1,8,0:0:0:0:
448,192,80165,1,0,0:0:0:0:
192,192,80165,1,0,0:0:0:0:
64,192,80365,128,2,80665:0:0:0:0:
320,192,80365,128,0,80665:0:0:0:0:
448,192,80365,128,8,80665:0:0:0:0:
64,192,80765,1,2,0:0:0:0:
448,192,80765,1,0,0:0:0:0:
192,192,80865,1,2,0:0:0:0:
320,192,80965,1,8,0:0:0:0:
64,192,80965,1,0,0:0:0:0:
448,192,80965,1,0,0:0:0:0:
448,192,81165,1,8,0:0:0:0:
192,192,81165,1,0,0:0:0:0:
448,192,81265,1,8,0:0:0:0:
320,192,81265,1,0,0:0:0:0:
64,192,81365,128,4,81565:0:0:0:0:
192,192,81365,128,2,81565:0:0:0:0:
320,192,81565,128,0,81765:0:0:0:0:
192,192,81765,1,8,0:0:0:0:
448,192,81765,128,0,81965:0:0:0:0:
64,192,81765,128,0,81965:0:0:0:0:
192,192,81965,128,0,82165:0:0:0:0:
448,192,82165,128,0,82365:0:0:0:0:
64,192,82165,128,2,82365:0:0:0:0:
320,192,82365,128,0,82565:0:0:0:0:
64,192,82565,128,0,83065:0:0:0:0:
192,192,82565,128,8,83065:0:0:0:0:
448,192,82765,128,4,83065:0:0:0:0:
320,192,82765,128,8,83065:0:0:0:0:
64,192,83165,1,2,0:0:0:0:
64,192,83265,1,2,0:0:0:0:
320,192,83365,1,8,0:0:0:0:
448,192,83365,1,0,0:0:0:0:
192,192,83365,1,0,0:0:0:0:
448,192,83565,1,2,0:0:0:0:
320,192,83565,1,0,0:0:0:0:
192,192,83765,1,0,0:0:0:0:
64,192,83765,1,0,0:0:0:0:
192,192,83965,1,0,0:0:0:0:
320,192,83965,1,2,0:0:0:0:
320,192,84165,1,8,0:0:0:0:
448,192,84165,1,0,0:0:0:0:
64,192,84365,128,2,84665:0:0:0:0:
320,192,84365,128,8,84665:0:0:0:0:
448,192,84365,128,4,84665:0:0:0:0:
64,192,84765,1,2,0:0:0:0:
320,192,84765,1,4,0:0:0:0:
448,192,84765,1,8,0:0:0:0:
448,192,84965,1,8,0:0:0:0:
320,192,84965,1,4,0:0:0:0:
64,192,84965,1,2,0:0:0:0:
64,192,85565,1,0,0:0:0:0:
192,192,85565,1,2,0:0:0:0:
448,192,85615,1,2,0:0:0:0:
320,192,85665,1,2,0:0:0:0:
192,192,85715,1,2,0:0:0:0:
64,192,85765,1,8,0:0:0:0:
448,192,85765,1,0,0:0:0:0:
192,192,85965,1,8,0:0:0:0:
448,192,85965,1,0,0:0:0:0:
448,192,86065,1,0,0:0:0:0:
192,192,86065,1,8,0:0:0:0:
64,192,86165,128,4,86465:0:0:0:0:
320,192,86165,128,10,86465:0:0:0:0:
192,192,86465,1,0,0:0:0:0:
448,192,86465,1,2,0:0:0:0:
448,192,86565,1,2,0:0:0:0:
192,192,86565,1,0,0:0:0:0:
320,192,86765,128,4,87065:0:0:0:0:
64,192,86765,128,10,87065:0:0:0:0:
192,192,87065,1,2,0:0:0:0:
448,192,87065,1,0,0:0:0:0:
448,192,87165,1,0,0:0:0:0:
192,192,87165,1,2,0:0:0:0:
64,192,87365,128,10,87665:0:0:0:0:
320,192,87365,128,4,87665:0:0:0:0:
192,192,87665,1,2,0:0:0:0:
448,192,87665,1,0,0:0:0:0:
448,192,87765,1,0,0:0:0:0:
192,192,87765,1,2,0:0:0:0:
64,192,87965,1,0,0:0:0:0:
320,192,87965,1,8,0:0:0:0:
448,192,87965,1,2,0:0:0:0:
192,192,87965,1,4,0:0:0:0:
448,192,88165,1,2,0:0:0:0:
320,192,88165,1,8,0:0:0:0:
64,192,88165,1,0,0:0:0:0:
192,192,88165,1,4,0:0:0:0:
64,192,88365,128,0,89365:0:0:0:0:
192,192,88365,128,4,89265:0:0:0:0:
320,192,88365,128,8,89165:0:0:0:0:
448,192,88365,128,2,89065:0:0:0:0:
