osu file format v14

[General]
AudioFilename: audio.mp3
AudioLeadIn: 0
PreviewTime: 78140
Countdown: 0
SampleSet: Soft
StackLeniency: 0.7
Mode: 0
LetterboxInBreaks: 0
WidescreenStoryboard: 0

[Editor]
DistanceSpacing: 3
BeatDivisor: 4
GridSize: 4
TimelineZoom: 1

[Metadata]
Title:Hi no Ito Rinne no Gemini
TitleUnicode:緋ノ糸輪廻ノGEMINI
Artist:Petit Milady
ArtistUnicode:Petit Milady
Creator:Dziuras
Version:Insane
Source:聖剣使いの禁呪詠唱
Tags:dziuras seiken tsukai no world break ranjou satsuki urushibara shizuno momochi haruka shimon maya
BeatmapID:1760536
BeatmapSetID:841209

[Difficulty]
HPDrainRate:6
CircleSize:4
OverallDifficulty:6
ApproachRate:9
SliderMultiplier:1.6
SliderTickRate:2

[Events]
//Background and Video events
0,0,"seiken.png",0,0
//Break Periods
//Storyboard Layer 0 (Background)
//Storyboard Layer 1 (Fail)
//Storyboard Layer 2 (Pass)
//Storyboard Layer 3 (Foreground)
//Storyboard Sound Samples

[TimingPoints]
602,461.538461538462,4,2,0,100,1,0
602,-200,4,2,0,100,0,0
15371,-100,4,1,0,100,0,0
33717,-100,4,2,0,5,0,0
33832,-100,4,1,0,100,0,0
35332,-200,4,2,0,100,0,0
51717,-200,4,2,0,5,0,0
51832,-200,4,2,0,100,0,0
73871,-200,4,2,0,5,0,0
73986,-200,4,2,0,100,0,0
78140,-100,4,1,0,100,0,0
105717,-100,4,2,0,5,0,0
105832,-100,4,1,0,100,0,0
107332,-200,4,2,0,100,0,0
131678,-100,4,1,0,100,0,0
163063,-80,4,1,0,100,0,0
170448,-100,4,1,0,100,0,0
195948,-200,4,2,0,100,0,0
201717,-100,4,1,0,100,0,0
217063,-200,4,2,0,100,0,0
240140,-200,4,2,0,5,0,0

[Colours]
Combo1 : 255,255,255
Combo2 : 208,189,255
Combo3 : 255,255,255
Combo4 : 175,255,249
Combo5 : 255,255,255
Combo6 : 176,230,255

[HitObjects]
90,136,602,6,0,P|139:100|243:114,1,160,2|0,0:0|0:0,0:0:0:0:
173,166,2448,2,0,P|259:182|323:139,1,160,2|0,0:0|0:0,0:0:0:0:
240,109,4294,2,0,P|320:80|400:105,1,160,2|0,0:0|0:0,0:0:0:0:
329,149,6140,2,0,P|400:203|384:276,1,160,2|0,0:0|0:0,0:0:0:0:
331,223,7525,1,0,0:0:0:0:
231,224,7986,6,0,B|171:225|142:222|146:110,1,160,2|0,0:0|0:0,0:0:0:0:
228,91,9371,1,0,0:0:0:0:
321,91,9832,2,0,B|316:103|316:103|326:103|326:103|316:111|316:111|326:111|326:111|316:119|316:119|326:119|326:119|316:127|316:127|326:127|326:127|316:135|316:135|326:135|326:135|316:142|316:142|326:142|326:142|316:151|316:151|326:151,1,160,2|0,0:0|0:0,0:0:0:0:
321,239,11217,1,0,0:0:0:0:
190,239,11678,2,0,P|177:203|186:192,2,40,2|0|2,0:0|0:0|0:0,0:0:0:0:
241,203,12602,2,0,P|260:237|251:248,2,40,2|0|2,0:0|0:0|0:0,0:0:0:0:
193,150,13525,6,0,L|138:150,2,40,2|0|2,0:0|0:0|0:0,0:0:0:0:
319,150,14448,6,0,L|372:150,2,40,2|0|2,0:0|0:0|0:0,0:0:0:0:
255,151,15140,1,0,0:0:0:0:
197,86,15371,5,6,0:0:0:0:
163,106,15486,1,2,0:0:0:0:
141,140,15601,1,2,0:0:0:0:
137,179,15717,1,2,0:0:0:0:
150,216,15832,1,2,0:0:0:0:
255,151,16063,1,0,0:0:0:0:
315,86,16294,5,6,0:0:0:0:
348,106,16409,1,2,0:0:0:0:
370,140,16524,1,2,0:0:0:0:
374,179,16640,1,2,0:0:0:0:
361,216,16755,1,2,0:0:0:0:
255,151,16986,1,0,0:0:0:0:
195,216,17217,5,6,0:0:0:0:
162,196,17332,1,2,0:0:0:0:
140,162,17447,1,2,0:0:0:0:
136,123,17563,1,2,0:0:0:0:
144,43,17678,5,6,0:0:0:0:
168,63,17793,1,2,0:0:0:0:
194,80,17908,1,2,0:0:0:0:
223,92,18024,1,2,0:0:0:0:
286,102,18140,5,6,0:0:0:0:
278,124,18255,1,2,0:0:0:0:
264,143,18371,1,2,0:0:0:0:
246,158,18486,1,2,0:0:0:0:
198,163,18602,5,6,0:0:0:0:
194,178,18717,1,2,0:0:0:0:
196,193,18832,1,2,0:0:0:0:
201,207,18948,1,2,0:0:0:0:
256,216,19063,6,0,P|298:243|314:220,2,80,4|0|0,0:0|0:0|0:0,0:0:0:0:
327,82,19755,1,8,0:0:0:0:
172,134,19928,1,0,0:0:0:0:
172,134,19986,2,0,P|160:86|161:48,2,80,4|0|0,0:0|0:0|0:0,0:0:0:0:
327,82,20678,1,8,0:0:0:0:
380,192,20909,5,4,0:0:0:0:
271,309,21063,1,0,0:0:0:0:
270,148,21217,1,0,0:0:0:0:
386,257,21371,1,0,0:0:0:0:
446,24,21602,1,8,0:0:0:0:
459,207,21775,1,0,0:0:0:0:
459,207,21832,1,4,0:0:0:0:
371,129,22063,2,0,P|331:106|256:172,1,160,0|8,0:0|0:0,0:0:0:0:
256,248,22698,5,0,0:0:0:0:
256,248,22755,2,0,L|256:336,2,80,4|0|0,0:0|0:0|0:0,0:0:0:0:
256,136,23448,2,0,L|256:48,2,80,8|0|0,0:0|0:0|0:0,0:0:0:0:
256,192,24140,1,4,0:0:0:0:
64,192,24602,1,4,0:0:0:0:
240,281,24832,1,4,0:0:0:0:
394,98,25063,1,4,0:0:0:0:
256,356,25294,1,4,0:0:0:0:
167,182,25525,2,0,B|172:130|230:140|230:140|259:98|316:143,1,160,4|0,0:0|0:0,0:0:0:0:
330,176,26390,5,0,0:0:0:0:
330,176,26448,1,4,0:0:0:0:
265,276,26678,2,0,P|196:207|212:138,1,160,0|8,0:0|0:0,0:0:0:0:
330,176,27313,1,0,0:0:0:0:
330,176,27371,1,4,0:0:0:0:
447,202,27602,2,0,P|435:120|373:71,1,160,0|8,0:0|0:0,0:0:0:0:
330,176,28294,1,4,0:0:0:0:
214,66,28447,1,4,0:0:0:0:
241,223,28601,1,4,0:0:0:0:
310,78,28755,1,4,0:0:0:0:
181,280,28986,5,0,0:0:0:0:
229,109,29159,1,0,0:0:0:0:
229,109,29217,1,4,0:0:0:0:
93,162,29448,2,0,P|99:216|195:281,1,160,0|8,0:0|0:0,0:0:0:0:
216,183,30140,2,0,L|311:183,1,80,4|0,0:0|0:0,0:0:0:0:
144,183,30602,1,0,0:0:0:0:
366,183,30832,2,0,L|277:183,1,80,8|4,0:0|0:0,0:0:0:0:
144,183,31294,1,4,0:0:0:0:
257,292,31525,5,4,0:0:0:0:
255,183,31755,1,4,0:0:0:0:
331,186,31986,1,4,0:0:0:0:
266,117,32140,1,8,0:0:0:0:
297,244,32294,1,8,0:0:0:0:
191,136,32448,1,8,0:0:0:0:
258,309,32602,1,8,0:0:0:0:
133,148,32755,1,8,0:0:0:0:
206,354,32909,2,0,B|37:339|11:220|152:244,1,280,8|0,0:0|0:0,0:0:0:0:
168,246,33832,5,0,0:0:0:0:
233,144,33948,1,2,0:0:0:0:
277,137,34178,5,2,0:0:0:0:
340,239,34294,1,2,0:0:0:0:
386,215,34525,5,2,0:0:0:0:
372,96,34640,1,2,0:0:0:0:
418,80,34871,5,2,0:0:0:0:
468,188,34986,1,2,0:0:0:0:
424,241,35217,2,0,P|424:301|316:332,2,160,2|0|0,0:0|0:0|0:0,0:0:0:0:
360,272,36602,1,4,0:0:0:0:
315,220,37063,5,4,0:0:0:0:
270,173,37294,1,8,0:0:0:0:
223,117,37525,2,0,P|201:92|137:141,1,120
129,182,38448,2,0,L|127:270,1,80
132,320,39371,6,0,B|132:339|140:344|173:325,2,40
131,256,40063,1,0,0:0:0:0:
131,187,40294,2,0,P|131:159|183:131,1,80
240,121,40986,5,0,0:0:0:0:
308,112,41217,2,0,B|338:102|360:123|345:132,2,40
240,121,41909,1,0,0:0:0:0:
171,127,42140,2,0,B|151:137|121:106|188:79,1,80
240,52,42832,5,0,0:0:0:0:
311,40,43063,2,0,P|342:40|352:56,2,40
240,52,43755,1,0,0:0:0:0:
172,64,43986,2,0,B|146:88|158:96|209:128,1,80
260,147,44678,5,0,0:0:0:0:
323,177,44909,2,0,P|344:192|318:272,1,120
257,293,45832,2,0,B|229:293|216:282|219:219,1,80
212,164,46755,2,0,L|210:114,2,40
213,232,47448,1,0,0:0:0:0:
215,301,47678,2,0,B|226:321|235:322|303:317,1,80
351,306,48371,5,0,0:0:0:0:
417,295,48602,2,8,P|446:285|453:263,1,40
385,233,49294,2,8,P|400:213|393:195,2,40
306,216,50217,1,8,0:0:0:0:
291,147,50448,2,0,B|258:128|144:125|166:281,1,220,8|0,0:0|0:0,0:0:0:0:
255,265,52063,5,0,0:0:0:0:
324,265,52294,2,0,B|358:266|382:245|382:162,1,120
380,107,53217,1,0,0:0:0:0:
338,49,53678,1,0,0:0:0:0:
268,43,54140,6,0,L|223:42,2,40
338,50,54832,1,0,0:0:0:0:
409,80,55063,2,0,B|424:99|414:118|350:130,1,80
295,138,55755,5,0,0:0:0:0:
225,154,55986,2,0,L|184:153,2,40
297,179,56678,1,0,0:0:0:0:
363,208,56909,2,0,B|385:219|392:227|316:259,1,80
264,275,57602,5,0,0:0:0:0:
201,305,57832,2,0,P|182:317|158:305,2,40
264,275,58525,1,0,0:0:0:0:
319,238,58755,2,0,B|339:224|337:202|270:183,1,80
213,162,59448,5,0,0:0:0:0:
159,115,59678,2,0,B|142:95|146:81|265:89,1,120
312,91,60602,2,0,B|353:93|384:97|375:138,1,80
378,180,61525,2,0,P|375:210|354:223,2,40
356,118,62217,2,0,P|340:101|313:94,1,40
235,88,63140,5,0,0:0:0:0:
161,86,63371,2,0,P|128:99|132:181,1,120
162,230,64294,2,0,B|175:254|234:275|227:226,1,80
234,182,65217,2,0,B|236:60|244:58|381:57,1,240
439,60,67063,1,0,0:0:0:0:
440,203,67525,6,0,L|439:239,2,26.6666666666667
439,131,67986,2,0,P|402:133|374:176,1,80
364,226,68909,1,0,0:0:0:0:
240,178,69371,6,0,L|208:175,2,26.6666666666667
306,182,69832,2,0,P|306:145|257:121,1,80
203,152,70755,1,0,0:0:0:0:
203,221,71217,2,0,L|201:252,2,26.6666666666667
198,83,71678,2,0,B|162:88|146:96|134:143,1,80
94,207,72602,6,0,P|100:243|160:277,1,106.666666666667
150,275,73371,1,0,0:0:0:0:
150,275,73525,2,0,B|179:282|207:264|214:243,1,70
210,250,73986,2,0,P|223:226|225:211,1,40
222,155,74447,5,6,0:0:0:0:
233,151,74563,1,2,0:0:0:0:
244,149,74678,1,2,0:0:0:0:
256,149,74794,1,2,0:0:0:0:
275,114,74909,5,6,0:0:0:0:
269,107,75025,1,2,0:0:0:0:
262,102,75140,1,2,0:0:0:0:
255,98,75255,1,2,0:0:0:0:
202,97,75371,5,6,0:0:0:0:
187,110,75486,1,2,0:0:0:0:
179,128,75602,1,2,0:0:0:0:
175,147,75717,1,2,0:0:0:0:
207,169,75832,5,6,0:0:0:0:
218,180,75948,1,2,0:0:0:0:
230,190,76063,1,2,0:0:0:0:
242,199,76178,1,2,0:0:0:0:
322,197,76294,5,6,0:0:0:0:
343,179,76409,1,2,0:0:0:0:
359,155,76525,1,2,0:0:0:0:
365,127,76640,1,2,0:0:0:0:
317,97,76755,5,6,0:0:0:0:
298,81,76871,1,2,0:0:0:0:
276,71,76986,1,2,0:0:0:0:
252,66,77102,1,2,0:0:0:0:
226,106,77217,5,6,0:0:0:0:
226,125,77332,1,2,0:0:0:0:
230,144,77448,1,2,0:0:0:0:
239,161,77563,1,2,0:0:0:0:
206,183,77678,5,6,0:0:0:0:
190,185,77794,1,2,0:0:0:0:
174,180,77909,1,2,0:0:0:0:
159,173,78025,1,2,0:0:0:0:
144,166,78140,5,6,0:0:0:0:
180,86,78313,1,0,0:0:0:0:
180,86,78371,2,0,P|218:72|331:116,1,160,4|8,0:0|0:0,0:0:0:0:
264,201,79063,1,4,0:0:0:0:
97,188,79236,1,0,0:0:0:0:
97,188,79294,2,0,P|99:219|191:295,1,160,8|0,0:0|0:0,0:0:0:0:
312,230,79986,5,4,0:0:0:0:
201,113,80140,1,0,0:0:0:0:
239,268,80294,1,0,0:0:0:0:
328,135,80448,1,0,0:0:0:0:
105,221,80678,1,8,0:0:0:0:
284,195,80852,1,0,0:0:0:0:
284,195,80909,1,4,0:0:0:0:
177,109,81140,2,0,B|147:144|117:189|180:286,1,160,0|8,0:0|0:0,0:0:0:0:
291,199,81775,5,0,0:0:0:0:
292,199,81832,1,4,0:0:0:0:
394,125,82063,2,0,B|430:165|439:241|390:300,1,160,0|8,0:0|0:0,0:0:0:0:
207,285,82755,1,4,0:0:0:0:
345,183,82986,1,0,0:0:0:0:
149,224,83217,2,0,P|125:181|159:76,1,160,4|6,0:0|0:0,0:0:0:0:
176,71,83794,1,2,0:0:0:0:
199,66,83909,1,2,0:0:0:0:
232,132,84140,5,6,0:0:0:0:
213,146,84255,1,2,0:0:0:0:
191,156,84371,1,2,0:0:0:0:
249,216,84602,2,0,P|303:203|378:113,1,160,4|0,0:0|0:0,0:0:0:0:
199,66,85467,5,0,0:0:0:0:
199,66,85525,1,4,0:0:0:0:
114,65,85755,2,0,P|111:113|143:230,1,160,0|8,0:0|0:0,0:0:0:0:
276,157,86390,1,0,0:0:0:0:
276,157,86448,1,4,0:0:0:0:
381,73,86678,2,0,P|403:113|412:236,1,160,0|8,0:0|0:0,0:0:0:0:
173,242,87371,5,4,0:0:0:0:
279,122,87525,1,0,0:0:0:0:
307,278,87678,1,0,0:0:0:0:
198,160,87832,1,0,0:0:0:0:
428,226,88063,1,8,0:0:0:0:
248,215,88236,1,0,0:0:0:0:
248,215,88294,1,4,0:0:0:0:
117,308,88525,2,0,P|79:226|98:156,1,160
218,74,89217,5,4,0:0:0:0:
312,213,89448,2,0,P|266:239|158:233,1,160,0|8,0:0|0:0,0:0:0:0:
218,74,90140,1,4,0:0:0:0:
139,289,90371,1,4,0:0:0:0:
198,129,90602,1,4,0:0:0:0:
157,238,90832,1,4,0:0:0:0:
178,185,91063,5,8,0:0:0:0:
244,203,91217,1,8,0:0:0:0:
110,165,91371,1,8,0:0:0:0:
271,135,91525,1,8,0:0:0:0:
85,82,91678,1,8,0:0:0:0:
308,190,91832,1,8,0:0:0:0:
138,26,91986,2,0,P|160:81|179:349,1,320,8|0,0:0|0:0,0:0:0:0:
256,48,93832,5,4,0:0:0:0:
256,244,94294,1,4,0:0:0:0:
304,184,94525,1,8,0:0:0:0:
332,116,94755,2,0,P|260:112|142:230,1,240
290,252,95678,1,0,0:0:0:0:
371,82,96371,5,8,0:0:0:0:
285,37,96602,2,0,P|294:137|429:159,1,240
445,231,97525,2,0,P|381:247|277:216,1,160
200,243,98448,2,0,P|261:288|497:283,2,320,4|0|4,0:0|0:0|0:0,0:0:0:0:
198,241,101217,1,0,0:0:0:0:
198,241,102140,1,4,0:0:0:0:
198,241,103063,1,0,0:0:0:0:
156,176,103986,5,4,0:0:0:0:
259,132,104217,1,0,0:0:0:0:
181,240,104448,1,4,0:0:0:0:
313,174,104678,1,0,0:0:0:0:
221,299,104909,1,4,0:0:0:0:
381,161,105140,2,0,B|421:99|380:77|296:82|233:37,1,200
260,52,105833,5,0,0:0:0:0:
171,132,105948,1,2,0:0:0:0:
190,197,106179,5,2,0:0:0:0:
297,144,106294,1,2,0:0:0:0:
355,178,106525,5,2,0:0:0:0:
331,295,106640,1,2,0:0:0:0:
263,304,106871,5,2,0:0:0:0:
152,257,106986,1,2,0:0:0:0:
97,202,107217,2,0,B|92:153|118:120|222:129,2,160,2|0|0,0:0|0:0|0:0,0:0:0:0:
133,265,108602,1,4,0:0:0:0:
190,221,109063,5,4,0:0:0:0:
242,173,109294,1,8,0:0:0:0:
289,117,109525,2,0,P|311:92|375:141,1,120
383,182,110448,2,0,L|385:270,1,80
380,320,111371,6,0,B|380:339|372:344|339:325,2,40
381,256,112063,1,0,0:0:0:0:
381,187,112294,2,0,P|381:159|329:131,1,80
272,121,112986,5,0,0:0:0:0:
204,112,113217,2,0,B|174:102|152:123|167:132,2,40
272,121,113909,1,0,0:0:0:0:
341,127,114140,2,0,B|361:137|391:106|324:79,1,80
272,52,114832,5,0,0:0:0:0:
201,40,115063,2,0,P|170:40|160:56,2,40
272,52,115755,1,0,0:0:0:0:
340,64,115986,2,0,B|366:88|354:96|303:128,1,80
252,147,116678,5,0,0:0:0:0:
189,177,116909,2,0,P|168:192|194:272,1,120
255,293,117832,2,0,B|283:293|296:282|293:219,1,80
300,164,118755,2,0,L|302:114,2,40
299,232,119448,1,0,0:0:0:0:
297,301,119678,2,0,B|286:321|277:322|209:317,1,80
161,306,120371,5,0,0:0:0:0:
95,295,120602,2,4,P|66:285|59:263,1,40
125,232,121294,1,4,0:0:0:0:
106,170,121525,2,0,P|104:138|148:113,1,80,4|0,0:0|0:0,0:0:0:0:
218,102,122448,2,0,B|263:93|365:80|342:249,1,240,4|0,0:0|0:0,0:0:0:0:
242,295,124294,1,8,0:0:0:0:
177,219,124755,6,0,L|143:219,2,26.6666666666667
260,229,125217,2,0,P|257:192|216:151,1,80
328,169,126140,1,8,0:0:0:0:
401,83,126602,2,0,L|425:54,2,26.6666666666667
435,150,127063,2,0,P|405:161|346:135,1,80
307,77,127986,1,8,0:0:0:0:
163,89,128448,2,0,L|123:89,2,26.6666666666667
222,52,128909,2,0,P|236:79|216:139,1,80
122,189,129832,6,0,P|153:188|240:214,1,120,8|0,0:0|0:0,0:0:0:0:
264,226,130640,1,0,0:0:0:0:
287,244,130755,2,0,P|324:277|358:256,1,80
377,209,131448,1,8,0:0:0:0:
298,129,131678,5,6,0:0:0:0:
279,135,131794,1,2,0:0:0:0:
261,144,131909,1,2,0:0:0:0:
246,157,132025,1,2,0:0:0:0:
215,131,132140,5,6,0:0:0:0:
217,107,132255,1,2,0:0:0:0:
227,85,132371,1,2,0:0:0:0:
243,68,132486,1,2,0:0:0:0:
288,51,132602,5,6,0:0:0:0:
312,65,132717,1,2,0:0:0:0:
333,82,132832,1,2,0:0:0:0:
350,104,132948,1,2,0:0:0:0:
354,159,133063,5,6,0:0:0:0:
333,183,133178,1,2,0:0:0:0:
307,202,133294,1,2,0:0:0:0:
279,217,133409,1,2,0:0:0:0:
218,196,133525,5,6,0:0:0:0:
222,160,133640,1,2,0:0:0:0:
238,128,133755,1,2,0:0:0:0:
262,101,133871,1,2,0:0:0:0:
325,102,133986,5,6,0:0:0:0:
353,117,134102,1,2,0:0:0:0:
376,138,134217,1,2,0:0:0:0:
394,163,134332,1,2,0:0:0:0:
384,218,134448,5,6,0:0:0:0:
359,231,134563,1,2,0:0:0:0:
331,236,134678,1,2,0:0:0:0:
302,236,134794,1,2,0:0:0:0:
265,204,134909,5,6,0:0:0:0:
267,179,135025,1,2,0:0:0:0:
276,156,135140,1,2,0:0:0:0:
288,135,135255,1,2,0:0:0:0:
305,118,135371,5,6,0:0:0:0:
196,91,135544,1,0,0:0:0:0:
196,91,135602,2,0,B|179:135|100:169|167:229,1,160,4|0,0:0|0:0,0:0:0:0:
299,237,136294,5,8,0:0:0:0:
311,91,136467,1,0,0:0:0:0:
311,91,136525,2,0,P|359:112|409:215,1,160,4|0,0:0|0:0,0:0:0:0:
299,237,137217,5,4,0:0:0:0:
144,194,137371,1,0,0:0:0:0:
247,71,137525,1,0,0:0:0:0:
231,229,137678,1,0,0:0:0:0:
76,44,137909,1,8,0:0:0:0:
225,144,138082,1,0,0:0:0:0:
225,144,138140,1,4,0:0:0:0:
362,85,138371,2,0,P|391:134|332:243,1,160,0|8,0:0|0:0,0:0:0:0:
225,144,139005,5,0,0:0:0:0:
225,144,139063,1,4,0:0:0:0:
120,39,139294,2,0,P|86:79|82:213,1,160,0|8,0:0|0:0,0:0:0:0:
190,307,139986,1,4,0:0:0:0:
225,139,140217,1,0,0:0:0:0:
362,85,140448,2,0,P|391:134|332:243,1,160,4|4,0:0|0:0,0:0:0:0:
326,247,141025,1,2,0:0:0:0:
288,260,141140,1,2,0:0:0:0:
217,189,141371,5,6,0:0:0:0:
255,177,141486,1,2,0:0:0:0:
288,154,141602,1,2,0:0:0:0:
241,60,141832,6,0,P|191:88|11:80,1,240,4|8,0:0|0:0,0:0:0:0:
69,179,142755,1,4,0:0:0:0:
220,174,142928,1,0,0:0:0:0:
220,174,142986,2,8,P|290:174|384:115,1,160
253,40,143678,1,4,0:0:0:0:
220,174,143852,1,0,0:0:0:0:
220,174,143909,2,0,P|230:215|320:295,1,160,0|8,0:0|0:0,0:0:0:0:
392,64,144602,5,4,0:0:0:0:
352,218,144755,1,0,0:0:0:0:
234,109,144909,1,0,0:0:0:0:
390,140,145063,1,0,0:0:0:0:
176,250,145294,1,8,0:0:0:0:
308,128,145467,1,0,0:0:0:0:
308,128,145525,1,4,0:0:0:0:
205,42,145755,2,8,P|152:59|103:169,1,160
225,156,146448,5,4,0:0:0:0:
362,110,146621,1,0,0:0:0:0:
362,110,146678,2,0,P|377:181|328:251,1,160,0|4,0:0|0:0,0:0:0:0:
125,131,147371,1,4,0:0:0:0:
362,110,147602,1,4,0:0:0:0:
245,313,147832,1,4,0:0:0:0:
242,43,148063,1,4,0:0:0:0:
334,184,148294,5,6,0:0:0:0:
315,219,148409,1,2,0:0:0:0:
286,247,148525,1,2,0:0:0:0:
185,199,148755,5,6,0:0:0:0:
212,169,148871,1,2,0:0:0:0:
234,136,148986,1,2,0:0:0:0:
140,55,149217,6,0,P|99:89|180:310,1,320,4|0,0:0|0:0,0:0:0:0:
161,302,151063,1,4,0:0:0:0:
222,305,151525,1,4,0:0:0:0:
257,245,151755,1,8,0:0:0:0:
291,307,151986,2,0,P|341:290|374:123,1,240,4|0,0:0|0:0,0:0:0:0:
376,126,152909,2,0,P|341:88|167:132,1,240,4|0,0:0|0:0,0:0:0:0:
175,118,153832,2,0,P|154:175|275:309,1,240,4|0,0:0|0:0,0:0:0:0:
250,306,154755,2,0,P|308:321|411:273,2,160,4|0|4,0:0|0:0|0:0,0:0:0:0:
198,241,155909,6,2,L|179:186,1,40
273,245,156140,2,2,L|283:203,1,40
339,276,156371,2,2,L|369:192,1,80
268,132,157063,1,4,0:0:0:0:
190,126,157525,6,2,L|142:126,1,40
223,191,157755,2,2,L|182:233,1,40
289,190,157986,2,2,B|298:210|298:210|296:217|296:217|305:210|305:210|298:224|298:224|310:213|310:213|303:222|303:222|305:226,1,80
353,154,158448,2,2,L|411:208,1,53.3333333333333
350,283,158909,1,4,0:0:0:0:
348,210,159371,6,2,L|348:164,1,40
282,240,159602,2,2,L|249:208,1,40
279,313,159832,2,0,L|115:313,1,160,2|2,0:0|0:0,0:0:0:0:
153,188,160755,1,4,0:0:0:0:
238,120,161217,6,2,L|278:87,1,40,6|2,0:0|0:0,0:0:0:0:
225,199,161448,2,2,L|218:241,1,40
166,153,161678,1,2,0:0:0:0:
313,162,162140,6,2,L|339:125,1,40,6|2,0:0|0:0,0:0:0:0:
304,233,162371,2,2,L|327:277,1,40
238,192,162602,1,6,0:0:0:0:
198,186,162717,1,2,0:0:0:0:
175,179,162832,1,2,0:0:0:0:
168,174,162948,1,2,0:0:0:0:
118,115,163063,6,2,L|116:61,1,50,6|2,0:0|0:0,0:0:0:0:
82,210,163294,2,2,L|48:264,1,50
167,184,163525,2,2,L|229:199,1,50
217,195,163986,1,4,0:0:0:0:
249,211,164448,1,4,0:0:0:0:
294,145,164909,6,2,L|325:101,1,50,6|2,0:0|0:0,0:0:0:0:
317,239,165140,2,2,L|364:267,1,50
215,277,165371,2,2,L|188:324,1,50
250,211,165832,2,2,L|200:176,1,50,6|2,0:0|0:0,0:0:0:0:
205,178,166294,2,2,L|256:217,1,50,6|2,0:0|0:0,0:0:0:0:
292,151,166755,6,2,L|325:105,1,50,6|2,0:0|0:0,0:0:0:0:
200,154,166986,2,2,L|159:101,1,50
250,242,167217,2,2,L|250:295,1,50
249,181,167678,1,4,0:0:0:0:
249,181,168140,1,4,0:0:0:0:
345,110,168602,6,2,L|385:76,1,50,6|2,0:0|0:0,0:0:0:0:
311,209,168832,2,2,L|345:256,1,50
229,182,169063,1,2,0:0:0:0:
190,73,169525,2,2,L|136:71,1,50,6|2,0:0|0:0,0:0:0:0:
227,121,169755,2,2,L|221:172,1,50
289,137,169986,1,6,0:0:0:0:
339,132,170102,1,2,0:0:0:0:
362,123,170217,1,2,0:0:0:0:
362,123,170332,1,2,0:0:0:0:
379,184,170448,6,2,L|408:241,1,40,6|2,0:0|0:0,0:0:0:0:
327,240,170678,2,2,L|284:260,1,40
271,190,170909,2,0,L|197:46,1,160,6|4,0:0|0:0,0:0:0:0:
262,189,171832,1,4,0:0:0:0:
195,189,172294,6,2,L|155:189,1,40,6|2,0:0|0:0,0:0:0:0:
229,251,172525,2,2,L|204:290,1,40
299,242,172755,2,2,L|321:292,1,40
256,132,173217,2,2,L|261:91,1,40,6|2,0:0|0:0,0:0:0:0:
261,90,173678,2,2,L|256:134,1,40,6|2,0:0|0:0,0:0:0:0:
194,156,174140,6,2,L|146:176,1,40,6|2,0:0|0:0,0:0:0:0:
260,172,174371,2,2,L|254:229,1,40
326,151,174602,2,2,L|362:193,1,40
261,99,175063,1,4,0:0:0:0:
259,271,175525,1,4,0:0:0:0:
148,198,175986,5,6,0:0:0:0:
184,180,176102,1,2,0:0:0:0:
213,167,176217,1,2,0:0:0:0:
236,163,176332,1,2,0:0:0:0:
252,162,176448,1,2,0:0:0:0:
287,248,176909,5,6,0:0:0:0:
317,238,177025,1,2,0:0:0:0:
337,225,177140,1,2,0:0:0:0:
349,214,177255,1,2,0:0:0:0:
354,208,177371,1,2,0:0:0:0:
351,207,177486,2,2,L|387:171,2,40
281,147,177832,5,6,0:0:0:0:
275,190,177948,1,2,0:0:0:0:
260,227,178063,1,2,0:0:0:0:
239,256,178178,1,2,0:0:0:0:
214,277,178294,1,2,0:0:0:0:
192,294,178409,1,2,0:0:0:0:
171,306,178525,1,2,0:0:0:0:
152,314,178640,1,2,0:0:0:0:
103,245,178755,5,6,0:0:0:0:
105,200,178871,1,2,0:0:0:0:
119,162,178986,1,2,0:0:0:0:
139,132,179102,1,2,0:0:0:0:
164,112,179217,1,2,0:0:0:0:
188,98,179332,1,2,0:0:0:0:
211,91,179448,1,2,0:0:0:0:
230,88,179563,1,2,0:0:0:0:
276,154,179678,5,6,0:0:0:0:
242,199,179794,1,2,0:0:0:0:
199,220,179909,1,2,0:0:0:0:
158,218,180025,1,2,0:0:0:0:
158,283,180140,5,6,0:0:0:0:
203,297,180255,1,2,0:0:0:0:
243,299,180371,1,2,0:0:0:0:
274,291,180486,1,2,0:0:0:0:
340,262,180602,5,6,0:0:0:0:
338,301,180717,1,2,0:0:0:0:
325,330,180832,1,2,0:0:0:0:
308,347,180948,1,2,0:0:0:0:
242,349,181063,5,6,0:0:0:0:
210,343,181178,1,2,0:0:0:0:
188,332,181294,1,2,0:0:0:0:
173,324,181409,1,2,0:0:0:0:
165,320,181525,5,6,0:0:0:0:
220,232,181698,1,0,0:0:0:0:
220,232,181755,2,0,P|264:210|324:103,1,160,0|8,0:0|0:0,0:0:0:0:
202,109,182448,1,4,0:0:0:0:
104,201,182621,1,0,0:0:0:0:
104,201,182678,2,0,P|136:246|256:257,1,160,0|8,0:0|0:0,0:0:0:0:
206,101,183371,5,4,0:0:0:0:
361,140,183525,1,0,0:0:0:0:
256,259,183678,1,0,0:0:0:0:
291,102,183832,1,0,0:0:0:0:
392,319,184063,1,8,0:0:0:0:
281,176,184236,1,0,0:0:0:0:
281,176,184294,1,4,0:0:0:0:
142,100,184525,2,0,P|111:149|146:246,1,160,0|8,0:0|0:0,0:0:0:0:
281,176,185217,5,4,0:0:0:0:
385,79,185390,1,0,0:0:0:0:
385,79,185448,2,0,P|426:115|409:224,1,160,0|8,0:0|0:0,0:0:0:0:
181,176,186140,1,4,0:0:0:0:
373,319,186371,1,0,0:0:0:0:
331,82,186602,2,0,P|282:55|190:93,1,160,4|0,0:0|0:0,0:0:0:0:
226,247,187217,5,8,0:0:0:0:
386,242,187371,1,8,0:0:0:0:
279,122,187525,1,8,0:0:0:0:
309,278,187678,1,8,0:0:0:0:
387,138,187832,1,8,0:0:0:0:
232,179,187986,2,0,P|153:159|113:80,1,160,4|0,0:0|0:0,0:0:0:0:
256,166,188852,5,0,0:0:0:0:
256,166,188909,1,4,0:0:0:0:
353,83,189140,2,0,P|390:138|379:249,1,160,0|8,0:0|0:0,0:0:0:0:
216,294,189832,1,4,0:0:0:0:
252,164,190005,1,0,0:0:0:0:
252,164,190063,2,0,P|209:114|120:137,1,160,0|8,0:0|0:0,0:0:0:0:
171,203,190755,5,4,0:0:0:0:
294,84,190909,1,0,0:0:0:0:
328,251,191063,1,0,0:0:0:0:
212,125,191217,1,0,0:0:0:0:
460,187,191448,1,8,0:0:0:0:
268,187,191621,1,0,0:0:0:0:
268,187,191678,1,4,0:0:0:0:
177,281,191909,2,0,P|127:229|130:130,1,160,0|8,0:0|0:0,0:0:0:0:
268,187,192602,5,4,0:0:0:0:
443,144,192832,2,0,P|443:191|349:288,1,160,0|8,0:0|0:0,0:0:0:0:
197,155,193525,1,4,0:0:0:0:
375,154,193755,1,4,0:0:0:0:
250,102,193986,1,4,0:0:0:0:
307,195,194217,1,4,0:0:0:0:
319,114,194448,5,8,0:0:0:0:
247,235,194602,1,8,0:0:0:0:
391,138,194755,1,8,0:0:0:0:
210,148,194909,1,8,0:0:0:0:
392,239,195063,1,8,0:0:0:0:
264,96,195217,1,8,0:0:0:0:
326,291,195371,2,0,P|265:310|151:271,1,160,4|0,0:0|0:0,0:0:0:0:
146,172,196178,6,0,L|123:200,1,20
202,210,196409,2,0,L|214:231,1,20
214,138,196640,2,0,L|246:135,1,20
199,73,196871,2,0,L|186:40,1,20
266,60,197102,2,0,L|281:43,1,20
284,124,197332,2,0,L|298:156,1,20
355,124,197563,2,0,L|388:108,1,20
322,68,197794,2,0,L|322:42,1,20
252,103,198025,6,0,L|229:85,1,20
313,141,198255,2,0,L|325:174,1,20
382,146,198486,2,0,L|382:180,1,20
443,183,198717,2,0,L|431:210,1,20
467,258,198948,2,0,L|447:270,1,20
401,317,199178,2,0,L|383:293,1,20
323,273,199409,2,0,L|343:248,1,20
330,187,199640,2,0,L|363:189,1,20
417,188,199871,1,0,0:0:0:0:
398,250,199986,6,0,P|342:269|237:261,1,160,4|0,0:0|0:0,0:0:0:0:
246,184,201775,5,0,0:0:0:0:
246,184,201832,1,4,0:0:0:0:
197,254,202063,2,0,P|162:210|193:114,1,160,0|8,0:0|0:0,0:0:0:0:
330,184,202755,1,4,0:0:0:0:
169,185,202928,1,0,0:0:0:0:
169,185,202986,2,0,B|122:184|53:184|50:79,1,160,0|8,0:0|0:0,0:0:0:0:
188,80,203678,5,4,0:0:0:0:
326,159,203832,1,0,0:0:0:0:
191,246,203986,1,0,0:0:0:0:
269,106,204140,1,0,0:0:0:0:
306,343,204371,1,8,0:0:0:0:
241,174,204544,1,0,0:0:0:0:
241,174,204602,1,4,0:0:0:0:
116,156,204832,2,0,P|77:189|115:283,1,160,0|8,0:0|0:0,0:0:0:0:
243,244,205467,5,0,0:0:0:0:
243,244,205525,1,4,0:0:0:0:
347,332,205755,2,0,P|380:291|363:187,1,160,0|8,0:0|0:0,0:0:0:0:
205,306,206448,2,0,P|171:248|190:207,1,80,4|0,0:0|0:0,0:0:0:0:
361,189,206909,2,0,P|308:138|213:118,1,160,0|4,0:0|0:0,0:0:0:0:
214,224,207525,5,8,0:0:0:0:
312,152,207678,1,8,0:0:0:0:
178,115,207832,1,8,0:0:0:0:
291,220,207986,1,8,0:0:0:0:
240,56,208140,1,8,0:0:0:0:
123,202,208294,2,0,P|149:276|247:308,1,160,4|0,0:0|0:0,0:0:0:0:
247,184,209217,5,4,0:0:0:0:
341,95,209390,1,0,0:0:0:0:
341,95,209448,2,0,P|360:125|364:257,1,160,0|8,0:0|0:0,0:0:0:0:
247,184,210140,1,4,0:0:0:0:
144,100,210313,1,0,0:0:0:0:
144,100,210371,2,0,P|122:145|126:253,1,160,0|8,0:0|0:0,0:0:0:0:
320,111,211063,5,4,0:0:0:0:
425,231,211217,1,0,0:0:0:0:
273,282,211371,1,0,0:0:0:0:
382,165,211525,1,0,0:0:0:0:
143,179,211755,1,8,0:0:0:0:
320,208,211928,1,0,0:0:0:0:
320,208,211986,1,4,0:0:0:0:
211,115,212217,2,0,P|230:192|173:276,1,160,0|8,0:0|0:0,0:0:0:0:
143,176,212909,5,4,0:0:0:0:
318,208,213082,1,0,0:0:0:0:
318,208,213140,2,0,B|362:211|381:212|401:92,1,160,0|8,0:0|0:0,0:0:0:0:
160,89,213832,5,4,0:0:0:0:
281,258,214063,1,4,0:0:0:0:
300,82,214294,1,4,0:0:0:0:
196,182,214525,1,4,0:0:0:0:
305,161,214755,1,4,0:0:0:0:
223,109,214909,5,8,0:0:0:0:
255,221,215063,1,8,0:0:0:0:
307,98,215217,1,8,0:0:0:0:
162,153,215371,1,8,0:0:0:0:
332,197,215525,1,8,0:0:0:0:
187,72,215678,2,0,P|118:96|174:290,1,320,4|0,0:0|0:0,0:0:0:0:
162,287,217525,5,4,0:0:0:0:
228,302,217986,1,4,0:0:0:0:
266,241,218217,1,8,0:0:0:0:
299,306,218448,2,0,P|348:284|358:246,2,80,4|0|4,0:0|0:0|0:0,0:0:0:0:
234,297,220063,5,8,0:0:0:0:
162,283,220294,2,0,P|116:263|109:230,2,80,4|0|4,0:0|0:0|0:0,0:0:0:0:
160,282,221678,1,4,0:0:0:0:
223,250,222140,2,0,B|225:235|225:235|213:233|213:233|214:223|214:223|226:225|226:225|227:211|227:211|237:212|237:212|238:201|238:201|228:200|228:200|229:185|229:185|219:185|219:185|220:172|220:172|231:173|231:173|232:164|232:164|233:155,1,160,2|0,0:0|0:0,0:0:0:0:
260,77,223986,2,0,P|300:103|325:219,1,160,2|0,0:0|0:0,0:0:0:0:
254,165,225832,2,0,P|237:231|308:295,1,160,2|0,0:0|0:0,0:0:0:0:
309,218,227678,2,0,P|335:152|287:84,1,160,2|0,0:0|0:0,0:0:0:0:
266,157,229063,5,0,0:0:0:0:
195,142,229525,2,0,B|136:138|123:154|123:262,1,160,2|0,0:0|0:0,0:0:0:0:
209,251,230909,1,0,0:0:0:0:
298,236,231371,2,0,B|298:223|298:223|291:215|291:215|303:215|303:215|291:208|291:208|303:208|303:208|291:200|291:200|303:200|303:200|291:192|291:192|303:192|303:192|291:184|291:184|303:184|303:184|297:164|297:164|298:151,1,160,2|0,0:0|0:0,0:0:0:0:
222,138,232755,1,0,0:0:0:0:
217,62,233217,2,0,L|172:60,2,40,2|2|2,0:0|0:0|0:0,0:0:0:0:
150,139,234140,2,0,L|150:188,2,40,2|0|2,0:0|0:0|0:0,0:0:0:0:
221,210,235063,2,0,L|276:210,2,40,2|0|2,0:0|0:0|0:0,0:0:0:0:
297,139,235986,2,0,L|297:88,2,40,2|0|2,0:0|0:0|0:0,0:0:0:0:
297,31,236678,1,4,0:0:0:0:
256,192,236909,12,0,240602,0:0:0:0:
