osu file format v14

[General]
AudioFilename: audio.mp3
AudioLeadIn: 0
PreviewTime: 506
Countdown: 0
SampleSet: Soft
StackLeniency: 0.7
Mode: 3
LetterboxInBreaks: 0
SpecialStyle: 0
WidescreenStoryboard: 0

[Editor]
DistanceSpacing: 1.6
BeatDivisor: 4
GridSize: 32
TimelineZoom: 1

[Metadata]
Title:Last Reunion (Cut Ver.)
TitleUnicode:Last Reunion (Cut Ver.)
Artist:Peter Roe
ArtistUnicode:Peter Roe
Creator:Obilariated
Version:Normal +
Source:EMVN
Tags:epic music vn
BeatmapID:937248
BeatmapSetID:435056

[Difficulty]
HPDrainRate:7.5
CircleSize:4
OverallDifficulty:7.5
ApproachRate:5
SliderMultiplier:1.4
SliderTickRate:1

[Events]
//Background and Video events
0,0,"BG.jpg",0,0
//Break Periods
//Storyboard Layer 0 (Background)
//Storyboard Layer 1 (Fail)
//Storyboard Layer 2 (Pass)
//Storyboard Layer 3 (Foreground)
//Storyboard Sound Samples

[TimingPoints]
506,428.571428571429,4,2,1,15,1,0
72506,-100,4,2,1,15,0,1
130791,-100,4,2,2,15,0,0

[HitObjects]
64,192,506,5,0,0:0:0:0:
448,192,506,1,0,0:0:0:0:
192,192,934,1,0,0:0:0:0:
448,192,1363,1,0,0:0:0:0:
64,192,1791,1,0,0:0:0:0:
320,192,2220,1,0,0:0:0:0:
64,192,3077,1,0,0:0:0:0:
192,192,3506,1,0,0:0:0:0:
320,192,3934,1,0,0:0:0:0:
448,192,4791,1,0,0:0:0:0:
192,192,5648,1,0,0:0:0:0:
320,192,6506,1,0,0:0:0:0:
448,192,7363,1,0,0:0:0:0:
192,192,7363,1,0,0:0:0:0:
64,192,7791,1,0,0:0:0:0:
320,192,8220,1,0,0:0:0:0:
64,192,8648,1,0,0:0:0:0:
192,192,9077,1,0,0:0:0:0:
448,192,9934,1,0,0:0:0:0:
320,192,10791,1,0,0:0:0:0:
64,192,12506,1,0,0:0:0:0:
448,192,13363,1,0,0:0:0:0:
192,192,13791,1,0,0:0:0:0:
64,192,14220,1,0,0:0:0:0:
320,192,14220,1,0,0:0:0:0:
448,192,14648,1,0,0:0:0:0:
192,192,15077,1,0,0:0:0:0:
320,192,15506,1,0,0:0:0:0:
64,192,15934,1,0,0:0:0:0:
192,192,16791,1,0,0:0:0:0:
320,192,17220,1,0,0:0:0:0:
448,192,17648,1,0,0:0:0:0:
64,192,17648,1,0,0:0:0:0:
64,192,18506,1,0,0:0:0:0:
192,192,19363,1,0,0:0:0:0:
448,192,20220,1,0,0:0:0:0:
320,192,21077,1,0,0:0:0:0:
64,192,21077,1,0,0:0:0:0:
192,192,21506,1,0,0:0:0:0:
448,192,21934,1,0,0:0:0:0:
64,192,22363,1,0,0:0:0:0:
448,192,22791,1,0,0:0:0:0:
320,192,23648,1,0,0:0:0:0:
192,192,24506,1,0,0:0:0:0:
64,192,24506,128,0,27934:0:0:0:0:
448,192,26220,128,0,27934:0:0:0:0:
320,192,27934,1,0,0:0:0:0:
192,192,28363,1,0,0:0:0:0:
64,192,28791,1,0,0:0:0:0:
448,192,29220,1,0,0:0:0:0:
320,192,29648,1,0,0:0:0:0:
64,192,30506,1,0,0:0:0:0:
192,192,30934,1,0,0:0:0:0:
320,192,31363,1,0,0:0:0:0:
64,192,31363,1,0,0:0:0:0:
448,192,32220,1,0,0:0:0:0:
192,192,33077,1,0,0:0:0:0:
64,192,33934,1,0,0:0:0:0:
320,192,34791,1,0,0:0:0:0:
448,192,34791,1,0,0:0:0:0:
192,192,35220,1,0,0:0:0:0:
64,192,35648,1,0,0:0:0:0:
320,192,36077,1,0,0:0:0:0:
448,192,36506,1,0,0:0:0:0:
192,192,37363,1,0,0:0:0:0:
320,192,38220,1,0,0:0:0:0:
64,192,38220,1,0,0:0:0:0:
192,192,39934,1,0,0:0:0:0:
448,192,40791,1,0,0:0:0:0:
320,192,41220,1,0,0:0:0:0:
64,192,41648,1,0,0:0:0:0:
448,192,41648,1,0,0:0:0:0:
192,192,42077,128,0,42506:0:0:0:0:
320,192,42506,128,0,42934:0:0:0:0:
64,192,42934,128,0,43363:0:0:0:0:
320,192,43363,128,0,44220:0:0:0:0:
192,192,44220,128,0,45077:0:0:0:0:
320,192,45077,128,0,45934:0:0:0:0:
64,192,45077,1,0,0:0:0:0:
448,192,45934,128,0,46791:0:0:0:0:
192,192,46791,128,0,48506:0:0:0:0:
64,192,47648,1,0,0:0:0:0:
448,192,48506,1,0,0:0:0:0:
64,192,48934,128,0,49363:0:0:0:0:
192,192,49363,128,0,49791:0:0:0:0:
64,192,49791,128,0,50220:0:0:0:0:
192,192,50220,128,0,51077:0:0:0:0:
320,192,51077,128,0,51934:0:0:0:0:
448,192,51934,128,0,57077:0:0:0:0:
64,192,51934,1,0,0:0:0:0:
192,192,55363,1,0,0:0:0:0:
64,192,57506,128,0,58791:0:0:0:0:
448,192,58791,1,0,0:0:0:0:
192,192,59220,1,0,0:0:0:0:
320,192,59648,1,0,0:0:0:0:
64,192,60077,1,0,0:0:0:0:
320,192,60506,1,0,0:0:0:0:
192,192,61363,1,0,0:0:0:0:
320,192,61791,1,0,0:0:0:0:
448,192,62220,1,0,0:0:0:0:
64,192,63077,1,0,0:0:0:0:
320,192,63506,1,0,0:0:0:0:
192,192,63934,1,0,0:0:0:0:
320,192,64791,1,0,0:0:0:0:
64,192,64791,1,0,0:0:0:0:
64,192,65113,1,0,0:0:0:0:
320,192,65113,1,0,0:0:0:0:
192,192,65434,1,0,0:0:0:0:
448,192,65434,1,0,0:0:0:0:
64,192,65648,1,0,0:0:0:0:
320,192,65648,1,0,0:0:0:0:
192,192,66077,1,0,0:0:0:0:
448,192,66506,1,0,0:0:0:0:
320,192,66934,1,0,0:0:0:0:
448,192,67363,1,0,0:0:0:0:
64,192,68220,1,0,0:0:0:0:
192,192,68648,1,0,0:0:0:0:
320,192,69077,1,0,0:0:0:0:
192,192,69934,1,0,0:0:0:0:
320,192,70363,1,0,0:0:0:0:
448,192,70791,128,0,72506:0:0:0:0:
64,192,72506,1,0,0:0:0:0:
192,192,72934,1,0,0:0:0:0:
320,192,73363,1,0,0:0:0:0:
448,192,73363,1,0,0:0:0:0:
64,192,73791,1,0,0:0:0:0:
320,192,74220,1,0,0:0:0:0:
192,192,74434,1,0,0:0:0:0:
64,192,74541,1,0,0:0:0:0:
448,192,74648,1,0,0:0:0:0:
320,192,74863,1,0,0:0:0:0:
192,192,75077,1,0,0:0:0:0:
64,192,75077,1,0,0:0:0:0:
448,192,75398,1,0,0:0:0:0:
192,192,75506,1,0,0:0:0:0:
64,192,75720,1,0,0:0:0:0:
192,192,75934,1,0,0:0:0:0:
448,192,75934,1,0,0:0:0:0:
64,192,76363,1,0,0:0:0:0:
192,192,76577,1,0,0:0:0:0:
320,192,76791,1,0,0:0:0:0:
448,192,76791,1,0,0:0:0:0:
192,192,77220,1,0,0:0:0:0:
64,192,77648,1,0,0:0:0:0:
448,192,77863,1,0,0:0:0:0:
192,192,77970,1,0,0:0:0:0:
320,192,78077,1,0,0:0:0:0:
64,192,78291,1,0,0:0:0:0:
192,192,78506,1,0,0:0:0:0:
448,192,78506,1,0,0:0:0:0:
64,192,78827,1,0,0:0:0:0:
320,192,78934,1,0,0:0:0:0:
192,192,79148,1,0,0:0:0:0:
64,192,79363,1,0,0:0:0:0:
320,192,79363,1,0,0:0:0:0:
448,192,79791,1,0,0:0:0:0:
320,192,80006,1,0,0:0:0:0:
192,192,80220,1,0,0:0:0:0:
64,192,80220,1,0,0:0:0:0:
448,192,80648,1,0,0:0:0:0:
320,192,81077,1,0,0:0:0:0:
448,192,81291,1,0,0:0:0:0:
64,192,81398,1,0,0:0:0:0:
192,192,81506,1,0,0:0:0:0:
448,192,81720,1,0,0:0:0:0:
320,192,81934,1,0,0:0:0:0:
64,192,81934,1,0,0:0:0:0:
192,192,82256,1,0,0:0:0:0:
64,192,82363,1,0,0:0:0:0:
448,192,82577,1,0,0:0:0:0:
192,192,82791,1,0,0:0:0:0:
320,192,82791,1,0,0:0:0:0:
64,192,83006,1,0,0:0:0:0:
192,192,83220,1,0,0:0:0:0:
320,192,83434,1,0,0:0:0:0:
448,192,83648,1,0,0:0:0:0:
64,192,83648,1,0,0:0:0:0:
192,192,83863,1,0,0:0:0:0:
64,192,84077,1,0,0:0:0:0:
320,192,84291,1,0,0:0:0:0:
448,192,84506,1,0,0:0:0:0:
64,192,84720,1,0,0:0:0:0:
192,192,84934,1,0,0:0:0:0:
320,192,85148,1,0,0:0:0:0:
448,192,85363,1,0,0:0:0:0:
192,192,85363,1,0,0:0:0:0:
64,192,85577,1,0,0:0:0:0:
192,192,85684,1,0,0:0:0:0:
448,192,85684,1,0,0:0:0:0:
320,192,85791,1,0,0:0:0:0:
192,192,86006,1,0,0:0:0:0:
64,192,86006,1,0,0:0:0:0:
448,192,86220,1,0,0:0:0:0:
320,192,86220,1,0,0:0:0:0:
192,192,86648,1,0,0:0:0:0:
64,192,87077,1,0,0:0:0:0:
320,192,87077,1,0,0:0:0:0:
192,192,87506,1,0,0:0:0:0:
448,192,87934,1,0,0:0:0:0:
192,192,88148,1,0,0:0:0:0:
320,192,88256,1,0,0:0:0:0:
64,192,88363,1,0,0:0:0:0:
192,192,88577,1,0,0:0:0:0:
320,192,88791,1,0,0:0:0:0:
448,192,88791,1,0,0:0:0:0:
64,192,89113,1,0,0:0:0:0:
320,192,89220,1,0,0:0:0:0:
192,192,89434,1,0,0:0:0:0:
448,192,89648,1,0,0:0:0:0:
64,192,89648,1,0,0:0:0:0:
320,192,90077,1,0,0:0:0:0:
448,192,90291,1,0,0:0:0:0:
192,192,90506,1,0,0:0:0:0:
64,192,90506,1,0,0:0:0:0:
320,192,90934,1,0,0:0:0:0:
64,192,91363,1,0,0:0:0:0:
192,192,91577,1,0,0:0:0:0:
448,192,91684,1,0,0:0:0:0:
320,192,91791,1,0,0:0:0:0:
64,192,92006,1,0,0:0:0:0:
192,192,92220,1,0,0:0:0:0:
448,192,92220,1,0,0:0:0:0:
320,192,92541,1,0,0:0:0:0:
64,192,92648,1,0,0:0:0:0:
192,192,92863,1,0,0:0:0:0:
448,192,93077,1,0,0:0:0:0:
320,192,93077,1,0,0:0:0:0:
192,192,93506,1,0,0:0:0:0:
448,192,93720,1,0,0:0:0:0:
64,192,93934,1,0,0:0:0:0:
320,192,93934,1,0,0:0:0:0:
192,192,94363,1,0,0:0:0:0:
64,192,94791,1,0,0:0:0:0:
448,192,94791,1,0,0:0:0:0:
320,192,95006,1,0,0:0:0:0:
192,192,95113,1,0,0:0:0:0:
448,192,95220,1,0,0:0:0:0:
64,192,95434,1,0,0:0:0:0:
192,192,95648,1,0,0:0:0:0:
320,192,95648,1,0,0:0:0:0:
64,192,95970,1,0,0:0:0:0:
448,192,96077,1,0,0:0:0:0:
320,192,96291,1,0,0:0:0:0:
192,192,96506,1,0,0:0:0:0:
448,192,96506,1,0,0:0:0:0:
64,192,96934,1,0,0:0:0:0:
320,192,97148,1,0,0:0:0:0:
192,192,97363,1,0,0:0:0:0:
64,192,97363,1,0,0:0:0:0:
448,192,97791,1,0,0:0:0:0:
320,192,98220,1,0,0:0:0:0:
64,192,98220,1,0,0:0:0:0:
192,192,98434,1,0,0:0:0:0:
448,192,98434,1,0,0:0:0:0:
192,192,98863,1,0,0:0:0:0:
448,192,98863,1,0,0:0:0:0:
64,192,99077,1,0,0:0:0:0:
320,192,99077,1,0,0:0:0:0:
192,192,99291,1,0,0:0:0:0:
448,192,99506,1,0,0:0:0:0:
64,192,99720,1,0,0:0:0:0:
448,192,99934,1,0,0:0:0:0:
192,192,99934,1,0,0:0:0:0:
320,192,100363,1,0,0:0:0:0:
64,192,100791,1,0,0:0:0:0:
192,192,100791,1,0,0:0:0:0:
448,192,101220,1,0,0:0:0:0:
320,192,101648,1,0,0:0:0:0:
64,192,101648,1,0,0:0:0:0:
448,192,101863,1,0,0:0:0:0:
192,192,101970,1,0,0:0:0:0:
320,192,102077,1,0,0:0:0:0:
64,192,102291,1,0,0:0:0:0:
192,192,102506,1,0,0:0:0:0:
448,192,102506,1,0,0:0:0:0:
320,192,102827,1,0,0:0:0:0:
64,192,102934,1,0,0:0:0:0:
192,192,103148,1,0,0:0:0:0:
320,192,103363,1,0,0:0:0:0:
448,192,103363,1,0,0:0:0:0:
192,192,103791,1,0,0:0:0:0:
448,192,104006,1,0,0:0:0:0:
320,192,104220,1,0,0:0:0:0:
64,192,104220,1,0,0:0:0:0:
192,192,104648,1,0,0:0:0:0:
448,192,105077,1,0,0:0:0:0:
64,192,105077,1,0,0:0:0:0:
320,192,105291,1,0,0:0:0:0:
192,192,105398,1,0,0:0:0:0:
320,192,105506,1,0,0:0:0:0:
64,192,105720,1,0,0:0:0:0:
192,192,105934,1,0,0:0:0:0:
448,192,105934,1,0,0:0:0:0:
320,192,106256,1,0,0:0:0:0:
192,192,106363,1,0,0:0:0:0:
448,192,106577,1,0,0:0:0:0:
320,192,106791,1,0,0:0:0:0:
64,192,106791,1,0,0:0:0:0:
192,192,107220,1,0,0:0:0:0:
64,192,107434,1,0,0:0:0:0:
320,192,107648,1,0,0:0:0:0:
448,192,107648,1,0,0:0:0:0:
192,192,108077,1,0,0:0:0:0:
448,192,108506,1,0,0:0:0:0:
64,192,108506,1,0,0:0:0:0:
320,192,108720,1,0,0:0:0:0:
192,192,108827,1,0,0:0:0:0:
448,192,108934,1,0,0:0:0:0:
64,192,109148,1,0,0:0:0:0:
320,192,109363,1,0,0:0:0:0:
192,192,109363,1,0,0:0:0:0:
64,192,109684,1,0,0:0:0:0:
448,192,109791,1,0,0:0:0:0:
320,192,110006,1,0,0:0:0:0:
192,192,110220,1,0,0:0:0:0:
64,192,110220,1,0,0:0:0:0:
448,192,110434,1,0,0:0:0:0:
320,192,110648,1,0,0:0:0:0:
192,192,110863,1,0,0:0:0:0:
64,192,111077,1,0,0:0:0:0:
320,192,111077,1,0,0:0:0:0:
448,192,111291,1,0,0:0:0:0:
320,192,111506,1,0,0:0:0:0:
192,192,111720,1,0,0:0:0:0:
320,192,111934,1,0,0:0:0:0:
448,192,111934,1,0,0:0:0:0:
64,192,112148,1,0,0:0:0:0:
192,192,112363,1,0,0:0:0:0:
320,192,112577,1,0,0:0:0:0:
192,192,112791,1,0,0:0:0:0:
64,192,112791,1,0,0:0:0:0:
320,192,113006,1,0,0:0:0:0:
448,192,113006,1,0,0:0:0:0:
64,192,113220,1,0,0:0:0:0:
192,192,113220,1,0,0:0:0:0:
64,192,113434,1,0,0:0:0:0:
192,192,113434,1,0,0:0:0:0:
448,192,113648,1,0,0:0:0:0:
320,192,113648,1,0,0:0:0:0:
64,192,114077,1,0,0:0:0:0:
320,192,114291,1,0,0:0:0:0:
192,192,114506,1,0,0:0:0:0:
448,192,114506,1,0,0:0:0:0:
64,192,114934,1,0,0:0:0:0:
320,192,115363,1,0,0:0:0:0:
192,192,115363,1,0,0:0:0:0:
448,192,115577,1,0,0:0:0:0:
64,192,115684,1,0,0:0:0:0:
320,192,115791,1,0,0:0:0:0:
192,192,116006,1,0,0:0:0:0:
64,192,116220,1,0,0:0:0:0:
448,192,116220,1,0,0:0:0:0:
320,192,116434,1,0,0:0:0:0:
192,192,116541,1,0,0:0:0:0:
448,192,116648,1,0,0:0:0:0:
320,192,116863,1,0,0:0:0:0:
192,192,117077,1,0,0:0:0:0:
64,192,117077,1,0,0:0:0:0:
320,192,117506,1,0,0:0:0:0:
64,192,117720,1,0,0:0:0:0:
192,192,117934,1,0,0:0:0:0:
448,192,117934,1,0,0:0:0:0:
320,192,118363,1,0,0:0:0:0:
64,192,118791,1,0,0:0:0:0:
192,192,118791,1,0,0:0:0:0:
448,192,119006,1,0,0:0:0:0:
320,192,119113,1,0,0:0:0:0:
64,192,119220,1,0,0:0:0:0:
192,192,119434,1,0,0:0:0:0:
448,192,119648,1,0,0:0:0:0:
320,192,119648,1,0,0:0:0:0:
64,192,119863,1,0,0:0:0:0:
448,192,120077,1,0,0:0:0:0:
192,192,120077,1,0,0:0:0:0:
192,192,120291,1,0,0:0:0:0:
448,192,120291,1,0,0:0:0:0:
64,192,120506,1,0,0:0:0:0:
320,192,120506,1,0,0:0:0:0:
192,192,120934,1,0,0:0:0:0:
320,192,121148,1,0,0:0:0:0:
448,192,121363,1,0,0:0:0:0:
64,192,121363,1,0,0:0:0:0:
192,192,121791,1,0,0:0:0:0:
448,192,122220,1,0,0:0:0:0:
64,192,122434,1,0,0:0:0:0:
320,192,122541,1,0,0:0:0:0:
192,192,122648,1,0,0:0:0:0:
320,192,122863,1,0,0:0:0:0:
64,192,123077,1,0,0:0:0:0:
192,192,123077,1,0,0:0:0:0:
448,192,123291,1,0,0:0:0:0:
64,192,123398,1,0,0:0:0:0:
320,192,123506,1,0,0:0:0:0:
320,192,123720,1,0,0:0:0:0:
192,192,123934,1,0,0:0:0:0:
448,192,123934,1,0,0:0:0:0:
64,192,124148,1,0,0:0:0:0:
192,192,124363,1,0,0:0:0:0:
320,192,124577,1,0,0:0:0:0:
448,192,124791,1,0,0:0:0:0:
64,192,124791,1,0,0:0:0:0:
192,192,125006,1,0,0:0:0:0:
64,192,125220,1,0,0:0:0:0:
320,192,125434,1,0,0:0:0:0:
192,192,125648,1,0,0:0:0:0:
448,192,125863,1,0,0:0:0:0:
64,192,125970,1,0,0:0:0:0:
320,192,126077,1,0,0:0:0:0:
192,192,126291,1,0,0:0:0:0:
64,192,126506,1,0,0:0:0:0:
448,192,126506,1,0,0:0:0:0:
320,192,126720,1,0,0:0:0:0:
448,192,126934,1,0,0:0:0:0:
192,192,127148,1,0,0:0:0:0:
320,192,127363,1,0,0:0:0:0:
448,192,127363,1,0,0:0:0:0:
64,192,127577,1,0,0:0:0:0:
192,192,127791,1,0,0:0:0:0:
320,192,128006,1,0,0:0:0:0:
448,192,128220,1,0,0:0:0:0:
192,192,128434,1,0,0:0:0:0:
64,192,128648,1,0,0:0:0:0:
192,192,128863,1,0,0:0:0:0:
64,192,129077,1,0,0:0:0:0:
320,192,129077,1,0,0:0:0:0:
448,192,129291,1,0,0:0:0:0:
192,192,129398,1,0,0:0:0:0:
320,192,129506,1,0,0:0:0:0:
192,192,129720,1,0,0:0:0:0:
448,192,129934,1,0,0:0:0:0:
64,192,129934,1,0,0:0:0:0:
192,192,130148,1,0,0:0:0:0:
64,192,130363,1,0,0:0:0:0:
320,192,130363,1,0,0:0:0:0:
64,192,130577,1,0,0:0:0:0:
320,192,130577,1,0,0:0:0:0:
448,192,130791,1,0,0:0:0:0:
192,192,130791,1,0,0:0:0:0:
64,192,131220,1,0,0:0:0:0:
320,192,131648,1,0,0:0:0:0:
192,192,132077,1,0,0:0:0:0:
320,192,132506,1,0,0:0:0:0:
192,192,133363,1,0,0:0:0:0:
320,192,133791,1,0,0:0:0:0:
448,192,134220,1,0,0:0:0:0:
192,192,135077,1,0,0:0:0:0:
448,192,135506,1,0,0:0:0:0:
320,192,135934,1,0,0:0:0:0:
192,192,136791,1,0,0:0:0:0:
64,192,137648,1,0,0:0:0:0:
448,192,138077,1,0,0:0:0:0:
192,192,138506,1,0,0:0:0:0:
320,192,138934,1,0,0:0:0:0:
192,192,139363,1,0,0:0:0:0:
320,192,140220,1,0,0:0:0:0:
192,192,140648,1,0,0:0:0:0:
64,192,141077,1,0,0:0:0:0:
448,192,141934,1,0,0:0:0:0:
320,192,142363,1,0,0:0:0:0:
64,192,142791,1,0,0:0:0:0:
192,192,144720,1,0,0:0:0:0:
64,192,147077,1,0,0:0:0:0:
448,192,147077,1,0,0:0:0:0:
