osu file format v14

[General]
AudioFilename: audio.mp3
AudioLeadIn: 0
PreviewTime: 506
Countdown: 0
SampleSet: Soft
StackLeniency: 0.7
Mode: 3
LetterboxInBreaks: 0
SpecialStyle: 0
WidescreenStoryboard: 1

[Editor]
DistanceSpacing: 1.6
BeatDivisor: 4
GridSize: 32
TimelineZoom: 1

[Metadata]
Title:Last Reunion (Cut Ver.)
TitleUnicode:Last Reunion (Cut Ver.)
Artist:Peter Roe
ArtistUnicode:Peter Roe
Creator:Obilariated
Version:Hard
Source:EMVN
Tags:epic music vn
BeatmapID:937247
BeatmapSetID:435056

[Difficulty]
HPDrainRate:7.5
CircleSize:4
OverallDifficulty:7.5
ApproachRate:5
SliderMultiplier:1.4
SliderTickRate:1

[Events]
//Background and Video events
0,0,"BG.jpg",0,0
//Break Periods
//Storyboard Layer 0 (Background)
//Storyboard Layer 1 (Fail)
//Storyboard Layer 2 (Pass)
//Storyboard Layer 3 (Foreground)
//Storyboard Sound Samples

[TimingPoints]
506,428.571428571429,4,2,1,10,1,0
72506,-100,4,2,1,10,0,1
130791,-100,4,2,2,10,0,0

[HitObjects]
64,192,506,5,0,0:0:0:0:
448,192,506,1,0,0:0:0:0:
192,192,720,1,0,0:0:0:0:
320,192,934,1,0,0:0:0:0:
64,192,934,1,0,0:0:0:0:
192,192,1148,1,0,0:0:0:0:
448,192,1363,1,0,0:0:0:0:
320,192,1363,1,0,0:0:0:0:
64,192,1577,1,0,0:0:0:0:
192,192,1791,1,0,0:0:0:0:
320,192,1791,1,0,0:0:0:0:
448,192,2006,1,0,0:0:0:0:
320,192,2220,1,0,0:0:0:0:
64,192,2220,1,0,0:0:0:0:
192,192,2434,1,0,0:0:0:0:
320,192,2648,1,0,0:0:0:0:
192,192,2863,1,0,0:0:0:0:
64,192,3077,1,0,0:0:0:0:
448,192,3077,1,0,0:0:0:0:
320,192,3291,1,0,0:0:0:0:
448,192,3506,1,0,0:0:0:0:
192,192,3506,1,0,0:0:0:0:
64,192,3720,1,0,0:0:0:0:
448,192,3934,1,0,0:0:0:0:
320,192,3934,1,0,0:0:0:0:
192,192,4148,1,0,0:0:0:0:
320,192,4363,1,0,0:0:0:0:
64,192,4577,1,0,0:0:0:0:
192,192,4791,1,0,0:0:0:0:
448,192,4791,1,0,0:0:0:0:
320,192,5006,1,0,0:0:0:0:
64,192,5220,1,0,0:0:0:0:
192,192,5434,1,0,0:0:0:0:
448,192,5648,1,0,0:0:0:0:
320,192,5648,1,0,0:0:0:0:
64,192,5863,1,0,0:0:0:0:
320,192,6077,1,0,0:0:0:0:
192,192,6291,1,0,0:0:0:0:
64,192,6506,1,0,0:0:0:0:
448,192,6506,1,0,0:0:0:0:
192,192,6720,1,0,0:0:0:0:
320,192,6934,1,0,0:0:0:0:
192,192,7148,1,0,0:0:0:0:
64,192,7363,1,0,0:0:0:0:
320,192,7363,1,0,0:0:0:0:
448,192,7577,1,0,0:0:0:0:
192,192,7791,1,0,0:0:0:0:
64,192,7791,1,0,0:0:0:0:
320,192,8006,1,0,0:0:0:0:
448,192,8220,1,0,0:0:0:0:
192,192,8220,1,0,0:0:0:0:
64,192,8434,1,0,0:0:0:0:
192,192,8648,1,0,0:0:0:0:
320,192,8648,1,0,0:0:0:0:
448,192,8863,1,0,0:0:0:0:
64,192,9077,1,0,0:0:0:0:
320,192,9077,1,0,0:0:0:0:
192,192,9291,1,0,0:0:0:0:
448,192,9506,1,0,0:0:0:0:
320,192,9720,1,0,0:0:0:0:
64,192,9934,1,0,0:0:0:0:
448,192,9934,1,0,0:0:0:0:
192,192,10148,1,0,0:0:0:0:
320,192,10363,1,0,0:0:0:0:
192,192,10577,1,0,0:0:0:0:
64,192,10791,1,0,0:0:0:0:
320,192,10791,1,0,0:0:0:0:
448,192,11006,1,0,0:0:0:0:
192,192,11220,1,0,0:0:0:0:
320,192,11434,1,0,0:0:0:0:
64,192,11648,1,0,0:0:0:0:
192,192,11863,1,0,0:0:0:0:
448,192,12077,1,0,0:0:0:0:
320,192,12291,1,0,0:0:0:0:
64,192,12506,1,0,0:0:0:0:
192,192,12506,1,0,0:0:0:0:
320,192,12720,1,0,0:0:0:0:
64,192,12934,1,0,0:0:0:0:
192,192,13148,1,0,0:0:0:0:
320,192,13363,1,0,0:0:0:0:
448,192,13363,1,0,0:0:0:0:
64,192,13577,1,0,0:0:0:0:
448,192,13791,1,0,0:0:0:0:
192,192,13791,1,0,0:0:0:0:
320,192,14006,1,0,0:0:0:0:
448,192,14220,1,0,0:0:0:0:
64,192,14220,1,0,0:0:0:0:
192,192,14220,1,0,0:0:0:0:
320,192,14648,1,0,0:0:0:0:
64,192,14648,1,0,0:0:0:0:
192,192,14863,1,0,0:0:0:0:
320,192,15077,1,0,0:0:0:0:
448,192,15077,1,0,0:0:0:0:
64,192,15291,1,0,0:0:0:0:
192,192,15506,1,0,0:0:0:0:
448,192,15506,1,0,0:0:0:0:
320,192,15720,1,0,0:0:0:0:
192,192,15934,1,0,0:0:0:0:
64,192,15934,1,0,0:0:0:0:
448,192,16148,1,0,0:0:0:0:
320,192,16363,1,0,0:0:0:0:
64,192,16577,1,0,0:0:0:0:
192,192,16791,1,0,0:0:0:0:
448,192,16791,1,0,0:0:0:0:
320,192,17006,1,0,0:0:0:0:
64,192,17220,1,0,0:0:0:0:
192,192,17220,1,0,0:0:0:0:
448,192,17434,1,0,0:0:0:0:
192,192,17648,1,0,0:0:0:0:
64,192,17648,1,0,0:0:0:0:
320,192,17648,1,0,0:0:0:0:
448,192,17863,1,0,0:0:0:0:
64,192,18077,1,0,0:0:0:0:
192,192,18291,1,0,0:0:0:0:
448,192,18506,1,0,0:0:0:0:
320,192,18506,1,0,0:0:0:0:
192,192,18720,1,0,0:0:0:0:
320,192,18934,1,0,0:0:0:0:
64,192,19148,1,0,0:0:0:0:
448,192,19363,1,0,0:0:0:0:
192,192,19363,1,0,0:0:0:0:
320,192,19577,1,0,0:0:0:0:
64,192,19791,1,0,0:0:0:0:
192,192,20006,1,0,0:0:0:0:
320,192,20220,1,0,0:0:0:0:
448,192,20220,1,0,0:0:0:0:
192,192,20434,1,0,0:0:0:0:
64,192,20648,1,0,0:0:0:0:
320,192,20863,1,0,0:0:0:0:
192,192,21077,1,0,0:0:0:0:
64,192,21077,1,0,0:0:0:0:
448,192,21077,1,0,0:0:0:0:
320,192,21291,1,0,0:0:0:0:
448,192,21506,1,0,0:0:0:0:
192,192,21506,1,0,0:0:0:0:
320,192,21720,1,0,0:0:0:0:
64,192,21934,1,0,0:0:0:0:
448,192,21934,1,0,0:0:0:0:
320,192,22148,1,0,0:0:0:0:
192,192,22363,1,0,0:0:0:0:
64,192,22363,1,0,0:0:0:0:
320,192,22577,1,0,0:0:0:0:
448,192,22791,1,0,0:0:0:0:
64,192,22791,1,0,0:0:0:0:
192,192,23006,1,0,0:0:0:0:
320,192,23220,1,0,0:0:0:0:
64,192,23434,1,0,0:0:0:0:
192,192,23648,1,0,0:0:0:0:
448,192,23648,1,0,0:0:0:0:
320,192,23863,1,0,0:0:0:0:
64,192,24077,1,0,0:0:0:0:
192,192,24291,1,0,0:0:0:0:
320,192,24506,1,0,0:0:0:0:
64,192,24506,128,0,27934:0:0:0:0:
448,192,24506,1,0,0:0:0:0:
192,192,24720,1,0,0:0:0:0:
320,192,24934,1,0,0:0:0:0:
192,192,25148,1,0,0:0:0:0:
320,192,25363,1,0,0:0:0:0:
192,192,25577,1,0,0:0:0:0:
320,192,25791,1,0,0:0:0:0:
192,192,26006,1,0,0:0:0:0:
448,192,26220,128,0,27934:0:0:0:0:
320,192,26220,1,0,0:0:0:0:
192,192,26434,1,0,0:0:0:0:
320,192,26648,1,0,0:0:0:0:
192,192,26863,1,0,0:0:0:0:
320,192,27077,1,0,0:0:0:0:
192,192,27291,1,0,0:0:0:0:
320,192,27506,1,0,0:0:0:0:
192,192,27720,1,0,0:0:0:0:
320,192,27934,1,0,0:0:0:0:
64,192,28363,1,0,0:0:0:0:
320,192,28363,1,0,0:0:0:0:
448,192,28577,1,0,0:0:0:0:
320,192,28791,1,0,0:0:0:0:
192,192,28791,1,0,0:0:0:0:
64,192,29006,1,0,0:0:0:0:
448,192,29220,1,0,0:0:0:0:
192,192,29220,1,0,0:0:0:0:
320,192,29434,1,0,0:0:0:0:
192,192,29648,1,0,0:0:0:0:
64,192,29648,1,0,0:0:0:0:
320,192,29863,1,0,0:0:0:0:
448,192,30077,1,0,0:0:0:0:
64,192,30291,1,0,0:0:0:0:
192,192,30506,1,0,0:0:0:0:
320,192,30506,1,0,0:0:0:0:
64,192,30720,1,0,0:0:0:0:
320,192,30934,1,0,0:0:0:0:
448,192,30934,1,0,0:0:0:0:
192,192,31148,1,0,0:0:0:0:
64,192,31363,1,0,0:0:0:0:
448,192,31363,1,0,0:0:0:0:
320,192,31363,1,0,0:0:0:0:
320,192,31577,1,0,0:0:0:0:
192,192,31791,1,0,0:0:0:0:
448,192,32006,1,0,0:0:0:0:
64,192,32220,1,0,0:0:0:0:
320,192,32220,1,0,0:0:0:0:
448,192,32434,1,0,0:0:0:0:
192,192,32648,1,0,0:0:0:0:
320,192,32863,1,0,0:0:0:0:
448,192,33077,1,0,0:0:0:0:
64,192,33077,1,0,0:0:0:0:
192,192,33291,1,0,0:0:0:0:
64,192,33506,1,0,0:0:0:0:
320,192,33720,1,0,0:0:0:0:
448,192,33934,1,0,0:0:0:0:
192,192,33934,1,0,0:0:0:0:
64,192,34148,1,0,0:0:0:0:
320,192,34363,1,0,0:0:0:0:
192,192,34577,1,0,0:0:0:0:
64,192,34791,1,0,0:0:0:0:
448,192,34791,1,0,0:0:0:0:
320,192,34791,1,0,0:0:0:0:
192,192,35220,1,0,0:0:0:0:
448,192,35220,1,0,0:0:0:0:
320,192,35434,1,0,0:0:0:0:
64,192,35648,1,0,0:0:0:0:
192,192,35648,1,0,0:0:0:0:
448,192,35863,1,0,0:0:0:0:
320,192,36077,1,0,0:0:0:0:
64,192,36077,1,0,0:0:0:0:
192,192,36291,1,0,0:0:0:0:
320,192,36506,1,0,0:0:0:0:
448,192,36506,1,0,0:0:0:0:
192,192,36720,1,0,0:0:0:0:
64,192,36934,1,0,0:0:0:0:
448,192,37148,1,0,0:0:0:0:
64,192,37363,1,0,0:0:0:0:
320,192,37363,1,0,0:0:0:0:
448,192,37577,1,0,0:0:0:0:
192,192,37791,1,0,0:0:0:0:
320,192,38006,1,0,0:0:0:0:
192,192,38220,1,0,0:0:0:0:
64,192,38220,1,0,0:0:0:0:
448,192,38220,1,0,0:0:0:0:
320,192,38434,1,0,0:0:0:0:
448,192,38648,1,0,0:0:0:0:
192,192,38863,1,0,0:0:0:0:
320,192,39077,1,0,0:0:0:0:
64,192,39291,1,0,0:0:0:0:
192,192,39506,1,0,0:0:0:0:
448,192,39720,1,0,0:0:0:0:
320,192,39934,1,0,0:0:0:0:
64,192,39934,1,0,0:0:0:0:
192,192,40148,1,0,0:0:0:0:
320,192,40363,1,0,0:0:0:0:
64,192,40577,1,0,0:0:0:0:
192,192,40791,1,0,0:0:0:0:
448,192,40791,1,0,0:0:0:0:
320,192,41006,1,0,0:0:0:0:
64,192,41220,1,0,0:0:0:0:
448,192,41220,1,0,0:0:0:0:
192,192,41434,1,0,0:0:0:0:
64,192,41648,1,0,0:0:0:0:
448,192,41648,1,0,0:0:0:0:
320,192,41648,1,0,0:0:0:0:
192,192,42077,128,0,42506:0:0:0:0:
320,192,42077,1,0,0:0:0:0:
320,192,42506,128,0,42934:0:0:0:0:
64,192,42506,1,0,0:0:0:0:
64,192,42934,128,0,43363:0:0:0:0:
448,192,42934,1,0,0:0:0:0:
320,192,43363,128,0,44220:0:0:0:0:
192,192,43363,1,0,0:0:0:0:
192,192,44220,128,0,45077:0:0:0:0:
64,192,44220,1,0,0:0:0:0:
320,192,44648,1,0,0:0:0:0:
320,192,45077,128,0,45934:0:0:0:0:
448,192,45077,1,0,0:0:0:0:
64,192,45077,1,0,0:0:0:0:
448,192,45934,128,0,46791:0:0:0:0:
64,192,45934,1,0,0:0:0:0:
192,192,46791,128,0,48506:0:0:0:0:
320,192,46791,1,0,0:0:0:0:
448,192,47648,1,0,0:0:0:0:
64,192,48506,1,0,0:0:0:0:
320,192,48506,1,0,0:0:0:0:
64,192,48934,128,0,49363:0:0:0:0:
448,192,48934,1,0,0:0:0:0:
192,192,49363,128,0,49791:0:0:0:0:
320,192,49363,1,0,0:0:0:0:
64,192,49791,128,0,50220:0:0:0:0:
448,192,49791,1,0,0:0:0:0:
192,192,50220,128,0,51077:0:0:0:0:
320,192,50220,1,0,0:0:0:0:
320,192,51077,128,0,51934:0:0:0:0:
448,192,51077,1,0,0:0:0:0:
448,192,51934,128,0,57077:0:0:0:0:
64,192,51934,1,0,0:0:0:0:
192,192,52148,1,0,0:0:0:0:
320,192,52363,1,0,0:0:0:0:
64,192,52577,1,0,0:0:0:0:
320,192,52791,1,0,0:0:0:0:
320,192,53648,1,0,0:0:0:0:
192,192,53863,1,0,0:0:0:0:
64,192,54077,1,0,0:0:0:0:
320,192,54291,1,0,0:0:0:0:
64,192,54506,1,0,0:0:0:0:
64,192,55363,1,0,0:0:0:0:
320,192,55363,1,0,0:0:0:0:
192,192,55577,1,0,0:0:0:0:
320,192,55791,1,0,0:0:0:0:
64,192,56006,1,0,0:0:0:0:
192,192,56220,1,0,0:0:0:0:
192,192,57077,1,0,0:0:0:0:
320,192,57291,1,0,0:0:0:0:
64,192,57506,128,0,58791:0:0:0:0:
448,192,57506,1,0,0:0:0:0:
192,192,57720,1,0,0:0:0:0:
448,192,57934,1,0,0:0:0:0:
320,192,58791,1,0,0:0:0:0:
448,192,58791,1,0,0:0:0:0:
192,192,59220,1,0,0:0:0:0:
320,192,59648,1,0,0:0:0:0:
64,192,60077,1,0,0:0:0:0:
192,192,60479,1,0,0:0:0:0:
320,192,60506,1,0,0:0:0:0:
192,192,61363,1,0,0:0:0:0:
320,192,61791,1,0,0:0:0:0:
192,192,62193,1,0,0:0:0:0:
448,192,62220,1,0,0:0:0:0:
64,192,63077,1,0,0:0:0:0:
320,192,63506,1,0,0:0:0:0:
448,192,63907,1,0,0:0:0:0:
192,192,63934,1,0,0:0:0:0:
64,192,64791,1,0,0:0:0:0:
320,192,64791,1,0,0:0:0:0:
448,192,64791,1,0,0:0:0:0:
64,192,65113,1,0,0:0:0:0:
320,192,65113,1,0,0:0:0:0:
192,192,65434,1,0,0:0:0:0:
448,192,65434,1,0,0:0:0:0:
64,192,65622,1,0,0:0:0:0:
192,192,65648,1,0,0:0:0:0:
448,192,65648,1,0,0:0:0:0:
192,192,66077,1,0,0:0:0:0:
448,192,66506,1,0,0:0:0:0:
320,192,66934,1,0,0:0:0:0:
192,192,67336,1,0,0:0:0:0:
448,192,67363,1,0,0:0:0:0:
64,192,68220,1,0,0:0:0:0:
192,192,68648,1,0,0:0:0:0:
448,192,69050,1,0,0:0:0:0:
320,192,69077,1,0,0:0:0:0:
192,192,69934,1,0,0:0:0:0:
320,192,70363,1,0,0:0:0:0:
192,192,70764,1,0,0:0:0:0:
448,192,70791,128,0,72506:0:0:0:0:
64,192,72506,1,0,0:0:0:0:
320,192,72506,1,0,0:0:0:0:
192,192,72720,1,0,0:0:0:0:
448,192,72934,1,0,0:0:0:0:
320,192,72934,1,0,0:0:0:0:
64,192,73148,1,0,0:0:0:0:
448,192,73363,1,0,0:0:0:0:
192,192,73363,1,0,0:0:0:0:
320,192,73577,1,0,0:0:0:0:
64,192,73791,1,0,0:0:0:0:
192,192,73791,1,0,0:0:0:0:
320,192,74006,1,0,0:0:0:0:
64,192,74220,1,0,0:0:0:0:
448,192,74220,1,0,0:0:0:0:
320,192,74434,1,0,0:0:0:0:
64,192,74541,1,0,0:0:0:0:
448,192,74648,1,0,0:0:0:0:
192,192,74648,1,0,0:0:0:0:
320,192,74863,1,0,0:0:0:0:
64,192,75077,1,0,0:0:0:0:
192,192,75077,1,0,0:0:0:0:
448,192,75077,1,0,0:0:0:0:
320,192,75291,1,0,0:0:0:0:
192,192,75398,1,0,0:0:0:0:
64,192,75398,1,0,0:0:0:0:
320,192,75506,1,0,0:0:0:0:
448,192,75506,1,0,0:0:0:0:
64,192,75720,1,0,0:0:0:0:
192,192,75720,1,0,0:0:0:0:
448,192,75934,1,0,0:0:0:0:
320,192,75934,1,0,0:0:0:0:
64,192,76148,1,0,0:0:0:0:
192,192,76363,1,0,0:0:0:0:
192,192,76577,1,0,0:0:0:0:
64,192,76791,1,0,0:0:0:0:
448,192,76791,1,0,0:0:0:0:
320,192,76791,1,0,0:0:0:0:
192,192,77006,1,0,0:0:0:0:
320,192,77220,1,0,0:0:0:0:
448,192,77434,1,0,0:0:0:0:
320,192,77648,1,0,0:0:0:0:
192,192,77648,1,0,0:0:0:0:
64,192,77863,1,0,0:0:0:0:
192,192,77970,1,0,0:0:0:0:
448,192,78077,1,0,0:0:0:0:
320,192,78077,1,0,0:0:0:0:
192,192,78291,1,0,0:0:0:0:
64,192,78506,1,0,0:0:0:0:
320,192,78506,1,0,0:0:0:0:
448,192,78506,1,0,0:0:0:0:
192,192,78720,1,0,0:0:0:0:
448,192,78827,1,0,0:0:0:0:
320,192,78827,1,0,0:0:0:0:
64,192,78934,1,0,0:0:0:0:
192,192,78934,1,0,0:0:0:0:
448,192,79148,1,0,0:0:0:0:
320,192,79148,1,0,0:0:0:0:
192,192,79363,1,0,0:0:0:0:
64,192,79363,1,0,0:0:0:0:
320,192,79363,1,0,0:0:0:0:
320,192,79791,1,0,0:0:0:0:
192,192,79791,1,0,0:0:0:0:
64,192,80006,1,0,0:0:0:0:
192,192,80220,1,0,0:0:0:0:
320,192,80220,1,0,0:0:0:0:
448,192,80220,1,0,0:0:0:0:
64,192,80434,1,0,0:0:0:0:
192,192,80648,1,0,0:0:0:0:
448,192,80648,1,0,0:0:0:0:
320,192,80863,1,0,0:0:0:0:
64,192,81077,1,0,0:0:0:0:
192,192,81077,1,0,0:0:0:0:
320,192,81291,1,0,0:0:0:0:
64,192,81398,1,0,0:0:0:0:
448,192,81506,1,0,0:0:0:0:
192,192,81506,1,0,0:0:0:0:
320,192,81720,1,0,0:0:0:0:
192,192,81934,1,0,0:0:0:0:
448,192,81934,1,0,0:0:0:0:
64,192,81934,1,0,0:0:0:0:
320,192,82148,1,0,0:0:0:0:
64,192,82256,1,0,0:0:0:0:
192,192,82256,1,0,0:0:0:0:
448,192,82363,1,0,0:0:0:0:
320,192,82363,1,0,0:0:0:0:
64,192,82577,1,0,0:0:0:0:
192,192,82577,1,0,0:0:0:0:
448,192,82791,1,0,0:0:0:0:
320,192,82791,1,0,0:0:0:0:
192,192,82791,1,0,0:0:0:0:
64,192,83006,1,0,0:0:0:0:
192,192,83220,1,0,0:0:0:0:
320,192,83434,1,0,0:0:0:0:
448,192,83648,1,0,0:0:0:0:
192,192,83648,1,0,0:0:0:0:
64,192,83648,1,0,0:0:0:0:
320,192,83863,1,0,0:0:0:0:
64,192,84077,1,0,0:0:0:0:
192,192,84291,1,0,0:0:0:0:
320,192,84506,1,0,0:0:0:0:
448,192,84506,1,0,0:0:0:0:
64,192,84720,1,0,0:0:0:0:
192,192,84827,1,0,0:0:0:0:
448,192,84934,1,0,0:0:0:0:
320,192,84934,1,0,0:0:0:0:
64,192,85148,1,0,0:0:0:0:
192,192,85148,1,0,0:0:0:0:
448,192,85363,1,0,0:0:0:0:
64,192,85363,1,0,0:0:0:0:
320,192,85363,1,0,0:0:0:0:
448,192,85684,1,0,0:0:0:0:
64,192,85684,1,0,0:0:0:0:
192,192,85684,1,0,0:0:0:0:
448,192,86006,1,0,0:0:0:0:
64,192,86006,1,0,0:0:0:0:
192,192,86006,1,0,0:0:0:0:
64,192,86220,1,0,0:0:0:0:
448,192,86220,1,0,0:0:0:0:
320,192,86220,1,0,0:0:0:0:
192,192,86648,1,0,0:0:0:0:
448,192,86648,1,0,0:0:0:0:
320,192,86863,1,0,0:0:0:0:
192,192,87077,1,0,0:0:0:0:
64,192,87077,1,0,0:0:0:0:
448,192,87291,1,0,0:0:0:0:
320,192,87506,1,0,0:0:0:0:
64,192,87506,1,0,0:0:0:0:
192,192,87720,1,0,0:0:0:0:
320,192,87934,1,0,0:0:0:0:
448,192,87934,1,0,0:0:0:0:
192,192,88148,1,0,0:0:0:0:
448,192,88256,1,0,0:0:0:0:
320,192,88363,1,0,0:0:0:0:
64,192,88363,1,0,0:0:0:0:
192,192,88577,1,0,0:0:0:0:
448,192,88791,1,0,0:0:0:0:
64,192,88791,1,0,0:0:0:0:
320,192,88791,1,0,0:0:0:0:
192,192,89006,1,0,0:0:0:0:
320,192,89113,1,0,0:0:0:0:
448,192,89113,1,0,0:0:0:0:
192,192,89220,1,0,0:0:0:0:
64,192,89220,1,0,0:0:0:0:
320,192,89434,1,0,0:0:0:0:
448,192,89434,1,0,0:0:0:0:
64,192,89648,1,0,0:0:0:0:
192,192,89648,1,0,0:0:0:0:
320,192,89863,1,0,0:0:0:0:
192,192,90077,1,0,0:0:0:0:
192,192,90291,1,0,0:0:0:0:
64,192,90506,1,0,0:0:0:0:
320,192,90506,1,0,0:0:0:0:
448,192,90506,1,0,0:0:0:0:
192,192,90720,1,0,0:0:0:0:
320,192,90934,1,0,0:0:0:0:
192,192,91148,1,0,0:0:0:0:
320,192,91363,1,0,0:0:0:0:
448,192,91363,1,0,0:0:0:0:
64,192,91577,1,0,0:0:0:0:
192,192,91684,1,0,0:0:0:0:
448,192,91791,1,0,0:0:0:0:
320,192,91791,1,0,0:0:0:0:
192,192,92006,1,0,0:0:0:0:
64,192,92220,1,0,0:0:0:0:
320,192,92220,1,0,0:0:0:0:
448,192,92220,1,0,0:0:0:0:
192,192,92434,1,0,0:0:0:0:
448,192,92541,1,0,0:0:0:0:
320,192,92541,1,0,0:0:0:0:
192,192,92648,1,0,0:0:0:0:
64,192,92648,1,0,0:0:0:0:
448,192,92863,1,0,0:0:0:0:
320,192,92863,1,0,0:0:0:0:
64,192,93077,1,0,0:0:0:0:
448,192,93077,1,0,0:0:0:0:
192,192,93077,1,0,0:0:0:0:
64,192,93506,1,0,0:0:0:0:
320,192,93506,1,0,0:0:0:0:
192,192,93720,1,0,0:0:0:0:
448,192,93934,1,0,0:0:0:0:
320,192,93934,1,0,0:0:0:0:
64,192,93934,1,0,0:0:0:0:
192,192,94148,1,0,0:0:0:0:
448,192,94363,1,0,0:0:0:0:
320,192,94363,1,0,0:0:0:0:
64,192,94577,1,0,0:0:0:0:
448,192,94791,1,0,0:0:0:0:
192,192,94791,1,0,0:0:0:0:
320,192,95006,1,0,0:0:0:0:
64,192,95113,1,0,0:0:0:0:
448,192,95220,1,0,0:0:0:0:
192,192,95220,1,0,0:0:0:0:
64,192,95434,1,0,0:0:0:0:
448,192,95648,1,0,0:0:0:0:
320,192,95648,1,0,0:0:0:0:
192,192,95648,1,0,0:0:0:0:
320,192,95863,1,0,0:0:0:0:
64,192,95970,1,0,0:0:0:0:
192,192,95970,1,0,0:0:0:0:
448,192,96077,1,0,0:0:0:0:
64,192,96291,1,0,0:0:0:0:
192,192,96291,1,0,0:0:0:0:
448,192,96506,1,0,0:0:0:0:
320,192,96506,1,0,0:0:0:0:
64,192,96720,1,0,0:0:0:0:
192,192,96934,1,0,0:0:0:0:
320,192,97148,1,0,0:0:0:0:
64,192,97363,1,0,0:0:0:0:
192,192,97363,1,0,0:0:0:0:
448,192,97363,1,0,0:0:0:0:
320,192,97577,1,0,0:0:0:0:
64,192,97791,1,0,0:0:0:0:
192,192,98006,1,0,0:0:0:0:
320,192,98220,1,0,0:0:0:0:
448,192,98220,1,0,0:0:0:0:
64,192,98434,1,0,0:0:0:0:
192,192,98434,1,0,0:0:0:0:
192,192,98863,1,0,0:0:0:0:
64,192,98863,1,0,0:0:0:0:
448,192,99077,1,0,0:0:0:0:
320,192,99077,1,0,0:0:0:0:
64,192,99291,1,0,0:0:0:0:
320,192,99291,1,0,0:0:0:0:
64,192,99506,1,0,0:0:0:0:
320,192,99506,1,0,0:0:0:0:
64,192,99720,1,0,0:0:0:0:
320,192,99720,1,0,0:0:0:0:
64,192,99934,1,0,0:0:0:0:
448,192,99934,1,0,0:0:0:0:
192,192,99934,1,0,0:0:0:0:
320,192,100363,128,0,100791:0:0:0:0:
448,192,100577,1,0,0:0:0:0:
64,192,100791,128,0,101220:0:0:0:0:
192,192,100791,1,0,0:0:0:0:
192,192,101006,1,0,0:0:0:0:
320,192,101220,128,0,101648:0:0:0:0:
192,192,101434,1,0,0:0:0:0:
192,192,101648,128,0,102506:0:0:0:0:
448,192,101648,1,0,0:0:0:0:
64,192,101863,1,0,0:0:0:0:
320,192,101970,1,0,0:0:0:0:
448,192,102077,1,0,0:0:0:0:
64,192,102291,1,0,0:0:0:0:
448,192,102506,128,0,102934:0:0:0:0:
320,192,102506,1,0,0:0:0:0:
192,192,102720,1,0,0:0:0:0:
64,192,102827,1,0,0:0:0:0:
192,192,102934,128,0,103363:0:0:0:0:
320,192,102934,1,0,0:0:0:0:
448,192,103148,1,0,0:0:0:0:
320,192,103363,128,0,104220:0:0:0:0:
64,192,103363,1,0,0:0:0:0:
448,192,103577,1,0,0:0:0:0:
192,192,103791,1,0,0:0:0:0:
64,192,104006,1,0,0:0:0:0:
448,192,104220,128,0,105077:0:0:0:0:
192,192,104220,1,0,0:0:0:0:
64,192,104434,1,0,0:0:0:0:
192,192,104648,1,0,0:0:0:0:
320,192,104863,1,0,0:0:0:0:
192,192,105077,128,0,106363:0:0:0:0:
64,192,105077,1,0,0:0:0:0:
320,192,105291,1,0,0:0:0:0:
448,192,105398,1,0,0:0:0:0:
64,192,105506,1,0,0:0:0:0:
64,192,105720,1,0,0:0:0:0:
448,192,105934,1,0,0:0:0:0:
320,192,105934,1,0,0:0:0:0:
64,192,106148,1,0,0:0:0:0:
448,192,106256,1,0,0:0:0:0:
320,192,106363,1,0,0:0:0:0:
448,192,106577,1,0,0:0:0:0:
64,192,106577,1,0,0:0:0:0:
192,192,106791,1,0,0:0:0:0:
320,192,106791,1,0,0:0:0:0:
64,192,106791,1,0,0:0:0:0:
64,192,107220,128,0,107648:0:0:0:0:
192,192,107434,1,0,0:0:0:0:
320,192,107648,128,0,108077:0:0:0:0:
448,192,107648,1,0,0:0:0:0:
64,192,107863,1,0,0:0:0:0:
192,192,108077,128,0,108506:0:0:0:0:
448,192,108291,1,0,0:0:0:0:
320,192,108506,128,0,109363:0:0:0:0:
64,192,108506,1,0,0:0:0:0:
448,192,108720,1,0,0:0:0:0:
64,192,108827,1,0,0:0:0:0:
192,192,108934,1,0,0:0:0:0:
448,192,109148,1,0,0:0:0:0:
64,192,109363,128,0,110220:0:0:0:0:
192,192,109363,1,0,0:0:0:0:
448,192,109577,1,0,0:0:0:0:
192,192,109684,1,0,0:0:0:0:
320,192,109791,1,0,0:0:0:0:
320,192,110006,1,0,0:0:0:0:
448,192,110220,128,0,112791:0:0:0:0:
192,192,110220,1,0,0:0:0:0:
320,192,110434,1,0,0:0:0:0:
64,192,110648,1,0,0:0:0:0:
192,192,110863,1,0,0:0:0:0:
320,192,111077,1,0,0:0:0:0:
64,192,111077,1,0,0:0:0:0:
64,192,111291,1,0,0:0:0:0:
192,192,111506,1,0,0:0:0:0:
320,192,111720,1,0,0:0:0:0:
64,192,111934,1,0,0:0:0:0:
320,192,112148,1,0,0:0:0:0:
64,192,112256,1,0,0:0:0:0:
192,192,112363,1,0,0:0:0:0:
320,192,112577,1,0,0:0:0:0:
192,192,112791,1,0,0:0:0:0:
64,192,112791,1,0,0:0:0:0:
192,192,113006,1,0,0:0:0:0:
448,192,113006,1,0,0:0:0:0:
192,192,113220,1,0,0:0:0:0:
448,192,113220,1,0,0:0:0:0:
192,192,113434,1,0,0:0:0:0:
448,192,113434,1,0,0:0:0:0:
320,192,113648,1,0,0:0:0:0:
448,192,113648,1,0,0:0:0:0:
64,192,113648,1,0,0:0:0:0:
192,192,114077,128,0,114506:0:0:0:0:
64,192,114291,1,0,0:0:0:0:
320,192,114506,1,0,0:0:0:0:
448,192,114506,128,0,114934:0:0:0:0:
64,192,114720,1,0,0:0:0:0:
192,192,114934,128,0,115363:0:0:0:0:
320,192,115148,1,0,0:0:0:0:
448,192,115363,1,0,0:0:0:0:
320,192,115363,128,0,116220:0:0:0:0:
64,192,115577,1,0,0:0:0:0:
448,192,115684,1,0,0:0:0:0:
192,192,115791,1,0,0:0:0:0:
64,192,116006,1,0,0:0:0:0:
64,192,116220,128,0,116648:0:0:0:0:
448,192,116220,1,0,0:0:0:0:
320,192,116434,1,0,0:0:0:0:
320,192,116648,128,0,117077:0:0:0:0:
192,192,116648,1,0,0:0:0:0:
448,192,116756,1,0,0:0:0:0:
64,192,116863,1,0,0:0:0:0:
192,192,117077,128,0,117934:0:0:0:0:
448,192,117077,1,0,0:0:0:0:
64,192,117291,1,0,0:0:0:0:
64,192,117506,1,0,0:0:0:0:
320,192,117720,1,0,0:0:0:0:
64,192,117934,128,0,118791:0:0:0:0:
448,192,117934,1,0,0:0:0:0:
320,192,118148,1,0,0:0:0:0:
448,192,118363,1,0,0:0:0:0:
192,192,118577,1,0,0:0:0:0:
448,192,118791,1,0,0:0:0:0:
320,192,118791,128,0,120077:0:0:0:0:
192,192,119006,1,0,0:0:0:0:
64,192,119113,1,0,0:0:0:0:
448,192,119220,1,0,0:0:0:0:
448,192,119434,1,0,0:0:0:0:
64,192,119648,1,0,0:0:0:0:
192,192,119648,1,0,0:0:0:0:
448,192,119863,1,0,0:0:0:0:
192,192,119970,1,0,0:0:0:0:
64,192,120077,1,0,0:0:0:0:
64,192,120291,1,0,0:0:0:0:
320,192,120291,1,0,0:0:0:0:
448,192,120506,1,0,0:0:0:0:
192,192,120506,1,0,0:0:0:0:
64,192,120506,1,0,0:0:0:0:
192,192,120934,128,0,121363:0:0:0:0:
320,192,121148,1,0,0:0:0:0:
448,192,121363,128,0,121791:0:0:0:0:
64,192,121363,1,0,0:0:0:0:
320,192,121577,1,0,0:0:0:0:
64,192,121791,128,0,122220:0:0:0:0:
192,192,122006,1,0,0:0:0:0:
320,192,122220,128,0,123077:0:0:0:0:
448,192,122434,1,0,0:0:0:0:
64,192,122541,1,0,0:0:0:0:
192,192,122648,1,0,0:0:0:0:
64,192,122863,1,0,0:0:0:0:
448,192,123077,128,0,123934:0:0:0:0:
192,192,123077,1,0,0:0:0:0:
192,192,123291,1,0,0:0:0:0:
320,192,123506,1,0,0:0:0:0:
64,192,123506,1,0,0:0:0:0:
320,192,123720,1,0,0:0:0:0:
64,192,123720,1,0,0:0:0:0:
192,192,123934,128,0,127363:0:0:0:0:
320,192,123934,1,0,0:0:0:0:
64,192,124148,1,0,0:0:0:0:
448,192,124363,1,0,0:0:0:0:
320,192,124577,1,0,0:0:0:0:
64,192,124791,1,0,0:0:0:0:
320,192,125006,1,0,0:0:0:0:
448,192,125220,1,0,0:0:0:0:
64,192,125434,1,0,0:0:0:0:
320,192,125648,1,0,0:0:0:0:
448,192,125648,1,0,0:0:0:0:
64,192,125863,1,0,0:0:0:0:
448,192,125970,1,0,0:0:0:0:
320,192,126077,1,0,0:0:0:0:
64,192,126291,1,0,0:0:0:0:
448,192,126506,1,0,0:0:0:0:
320,192,126506,1,0,0:0:0:0:
64,192,126720,1,0,0:0:0:0:
320,192,126934,1,0,0:0:0:0:
448,192,127148,1,0,0:0:0:0:
320,192,127363,128,0,130791:0:0:0:0:
64,192,127363,1,0,0:0:0:0:
448,192,127577,1,0,0:0:0:0:
192,192,127791,1,0,0:0:0:0:
64,192,128006,1,0,0:0:0:0:
192,192,128220,1,0,0:0:0:0:
64,192,128220,1,0,0:0:0:0:
448,192,128434,1,0,0:0:0:0:
192,192,128648,1,0,0:0:0:0:
64,192,128863,1,0,0:0:0:0:
448,192,129077,1,0,0:0:0:0:
192,192,129077,1,0,0:0:0:0:
64,192,129398,1,0,0:0:0:0:
448,192,129398,1,0,0:0:0:0:
192,192,129506,1,0,0:0:0:0:
192,192,129720,1,0,0:0:0:0:
448,192,129720,1,0,0:0:0:0:
64,192,129934,1,0,0:0:0:0:
448,192,129934,1,0,0:0:0:0:
448,192,130148,1,0,0:0:0:0:
64,192,130363,1,0,0:0:0:0:
192,192,130363,1,0,0:0:0:0:
64,192,130577,1,0,0:0:0:0:
448,192,130577,1,0,0:0:0:0:
64,192,130791,1,0,0:0:0:0:
192,192,130791,1,0,0:0:0:0:
448,192,130791,1,0,0:0:0:0:
192,192,131220,1,0,0:0:0:0:
320,192,131648,1,0,0:0:0:0:
64,192,132077,1,0,0:0:0:0:
192,192,132452,1,0,0:0:0:0:
448,192,132506,1,0,0:0:0:0:
64,192,133363,1,0,0:0:0:0:
192,192,133791,1,0,0:0:0:0:
448,192,134193,1,0,0:0:0:0:
320,192,134220,1,0,0:0:0:0:
192,192,135077,1,0,0:0:0:0:
448,192,135506,1,0,0:0:0:0:
64,192,135907,1,0,0:0:0:0:
320,192,135934,1,0,0:0:0:0:
192,192,136791,1,0,0:0:0:0:
192,192,137622,1,0,0:0:0:0:
64,192,137648,1,0,0:0:0:0:
448,192,138077,1,0,0:0:0:0:
64,192,138506,1,0,0:0:0:0:
320,192,138934,1,0,0:0:0:0:
64,192,139336,1,0,0:0:0:0:
192,192,139363,1,0,0:0:0:0:
64,192,140220,1,0,0:0:0:0:
192,192,140648,1,0,0:0:0:0:
448,192,141050,1,0,0:0:0:0:
320,192,141077,1,0,0:0:0:0:
64,192,141934,1,0,0:0:0:0:
320,192,142363,1,0,0:0:0:0:
64,192,142764,1,0,0:0:0:0:
448,192,142791,1,0,0:0:0:0:
320,192,144693,1,0,0:0:0:0:
192,192,144720,1,0,0:0:0:0:
320,192,147050,1,0,0:0:0:0:
64,192,147077,1,0,0:0:0:0:
448,192,147077,1,0,0:0:0:0:
