osu file format v14

[General]
AudioFilename: audio.mp3
AudioLeadIn: 0
PreviewTime: 22072
Countdown: 0
SampleSet: None
StackLeniency: 0.7
Mode: 0
LetterboxInBreaks: 0
WidescreenStoryboard: 0

[Editor]
Bookmarks: 35570
DistanceSpacing: 1
BeatDivisor: 4
GridSize: 4
TimelineZoom: 1

[Metadata]
Title:My Life as a Teenage Robot
TitleUnicode:My Life as a Teenage Robot
Artist:Peter Lurye
ArtistUnicode:Peter Lurye
Creator:StanDaMan809
Version:XJ9
Source:My Life as a Teenage Robot
Tags:XJ9 Jenny Nick Nicktoons Teen XJ-9 Wakeman Rob Renzetti Nickelodeon
BeatmapID:1290750
BeatmapSetID:611433

[Difficulty]
HPDrainRate:6
CircleSize:4.4
OverallDifficulty:8
ApproachRate:9
SliderMultiplier:1.9
SliderTickRate:1

[Events]
//Background and Video events
0,0,"my teenage robot life.png",0,0
//Break Periods
//Storyboard Layer 0 (Background)
//Storyboard Layer 1 (Fail)
//Storyboard Layer 2 (Pass)
//Storyboard Layer 3 (Foreground)
//Storyboard Sound Samples

[TimingPoints]
863,350.577869187711,4,3,0,100,1,0
26104,-100,4,3,0,100,0,1
32064,-200,4,3,0,100,0,0

[Colours]
Combo1 : 0,124,249
Combo2 : 210,210,210
Combo3 : 89,172,255
Combo4 : 111,111,111

[HitObjects]
355,283,512,6,0,L|376:262,6,23.75
390,243,862,6,2,P|412:180|373:134,1,95
262,66,1213,1,2,0:0:0:0:
71,185,1739,1,2,0:0:0:0:
249,151,1914,2,2,P|271:88|232:42,1,95
34,97,2265,6,0,P|54:147|77:198,1,95
277,273,2615,1,0,0:0:0:0:
74,259,2791,1,0,0:0:0:0:
249,151,2966,2,2,P|312:146|366:150,1,95
444,245,3317,2,2,P|498:180|492:151,1,95
251,105,3667,6,0,P|192:100|255:140,1,190
400,93,4193,1,0,0:0:0:0:
277,273,4368,1,2,0:0:0:0:
123,86,4544,1,2,0:0:0:0:
277,273,4719,2,2,P|333:246|327:196,1,95
182,32,5069,6,0,P|126:59|132:109,1,95
168,261,5420,1,0,0:0:0:0:
303,132,5595,1,0,0:0:0:0:
122,85,5771,1,0,0:0:0:0:
327,198,5946,1,0,0:0:0:0:
362,168,6033,1,0,0:0:0:0:
371,122,6121,1,0,0:0:0:0:
349,81,6208,1,0,0:0:0:0:
306,63,6296,1,0,0:0:0:0:
262,76,6384,1,0,0:0:0:0:
236,115,6472,6,8,P|148:91|110:90,1,95
52,226,6822,1,0,0:0:0:0:
242,223,6998,1,0,0:0:0:0:
144,90,7173,1,0,0:0:0:0:
187,298,7348,1,0,0:0:0:0:
303,132,7523,2,0,P|359:115|399:170,1,95
276,269,7874,5,0,0:0:0:0:
356,38,8049,1,0,0:0:0:0:
447,217,8225,1,0,0:0:0:0:
257,51,8400,1,0,0:0:0:0:
276,269,8575,2,0,P|231:252|169:294,1,95
96,169,8926,1,0,0:0:0:0:
229,323,9101,1,0,0:0:0:0:
192,94,9276,2,0,B|243:155|299:124|322:98|322:98|283:165,1,190
187,198,9802,1,0,0:0:0:0:
301,40,9978,1,0,0:0:0:0:
459,161,10153,1,0,0:0:0:0:
241,82,10328,1,0,0:0:0:0:
439,45,10503,1,0,0:0:0:0:
308,306,10679,6,0,P|268:298|243:267,1,47.5
238,253,10854,1,0,0:0:0:0:
241,206,10941,1,0,0:0:0:0:
268,167,11029,1,0,0:0:0:0:
311,149,11116,1,0,0:0:0:0:
357,155,11204,1,0,0:0:0:0:
394,184,11292,1,0,0:0:0:0:
410,228,11379,1,8,0:0:0:0:
300,355,11555,1,0,0:0:0:0:
399,123,11730,1,0,0:0:0:0:
166,252,11906,1,0,0:0:0:0:
399,123,12081,6,2,P|339:112|294:107,1,95
223,208,12432,1,0,0:0:0:0:
422,224,12607,1,0,0:0:0:0:
287,46,12782,2,0,P|242:91|249:140,1,95
325,254,13133,1,0,0:0:0:0:
422,110,13308,1,0,0:0:0:0:
241,119,13483,6,0,P|158:141|143:147,1,95
57,233,13834,1,0,0:0:0:0:
233,261,14009,1,0,0:0:0:0:
58,88,14184,1,0,0:0:0:0:
138,301,14360,1,0,0:0:0:0:
261,51,14535,2,0,P|303:85|309:137,1,95
233,261,14886,6,2,P|295:227|218:216,1,190
65,306,15411,1,0,0:0:0:0:
270,352,15587,1,0,0:0:0:0:
144,172,15762,1,0,0:0:0:0:
270,352,15937,2,0,P|327:360|363:315,1,95
431,205,16288,5,0,0:0:0:0:
221,82,16463,1,0,0:0:0:0:
333,219,16639,1,0,0:0:0:0:
361,55,16814,1,0,0:0:0:0:
245,201,16989,1,0,0:0:0:0:
431,205,17164,1,8,0:0:0:0:
221,82,17340,1,8,0:0:0:0:
163,348,17515,1,8,0:0:0:0:
431,205,17690,6,2,B|370:162|320:268|283:166|231:210,1,190
112,321,18216,1,0,0:0:0:0:
373,267,18391,2,2,P|431:211|420:173,1,95
272,82,18742,1,2,0:0:0:0:
286,318,18917,1,2,0:0:0:0:
476,154,19093,6,0,P|415:140|374:172,1,95
292,251,19443,1,0,0:0:0:0:
182,142,19618,1,0,0:0:0:0:
171,146,19969,1,0,0:0:0:0:
88,312,20144,2,0,P|150:326|193:284,1,95
262,68,20495,6,2,B|261:130|261:130|293:196|293:196|291:253,1,190
322,348,21021,1,2,0:0:0:0:
433,188,21196,1,2,0:0:0:0:
187,193,21371,1,0,0:0:0:0:
414,264,21547,2,8,P|446:214|419:179,1,95
224,79,21897,5,0,0:0:0:0:
316,239,22072,1,8,0:0:0:0:
316,239,22160,1,8,0:0:0:0:
316,239,22248,1,8,0:0:0:0:
413,46,22423,1,8,0:0:0:0:
139,220,22598,2,0,P|185:246|192:246,1,47.5
412,328,22774,1,8,0:0:0:0:
275,55,22949,1,8,0:0:0:0:
84,314,23124,1,8,0:0:0:0:
256,192,23299,12,8,24702,0:0:0:0:
89,323,26104,6,8,P|139:334|197:302,1,95
379,124,26455,1,0,0:0:0:0:
129,229,26630,1,0,0:0:0:0:
343,308,26805,1,0,0:0:0:0:
195,76,26981,1,0,0:0:0:0:
161,291,27156,2,0,P|86:285|60:237,1,95
342,66,27506,5,0,0:0:0:0:
174,276,27682,1,0,0:0:0:0:
109,80,27857,2,0,P|168:62|210:95,1,95
304,322,28208,1,0,0:0:0:0:
198,94,28383,1,0,0:0:0:0:
77,266,28558,1,0,0:0:0:0:
299,169,28733,1,0,0:0:0:0:
81,13,28909,6,8,P|36:71|47:118,1,95
89,271,29259,1,0,0:0:0:0:
360,125,29435,1,0,0:0:0:0:
111,90,29610,1,0,0:0:0:0:
299,296,29785,1,0,0:0:0:0:
379,42,29960,1,0,0:0:0:0:
154,205,30136,1,0,0:0:0:0:
416,238,30311,5,0,0:0:0:0:
197,80,30486,1,0,0:0:0:0:
216,318,30662,2,0,P|301:292|308:262,1,95
367,127,31012,1,0,0:0:0:0:
164,241,31187,1,0,0:0:0:0:
118,245,31274,1,0,0:0:0:0:
85,214,31362,1,0,0:0:0:0:
86,168,31450,1,0,0:0:0:0:
121,138,31537,1,0,0:0:0:0:
166,144,31625,1,0,0:0:0:0:
193,182,31712,1,0,0:0:0:0:
256,192,32064,5,4,0:0:0:0:
256,192,32239,12,0,35570,0:0:0:0:
