osu file format v14

[General]
AudioFilename: audio.mp3
AudioLeadIn: 0
PreviewTime: 22072
Countdown: 0
SampleSet: None
StackLeniency: 0.7
Mode: 0
LetterboxInBreaks: 0
WidescreenStoryboard: 1

[Editor]
Bookmarks: 35570
DistanceSpacing: 1
BeatDivisor: 2
GridSize: 4
TimelineZoom: 1

[Metadata]
Title:My Life as a Teenage Robot
TitleUnicode:My Life as a Teenage Robot
Artist:Peter Lurye
ArtistUnicode:Peter Lurye
Creator:StanDaMan809
Version:Normal
Source:My Life as a Teenage Robot
Tags:XJ9 Jenny Nick Nicktoons Teen XJ-9 Wakeman Rob Renzetti Nickelodeon
BeatmapID:1290749
BeatmapSetID:611433

[Difficulty]
HPDrainRate:4
CircleSize:3
OverallDifficulty:4
ApproachRate:5
SliderMultiplier:1.2
SliderTickRate:1

[Events]
//Background and Video events
0,0,"my teenage robot life.png",0,0
//Break Periods
//Storyboard Layer 0 (Background)
//Storyboard Layer 1 (Fail)
//Storyboard Layer 2 (Pass)
//Storyboard Layer 3 (Foreground)
//Storyboard Sound Samples

[TimingPoints]
863,350.577869187711,4,3,0,100,1,0
26104,-100,4,3,0,100,0,1
31187,-100,4,3,0,100,0,0

[Colours]
Combo1 : 0,124,249
Combo2 : 210,210,210
Combo3 : 89,172,255
Combo4 : 111,111,111

[HitObjects]
121,127,862,6,2,P|201:118|264:119,1,120
372,240,1739,2,2,P|423:187|431:135,1,120
328,81,2440,1,0,0:0:0:0:
289,194,2791,1,0,0:0:0:0:
289,194,2966,2,2,P|222:212|164:231,1,120
98,321,3667,6,2,P|53:220|66:174,1,120
151,146,4368,1,0,0:0:0:0:
151,146,4544,1,0,0:0:0:0:
151,146,4719,1,0,0:0:0:0:
151,146,4894,2,0,P|253:142|304:139,1,120
481,355,6121,5,0,0:0:0:0:
389,276,6472,2,8,P|296:257|239:254,1,120
189,167,7173,2,0,P|282:148|339:145,1,120
424,119,7874,1,0,0:0:0:0:
319,59,8225,2,0,P|247:68|181:83,1,120
108,155,8926,1,0,0:0:0:0:
108,155,9101,1,0,0:0:0:0:
108,155,9276,6,2,P|144:237|205:249,2,120
216,103,10328,1,0,0:0:0:0:
308,180,10679,1,0,0:0:0:0:
13,362,11730,5,0,0:0:0:0:
97,276,12081,2,2,P|174:245|221:253,1,120
308,180,12782,2,0,P|231:149|184:157,1,120
84,108,13483,1,0,0:0:0:0:
197,70,13834,2,0,P|271:63|338:62,1,120
417,127,14535,1,0,0:0:0:0:
417,127,14710,1,0,0:0:0:0:
417,127,14886,6,2,P|418:214|386:274,1,120
298,297,15587,1,0,0:0:0:0:
193,237,15937,1,0,0:0:0:0:
226,121,16288,2,0,P|297:120|352:121,1,120
428,207,16989,1,0,0:0:0:0:
428,207,17164,1,0,0:0:0:0:
428,207,17340,1,0,0:0:0:0:
428,207,17515,1,0,0:0:0:0:
428,207,17690,6,8,P|357:206|302:207,1,120
189,224,18391,2,0,P|198:300|248:317,1,120
348,291,19093,2,0,P|419:290|474:291,1,120
467,170,19794,1,0,0:0:0:0:
359,116,20144,1,0,0:0:0:0:
359,116,20320,1,0,0:0:0:0:
359,116,20495,6,8,P|290:115|213:117,1,120
127,161,21196,2,8,P|146:228|205:248,1,120
187,248,21722,1,8,0:0:0:0:
256,192,22248,12,8,24702,0:0:0:0:
77,223,26104,6,8,P|145:238|214:223,1,120
271,138,26805,1,0,0:0:0:0:
382,181,27156,1,0,0:0:0:0:
387,300,27506,1,0,0:0:0:0:
387,300,27682,1,0,0:0:0:0:
387,300,27857,2,0,P|305:301|254:310,1,120
150,335,28558,1,0,0:0:0:0:
77,238,28909,6,8,P|145:223|214:238,1,120
308,266,29610,1,0,0:0:0:0:
309,146,29960,1,0,0:0:0:0:
202,89,30311,1,0,0:0:0:0:
202,89,30486,1,0,0:0:0:0:
202,89,30662,2,0,P|119:92|70:95,1,120
82,94,31187,1,0,0:0:0:0:
256,192,31713,12,0,35570,0:0:0:0:
