osu file format v14

[General]
AudioFilename: audio.mp3
AudioLeadIn: 0
PreviewTime: 22072
Countdown: 0
SampleSet: None
StackLeniency: 0.7
Mode: 0
LetterboxInBreaks: 0
WidescreenStoryboard: 1

[Editor]
Bookmarks: 35570
DistanceSpacing: 0.3
BeatDivisor: 4
GridSize: 4
TimelineZoom: 1

[Metadata]
Title:My Life as a Teenage Robot
TitleUnicode:My Life as a Teenage Robot
Artist:Peter Lurye
ArtistUnicode:Peter Lurye
Creator:StanDaMan809
Version:Insane
Source:My Life as a Teenage Robot
Tags:XJ9 Jenny Nick Nicktoons Teen XJ-9 Wakeman Rob Renzetti Nickelodeon
BeatmapID:1290748
BeatmapSetID:611433

[Difficulty]
HPDrainRate:6
CircleSize:4.4
OverallDifficulty:8
ApproachRate:9
SliderMultiplier:1.7
SliderTickRate:1

[Events]
//Background and Video events
0,0,"my teenage robot life.png",0,0
//Break Periods
//Storyboard Layer 0 (Background)
//Storyboard Layer 1 (Fail)
//Storyboard Layer 2 (Pass)
//Storyboard Layer 3 (Foreground)
//Storyboard Sound Samples

[TimingPoints]
863,350.577869187711,4,3,0,100,1,0
26104,-100,4,3,0,100,0,1
31187,-125,4,3,0,100,0,1
32064,-200,4,3,0,100,0,0

[Colours]
Combo1 : 0,124,249
Combo2 : 210,210,210
Combo3 : 89,172,255
Combo4 : 111,111,111

[HitObjects]
119,57,862,6,2,B|119:122|119:122|141:167|141:167|141:232,1,170
162,237,1739,1,2,0:0:0:0:
280,182,1914,2,2,P|247:129|208:120,1,85
169,306,2265,6,0,P|222:273|231:234,1,85
108,107,2615,1,2,0:0:0:0:
162,237,2791,1,0,0:0:0:0:
228,121,2966,2,2,P|276:118|337:124,1,85
406,200,3317,1,2,0:0:0:0:
229,254,3492,1,0,0:0:0:0:
312,120,3667,6,2,P|367:136|301:159,1,170
110,101,4368,1,2,0:0:0:0:
215,186,4544,1,2,0:0:0:0:
240,47,4719,1,2,0:0:0:0:
130,190,4894,2,0,P|191:186|242:187,1,85
343,280,5245,2,0,P|282:276|231:277,1,85
310,141,5595,1,0,0:0:0:0:
127,191,5771,5,0,0:0:0:0:
226,50,5946,1,0,0:0:0:0:
238,51,6034,1,0,0:0:0:0:
250,52,6121,1,0,0:0:0:0:
262,53,6209,1,0,0:0:0:0:
274,54,6296,1,0,0:0:0:0:
286,55,6384,1,0,0:0:0:0:
298,56,6472,6,8,P|348:62|387:68,1,85
388,181,6822,1,0,0:0:0:0:
215,186,6998,1,0,0:0:0:0:
298,56,7173,2,0,P|312:118|297:157,1,85
256,258,7523,1,0,0:0:0:0:
151,128,7699,1,0,0:0:0:0:
389,98,7874,6,0,P|340:135|292:123,1,85
151,128,8225,1,0,0:0:0:0:
278,45,8400,1,0,0:0:0:0:
311,216,8575,2,0,P|259:197|244:145,1,85
195,22,8926,1,0,0:0:0:0:
348,124,9101,1,0,0:0:0:0:
151,129,9276,6,2,B|199:180|150:258|150:258|149:217|115:227,1,170
23,120,9978,1,0,0:0:0:0:
141,230,10153,1,0,0:0:0:0:
264,139,10328,2,0,P|322:125|376:126,1,85
437,178,10679,5,0,0:0:0:0:
311,263,10854,1,0,0:0:0:0:
264,139,11029,1,0,0:0:0:0:
400,255,11205,1,0,0:0:0:0:
219,288,11380,1,8,0:0:0:0:
264,139,11555,1,0,0:0:0:0:
314,273,11730,1,0,0:0:0:0:
303,280,11818,1,0,0:0:0:0:
293,288,11906,1,0,0:0:0:0:
282,295,11993,1,0,0:0:0:0:
271,302,12081,6,2,P|192:311|164:318,1,85
60,275,12432,1,0,0:0:0:0:
160,157,12607,1,0,0:0:0:0:
185,330,12782,1,0,0:0:0:0:
75,187,12957,1,0,0:0:0:0:
230,115,13133,2,0,P|304:108|336:111,1,85
399,202,13483,5,0,0:0:0:0:
246,258,13659,1,0,0:0:0:0:
314,108,13834,2,0,P|324:160|310:203,1,85
246,331,14184,1,0,0:0:0:0:
234,142,14360,1,0,0:0:0:0:
363,324,14535,2,0,P|418:321|465:317,1,85
293,305,14886,6,0,P|338:256|383:257,1,85
447,159,15236,2,0,P|386:153|336:156,1,85
254,35,15587,1,0,0:0:0:0:
196,189,15762,1,0,0:0:0:0:
154,100,15937,1,0,0:0:0:0:
292,150,16113,1,0,0:0:0:0:
103,202,16288,6,0,P|90:145|88:106,1,85
278,66,16639,2,0,P|291:123|293:162,1,85
187,267,16989,1,0,0:0:0:0:
154,100,17164,1,8,0:0:0:0:
292,150,17340,1,8,0:0:0:0:
103,202,17515,1,8,0:0:0:0:
328,64,17690,6,2,P|266:70|236:77,1,85
122,151,18041,1,0,0:0:0:0:
316,189,18216,1,0,0:0:0:0:
153,66,18391,1,0,0:0:0:0:
182,226,18567,1,0,0:0:0:0:
318,55,18742,6,2,P|380:61|410:68,1,85
467,168,19093,1,0,0:0:0:0:
316,189,19268,1,0,0:0:0:0:
468,94,19443,1,0,0:0:0:0:
378,246,19618,1,0,0:0:0:0:
275,121,19794,2,0,P|225:116|174:118,1,85
73,198,20144,1,0,0:0:0:0:
246,276,20320,1,0,0:0:0:0:
117,118,20495,6,2,B|117:183|117:183|97:232|97:232|97:298,1,170
271,345,21196,1,0,0:0:0:0:
380,247,21371,1,0,0:0:0:0:
156,166,21547,1,8,0:0:0:0:
410,356,21722,1,8,0:0:0:0:
361,142,21897,5,0,0:0:0:0:
189,277,22072,1,8,0:0:0:0:
189,277,22160,1,8,0:0:0:0:
189,277,22248,1,8,0:0:0:0:
380,247,22423,1,8,0:0:0:0:
234,93,22598,2,0,P|211:142|211:157,1,42.5
261,309,22774,1,8,0:0:0:0:
363,144,22949,2,8,P|309:143|272:147,1,85
256,192,23299,12,8,24702,0:0:0:0:
95,265,26104,6,8,P|145:267|197:260,1,85
261,175,26455,1,0,0:0:0:0:
136,125,26630,1,0,0:0:0:0:
281,283,26805,1,0,0:0:0:0:
330,76,26981,1,0,0:0:0:0:
136,125,27156,2,0,P|75:115|31:120,1,85
0,228,27506,5,0,0:0:0:0:
216,218,27682,1,0,0:0:0:0:
123,45,27857,1,0,0:0:0:0:
106,240,28032,1,0,0:0:0:0:
259,117,28208,1,0,0:0:0:0:
123,45,28383,1,0,0:0:0:0:
215,250,28558,1,0,0:0:0:0:
259,117,28733,1,0,0:0:0:0:
82,207,28909,6,8,P|87:280|108:307,1,85
227,345,29259,1,0,0:0:0:0:
305,202,29435,1,0,0:0:0:0:
139,98,29610,1,0,0:0:0:0:
216,248,29785,1,0,0:0:0:0:
339,119,29960,1,0,0:0:0:0:
139,98,30136,1,0,0:0:0:0:
216,248,30311,5,0,0:0:0:0:
259,44,30486,1,0,0:0:0:0:
81,52,30662,2,0,P|67:95|83:149,1,85
133,279,31012,1,0,0:0:0:0:
268,189,31187,1,0,0:0:0:0:
290,164,31274,1,0,0:0:0:0:
322,152,31362,1,0,0:0:0:0:
355,156,31449,1,0,0:0:0:0:
384,174,31537,1,0,0:0:0:0:
400,204,31625,1,0,0:0:0:0:
402,237,31712,1,0,0:0:0:0:
256,190,32064,5,8,0:0:0:0:
256,192,32239,12,0,35570,0:0:0:0:
