osu file format v14

[General]
AudioFilename: audio.mp3
AudioLeadIn: 0
PreviewTime: 22072
Countdown: 0
SampleSet: None
StackLeniency: 0.7
Mode: 0
LetterboxInBreaks: 0
WidescreenStoryboard: 1

[Editor]
Bookmarks: 35570
DistanceSpacing: 0.3
BeatDivisor: 4
GridSize: 4
TimelineZoom: 1

[Metadata]
Title:My Life as a Teenage Robot
TitleUnicode:My Life as a Teenage Robot
Artist:Peter Lurye
ArtistUnicode:Peter Lurye
Creator:StanDaMan809
Version:Hard
Source:My Life as a Teenage Robot
Tags:XJ9 Jenny Nick Nicktoons Teen XJ-9 Wakeman Rob Renzetti Nickelodeon
BeatmapID:1290747
BeatmapSetID:611433

[Difficulty]
HPDrainRate:5
CircleSize:4
OverallDifficulty:6
ApproachRate:8
SliderMultiplier:1.5
SliderTickRate:1

[Events]
//Background and Video events
0,0,"my teenage robot life.png",0,0
//Break Periods
//Storyboard Layer 0 (Background)
//Storyboard Layer 1 (Fail)
//Storyboard Layer 2 (Pass)
//Storyboard Layer 3 (Foreground)
//Storyboard Sound Samples

[TimingPoints]
863,350.577869187711,4,3,0,100,1,0
26104,-100,4,3,0,100,0,1
31187,-125,4,3,0,100,0,1
32064,-200,4,3,0,100,0,0

[Colours]
Combo1 : 0,124,249
Combo2 : 210,210,210
Combo3 : 89,172,255
Combo4 : 111,111,111

[HitObjects]
69,103,862,6,2,P|147:100|234:105,1,150
239,117,1739,1,2,0:0:0:0:
163,225,1914,2,2,P|139:183|145:144,1,75
239,117,2265,6,0,P|295:116|336:118,1,75
376,207,2615,1,0,0:0:0:0:
265,284,2791,1,0,0:0:0:0:
377,348,2966,2,2,B|443:322|439:248|439:248|420:289|399:275,1,150
265,284,3492,1,0,0:0:0:0:
376,207,3667,6,2,B|376:151|376:151|363:112|363:112|363:56,1,150
244,77,4193,1,0,0:0:0:0:
147,157,4368,2,2,P|81:159|57:164,1,75
25,258,4719,1,2,0:0:0:0:
171,279,4894,1,2,0:0:0:0:
147,157,5069,6,0,P|213:159|237:164,1,75
376,207,5420,2,0,P|310:209|286:214,1,75
171,279,5771,1,0,0:0:0:0:
295,312,5946,2,0,L|341:318,5,37.5
171,279,6472,6,8,B|224:222|165:168|165:168|152:202,1,150
101,315,6998,1,0,0:0:0:0:
265,234,7173,2,0,P|251:169|231:139,1,75
109,84,7523,1,0,0:0:0:0:
157,188,7699,1,0,0:0:0:0:
240,87,7874,6,0,P|292:84|338:84,1,75
364,179,8225,1,0,0:0:0:0:
265,234,8400,1,0,0:0:0:0:
349,23,8575,2,0,P|384:77|380:109,1,75
284,150,8926,1,0,0:0:0:0:
176,104,9101,1,0,0:0:0:0:
279,34,9276,6,2,P|347:51|310:83,1,150
176,104,9802,1,0,0:0:0:0:
279,34,9978,1,0,0:0:0:0:
212,183,10153,1,0,0:0:0:0:
131,40,10328,2,0,P|86:34|48:38,1,75
98,135,10679,6,0,B|114:170|114:170|115:227,1,75
54,265,11029,2,0,B|38:300|38:300|37:357,1,75
167,282,11380,2,8,B|224:238|276:326|328:263,1,150
346,263,11818,2,0,L|380:229,1,37.5
424,76,12081,6,2,P|480:102|427:132,1,150
291,168,12607,1,2,0:0:0:0:
372,236,12782,1,2,0:0:0:0:
331,86,12957,1,0,0:0:0:0:
195,170,13133,2,0,P|128:179|103:186,1,75
58,277,13483,6,2,P|125:286|150:293,1,75
214,348,13834,1,0,0:0:0:0:
81,357,14009,1,0,0:0:0:0:
188,240,14184,2,0,P|202:193|183:156,1,75
105,82,14535,1,0,0:0:0:0:
119,195,14710,1,0,0:0:0:0:
192,124,14886,6,2,B|248:124|248:124|300:112|300:112|353:112,1,150
428,155,15411,1,0,0:0:0:0:
313,208,15587,2,0,P|271:209|229:215,1,75
133,273,15937,1,0,0:0:0:0:
258,300,16113,1,0,0:0:0:0:
187,154,16288,6,0,P|227:143|269:137,1,75
386,223,16639,2,0,P|345:212|303:206,1,75
258,300,16989,1,8,0:0:0:0:
260,307,17164,1,8,0:0:0:0:
375,317,17340,1,8,0:0:0:0:
375,317,17515,1,8,0:0:0:0:
312,207,17690,6,2,B|356:167|355:106|355:106|372:157,1,150
446,256,18216,1,0,0:0:0:0:
333,314,18391,2,0,P|275:305|244:310,1,75
152,220,18742,1,0,0:0:0:0:
100,314,18917,1,0,0:0:0:0:
85,323,19268,5,0,0:0:0:0:
47,206,19443,1,0,0:0:0:0:
160,219,19618,1,0,0:0:0:0:
178,213,19969,1,0,0:0:0:0:
271,127,20144,2,0,P|327:119|381:122,1,75
377,215,20495,6,2,B|318:179|256:215|256:215|286:177,1,150
345,118,21021,1,0,0:0:0:0:
273,45,21196,2,0,P|220:43|193:44,1,75
75,160,21547,1,8,0:0:0:0:
206,137,21722,6,8,P|158:107|106:113,1,75
54,65,22072,1,0,0:0:0:0:
149,180,22248,1,8,0:0:0:0:
149,180,22423,1,0,0:0:0:0:
198,43,22598,1,8,0:0:0:0:
198,43,22774,1,0,0:0:0:0:
75,160,22949,1,8,0:0:0:0:
223,138,23124,1,0,0:0:0:0:
256,192,23299,12,8,24702,0:0:0:0:
114,233,26104,6,8,P|158:263|203:248,1,75
270,180,26455,1,0,0:0:0:0:
135,114,26630,1,0,0:0:0:0:
255,266,26805,2,0,P|304:263|338:266,1,75
412,154,27156,1,0,0:0:0:0:
336,263,27331,1,0,0:0:0:0:
261,173,27506,6,0,P|212:170|178:173,1,75
114,233,27857,1,0,0:0:0:0:
255,266,28032,1,0,0:0:0:0:
174,104,28208,2,0,P|124:140|118:179,1,75
182,295,28558,1,0,0:0:0:0:
260,173,28733,1,0,0:0:0:0:
174,104,28909,6,8,P|122:103|84:110,1,75
38,207,29259,1,0,0:0:0:0:
181,182,29435,1,0,0:0:0:0:
86,38,29610,2,0,P|36:74|30:113,1,75
38,207,29960,1,0,0:0:0:0:
99,106,30136,1,0,0:0:0:0:
38,207,30311,6,0,P|87:205|133:210,1,75
194,279,30662,1,0,0:0:0:0:
84,305,30837,1,0,0:0:0:0:
181,182,31012,2,0,P|221:175|256:178,1,75
329,268,31363,2,0,L|368:272,4,30
256,192,32064,5,8,0:0:0:0:
256,192,32239,12,0,35570,0:0:0:0:
