osu file format v14

[General]
AudioFilename: audio.mp3
AudioLeadIn: 0
PreviewTime: 36102
Countdown: 0
SampleSet: Soft
StackLeniency: 0.7
Mode: 1
LetterboxInBreaks: 0
WidescreenStoryboard: 1

[Editor]
DistanceSpacing: 1.3
BeatDivisor: 6
GridSize: 16
TimelineZoom: 2.699999

[Metadata]
Title:osu! tutorial
TitleUnicode:osu! tutorial
Artist:Peter Lambert
ArtistUnicode:Peter Lambert
Creator:Catgirl
Version:Hell Oni
Source:
Tags:memes
BeatmapID:1712507
BeatmapSetID:816612

[Difficulty]
HPDrainRate:6
CircleSize:4
OverallDifficulty:6.3
ApproachRate:5
SliderMultiplier:2.1
SliderTickRate:1

[Events]
//Background and Video events
0,0,"osubg.jpg",0,0
//Break Periods
//Storyboard Layer 0 (Background)
//Storyboard Layer 1 (Fail)
//Storyboard Layer 2 (Pass)
//Storyboard Layer 3 (Foreground)
//Storyboard Sound Samples

[TimingPoints]
280.164222500448,374.123148869836,4,2,0,50,1,0
24224,-100,4,2,0,75,0,0
84083,-100,4,2,0,75,0,1
96055,-100,4,2,0,75,0,0

[HitObjects]
256,192,280,5,0,0:0:0:0:
256,192,654,1,0,0:0:0:0:
256,192,1028,1,0,0:0:0:0:
256,192,1153,1,0,0:0:0:0:
256,192,1277,1,0,0:0:0:0:
256,192,1402,1,0,0:0:0:0:
256,192,1776,1,0,0:0:0:0:
256,192,2150,1,0,0:0:0:0:
256,192,2524,1,0,0:0:0:0:
256,192,2649,1,0,0:0:0:0:
256,192,2774,1,0,0:0:0:0:
256,192,2899,1,0,0:0:0:0:
256,192,3273,1,0,0:0:0:0:
256,192,3647,1,0,0:0:0:0:
256,192,4021,1,0,0:0:0:0:
256,192,4146,1,0,0:0:0:0:
256,192,4270,1,0,0:0:0:0:
256,192,4395,1,0,0:0:0:0:
256,192,4769,1,0,0:0:0:0:
256,192,4894,1,0,0:0:0:0:
256,192,4956,1,0,0:0:0:0:
256,192,5019,1,0,0:0:0:0:
256,192,5143,1,0,0:0:0:0:
256,192,5268,1,0,0:0:0:0:
256,192,5393,1,0,0:0:0:0:
256,192,5517,1,6,0:0:0:0:
256,192,5892,1,6,0:0:0:0:
256,192,6266,1,0,0:0:0:0:
256,192,6640,1,0,0:0:0:0:
256,192,7014,1,0,0:0:0:0:
256,192,7139,1,0,0:0:0:0:
256,192,7263,1,0,0:0:0:0:
256,192,7388,1,0,0:0:0:0:
256,192,7762,1,0,0:0:0:0:
256,192,8136,1,0,0:0:0:0:
256,192,8510,1,0,0:0:0:0:
256,192,8635,1,0,0:0:0:0:
256,192,8760,1,0,0:0:0:0:
256,192,8885,1,0,0:0:0:0:
256,192,9259,1,0,0:0:0:0:
256,192,9633,1,0,0:0:0:0:
256,192,10007,1,0,0:0:0:0:
256,192,10132,1,0,0:0:0:0:
256,192,10256,1,0,0:0:0:0:
256,192,10381,1,0,0:0:0:0:
256,192,10755,1,0,0:0:0:0:
256,192,10880,1,0,0:0:0:0:
256,192,10942,1,0,0:0:0:0:
256,192,11005,1,0,0:0:0:0:
256,192,11129,1,0,0:0:0:0:
256,192,11254,1,0,0:0:0:0:
256,192,11379,1,0,0:0:0:0:
256,192,11503,1,6,0:0:0:0:
256,192,11878,1,6,0:0:0:0:
256,192,12252,1,0,0:0:0:0:
256,192,12626,1,0,0:0:0:0:
256,192,13000,1,0,0:0:0:0:
256,192,13125,1,0,0:0:0:0:
256,192,13249,1,0,0:0:0:0:
256,192,13374,1,0,0:0:0:0:
256,192,13748,1,0,0:0:0:0:
256,192,14122,1,0,0:0:0:0:
256,192,14496,1,0,0:0:0:0:
256,192,14621,1,0,0:0:0:0:
256,192,14746,1,0,0:0:0:0:
256,192,14871,1,0,0:0:0:0:
256,192,15245,1,0,0:0:0:0:
256,192,15619,1,0,0:0:0:0:
256,192,15993,1,0,0:0:0:0:
256,192,16118,1,0,0:0:0:0:
256,192,16242,1,0,0:0:0:0:
256,192,16367,1,0,0:0:0:0:
256,192,16741,1,0,0:0:0:0:
256,192,16866,1,0,0:0:0:0:
256,192,16928,1,0,0:0:0:0:
256,192,16991,1,0,0:0:0:0:
256,192,17115,1,0,0:0:0:0:
256,192,17240,1,0,0:0:0:0:
256,192,17365,1,0,0:0:0:0:
256,192,17489,1,6,0:0:0:0:
256,192,17864,1,6,0:0:0:0:
256,192,18238,1,0,0:0:0:0:
256,192,18612,1,0,0:0:0:0:
256,192,18986,1,0,0:0:0:0:
256,192,19111,1,0,0:0:0:0:
256,192,19235,1,0,0:0:0:0:
256,192,19360,1,0,0:0:0:0:
256,192,19734,1,0,0:0:0:0:
256,192,20108,1,0,0:0:0:0:
256,192,20482,1,0,0:0:0:0:
256,192,20607,1,0,0:0:0:0:
256,192,20732,1,0,0:0:0:0:
256,192,20857,1,0,0:0:0:0:
256,192,21231,1,0,0:0:0:0:
256,192,21605,1,0,0:0:0:0:
256,192,21979,1,0,0:0:0:0:
256,192,22104,1,0,0:0:0:0:
256,192,22228,1,0,0:0:0:0:
256,192,22353,1,0,0:0:0:0:
256,192,22727,1,2,0:0:0:0:
256,192,22852,1,0,0:0:0:0:
256,192,22914,1,2,0:0:0:0:
256,192,22977,1,0,0:0:0:0:
256,192,23101,1,2,0:0:0:0:
256,192,23226,1,2,0:0:0:0:
256,192,23351,1,0,0:0:0:0:
256,192,23475,1,6,0:0:0:0:
256,192,23850,1,2,0:0:0:0:
256,192,23974,1,2,0:0:0:0:
256,192,24036,1,2,0:0:0:0:
256,192,24099,1,2,0:0:0:0:
256,192,24161,1,2,0:0:0:0:
256,192,24224,1,0,0:0:0:0:
256,192,24348,1,0,0:0:0:0:
256,192,24411,1,0,0:0:0:0:
256,192,24473,1,0,0:0:0:0:
256,192,24598,1,0,0:0:0:0:
256,192,24972,1,2,0:0:0:0:
256,192,25034,1,0,0:0:0:0:
256,192,25096,1,0,0:0:0:0:
256,192,25221,1,0,0:0:0:0:
256,192,25346,1,0,0:0:0:0:
256,192,25720,1,0,0:0:0:0:
256,192,25845,1,0,0:0:0:0:
256,192,25907,1,0,0:0:0:0:
256,192,25969,1,0,0:0:0:0:
256,192,26094,1,0,0:0:0:0:
256,192,26468,1,2,0:0:0:0:
256,192,26531,1,0,0:0:0:0:
256,192,26593,1,0,0:0:0:0:
256,192,26718,1,0,0:0:0:0:
256,192,26842,1,0,0:0:0:0:
256,192,27217,1,0,0:0:0:0:
256,192,27341,1,0,0:0:0:0:
256,192,27404,1,0,0:0:0:0:
256,192,27466,1,0,0:0:0:0:
256,192,27591,1,0,0:0:0:0:
256,192,27965,1,2,0:0:0:0:
256,192,28027,1,0,0:0:0:0:
256,192,28089,1,0,0:0:0:0:
256,192,28214,1,0,0:0:0:0:
256,192,28339,1,0,0:0:0:0:
256,192,28713,1,0,0:0:0:0:
256,192,28838,1,2,0:0:0:0:
256,192,28900,1,0,0:0:0:0:
256,192,28962,1,0,0:0:0:0:
256,192,29087,1,2,0:0:0:0:
256,192,29150,1,0,0:0:0:0:
256,192,29212,1,2,0:0:0:0:
256,192,29274,1,0,0:0:0:0:
256,192,29337,1,0,0:0:0:0:
256,192,29461,1,0,0:0:0:0:
256,192,29586,1,0,0:0:0:0:
256,192,29648,1,0,0:0:0:0:
256,192,29711,1,2,0:0:0:0:
256,192,29773,1,0,0:0:0:0:
256,192,29835,1,2,0:0:0:0:
256,192,29898,1,2,0:0:0:0:
256,192,29960,1,2,0:0:0:0:
256,192,30022,1,0,0:0:0:0:
256,192,30085,1,0,0:0:0:0:
256,192,30210,1,0,0:0:0:0:
256,192,30272,1,0,0:0:0:0:
256,192,30334,1,0,0:0:0:0:
256,192,30459,1,2,0:0:0:0:
256,192,30584,1,0,0:0:0:0:
256,192,30958,1,2,0:0:0:0:
256,192,31020,1,0,0:0:0:0:
256,192,31082,1,2,0:0:0:0:
256,192,31145,1,0,0:0:0:0:
256,192,31207,1,0,0:0:0:0:
256,192,31332,1,0,0:0:0:0:
256,192,31706,1,0,0:0:0:0:
256,192,31768,1,0,0:0:0:0:
256,192,31831,1,0,0:0:0:0:
256,192,31955,1,2,0:0:0:0:
256,192,32080,1,0,0:0:0:0:
256,192,32454,1,2,0:0:0:0:
256,192,32517,1,0,0:0:0:0:
256,192,32579,1,2,0:0:0:0:
256,192,32641,1,0,0:0:0:0:
256,192,32704,1,0,0:0:0:0:
256,192,32828,1,0,0:0:0:0:
256,192,33203,1,0,0:0:0:0:
256,192,33265,1,0,0:0:0:0:
256,192,33327,1,0,0:0:0:0:
256,192,33452,1,2,0:0:0:0:
256,192,33577,1,0,0:0:0:0:
256,192,33951,1,2,0:0:0:0:
256,192,34013,1,0,0:0:0:0:
256,192,34075,1,2,0:0:0:0:
256,192,34138,1,0,0:0:0:0:
256,192,34200,1,0,0:0:0:0:
256,192,34325,1,0,0:0:0:0:
256,192,34699,1,0,0:0:0:0:
256,192,34824,1,2,0:0:0:0:
256,192,34886,1,0,0:0:0:0:
256,192,34948,1,0,0:0:0:0:
256,192,35073,1,2,0:0:0:0:
256,192,35198,1,0,0:0:0:0:
256,192,35260,1,0,0:0:0:0:
256,192,35323,1,2,0:0:0:0:
256,192,35447,1,2,0:0:0:0:
256,192,35510,1,2,0:0:0:0:
256,192,35572,1,0,0:0:0:0:
256,192,35634,1,0,0:0:0:0:
256,192,35697,1,0,0:0:0:0:
256,192,35821,1,2,0:0:0:0:
256,192,35884,1,2,0:0:0:0:
256,192,35946,1,2,0:0:0:0:
256,192,36008,1,2,0:0:0:0:
256,192,36071,1,0,0:0:0:0:
256,192,36195,1,0,0:0:0:0:
256,192,36320,1,0,0:0:0:0:
256,192,36445,1,2,0:0:0:0:
256,192,36570,1,2,0:0:0:0:
256,192,36632,1,2,0:0:0:0:
256,192,36694,1,0,0:0:0:0:
256,192,36819,1,0,0:0:0:0:
256,192,36944,1,0,0:0:0:0:
256,192,37068,1,0,0:0:0:0:
256,192,37193,1,2,0:0:0:0:
256,192,37318,1,2,0:0:0:0:
256,192,37380,1,2,0:0:0:0:
256,192,37443,1,0,0:0:0:0:
256,192,37567,1,0,0:0:0:0:
256,192,37692,1,0,0:0:0:0:
256,192,37817,1,0,0:0:0:0:
256,192,37879,1,0,0:0:0:0:
256,192,37941,1,2,0:0:0:0:
256,192,38066,1,2,0:0:0:0:
256,192,38128,1,2,0:0:0:0:
256,192,38191,1,0,0:0:0:0:
256,192,38316,1,0,0:0:0:0:
256,192,38440,1,0,0:0:0:0:
256,192,38565,1,2,0:0:0:0:
256,192,38627,1,2,0:0:0:0:
256,192,38690,1,0,0:0:0:0:
256,192,38814,1,2,0:0:0:0:
256,192,38877,1,2,0:0:0:0:
256,192,38939,1,0,0:0:0:0:
256,192,39064,1,0,0:0:0:0:
256,192,39188,1,0,0:0:0:0:
256,192,39251,1,0,0:0:0:0:
256,192,39313,1,0,0:0:0:0:
256,192,39438,1,2,0:0:0:0:
256,192,39563,1,2,0:0:0:0:
256,192,39625,1,2,0:0:0:0:
256,192,39687,1,0,0:0:0:0:
256,192,39812,1,0,0:0:0:0:
256,192,39937,1,0,0:0:0:0:
256,192,39999,1,0,0:0:0:0:
256,192,40061,1,2,0:0:0:0:
256,192,40186,1,2,0:0:0:0:
256,192,40311,1,2,0:0:0:0:
256,192,40373,1,2,0:0:0:0:
256,192,40436,1,0,0:0:0:0:
256,192,40560,1,0,0:0:0:0:
256,192,40685,1,0,0:0:0:0:
256,192,40810,1,2,0:0:0:0:
256,192,40872,1,0,0:0:0:0:
256,192,40934,1,0,0:0:0:0:
256,192,41059,1,0,0:0:0:0:
256,192,41184,1,2,0:0:0:0:
256,192,41246,1,0,0:0:0:0:
256,192,41309,1,0,0:0:0:0:
256,192,41433,1,2,0:0:0:0:
256,192,41496,1,0,0:0:0:0:
256,192,41558,1,2,0:0:0:0:
256,192,41683,1,0,0:0:0:0:
256,192,41807,1,6,0:0:0:0:
256,192,41932,1,0,0:0:0:0:
256,192,42057,1,0,0:0:0:0:
256,192,42181,1,0,0:0:0:0:
256,192,42244,1,2,0:0:0:0:
256,192,42306,1,0,0:0:0:0:
256,192,42431,1,0,0:0:0:0:
256,192,42556,1,2,0:0:0:0:
256,192,42618,1,0,0:0:0:0:
256,192,42680,1,2,0:0:0:0:
256,192,42805,1,0,0:0:0:0:
256,192,42930,1,0,0:0:0:0:
256,192,43054,1,2,0:0:0:0:
256,192,43117,1,2,0:0:0:0:
256,192,43179,1,0,0:0:0:0:
256,192,43304,1,2,0:0:0:0:
256,192,43366,1,2,0:0:0:0:
256,192,43429,1,0,0:0:0:0:
256,192,43553,1,0,0:0:0:0:
256,192,43678,1,0,0:0:0:0:
256,192,43740,1,2,0:0:0:0:
256,192,43803,1,0,0:0:0:0:
256,192,43927,1,0,0:0:0:0:
256,192,44052,1,2,0:0:0:0:
256,192,44114,1,0,0:0:0:0:
256,192,44177,1,2,0:0:0:0:
256,192,44301,1,0,0:0:0:0:
256,192,44426,1,0,0:0:0:0:
256,192,44551,1,2,0:0:0:0:
256,192,44613,1,2,0:0:0:0:
256,192,44676,1,0,0:0:0:0:
256,192,44800,1,2,0:0:0:0:
256,192,44863,1,2,0:0:0:0:
256,192,44925,1,0,0:0:0:0:
256,192,45050,1,0,0:0:0:0:
256,192,45174,1,0,0:0:0:0:
256,192,45237,1,2,0:0:0:0:
256,192,45299,1,0,0:0:0:0:
256,192,45424,1,0,0:0:0:0:
256,192,45549,1,2,0:0:0:0:
256,192,45611,1,0,0:0:0:0:
256,192,45673,1,2,0:0:0:0:
256,192,45798,1,0,0:0:0:0:
256,192,45923,1,0,0:0:0:0:
256,192,46047,1,2,0:0:0:0:
256,192,46110,1,2,0:0:0:0:
256,192,46172,1,0,0:0:0:0:
256,192,46297,1,2,0:0:0:0:
256,192,46359,1,2,0:0:0:0:
256,192,46422,1,0,0:0:0:0:
256,192,46546,1,0,0:0:0:0:
256,192,46671,1,2,0:0:0:0:
256,192,46733,1,2,0:0:0:0:
256,192,46796,1,2,0:0:0:0:
256,192,46858,1,2,0:0:0:0:
256,192,46920,1,0,0:0:0:0:
256,192,47045,1,0,0:0:0:0:
256,192,47170,1,0,0:0:0:0:
256,192,47232,1,2,0:0:0:0:
256,192,47294,1,0,0:0:0:0:
256,192,47419,1,2,0:0:0:0:
256,192,47482,1,2,0:0:0:0:
256,192,47544,1,0,0:0:0:0:
256,192,47606,1,0,0:0:0:0:
256,192,47669,1,0,0:0:0:0:
256,192,47793,1,6,0:0:0:0:
256,192,48167,1,0,0:0:0:0:
256,192,48292,1,0,0:0:0:0:
256,192,48354,1,0,0:0:0:0:
256,192,48417,1,0,0:0:0:0:
256,192,48542,1,2,0:0:0:0:
256,192,48666,1,2,0:0:0:0:
256,192,48791,1,2,0:0:0:0:
256,192,48916,1,0,0:0:0:0:
256,192,49040,1,0,0:0:0:0:
256,192,49103,1,0,0:0:0:0:
256,192,49165,1,0,0:0:0:0:
256,192,49290,1,2,0:0:0:0:
256,192,49415,1,2,0:0:0:0:
256,192,49477,1,2,0:0:0:0:
256,192,49539,1,2,0:0:0:0:
256,192,49664,1,0,0:0:0:0:
256,192,49726,1,0,0:0:0:0:
256,192,49789,1,0,0:0:0:0:
256,192,49913,1,0,0:0:0:0:
256,192,50038,1,2,0:0:0:0:
256,192,50163,1,2,0:0:0:0:
256,192,50287,1,2,0:0:0:0:
256,192,50412,1,0,0:0:0:0:
256,192,50475,1,0,0:0:0:0:
256,192,50537,1,0,0:0:0:0:
256,192,50662,1,0,0:0:0:0:
256,192,50786,1,2,0:0:0:0:
256,192,50849,1,2,0:0:0:0:
256,192,50911,1,2,0:0:0:0:
256,192,51036,1,2,0:0:0:0:
256,192,51160,1,0,0:0:0:0:
256,192,51285,1,0,0:0:0:0:
256,192,51347,1,0,0:0:0:0:
256,192,51410,1,0,0:0:0:0:
256,192,51535,1,2,0:0:0:0:
256,192,51659,1,2,0:0:0:0:
256,192,51722,1,2,0:0:0:0:
256,192,51784,1,2,0:0:0:0:
256,192,51909,1,0,0:0:0:0:
256,192,51971,1,0,0:0:0:0:
256,192,52033,1,0,0:0:0:0:
256,192,52158,1,0,0:0:0:0:
256,192,52283,1,2,0:0:0:0:
256,192,52345,1,2,0:0:0:0:
256,192,52407,1,2,0:0:0:0:
256,192,52532,1,2,0:0:0:0:
256,192,52657,1,2,0:0:0:0:
256,192,52719,1,2,0:0:0:0:
256,192,52782,1,0,0:0:0:0:
256,192,52844,1,2,0:0:0:0:
256,192,52906,1,0,0:0:0:0:
256,192,53031,1,0,0:0:0:0:
256,192,53156,1,0,0:0:0:0:
256,192,53280,1,0,0:0:0:0:
256,192,53405,1,2,0:0:0:0:
256,192,53468,1,2,0:0:0:0:
256,192,53530,1,0,0:0:0:0:
256,192,53592,1,0,0:0:0:0:
256,192,53655,1,0,0:0:0:0:
256,192,53717,1,0,0:0:0:0:
256,192,53779,1,2,0:0:0:0:
256,192,54153,1,0,0:0:0:0:
256,192,54278,1,0,0:0:0:0:
256,192,54403,1,0,0:0:0:0:
256,192,54528,1,2,0:0:0:0:
256,192,54590,1,0,0:0:0:0:
256,192,54652,1,2,0:0:0:0:
256,192,54777,1,2,0:0:0:0:
256,192,54902,1,0,0:0:0:0:
256,192,55026,1,0,0:0:0:0:
256,192,55151,1,0,0:0:0:0:
256,192,55276,1,2,0:0:0:0:
256,192,55338,1,0,0:0:0:0:
256,192,55400,1,2,0:0:0:0:
256,192,55525,1,2,0:0:0:0:
256,192,55650,1,0,0:0:0:0:
256,192,55775,1,0,0:0:0:0:
256,192,55899,1,0,0:0:0:0:
256,192,56024,1,2,0:0:0:0:
256,192,56086,1,0,0:0:0:0:
256,192,56149,1,2,0:0:0:0:
256,192,56273,1,2,0:0:0:0:
256,192,56398,1,0,0:0:0:0:
256,192,56460,1,2,0:0:0:0:
256,192,56523,1,0,0:0:0:0:
256,192,56648,1,0,0:0:0:0:
256,192,56772,1,2,0:0:0:0:
256,192,56835,1,0,0:0:0:0:
256,192,56897,1,2,0:0:0:0:
256,192,57022,1,2,0:0:0:0:
256,192,57146,1,0,0:0:0:0:
256,192,57271,1,0,0:0:0:0:
256,192,57333,1,0,0:0:0:0:
256,192,57396,1,2,0:0:0:0:
256,192,57521,1,2,0:0:0:0:
256,192,57583,1,0,0:0:0:0:
256,192,57645,1,2,0:0:0:0:
256,192,57770,1,0,0:0:0:0:
256,192,57895,1,0,0:0:0:0:
256,192,58019,1,0,0:0:0:0:
256,192,58082,1,0,0:0:0:0:
256,192,58144,1,2,0:0:0:0:
256,192,58269,1,2,0:0:0:0:
256,192,58331,1,0,0:0:0:0:
256,192,58393,1,2,0:0:0:0:
256,192,58518,1,0,0:0:0:0:
256,192,58643,1,2,0:0:0:0:
256,192,58768,1,2,0:0:0:0:
256,192,58830,1,2,0:0:0:0:
256,192,58892,1,0,0:0:0:0:
256,192,59017,1,0,0:0:0:0:
256,192,59142,1,2,0:0:0:0:
256,192,59204,1,0,0:0:0:0:
256,192,59266,1,0,0:0:0:0:
256,192,59391,1,2,0:0:0:0:
256,192,59453,1,2,0:0:0:0:
256,192,59516,1,0,0:0:0:0:
256,192,59578,1,0,0:0:0:0:
256,192,59641,1,0,0:0:0:0:
256,192,59703,1,0,0:0:0:0:
256,192,59765,1,2,0:0:0:0:
256,192,59828,1,2,0:0:0:0:
256,192,59890,1,2,0:0:0:0:
256,192,60015,1,2,0:0:0:0:
256,192,60139,1,0,0:0:0:0:
256,192,60233,1,0,0:0:0:0:
256,192,60326,1,2,0:0:0:0:
256,192,60389,1,2,0:0:0:0:
256,192,60451,1,0,0:0:0:0:
256,192,60513,1,2,0:0:0:0:
256,192,60607,1,2,0:0:0:0:
256,192,60701,1,0,0:0:0:0:
256,192,60794,1,0,0:0:0:0:
256,192,60888,1,2,0:0:0:0:
256,192,60981,1,0,0:0:0:0:
256,192,61075,1,2,0:0:0:0:
256,192,61137,1,0,0:0:0:0:
256,192,61199,1,0,0:0:0:0:
256,192,61262,1,2,0:0:0:0:
256,192,61355,1,2,0:0:0:0:
256,192,61449,1,0,0:0:0:0:
256,192,61542,1,0,0:0:0:0:
256,192,61636,1,2,0:0:0:0:
256,192,61729,1,0,0:0:0:0:
256,192,61823,1,2,0:0:0:0:
256,192,61885,1,2,0:0:0:0:
256,192,61948,1,0,0:0:0:0:
256,192,62010,1,2,0:0:0:0:
256,192,62104,1,0,0:0:0:0:
256,192,62197,1,2,0:0:0:0:
256,192,62259,1,0,0:0:0:0:
256,192,62322,1,0,0:0:0:0:
256,192,62384,1,2,0:0:0:0:
256,192,62509,1,0,0:0:0:0:
256,192,62634,1,0,0:0:0:0:
256,192,62758,1,2,0:0:0:0:
256,192,62883,1,2,0:0:0:0:
256,192,63008,1,0,0:0:0:0:
256,192,63132,1,2,0:0:0:0:
256,192,63195,1,0,0:0:0:0:
256,192,63257,1,0,0:0:0:0:
256,192,63319,1,2,0:0:0:0:
256,192,63413,1,0,0:0:0:0:
256,192,63506,1,2,0:0:0:0:
256,192,63600,1,0,0:0:0:0:
256,192,63694,1,0,0:0:0:0:
256,192,63787,1,2,0:0:0:0:
256,192,63881,1,0,0:0:0:0:
256,192,63943,1,0,0:0:0:0:
256,192,64005,1,0,0:0:0:0:
256,192,64068,1,2,0:0:0:0:
256,192,64161,1,2,0:0:0:0:
256,192,64255,1,0,0:0:0:0:
256,192,64348,1,2,0:0:0:0:
256,192,64442,1,0,0:0:0:0:
256,192,64535,1,0,0:0:0:0:
256,192,64629,1,2,0:0:0:0:
256,192,64691,1,2,0:0:0:0:
256,192,64754,1,0,0:0:0:0:
256,192,64816,1,0,0:0:0:0:
256,192,64878,1,0,0:0:0:0:
256,192,65003,1,2,0:0:0:0:
256,192,65128,1,2,0:0:0:0:
256,192,65252,1,0,0:0:0:0:
256,192,65377,1,0,0:0:0:0:
256,192,65439,1,0,0:0:0:0:
256,192,65502,1,2,0:0:0:0:
256,192,65627,1,0,0:0:0:0:
256,192,65689,1,0,0:0:0:0:
256,192,65751,1,2,0:0:0:0:
256,192,65814,1,0,0:0:0:0:
256,192,65876,1,2,0:0:0:0:
256,192,65938,1,0,0:0:0:0:
256,192,66001,1,0,0:0:0:0:
256,192,66125,1,0,0:0:0:0:
256,192,66219,1,2,0:0:0:0:
256,192,66312,1,0,0:0:0:0:
256,192,66406,1,0,0:0:0:0:
256,192,66499,1,2,0:0:0:0:
256,192,66562,1,0,0:0:0:0:
256,192,66624,1,0,0:0:0:0:
256,192,66687,1,2,0:0:0:0:
256,192,66749,1,0,0:0:0:0:
256,192,66811,1,0,0:0:0:0:
256,192,66874,1,2,0:0:0:0:
256,192,66967,1,0,0:0:0:0:
256,192,67061,1,2,0:0:0:0:
256,192,67154,1,0,0:0:0:0:
256,192,67248,1,0,0:0:0:0:
256,192,67310,1,0,0:0:0:0:
256,192,67372,1,0,0:0:0:0:
256,192,67435,1,2,0:0:0:0:
256,192,67497,1,2,0:0:0:0:
256,192,67559,1,2,0:0:0:0:
256,192,67622,1,0,0:0:0:0:
256,192,67715,1,0,0:0:0:0:
256,192,67809,1,2,0:0:0:0:
256,192,67871,1,2,0:0:0:0:
256,192,67934,1,0,0:0:0:0:
256,192,67996,1,2,0:0:0:0:
256,192,68089,1,0,0:0:0:0:
256,192,68183,1,2,0:0:0:0:
256,192,68245,1,0,0:0:0:0:
256,192,68308,1,0,0:0:0:0:
256,192,68370,1,2,0:0:0:0:
256,192,68495,1,0,0:0:0:0:
256,192,68619,1,0,0:0:0:0:
256,192,68744,1,2,0:0:0:0:
256,192,68869,1,2,0:0:0:0:
256,192,68994,1,0,0:0:0:0:
256,192,69056,1,0,0:0:0:0:
256,192,69118,1,2,0:0:0:0:
256,192,69212,1,2,0:0:0:0:
256,192,69305,1,0,0:0:0:0:
256,192,69368,1,0,0:0:0:0:
256,192,69430,1,0,0:0:0:0:
256,192,69492,1,2,0:0:0:0:
256,192,69586,1,0,0:0:0:0:
256,192,69680,1,2,0:0:0:0:
256,192,69742,1,2,0:0:0:0:
256,192,69804,1,0,0:0:0:0:
256,192,69867,1,2,0:0:0:0:
256,192,69960,1,0,0:0:0:0:
256,192,70054,1,2,0:0:0:0:
256,192,70147,1,0,0:0:0:0:
256,192,70241,1,2,0:0:0:0:
256,192,70303,1,0,0:0:0:0:
256,192,70365,1,0,0:0:0:0:
256,192,70428,1,2,0:0:0:0:
256,192,70490,1,0,0:0:0:0:
256,192,70552,1,0,0:0:0:0:
256,192,70615,1,0,0:0:0:0:
256,192,70740,1,2,0:0:0:0:
256,192,70802,1,0,0:0:0:0:
256,192,70864,1,2,0:0:0:0:
256,192,70989,1,2,0:0:0:0:
256,192,71114,1,0,0:0:0:0:
256,192,71238,1,0,0:0:0:0:
256,192,71363,1,2,0:0:0:0:
256,192,71425,1,0,0:0:0:0:
256,192,71488,1,2,0:0:0:0:
256,192,71550,1,0,0:0:0:0:
256,192,71612,1,0,0:0:0:0:
256,192,71737,1,0,0:0:0:0:
256,192,71800,1,0,0:0:0:0:
256,192,71862,1,2,0:0:0:0:
256,192,71924,1,2,0:0:0:0:
256,192,71987,1,2,0:0:0:0:
256,192,72049,1,2,0:0:0:0:
256,192,72111,1,0,0:0:0:0:
256,192,72205,1,0,0:0:0:0:
256,192,72298,1,0,0:0:0:0:
256,192,72361,1,0,0:0:0:0:
256,192,72423,1,0,0:0:0:0:
256,192,72485,1,2,0:0:0:0:
256,192,72579,1,2,0:0:0:0:
256,192,72672,1,2,0:0:0:0:
256,192,72766,1,0,0:0:0:0:
256,192,72860,1,2,0:0:0:0:
256,192,72953,1,0,0:0:0:0:
256,192,73047,1,2,0:0:0:0:
256,192,73109,1,0,0:0:0:0:
256,192,73171,1,0,0:0:0:0:
256,192,73234,1,2,0:0:0:0:
256,192,73327,1,0,0:0:0:0:
256,192,73421,1,2,0:0:0:0:
256,192,73514,1,0,0:0:0:0:
256,192,73608,1,0,0:0:0:0:
256,192,73701,1,0,0:0:0:0:
256,192,73795,1,2,0:0:0:0:
256,192,73857,1,2,0:0:0:0:
256,192,73920,1,0,0:0:0:0:
256,192,73982,1,2,0:0:0:0:
256,192,74075,1,0,0:0:0:0:
256,192,74169,1,2,0:0:0:0:
256,192,74231,1,0,0:0:0:0:
256,192,74294,1,0,0:0:0:0:
256,192,74356,1,2,0:0:0:0:
256,192,74481,1,0,0:0:0:0:
256,192,74605,1,0,0:0:0:0:
256,192,74730,1,2,0:0:0:0:
256,192,74855,1,2,0:0:0:0:
256,192,74980,1,0,0:0:0:0:
256,192,75104,1,0,0:0:0:0:
256,192,75167,1,0,0:0:0:0:
256,192,75229,1,0,0:0:0:0:
256,192,75291,1,2,0:0:0:0:
256,192,75385,1,2,0:0:0:0:
256,192,75478,1,0,0:0:0:0:
256,192,75572,1,0,0:0:0:0:
256,192,75665,1,2,0:0:0:0:
256,192,75759,1,2,0:0:0:0:
256,192,75853,1,0,0:0:0:0:
256,192,75915,1,0,0:0:0:0:
256,192,75977,1,0,0:0:0:0:
256,192,76040,1,2,0:0:0:0:
256,192,76133,1,2,0:0:0:0:
256,192,76227,1,0,0:0:0:0:
256,192,76320,1,2,0:0:0:0:
256,192,76414,1,2,0:0:0:0:
256,192,76507,1,0,0:0:0:0:
256,192,76601,1,0,0:0:0:0:
256,192,76663,1,0,0:0:0:0:
256,192,76725,1,2,0:0:0:0:
256,192,76788,1,0,0:0:0:0:
256,192,76850,1,2,0:0:0:0:
256,192,76975,1,0,0:0:0:0:
256,192,77100,1,0,0:0:0:0:
256,192,77224,1,0,0:0:0:0:
256,192,77287,1,0,0:0:0:0:
256,192,77349,1,2,0:0:0:0:
256,192,77474,1,2,0:0:0:0:
256,192,77536,1,0,0:0:0:0:
256,192,77598,1,0,0:0:0:0:
256,192,77661,1,0,0:0:0:0:
256,192,77723,1,2,0:0:0:0:
256,192,77786,1,0,0:0:0:0:
256,192,77848,1,2,0:0:0:0:
256,192,77910,1,0,0:0:0:0:
256,192,77973,1,0,0:0:0:0:
256,192,78035,1,0,0:0:0:0:
256,192,78097,1,2,0:0:0:0:
256,192,78191,1,0,0:0:0:0:
256,192,78284,1,0,0:0:0:0:
256,192,78378,1,2,0:0:0:0:
256,192,78471,1,0,0:0:0:0:
256,192,78534,1,0,0:0:0:0:
256,192,78596,1,0,0:0:0:0:
256,192,78658,1,2,0:0:0:0:
256,192,78721,1,2,0:0:0:0:
256,192,78783,1,2,0:0:0:0:
256,192,78846,1,0,0:0:0:0:
256,192,78939,1,0,0:0:0:0:
256,192,79033,1,0,0:0:0:0:
256,192,79126,1,2,0:0:0:0:
256,192,79220,1,0,0:0:0:0:
256,192,79282,1,0,0:0:0:0:
256,192,79344,1,0,0:0:0:0:
256,192,79407,1,2,0:0:0:0:
256,192,79500,1,2,0:0:0:0:
256,192,79594,1,0,0:0:0:0:
256,192,79687,1,0,0:0:0:0:
256,192,79781,1,2,0:0:0:0:
256,192,79874,1,0,0:0:0:0:
256,192,79968,1,2,0:0:0:0:
256,192,80030,1,2,0:0:0:0:
256,192,80093,1,2,0:0:0:0:
256,192,80155,1,0,0:0:0:0:
256,192,80217,1,0,0:0:0:0:
256,192,80280,1,0,0:0:0:0:
256,192,80342,1,2,0:0:0:0:
256,192,80467,1,0,0:0:0:0:
256,192,80591,1,0,0:0:0:0:
256,192,80716,1,2,0:0:0:0:
256,192,80841,1,2,0:0:0:0:
256,192,80966,1,0,0:0:0:0:
256,192,81028,1,0,0:0:0:0:
256,192,81090,1,2,0:0:0:0:
256,192,81184,1,0,0:0:0:0:
256,192,81277,1,0,0:0:0:0:
256,192,81371,1,0,0:0:0:0:
256,192,81464,1,2,0:0:0:0:
256,192,81558,1,0,0:0:0:0:
256,192,81651,1,2,0:0:0:0:
256,192,81714,1,0,0:0:0:0:
256,192,81776,1,0,0:0:0:0:
256,192,81839,1,2,0:0:0:0:
256,192,81932,1,0,0:0:0:0:
256,192,82026,1,2,0:0:0:0:
256,192,82088,1,2,0:0:0:0:
256,192,82150,1,0,0:0:0:0:
256,192,82213,1,2,0:0:0:0:
256,192,82306,1,0,0:0:0:0:
256,192,82400,1,2,0:0:0:0:
256,192,82462,1,2,0:0:0:0:
256,192,82524,1,0,0:0:0:0:
256,192,82587,1,0,0:0:0:0:
256,192,82711,1,0,0:0:0:0:
256,192,82774,1,0,0:0:0:0:
256,192,82836,1,2,0:0:0:0:
256,192,82961,1,0,0:0:0:0:
256,192,83086,1,2,0:0:0:0:
256,192,83148,1,0,0:0:0:0:
256,192,83210,1,2,0:0:0:0:
256,192,83335,1,0,0:0:0:0:
256,192,83397,1,0,0:0:0:0:
256,192,83460,1,2,0:0:0:0:
256,192,83522,1,0,0:0:0:0:
256,192,83584,1,2,0:0:0:0:
256,192,83647,1,0,0:0:0:0:
256,192,83709,1,0,0:0:0:0:
256,192,83834,1,0,0:0:0:0:
256,192,83959,1,2,0:0:0:0:
256,192,84083,1,2,0:0:0:0:
256,192,84146,1,0,0:0:0:0:
256,192,84208,1,0,0:0:0:0:
256,192,84270,1,0,0:0:0:0:
256,192,84333,1,0,0:0:0:0:
256,192,84395,1,0,0:0:0:0:
256,192,84457,1,2,0:0:0:0:
256,192,84707,1,0,0:0:0:0:
256,192,84831,1,0,0:0:0:0:
256,192,84894,1,0,0:0:0:0:
256,192,84956,1,2,0:0:0:0:
256,192,85019,1,0,0:0:0:0:
256,192,85081,1,0,0:0:0:0:
256,192,85143,1,0,0:0:0:0:
256,192,85206,1,2,0:0:0:0:
256,192,85455,1,2,0:0:0:0:
256,192,85580,1,2,0:0:0:0:
256,192,85642,1,0,0:0:0:0:
256,192,85704,1,0,0:0:0:0:
256,192,85767,1,0,0:0:0:0:
256,192,85829,1,2,0:0:0:0:
256,192,85892,1,0,0:0:0:0:
256,192,85954,1,2,0:0:0:0:
256,192,86079,1,2,0:0:0:0:
256,192,86203,1,0,0:0:0:0:
256,192,86328,1,2,0:0:0:0:
256,192,86390,1,0,0:0:0:0:
256,192,86453,1,0,0:0:0:0:
256,192,86515,1,0,0:0:0:0:
256,192,86577,1,0,0:0:0:0:
256,192,86640,1,0,0:0:0:0:
256,192,86702,1,2,0:0:0:0:
256,192,86827,1,2,0:0:0:0:
256,192,86889,1,0,0:0:0:0:
256,192,86952,1,2,0:0:0:0:
256,192,87076,1,0,0:0:0:0:
256,192,87139,1,0,0:0:0:0:
256,192,87201,1,2,0:0:0:0:
256,192,87263,1,0,0:0:0:0:
256,192,87326,1,2,0:0:0:0:
256,192,87388,1,0,0:0:0:0:
256,192,87450,1,2,0:0:0:0:
256,192,87700,1,2,0:0:0:0:
256,192,87824,1,0,0:0:0:0:
256,192,87887,1,0,0:0:0:0:
256,192,87949,1,2,0:0:0:0:
256,192,88012,1,0,0:0:0:0:
256,192,88074,1,0,0:0:0:0:
256,192,88136,1,0,0:0:0:0:
256,192,88199,1,2,0:0:0:0:
256,192,88448,1,0,0:0:0:0:
256,192,88573,1,2,0:0:0:0:
256,192,88635,1,0,0:0:0:0:
256,192,88697,1,2,0:0:0:0:
256,192,88760,1,0,0:0:0:0:
256,192,88822,1,0,0:0:0:0:
256,192,88884,1,0,0:0:0:0:
256,192,88947,1,2,0:0:0:0:
256,192,89072,1,0,0:0:0:0:
256,192,89196,1,0,0:0:0:0:
256,192,89321,1,2,0:0:0:0:
256,192,89383,1,0,0:0:0:0:
256,192,89446,1,2,0:0:0:0:
256,192,89508,1,0,0:0:0:0:
256,192,89570,1,2,0:0:0:0:
256,192,89633,1,0,0:0:0:0:
256,192,89695,1,0,0:0:0:0:
256,192,89820,1,2,0:0:0:0:
256,192,89882,1,2,0:0:0:0:
256,192,89945,1,0,0:0:0:0:
256,192,90069,1,2,0:0:0:0:
256,192,90132,1,0,0:0:0:0:
256,192,90194,1,2,0:0:0:0:
256,192,90256,1,0,0:0:0:0:
256,192,90319,1,0,0:0:0:0:
256,192,90381,1,0,0:0:0:0:
256,192,90443,1,2,0:0:0:0:
256,192,90693,1,2,0:0:0:0:
256,192,90817,1,2,0:0:0:0:
256,192,90880,1,0,0:0:0:0:
256,192,90942,1,0,0:0:0:0:
256,192,91005,1,0,0:0:0:0:
256,192,91067,1,0,0:0:0:0:
256,192,91129,1,0,0:0:0:0:
256,192,91192,1,2,0:0:0:0:
256,192,91441,1,2,0:0:0:0:
256,192,91566,1,2,0:0:0:0:
256,192,91628,1,0,0:0:0:0:
256,192,91690,1,2,0:0:0:0:
256,192,91753,1,0,0:0:0:0:
256,192,91815,1,0,0:0:0:0:
256,192,91877,1,0,0:0:0:0:
256,192,91940,1,0,0:0:0:0:
256,192,92065,1,2,0:0:0:0:
256,192,92189,1,0,0:0:0:0:
256,192,92314,1,2,0:0:0:0:
256,192,92376,1,0,0:0:0:0:
256,192,92439,1,2,0:0:0:0:
256,192,92501,1,0,0:0:0:0:
256,192,92563,1,0,0:0:0:0:
256,192,92626,1,0,0:0:0:0:
256,192,92688,1,2,0:0:0:0:
256,192,92813,1,0,0:0:0:0:
256,192,92875,1,0,0:0:0:0:
256,192,92937,1,2,0:0:0:0:
256,192,93062,1,2,0:0:0:0:
256,192,93125,1,0,0:0:0:0:
256,192,93187,1,0,0:0:0:0:
256,192,93249,1,0,0:0:0:0:
256,192,93312,1,0,0:0:0:0:
256,192,93374,1,0,0:0:0:0:
256,192,93436,1,2,0:0:0:0:
256,192,93686,1,0,0:0:0:0:
256,192,93810,1,0,0:0:0:0:
256,192,93873,1,0,0:0:0:0:
256,192,93935,1,2,0:0:0:0:
256,192,93998,1,0,0:0:0:0:
256,192,94060,1,0,0:0:0:0:
256,192,94122,1,0,0:0:0:0:
256,192,94185,1,2,0:0:0:0:
256,192,94434,1,2,0:0:0:0:
256,192,94559,1,0,0:0:0:0:
256,192,94621,1,0,0:0:0:0:
256,192,94683,1,0,0:0:0:0:
256,192,94746,1,0,0:0:0:0:
256,192,94808,1,2,0:0:0:0:
256,192,94870,1,0,0:0:0:0:
256,192,94933,1,2,0:0:0:0:
256,192,95058,1,0,0:0:0:0:
256,192,95182,1,2,0:0:0:0:
256,192,95307,1,2,0:0:0:0:
256,192,95369,1,0,0:0:0:0:
256,192,95432,1,0,0:0:0:0:
256,192,95494,1,0,0:0:0:0:
256,192,95556,1,2,0:0:0:0:
256,192,95619,1,0,0:0:0:0:
256,192,95681,1,2,0:0:0:0:
256,192,95743,1,0,0:0:0:0:
256,192,95806,1,0,0:0:0:0:
256,192,95868,1,0,0:0:0:0:
256,192,95930,1,2,0:0:0:0:
256,192,95993,1,0,0:0:0:0:
256,192,96055,1,2,0:0:0:0:
256,192,96180,1,0,0:0:0:0:
256,192,96305,1,2,0:0:0:0:
256,192,96429,1,2,0:0:0:0:
256,192,96492,1,2,0:0:0:0:
256,192,96554,1,0,0:0:0:0:
256,192,96679,1,0,0:0:0:0:
256,192,96803,1,0,0:0:0:0:
256,192,96928,1,2,0:0:0:0:
256,192,96990,1,0,0:0:0:0:
256,192,97053,1,2,0:0:0:0:
256,192,97115,1,0,0:0:0:0:
256,192,97178,1,0,0:0:0:0:
256,192,97302,1,0,0:0:0:0:
256,192,97427,1,0,0:0:0:0:
256,192,97552,1,2,0:0:0:0:
256,192,97676,1,0,0:0:0:0:
256,192,97801,1,2,0:0:0:0:
256,192,97926,1,2,0:0:0:0:
256,192,97988,1,2,0:0:0:0:
256,192,98051,1,0,0:0:0:0:
256,192,98175,1,0,0:0:0:0:
256,192,98300,1,0,0:0:0:0:
256,192,98425,1,2,0:0:0:0:
256,192,98487,1,0,0:0:0:0:
256,192,98549,1,2,0:0:0:0:
256,192,98612,1,0,0:0:0:0:
256,192,98674,1,0,0:0:0:0:
256,192,98799,1,0,0:0:0:0:
256,192,98923,1,0,0:0:0:0:
256,192,99048,1,2,0:0:0:0:
256,192,99173,1,0,0:0:0:0:
256,192,99298,1,2,0:0:0:0:
256,192,99422,1,2,0:0:0:0:
256,192,99485,1,2,0:0:0:0:
256,192,99547,1,0,0:0:0:0:
256,192,99672,1,0,0:0:0:0:
256,192,99796,1,0,0:0:0:0:
256,192,99921,1,2,0:0:0:0:
256,192,99983,1,0,0:0:0:0:
256,192,100046,1,2,0:0:0:0:
256,192,100108,1,0,0:0:0:0:
256,192,100171,1,0,0:0:0:0:
256,192,100295,1,0,0:0:0:0:
256,192,100420,1,0,0:0:0:0:
256,192,100545,1,2,0:0:0:0:
256,192,100669,1,2,0:0:0:0:
256,192,100732,1,0,0:0:0:0:
256,192,100794,1,0,0:0:0:0:
256,192,100919,1,0,0:0:0:0:
256,192,101043,1,0,0:0:0:0:
256,192,101168,1,0,0:0:0:0:
256,192,101293,1,2,0:0:0:0:
256,192,101355,1,2,0:0:0:0:
256,192,101418,1,0,0:0:0:0:
256,192,101480,1,0,0:0:0:0:
256,192,101542,1,0,0:0:0:0:
256,192,101605,1,0,0:0:0:0:
256,192,101667,1,2,0:0:0:0:
256,192,102041,1,0,0:0:0:0:
256,192,102166,1,0,0:0:0:0:
256,192,102228,1,0,0:0:0:0:
256,192,102291,1,2,0:0:0:0:
256,192,102353,1,0,0:0:0:0:
256,192,102415,1,2,0:0:0:0:
256,192,102540,1,0,0:0:0:0:
256,192,102665,1,2,0:0:0:0:
256,192,102789,1,0,0:0:0:0:
256,192,102914,1,0,0:0:0:0:
256,192,103039,1,2,0:0:0:0:
256,192,103164,1,2,0:0:0:0:
256,192,103226,1,2,0:0:0:0:
256,192,103288,1,0,0:0:0:0:
256,192,103413,1,0,0:0:0:0:
256,192,103538,1,0,0:0:0:0:
256,192,103662,1,0,0:0:0:0:
256,192,103725,1,0,0:0:0:0:
256,192,103787,1,2,0:0:0:0:
256,192,103849,1,0,0:0:0:0:
256,192,103912,1,2,0:0:0:0:
256,192,104036,1,0,0:0:0:0:
256,192,104161,1,2,0:0:0:0:
256,192,104286,1,0,0:0:0:0:
256,192,104411,1,0,0:0:0:0:
256,192,104535,1,2,0:0:0:0:
256,192,104660,1,2,0:0:0:0:
256,192,104722,1,2,0:0:0:0:
256,192,104785,1,0,0:0:0:0:
256,192,104909,1,0,0:0:0:0:
256,192,105034,1,0,0:0:0:0:
256,192,105159,1,0,0:0:0:0:
256,192,105221,1,0,0:0:0:0:
256,192,105284,1,2,0:0:0:0:
256,192,105346,1,0,0:0:0:0:
256,192,105408,1,2,0:0:0:0:
256,192,105533,1,0,0:0:0:0:
256,192,105658,1,2,0:0:0:0:
256,192,105782,1,0,0:0:0:0:
256,192,105907,1,0,0:0:0:0:
256,192,106032,1,2,0:0:0:0:
256,192,106157,1,2,0:0:0:0:
256,192,106219,1,2,0:0:0:0:
256,192,106281,1,0,0:0:0:0:
256,192,106406,1,0,0:0:0:0:
256,192,106531,1,2,0:0:0:0:
256,192,106593,1,2,0:0:0:0:
256,192,106655,1,0,0:0:0:0:
256,192,106718,1,0,0:0:0:0:
256,192,106780,1,0,0:0:0:0:
256,192,106905,1,0,0:0:0:0:
256,192,107029,1,0,0:0:0:0:
256,192,107154,1,2,0:0:0:0:
256,192,107279,1,0,0:0:0:0:
256,192,107341,1,0,0:0:0:0:
256,192,107404,1,0,0:0:0:0:
256,192,107466,1,0,0:0:0:0:
256,192,107528,1,2,0:0:0:0:
256,192,107591,1,0,0:0:0:0:
256,192,107653,1,2,0:0:0:0:
256,192,108027,1,0,0:0:0:0:
256,192,108089,1,0,0:0:0:0:
256,192,108152,1,0,0:0:0:0:
256,192,108277,1,2,0:0:0:0:
256,192,108401,1,0,0:0:0:0:
256,192,108464,1,0,0:0:0:0:
256,192,108526,1,2,0:0:0:0:
256,192,108588,1,2,0:0:0:0:
256,192,108651,1,2,0:0:0:0:
256,192,108775,1,0,0:0:0:0:
256,192,108900,1,2,0:0:0:0:
256,192,109025,1,2,0:0:0:0:
256,192,109150,1,0,0:0:0:0:
256,192,109212,1,0,0:0:0:0:
256,192,109274,1,2,0:0:0:0:
256,192,109399,1,2,0:0:0:0:
256,192,109524,1,0,0:0:0:0:
256,192,109586,1,0,0:0:0:0:
256,192,109648,1,0,0:0:0:0:
256,192,109773,1,2,0:0:0:0:
256,192,109898,1,0,0:0:0:0:
256,192,109960,1,0,0:0:0:0:
256,192,110022,1,2,0:0:0:0:
256,192,110085,1,2,0:0:0:0:
256,192,110147,1,2,0:0:0:0:
256,192,110272,1,0,0:0:0:0:
256,192,110397,1,2,0:0:0:0:
256,192,110521,1,2,0:0:0:0:
256,192,110646,1,0,0:0:0:0:
256,192,110708,1,0,0:0:0:0:
256,192,110771,1,2,0:0:0:0:
256,192,110895,1,2,0:0:0:0:
256,192,111020,1,0,0:0:0:0:
256,192,111082,1,0,0:0:0:0:
256,192,111145,1,0,0:0:0:0:
256,192,111270,1,2,0:0:0:0:
256,192,111394,1,0,0:0:0:0:
256,192,111457,1,0,0:0:0:0:
256,192,111519,1,2,0:0:0:0:
256,192,111581,1,2,0:0:0:0:
256,192,111644,1,2,0:0:0:0:
256,192,111768,1,0,0:0:0:0:
256,192,111893,1,2,0:0:0:0:
256,192,112018,1,2,0:0:0:0:
256,192,112142,1,0,0:0:0:0:
256,192,112205,1,0,0:0:0:0:
256,192,112267,1,2,0:0:0:0:
256,192,112392,1,2,0:0:0:0:
256,192,112517,1,0,0:0:0:0:
256,192,112641,1,0,0:0:0:0:
256,192,112704,1,2,0:0:0:0:
256,192,112766,1,0,0:0:0:0:
256,192,112891,1,0,0:0:0:0:
256,192,113015,1,2,0:0:0:0:
256,192,113078,1,2,0:0:0:0:
256,192,113140,1,0,0:0:0:0:
256,192,113265,1,0,0:0:0:0:
256,192,113639,1,2,0:0:0:0:
256,192,114013,1,0,0:0:0:0:
256,192,114075,1,0,0:0:0:0:
256,192,114138,1,0,0:0:0:0:
256,192,114200,1,0,0:0:0:0:
256,192,114263,1,2,0:0:0:0:
256,192,114325,1,0,0:0:0:0:
256,192,114387,1,2,0:0:0:0:
256,192,114512,1,0,0:0:0:0:
256,192,114637,1,0,0:0:0:0:
256,192,114761,1,2,0:0:0:0:
256,192,114824,1,0,0:0:0:0:
256,192,114886,1,0,0:0:0:0:
256,192,114948,1,0,0:0:0:0:
256,192,115011,1,2,0:0:0:0:
256,192,115073,1,0,0:0:0:0:
256,192,115135,1,2,0:0:0:0:
256,192,115260,1,0,0:0:0:0:
256,192,115385,1,2,0:0:0:0:
256,192,115510,1,0,0:0:0:0:
256,192,115572,1,0,0:0:0:0:
256,192,115634,1,0,0:0:0:0:
256,192,115697,1,0,0:0:0:0:
256,192,115759,1,2,0:0:0:0:
256,192,115821,1,0,0:0:0:0:
256,192,115884,1,2,0:0:0:0:
256,192,116008,1,0,0:0:0:0:
256,192,116133,1,0,0:0:0:0:
256,192,116258,1,2,0:0:0:0:
256,192,116320,1,0,0:0:0:0:
256,192,116383,1,0,0:0:0:0:
256,192,116445,1,0,0:0:0:0:
256,192,116507,1,2,0:0:0:0:
256,192,116570,1,0,0:0:0:0:
256,192,116632,1,2,0:0:0:0:
256,192,116757,1,0,0:0:0:0:
256,192,116881,1,2,0:0:0:0:
256,192,117006,1,0,0:0:0:0:
256,192,117068,1,0,0:0:0:0:
256,192,117131,1,0,0:0:0:0:
256,192,117193,1,0,0:0:0:0:
256,192,117256,1,2,0:0:0:0:
256,192,117318,1,2,0:0:0:0:
256,192,117380,1,0,0:0:0:0:
256,192,117443,1,0,0:0:0:0:
256,192,117505,1,0,0:0:0:0:
256,192,117567,1,0,0:0:0:0:
256,192,117630,1,2,0:0:0:0:
256,192,117692,1,2,0:0:0:0:
256,192,117754,1,0,0:0:0:0:
256,192,117817,1,0,0:0:0:0:
256,192,117879,1,2,0:0:0:0:
256,192,117941,1,0,0:0:0:0:
256,192,118004,1,2,0:0:0:0:
256,192,118066,1,0,0:0:0:0:
256,192,118128,1,2,0:0:0:0:
256,192,118253,1,2,0:0:0:0:
256,192,118378,1,2,0:0:0:0:
256,192,118503,1,0,0:0:0:0:
256,192,118565,1,0,0:0:0:0:
256,192,118627,1,2,0:0:0:0:
256,192,118690,1,0,0:0:0:0:
256,192,118752,1,2,0:0:0:0:
256,192,118877,1,0,0:0:0:0:
256,192,119001,1,2,0:0:0:0:
256,192,119064,1,0,0:0:0:0:
256,192,119126,1,2,0:0:0:0:
256,192,119251,1,0,0:0:0:0:
256,192,119625,1,6,0:0:0:0:
