osu file format v14

[General]
AudioFilename: audio.ogg
AudioLeadIn: 0
PreviewTime: 63810
Countdown: 0
SampleSet: Soft
StackLeniency: 0.7
Mode: 0
LetterboxInBreaks: 0
WidescreenStoryboard: 1

[Editor]
Bookmarks: 71588,78699
DistanceSpacing: 1.5
BeatDivisor: 4
GridSize: 16
TimelineZoom: 2.1

[Metadata]
Title:Kimi ga Yume o Tsuretekita (TV Size)
TitleUnicode:君が夢を連れてきた (TV Size)
Artist:Pet na Kanojotachi
ArtistUnicode:ペットな彼女たち
Creator:buddon
Version:Ryxliee's Hard
Source:さくら荘のペットな彼女
Tags:sakurasou Sakura-sō sakura-so sakura-sou no pet petto girl of na kanojo anime 茅野愛衣 Ai Kayano 中津真莉子 Mari Mariko Nakatsu 高森奈津美 Natsumi Takamori pop jpop j-pop japanese First Opening 1 Sakura Hall Intro ryxliee shiwakaze mashiro shiina sorata kanda nanami aoyama misaki kamiigusa jin mitaka ryunosuke akasaka meido maid
BeatmapID:3906432
BeatmapSetID:1216779

[Difficulty]
HPDrainRate:4
CircleSize:3.6
OverallDifficulty:6
ApproachRate:7.5
SliderMultiplier:1.2
SliderTickRate:1

[Events]
//Background and Video events
Video,-851,"op1.mp4"
0,0,"waifu2xmashrio.jpg",0,0
//Break Periods
//Storyboard Layer 0 (Background)
//Storyboard Layer 1 (Fail)
//Storyboard Layer 2 (Pass)
//Storyboard Layer 3 (Foreground)
//Storyboard Layer 4 (Overlay)
//Storyboard Sound Samples

[TimingPoints]
477,444.444444444444,4,2,1,50,1,0
477,-125,4,2,1,50,0,0
7588,-90.9090909090909,4,2,1,70,0,0
21810,-111.111111111111,4,2,1,50,0,0
36032,-100,4,2,1,60,0,0
50254,-111.111111111111,4,2,1,60,0,0
55588,-100,4,2,1,60,0,0
60921,-90.9090909090909,4,2,1,70,0,0
62699,-90.9090909090909,4,2,1,55,0,0
64476,-83.3333333333333,4,2,1,80,0,1
87588,-125,4,2,1,50,0,0

[Colours]
Combo1 : 250,185,154
Combo2 : 116,153,252
Combo3 : 151,203,255
Combo4 : 254,224,169

[HitObjects]
256,192,5810,12,2,7143,1:2:0:0:
351,46,7588,6,0,B|277:54|298:97|226:106,1,132.00000402832,6|10,3:2|0:0,0:0:0:0:
173,172,8254,1,0,0:0:0:0:
101,113,8476,2,0,P|106:84|117:42,1,66.0000020141602,2|2,3:2|0:0,0:0:0:0:
24,27,8921,2,0,P|15:58|10:91,1,66.0000020141602,10|2,0:0|0:0,0:0:0:0:
31,202,9365,6,0,P|95:220|154:244,1,99.0000030212403,2|0,3:2|0:0,0:0:0:0:
145,236,9810,2,0,P|110:247|85:295,1,66.0000020141602,10|0,0:0|0:0,0:0:0:0:
28,336,10254,2,0,P|55:360|109:358,1,66.0000020141602,2|0,3:2|0:0,0:0:0:0:
175,342,10699,1,10,0:0:0:0:
175,342,10921,1,0,0:0:0:0:
276,373,11143,6,0,P|320:327|315:263,1,132.00000402832,2|10,3:2|0:0,0:0:0:0:
252,195,11810,1,2,0:0:0:0:
306,120,12032,2,0,P|337:126|393:146,1,66.0000020141602,2|0,3:2|0:0,0:0:0:0:
450,91,12476,2,0,P|459:121|470:180,1,66.0000020141602,10|0,0:0|0:0,0:0:0:0:
512,254,12921,6,0,P|476:291|427:293,1,99.0000030212403,2|0,3:2|0:0,0:0:0:0:
417,302,13365,2,0,P|387:271|346:266,1,66.0000020141602,10|0,0:0|0:0,0:0:0:0:
294,205,13810,2,0,P|261:219|222:232,1,66.0000020141602,2|2,3:2|0:0,0:0:0:0:
176,302,14254,1,8,0:0:0:0:
86,251,14476,1,2,0:0:0:0:
86,251,14588,1,2,0:0:0:0:
86,251,14699,6,0,P|68:193|42:124,1,132.00000402832,6|10,3:2|0:0,0:0:0:0:
10,39,15365,1,0,0:0:0:0:
99,16,15588,2,0,P|137:27|176:42,1,66.0000020141602,2|2,3:2|0:0,0:0:0:0:
219,107,16032,2,0,P|250:95|281:86,1,66.0000020141602,10|2,0:0|0:0,0:0:0:0:
385,44,16476,6,0,P|372:101|360:168,1,99.0000030212403,2|0,3:2|0:0,0:0:0:0:
353,155,16921,2,0,P|364:187|373:224,1,66.0000020141602,10|0,0:0|0:0,0:0:0:0:
437,282,17365,2,0,P|418:320|379:338,1,66.0000020141602,2|0,3:2|0:0,0:0:0:0:
312,364,17810,1,10,0:0:0:0:
230,296,18032,1,2,0:0:0:0:
230,296,18143,1,2,0:0:0:0:
230,296,18254,6,0,B|230:221|275:237|276:165,1,132.00000402832,2|10,3:2|0:0,0:0:0:0:
333,102,18921,1,0,0:0:0:0:
277,28,19143,2,0,P|241:40|205:48,1,66.0000020141602,2|0,3:2|0:0,0:0:0:0:
161,122,19588,2,0,P|128:114|97:103,1,66.0000020141602,8|0,0:0|0:0,0:0:0:0:
32,37,20032,6,0,P|3:95|22:156,2,132.00000402832,2|2|2,3:2|3:2|3:2,0:0:0:0:
155,111,21254,1,0,1:0:0:0:
155,111,21365,2,0,P|146:146|135:192,1,66.0000020141602
128,204,21699,1,0,3:0:0:0:
128,204,21810,6,0,P|95:215|57:231,1,53.9999983520508,6|2,3:2|0:3,0:0:0:0:
45,296,22254,2,0,P|78:307|116:323,1,53.9999983520508,2|2,3:2|0:3,0:0:0:0:
154,370,22699,2,0,P|201:357|261:344,1,107.999996704102,2|0,3:2|3:0,0:0:0:0:
313,285,23365,1,2,0:3:0:0:
313,285,23476,1,2,0:3:0:0:
313,285,23588,6,0,P|346:289|380:313,1,53.9999983520508,2|2,3:2|0:3,0:0:0:0:
427,349,24032,1,2,3:2:0:0:
490,299,24254,2,0,P|514:251|483:188,1,107.999996704102,2|2,0:0|0:3,0:0:0:0:
437,147,24921,1,0,3:0:0:0:
371,192,25143,1,2,0:3:0:0:
371,192,25254,1,2,0:3:0:0:
371,192,25365,6,0,P|346:186|317:180,1,53.9999983520508,2|2,3:2|0:3,0:0:0:0:
237,179,25810,2,0,B|236:120|271:137|272:79,2,107.999996704102,2|2|0,3:2|3:2|3:0,0:0:0:0:
285,257,26921,1,2,0:3:0:0:
285,257,27032,1,2,0:3:0:0:
285,257,27143,6,0,P|292:291|275:325,1,53.9999983520508,2|2,3:2|0:3,0:0:0:0:
245,378,27588,1,2,3:2:0:0:
175,335,27810,2,0,P|119:350|62:367,1,107.999996704102,2|8,0:2|0:1,0:0:0:0:
6,315,28476,1,8,0:1:0:0:
46,248,28699,1,2,0:3:0:0:
46,248,28810,1,2,0:3:0:0:
46,248,28921,6,0,P|81:239|114:232,1,53.9999983520508,2|2,3:2|0:3,0:0:0:0:
167,192,29365,2,0,P|194:201|233:211,1,53.9999983520508,2|2,3:2|0:3,0:0:0:0:
284,255,29810,2,0,P|321:213|316:152,1,107.999996704102,2|0,3:2|3:0,0:0:0:0:
379,107,30476,1,2,0:3:0:0:
379,107,30588,1,2,0:3:0:0:
379,107,30699,6,0,P|361:78|359:45,1,53.9999983520508,2|2,3:2|0:3,0:0:0:0:
414,1,31143,1,2,3:2:0:0:
482,43,31365,2,0,P|472:94|459:158,1,107.999996704102,2|2,0:0|0:3,0:0:0:0:
399,202,32032,1,0,3:0:0:0:
455,274,32254,1,2,0:3:0:0:
455,274,32365,1,2,0:3:0:0:
455,274,32476,5,2,3:2:0:0:
398,331,32699,2,0,P|404:354|410:383,2,53.9999983520508,2|0|2,0:3|3:0|0:3,0:0:0:0:
332,283,33365,2,0,B|276:289|289:323|225:332,1,107.999996704102,2|2,3:2|3:2,0:0:0:0:
168,366,34032,1,2,0:3:0:0:
168,366,34143,1,2,0:3:0:0:
168,366,34254,6,0,P|149:342|142:307,1,53.9999983520508,2|2,3:2|0:3,0:0:0:0:
126,240,34699,1,2,3:2:0:0:
200,208,34921,2,0,P|226:170|204:95,1,107.999996704102,2|2,0:0|0:3,0:0:0:0:
155,58,35588,1,4,0:1:0:0:
11,166,36032,6,0,P|50:176|83:188,1,60,4|2,3:2|0:0,0:0:0:0:
125,252,36476,2,0,P|153:242|182:235,1,60,10|2,0:0|0:3,0:0:0:0:
255,182,36921,2,0,B|309:212|289:236|350:270,1,120,2|8,3:2|0:0,0:0:0:0:
408,339,37588,1,2,0:0:0:0:
408,339,37699,1,2,0:0:0:0:
408,339,37810,6,0,P|421:298|431:249,1,90,2|0,3:2|0:0,0:0:0:0:
444,245,38254,1,10,0:0:0:0:
500,174,38476,2,0,P|481:117|464:44,1,120,2|2,0:0|0:3,0:0:0:0:
393,6,39143,1,8,0:0:0:0:
333,73,39365,1,2,0:0:0:0:
333,73,39476,1,2,0:0:0:0:
333,73,39588,6,0,P|303:76|275:64,1,60,2|2,3:2|0:0,0:0:0:0:
202,13,40032,2,0,P|172:9|144:21,1,60,10|2,0:0|0:3,0:0:0:0:
82,85,40476,2,0,P|103:136|121:200,1,120,2|8,3:2|0:0,0:0:0:0:
88,286,41143,1,2,0:0:0:0:
88,286,41254,1,2,0:0:0:0:
88,286,41365,6,0,P|117:292|146:289,1,60,0|2,3:2|0:0,0:0:0:0:
211,226,41810,1,8,0:0:0:0:
281,281,42032,2,0,P|308:246|310:197,1,90,2|0,0:0|0:0,0:0:0:0:
321,189,42476,1,8,0:1:0:0:
255,127,42699,1,8,0:1:0:0:
312,59,42921,1,2,0:3:0:0:
312,59,43032,1,2,0:3:0:0:
312,59,43143,6,0,P|348:68|392:82,1,60,6|2,3:2|0:0,0:0:0:0:
410,155,43588,2,0,P|374:164|330:178,1,60,10|2,0:0|0:3,0:0:0:0:
297,242,44032,2,0,B|231:227|246:194|182:181,1,120,2|8,3:2|0:0,0:0:0:0:
132,250,44699,1,2,0:3:0:0:
132,250,44810,1,2,0:3:0:0:
132,250,44921,6,0,P|75:249|48:221,1,90,2|0,3:2|0:0,0:0:0:0:
37,228,45365,1,10,0:0:0:0:
10,142,45588,2,0,P|50:100|109:92,1,120,2|2,0:0|0:3,0:0:0:0:
189,51,46254,1,10,0:0:0:0:
271,108,46476,1,2,0:3:0:0:
271,108,46588,1,2,0:3:0:0:
271,108,46699,6,0,P|253:170|241:228,1,120,2|8,3:2|0:0,0:0:0:0:
162,267,47365,2,0,P|171:299|214:329,1,60,2|0,0:0|3:0,0:0:0:0:
256,378,47810,2,0,P|284:369|330:358,1,60,2|8,0:0|0:0,0:0:0:0:
357,283,48254,1,2,0:3:0:0:
439,318,48476,6,0,L|452:268,3,30,2|2|2|2,3:2|0:3|0:0|0:3,0:0:0:0:
479,257,48921,2,0,L|466:207,3,30,10|2|2|2,0:0|0:3|0:0|0:3,0:0:0:0:
436,199,49365,2,0,P|444:162|461:97,1,90,0|2,3:0|0:3,0:0:0:0:
471,105,49810,1,10,0:0:0:0:
329,26,50254,6,0,P|272:44|211:59,1,107.999996704102,6|10,3:2|0:0,0:0:0:0:
165,111,50921,2,0,P|137:103|104:94,2,53.9999983520508,2|2|2,0:0|3:2|3:2,0:0:0:0:
237,148,51588,2,0,P|254:191|238:239,1,80.9999975280763,8|0,0:0|0:0,0:0:0:0:
255,241,52032,6,0,B|197:257|211:282|163:295,1,107.999996704102,2|8,3:2|0:0,0:0:0:0:
102,348,52699,1,2,0:0:0:0:
38,298,52921,2,0,P|43:273|53:238,1,53.9999983520508,2|2,3:2|3:2,0:0:0:0:
105,185,53365,1,8,0:0:0:0:
230,287,53810,6,0,P|281:297|325:268,1,107.999996704102,2|8,3:2|0:0,0:0:0:0:
370,200,54476,1,2,0:0:0:0:
314,140,54699,2,0,P|283:148|257:158,1,53.9999983520508,2|2,3:2|3:2,0:0:0:0:
202,208,55143,1,8,0:0:0:0:
202,208,55365,1,2,0:0:0:0:
136,145,55588,6,0,P|131:102|163:60,1,90,2|0,3:2|0:0,0:0:0:0:
161,48,56032,2,0,P|203:58|259:75,1,90,10|0,0:0|0:0,0:0:0:0:
260,81,56476,2,0,P|288:72|318:67,1,60,0|2,3:0|0:0,0:0:0:0:
399,24,56921,1,10,0:0:0:0:
399,24,57143,1,2,3:2:0:0:
469,80,57365,6,0,P|456:124|439:193,1,90,6|0,3:2|0:0,0:0:0:0:
430,175,57810,1,10,0:0:0:0:
478,250,58032,2,0,B|411:262|428:290|371:302,1,120,2|0,0:0|3:0,0:0:0:0:
294,346,58699,1,10,0:0:0:0:
294,346,58921,1,2,0:0:0:0:
221,293,59143,6,0,P|218:260|242:219,1,60,0|2,3:0|3:2,0:0:0:0:
307,193,59588,2,0,P|316:164|313:135,1,60,10|2,0:0|0:0,0:0:0:0:
260,69,60032,1,2,3:2:0:0:
260,69,60254,1,2,3:2:0:0:
185,119,60476,1,8,0:0:0:0:
233,311,60921,6,0,P|292:323|337:340,1,99.0000030212403,6|0,3:2|0:0,0:0:0:0:
339,348,61365,2,0,P|370:314|373:267,1,66.0000020141602,6|0,3:2|0:0,0:0:0:0:
298,232,61810,2,0,P|267:198|273:130,1,99.0000030212403,6|0,3:2|0:0,0:0:0:0:
257,130,62254,2,0,P|292:121|333:114,1,66.0000020141602,6|0,3:2|0:0,0:0:0:0:
399,54,62699,1,2,3:2:0:0:
399,54,64032,6,0,P|359:64|319:78,1,66.0000020141602,10|2,0:0|0:0,0:0:0:0:
325,93,64365,1,2,0:0:0:0:
325,93,64476,6,0,P|276:64|204:66,1,107.999996704102,6|0,3:2|0:0,0:0:0:0:
212,52,64921,1,10,0:0:0:0:
145,128,65143,2,0,P|157:161|168:196,1,71.9999978027344,2|0,0:0|3:0,0:0:0:0:
243,263,65588,2,0,P|253:228|266:194,1,71.9999978027344,2|8,0:0|0:0,0:0:0:0:
342,99,66032,6,0,B|397:119|378:138|427:162,1,107.999996704102,2|0,0:0|0:0,0:0:0:0:
439,156,66476,1,2,0:0:0:0:
499,243,66699,1,10,0:0:0:0:
499,243,66921,2,0,B|421:271|448:297|378:332,1,143.999995605469,2|0,0:0|0:0,0:0:0:0:
299,382,67588,1,8,0:0:0:0:
224,303,67810,1,2,0:0:0:0:
224,303,67921,1,2,0:0:0:0:
224,303,68032,6,0,P|232:267|245:224,1,71.9999978027344,2|2,3:2|0:0,0:0:0:0:
317,166,68476,1,10,0:0:0:0:
243,96,68699,2,0,P|203:103|168:148,1,71.9999978027344,2|0,0:0|3:0,0:0:0:0:
140,215,69143,2,0,P|111:259|62:281,1,107.999996704102,2|0,0:0|0:0,0:0:0:0:
57,297,69588,1,2,0:0:0:0:
0,190,69810,5,2,3:2:0:0:
0,190,70032,2,0,P|6:163|24:112,1,71.9999978027344,2|8,0:0|0:0,0:0:0:0:
75,37,70476,2,0,B|132:54|103:74|170:98,1,107.999996704102,2|0,0:0|0:0,0:0:0:0:
173,108,70921,2,0,P|207:87|254:89,1,71.9999978027344,2|8,0:0|0:0,0:0:0:0:
351,26,71365,1,2,0:0:0:0:
351,26,71476,1,2,0:0:0:0:
351,26,71588,6,0,P|340:79|328:140,1,107.999996704102,6|0,3:2|0:0,0:0:0:0:
317,143,72032,1,10,0:0:0:0:
248,216,72254,2,0,P|262:248|292:267,1,71.9999978027344,2|0,0:0|3:0,0:0:0:0:
328,362,72699,2,0,P|363:365|395:349,1,71.9999978027344,2|8,0:0|0:0,0:0:0:0:
497,289,73143,6,0,P|483:240|466:165,1,107.999996704102,2|0,0:0|0:0,0:0:0:0:
456,176,73588,1,2,0:0:0:0:
497,86,73810,1,10,0:0:0:0:
497,86,74032,2,0,P|465:68|426:73,1,71.9999978027344,2|0,0:0|3:0,0:0:0:0:
349,129,74476,1,2,0:0:0:0:
265,72,74699,1,10,0:0:0:0:
194,143,74921,1,2,0:0:0:0:
194,143,75032,1,2,0:0:0:0:
194,143,75143,6,0,P|182:195|221:251,1,107.999996704102,2|0,3:2|0:0,0:0:0:0:
204,256,75588,1,10,0:0:0:0:
285,314,75810,2,0,P|328:300|401:279,1,107.999996704102,2|0,0:0|0:0,0:0:0:0:
396,273,76254,1,2,0:0:0:0:
455,191,76476,2,0,P|421:183|384:175,1,71.9999978027344,10|0,0:0|0:0,0:0:0:0:
303,114,76921,6,0,P|272:142|231:145,1,71.9999978027344,6|0,3:2|0:0,0:0:0:0:
165,82,77365,2,0,P|170:63|177:37,2,35.9999989013672,6|0|2,3:2|0:0|0:0,0:0:0:0:
85,144,77810,2,0,P|98:179|109:217,1,71.9999978027344,4|2,3:2|0:0,0:0:0:0:
184,276,78254,1,10,0:0:0:0:
135,366,78476,1,2,0:0:0:0:
135,366,78588,1,2,0:0:0:0:
135,366,78699,5,2,3:2:0:0:
45,320,78921,1,0,3:0:0:0:
58,206,79143,2,0,P|108:196|167:183,1,107.999996704102,4|0,0:1|0:0,0:0:0:0:
170,172,79588,1,0,3:0:0:0:
246,105,79810,2,0,P|281:115|322:127,1,71.9999978027344,2|8,0:0|0:0,0:0:0:0:
437,110,80254,6,0,B|431:168|408:154|398:208,1,107.999996704102,2|0,0:0|0:0,0:0:0:0:
384,215,80698,1,2,0:0:0:0:
436,307,80921,1,10,0:0:0:0:
436,307,81143,2,0,P|407:327|371:329,1,71.9999978027344,2|0,0:0|3:0,0:0:0:0:
279,371,81588,1,2,0:0:0:0:
202,305,81810,1,10,0:0:0:0:
261,226,82032,1,2,0:0:0:0:
261,226,82143,1,2,0:0:0:0:
261,226,82254,6,0,P|251:189|226:110,1,107.999996704102,2|0,3:2|0:0,0:0:0:0:
216,116,82698,1,10,0:0:0:0:
289,46,82921,2,0,P|343:41|397:78,1,107.999996704102,2|0,0:0|0:0,0:0:0:0:
400,68,83365,1,2,0:0:0:0:
476,133,83588,2,0,P|467:170|457:224,1,71.9999978027344,10|0,0:0|0:0,0:0:0:0:
467,326,84032,6,0,B|407:306|429:288|377:267,1,107.999996704102,2|0,3:2|0:0,0:0:0:0:
369,253,84476,1,10,0:0:0:0:
299,325,84698,2,0,P|266:343|227:338,1,71.9999978027344,2|0,0:0|3:0,0:0:0:0:
150,281,85143,1,2,0:0:0:0:
211,201,85365,1,10,0:0:0:0:
161,125,85587,1,2,0:0:0:0:
161,125,85698,1,2,0:0:0:0:
161,125,85810,6,0,P|97:137|50:149,1,107.999996704102,2|0,3:2|0:0,0:0:0:0:
50,164,86254,1,10,0:0:0:0:
27,65,86476,2,0,P|61:56|112:46,1,71.9999978027344,2|0,0:0|3:0,0:0:0:0:
187,3,86921,1,2,0:0:0:0:
259,73,87143,2,0,P|248:111|242:143,1,71.9999978027344,10|0,0:0|0:0,0:0:0:0:
182,205,87588,6,0,P|212:225|278:222,1,96,2|2,0:0|0:0,0:0:0:0:
333,166,88254,2,0,B|368:155|410:190|383:187|405:228|462:229,1,144,2|0,0:0|0:0,0:0:0:0:
