osu file format v14

[General]
AudioFilename: audio.ogg
AudioLeadIn: 0
PreviewTime: 63810
Countdown: 0
SampleSet: Soft
StackLeniency: 0.7
Mode: 0
LetterboxInBreaks: 0
WidescreenStoryboard: 1

[Editor]
DistanceSpacing: 0.6
BeatDivisor: 4
GridSize: 4
TimelineZoom: 3.099999

[Metadata]
Title:Kimi ga Yume o Tsuretekita (TV Size)
TitleUnicode:君が夢を連れてきた (TV Size)
Artist:Pet na Kanojotachi
ArtistUnicode:ペットな彼女たち
Creator:buddon
Version:Iridescent
Source:さくら荘のペットな彼女
Tags:sakurasou Sakura-sō sakura-so sakura-sou no pet petto girl of na kanojo anime 茅野愛衣 Ai Kayano 中津真莉子 Mari Mariko Nakatsu 高森奈津美 Natsumi Takamori pop jpop j-pop japanese First Opening 1 Sakura Hall Intro ryxliee shiwakaze mashiro shiina sorata kanda nanami aoyama misaki kamiigusa jin mitaka ryunosuke akasaka meido maid
BeatmapID:3898842
BeatmapSetID:1216779

[Difficulty]
HPDrainRate:5
CircleSize:4
OverallDifficulty:7.2
ApproachRate:7.6
SliderMultiplier:1.4
SliderTickRate:1

[Events]
//Background and Video events
Video,-851,"op1.mp4"
0,0,"waifu2xmashrio.jpg",0,0
//Break Periods
//Storyboard Layer 0 (Background)
//Storyboard Layer 1 (Fail)
//Storyboard Layer 2 (Pass)
//Storyboard Layer 3 (Foreground)
//Storyboard Layer 4 (Overlay)
//Storyboard Sound Samples

[TimingPoints]
477,444.444444444444,4,2,1,50,1,0
477,-133.333333333333,4,2,1,50,0,0
7588,-90.9090909090909,4,2,1,70,0,0
21810,-117.647058823529,4,2,1,50,0,0
36032,-100,4,2,1,60,0,0
50254,-117.647058823529,4,2,1,60,0,0
55588,-100,4,2,1,60,0,0
57365,-117.647058823529,4,2,1,60,0,0
60921,-100,4,2,1,70,0,0
62699,-100,4,2,1,55,0,0
64476,-80,4,2,1,80,0,1
87588,-133.333333333333,4,2,1,50,0,0

[Colours]
Combo1 : 250,185,154
Combo2 : 116,153,252
Combo3 : 151,203,255
Combo4 : 254,224,169

[HitObjects]
128,140,477,38,0,P|134:165|140:191,1,52.5000020027161,2|0,0:0|0:0,0:0:0:0:
224,92,921,2,0,P|217:117|212:143,2,52.5000020027161,2|0|2,0:0|0:0|0:0,0:0:0:0:
256,20,1588,1,2,0:0:0:0:
308,80,1810,2,0,P|333:73|359:67,1,52.5000020027161,2|0,0:0|0:0,0:0:0:0:
416,168,2254,6,0,P|421:142|428:116,1,52.5000020027161,2|0,0:0|0:0,0:0:0:0:
340,212,2699,2,0,P|334:186|327:160,2,52.5000020027161,2|0|2,0:0|0:0|0:0,0:0:0:0:
368,292,3365,1,2,0:0:0:0:
368,292,3588,2,0,P|393:297|418:304,1,52.5000020027161,2|0,0:0|0:0,0:0:0:0:
272,344,4032,6,0,P|277:318|284:293,1,52.5000020027161,2|0,0:0|0:0,0:0:0:0:
192,236,4476,2,0,P|199:261|204:286,1,52.5000020027161,2|0,0:0|0:0,0:0:0:0:
272,212,4921,2,0,P|277:186|284:161,1,52.5000020027161,2|2,0:0|0:0,0:0:0:0:
192,104,5365,2,0,P|199:129|204:154,1,52.5000020027161,2|0,0:0|0:0,0:0:0:0:
212,24,5810,5,2,0:0:0:0:
196,20,5921,1,2,0:0:0:0:
180,20,6032,1,2,0:0:0:0:
165,23,6143,1,2,0:0:0:0:
151,29,6254,1,2,0:0:0:0:
138,39,6365,1,2,0:0:0:0:
127,50,6476,1,2,0:0:0:0:
116,61,6587,1,2,0:0:0:0:
102,69,6698,1,2,0:0:0:0:
87,74,6810,1,2,0:0:0:0:
72,75,6921,1,2,0:0:0:0:
56,73,7032,1,2,1:2:0:0:
40,68,7143,6,2,P|36:80|32:96,5,17.500000667572,2|2|2|2|2|2,1:2|0:0|0:0|0:0|0:0|0:0,0:0:0:0:
16,168,7588,6,0,B|62:177|62:177|78:195|78:195|127:205,1,115.50000352478,6|0,3:2|0:0,0:0:0:0:
140,196,8032,2,0,P|129:232|121:269,1,77.0000023498536,10|0,0:0|0:0,0:0:0:0:
292,280,8476,1,2,3:2:0:0:
224,208,8699,1,2,0:0:0:0:
176,332,8921,2,0,P|216:339|256:351,1,77.0000023498536,10|2,0:0|0:0,0:0:0:0:
360,232,9365,6,0,P|377:284|364:320,1,77.0000023498536,2|0,3:2|0:0,0:0:0:0:
472,188,9810,2,0,P|454:240|467:276,1,77.0000023498536,10|0,0:0|0:0,0:0:0:0:
384,84,10254,2,0,P|401:136|388:172,1,77.0000023498536,2|0,3:2|0:0,0:0:0:0:
496,32,10699,2,0,P|478:84|491:120,1,77.0000023498536,10|0,0:0|0:0,0:0:0:0:
252,44,11143,6,0,B|332:64|313:-18|397:2,1,154.000004699707,2|10,3:2|0:0,0:0:0:0:
312,124,11810,1,2,0:0:0:0:
152,144,12032,2,0,P|188:131|225:125,1,77.0000023498536,2|0,3:2|0:0,0:0:0:0:
100,224,12476,2,0,P|140:231|180:243,1,77.0000023498536,10|0,0:0|0:0,0:0:0:0:
24,168,12921,5,2,3:2:0:0:
48,300,13143,1,0,0:0:0:0:
124,100,13365,1,10,0:0:0:0:
100,224,13587,1,0,0:0:0:0:
0,48,13810,1,2,3:2:0:0:
24,168,14032,1,2,0:0:0:0:
84,24,14254,1,8,0:0:0:0:
191,217,14476,1,2,0:0:0:0:
191,217,14588,1,2,0:0:0:0:
191,217,14699,6,0,P|251:217|279:269,1,115.50000352478,6|0,3:2|0:0,0:0:0:0:
288,280,15143,2,0,P|326:269|366:261,1,77.0000023498536,10|0,0:0|0:0,0:0:0:0:
412,360,15588,1,2,3:2:0:0:
362,261,15810,1,2,0:0:0:0:
484,328,16032,2,0,P|490:289|501:253,1,77.0000023498536,10|2,0:0|0:0,0:0:0:0:
316,196,16476,6,0,P|368:178|404:191,1,77.0000023498536,2|0,3:2|0:0,0:0:0:0:
264,88,16921,2,0,P|312:104|344:92,1,77.0000023498536,10|0,0:0|0:0,0:0:0:0:
160,184,17365,2,0,P|208:168|240:180,1,77.0000023498536,2|0,3:2|0:0,0:0:0:0:
104,76,17810,2,0,P|152:92|184:80,1,77.0000023498536,10|0,0:0|0:0,0:0:0:0:
124,316,18254,6,0,B|144:235|61:254|82:170,1,154.000004699707,2|10,3:2|0:0,0:0:0:0:
40,308,18921,1,0,0:0:0:0:
160,184,19143,2,0,P|197:189|233:201,1,77.0000023498536,2|0,3:2|0:0,0:0:0:0:
64,102,19588,2,0,P|75:138|80:176,1,77.0000023498536,8|0,0:0|0:0,0:0:0:0:
0,48,20032,6,0,P|48:18|128:48,1,115.50000352478,2|0,3:2|0:0,0:0:0:0:
120,44,20476,2,0,P|168:64|224:32,1,115.50000352478,2|0,3:2|0:0,0:0:0:0:
232,20,20921,2,0,P|287:11|335:41,1,115.50000352478,2|0,3:2|1:0,0:0:0:0:
356,36,21365,1,0,1:0:0:0:
284,152,21588,1,0,3:0:0:0:
284,152,21699,1,0,3:0:0:0:
284,152,21810,6,0,P|279:122|270:94,1,59.5000011348725,6|2,3:2|0:3,0:0:0:0:
392,200,22254,2,0,P|395:170|405:142,1,59.5000011348725,2|2,3:2|0:3,0:0:0:0:
496,92,22699,2,0,B|509:164|509:164|473:192,1,119.000002269745,2|0,3:2|3:0,0:0:0:0:
496,320,23365,1,2,0:3:0:0:
496,320,23476,1,2,0:3:0:0:
496,320,23587,6,0,P|500:290|509:262,1,59.5000011348725,2|2,3:2|0:3,0:0:0:0:
412,280,24032,1,2,3:2:0:0:
356,208,24254,2,0,B|306:199|306:199|283:210|283:210|232:201,1,119.000002269745,2|2,0:0|0:3,0:0:0:0:
156,192,24921,1,0,3:0:0:0:
104,300,25143,1,2,0:3:0:0:
104,300,25254,1,2,0:3:0:0:
104,300,25365,6,0,P|99:270|90:242,1,59.5000011348725,2|2,3:2|0:3,0:0:0:0:
20,200,25810,2,0,P|24:170|34:142,1,59.5000011348725,2|2,3:2|0:3,0:0:0:0:
133,91,26254,2,0,B|169:119|169:119|156:191,1,119.000002269745,2|0,3:2|3:0,0:0:0:0:
304,152,26921,1,2,0:3:0:0:
304,152,27032,1,2,0:3:0:0:
304,152,27143,6,0,P|274:157|246:166,1,59.5000011348725,2|2,3:2|0:3,0:0:0:0:
212,244,27588,1,2,3:2:0:0:
308,296,27810,2,0,P|303:266|294:238,1,59.5000011348725,2|0,0:0|3:0,0:0:0:0:
252,356,28254,1,8,0:1:0:0:
252,356,28476,1,8,0:1:0:0:
400,324,28699,1,2,0:3:0:0:
400,324,28810,1,2,0:3:0:0:
400,324,28921,6,0,P|405:294|414:266,1,59.5000011348725,2|2,3:2|0:3,0:0:0:0:
500,284,29365,2,0,P|495:254|486:226,1,59.5000011348725,2|2,3:2|0:3,0:0:0:0:
408,164,29810,2,0,P|440:124|504:168,1,119.000002269745,2|0,3:2|3:0,0:0:0:0:
344,80,30476,1,2,0:3:0:0:
344,80,30588,1,2,0:3:0:0:
344,80,30698,6,0,P|334:108|330:137,1,59.5000011348725,2|2,3:2|0:3,0:0:0:0:
256,56,31143,1,2,3:2:0:0:
228,136,31365,2,0,B|178:127|178:127|155:138|155:138|104:129,1,119.000002269745,2|2,0:0|0:3,0:0:0:0:
48,80,32032,1,0,3:0:0:0:
16,204,32254,1,2,0:3:0:0:
16,204,32365,1,2,0:3:0:0:
16,204,32476,5,2,3:2:0:0:
140,172,32699,2,0,P|112:161|82:156,1,59.5000011348725,2|0,0:3|3:0,0:0:0:0:
152,260,33143,1,2,0:3:0:0:
152,260,33365,2,0,P|179:249|209:244,1,59.5000011348725,2|2,3:2|0:3,0:0:0:0:
280,156,33810,2,0,P|252:145|222:140,1,59.5000011348725,2|2,3:2|0:3,0:0:0:0:
216,124,34143,1,2,0:3:0:0:
216,124,34254,5,2,3:2:0:0:
296,236,34476,1,2,0:3:0:0:
380,136,34699,2,0,P|370:164|366:193,1,59.5000011348725,2|2,3:2|0:0,0:0:0:0:
340,332,35143,1,0,3:0:0:0:
216,260,35365,1,2,0:3:0:0:
360,344,35588,5,4,0:1:0:0:
360,344,36032,5,4,3:2:0:0:
456,296,36254,1,2,0:0:0:0:
344,352,36476,2,0,P|339:315|326:282,1,70,10|2,0:0|0:3,0:0:0:0:
412,168,36921,2,0,P|398:201|394:237,1,70,2|2,3:2|0:3,0:0:0:0:
336,136,37365,1,8,0:0:0:0:
456,96,37588,1,2,0:0:0:0:
456,96,37699,1,2,0:0:0:0:
456,96,37810,6,0,P|451:59|437:25,1,70,2|2,3:2|0:3,0:0:0:0:
336,136,38254,1,10,0:0:0:0:
284,64,38476,2,0,P|317:49|353:44,1,70,2|0,0:0|3:0,0:0:0:0:
216,104,38921,1,2,0:3:0:0:
336,136,39143,1,8,0:0:0:0:
276,240,39365,1,2,0:0:0:0:
276,240,39476,1,2,0:0:0:0:
276,240,39588,6,0,P|271:203|256:169,1,70,2|2,3:2|0:0,0:0:0:0:
176,300,40032,2,0,P|179:263|192:229,1,70,10|2,0:0|0:3,0:0:0:0:
234,360,40476,2,0,P|178:384|110:348,1,140,2|8,3:2|0:0,0:0:0:0:
88,204,41143,1,2,0:0:0:0:
88,204,41254,1,2,0:0:0:0:
88,204,41365,5,0,3:2:0:0:
0,304,41588,2,0,P|33:289|69:285,1,70,2|8,0:0|0:0,0:0:0:0:
154,222,42032,2,0,P|121:207|84:203,1,70,2|0,0:0|3:0,0:0:0:0:
212,156,42476,1,8,0:1:0:0:
212,156,42699,1,8,0:1:0:0:
88,72,42921,1,2,0:3:0:0:
88,72,43032,1,2,0:3:0:0:
88,72,43144,6,0,P|123:74|156:90,1,70,6|2,3:2|0:0,0:0:0:0:
268,6,43588,2,0,P|231:9|198:25,1,70,10|2,0:0|0:3,0:0:0:0:
316,76,44032,2,0,B|355:67|380:95|380:95|396:61|441:54,1,140,2|8,3:2|0:0,0:0:0:0:
468,200,44699,1,2,0:3:0:0:
468,200,44810,1,2,0:3:0:0:
468,200,44921,6,0,P|464:163|448:130,1,70,2|2,3:2|0:3,0:0:0:0:
360,224,45365,1,10,0:0:0:0:
480,308,45588,2,0,P|447:291|410:288,1,70,2|0,0:0|3:0,0:0:0:0:
344,356,46032,1,2,0:3:0:0:
296,280,46254,1,10,0:0:0:0:
208,376,46476,1,2,0:3:0:0:
208,376,46588,1,2,0:3:0:0:
208,376,46699,6,0,B|217:320|217:320|205:295|205:295|215:238,1,140,2|8,3:2|0:0,0:0:0:0:
112,172,47365,2,0,P|128:205|131:241,1,70,2|0,0:0|3:0,0:0:0:0:
168,104,47810,2,0,P|135:87|98:84,1,70,2|8,0:0|0:0,0:0:0:0:
228,168,48254,1,2,0:3:0:0:
252,28,48476,6,0,P|246:44|243:63,3,35,2|2|2|2,3:2|0:3|0:0|0:3,0:0:0:0:
308,152,48921,2,0,P|305:135|300:119,3,35,10|2|2|2,0:0|0:3|0:0|0:3,0:0:0:0:
368,28,49365,2,0,P|362:44|359:63,3,35,0|2|2|2,3:0|0:3|0:3|0:3,0:0:0:0:
408,148,49810,2,0,P|436:100|496:112,1,105,10|0,0:0|0:0,0:0:0:0:
496,88,50254,6,0,P|503:116|509:146,1,59.5000011348725,6|2,3:2|0:0,0:0:0:0:
504,236,50699,2,0,P|477:222|447:219,1,59.5000011348725,10|2,0:0|0:0,0:0:0:0:
376,260,51143,1,2,3:2:0:0:
376,260,51365,1,2,3:2:0:0:
472,312,51588,1,8,0:0:0:0:
328,384,51810,1,0,0:0:0:0:
328,384,51921,1,0,0:0:0:0:
328,384,52032,6,0,P|322:354|314:325,1,59.5000011348725,2|2,3:2|0:0,0:0:0:0:
296,224,52476,2,0,P|269:210|240:207,1,59.5000011348725,8|2,0:0|0:0,0:0:0:0:
204,284,52921,1,2,3:2:0:0:
204,284,53143,1,2,3:2:0:0:
172,160,53365,1,8,0:0:0:0:
356,160,53588,1,0,0:0:0:0:
356,160,53699,1,0,0:0:0:0:
356,160,53810,6,0,P|361:130|369:101,1,59.5000011348725,2|2,3:2|0:0,0:0:0:0:
272,32,54254,2,0,P|279:60|284:90,1,59.5000011348725,8|2,0:0|0:0,0:0:0:0:
256,176,54699,1,2,3:2:0:0:
256,176,54921,1,2,3:2:0:0:
284,20,55143,1,8,0:0:0:0:
152,152,55365,1,2,0:0:0:0:
152,152,55476,1,0,0:0:0:0:
152,152,55588,6,0,P|88:128|48:160,1,105,2|0,3:2|0:0,0:0:0:0:
52,164,56032,2,0,P|116:140|156:172,1,105,10|0,0:0|0:0,0:0:0:0:
140,176,56476,1,0,3:0:0:0:
60,248,56699,1,2,0:0:0:0:
208,320,56921,1,10,0:0:0:0:
140,264,57144,1,2,3:2:0:0:
12,348,57365,6,0,B|60:339|60:339|85:351|85:351|142:341,1,119.000002269745,6|10,3:2|0:0,0:0:0:0:
60,248,58032,2,0,L|36:108,1,119.000002269745,2|0,0:0|3:0,0:0:0:0:
80,60,58699,1,10,0:0:0:0:
156,116,58921,6,0,P|188:60|244:64,1,119.000002269745,2|2,0:0|3:2,0:0:0:0:
300,120,59588,1,10,0:0:0:0:
300,120,59810,1,2,0:0:0:0:
316,24,60032,1,2,3:2:0:0:
396,136,60254,1,2,3:2:0:0:
412,40,60476,1,8,0:0:0:0:
412,40,60921,6,0,P|464:60|468:120,1,105,6|0,3:2|0:0,0:0:0:0:
396,136,61365,2,0,L|375:253,1,105,6|0,3:2|0:0,0:0:0:0:
432,300,61810,2,0,P|472:256|456:212,1,105,6|0,3:2|0:0,0:0:0:0:
378,239,62254,2,0,L|260:218,1,105,6|0,3:2|0:0,0:0:0:0:
264,204,62699,5,2,3:2:0:0:
253,185,62810,1,2,0:0:0:0:
238,170,62921,1,2,0:0:0:0:
219,160,63032,1,2,0:0:0:0:
198,156,63143,1,2,0:0:0:0:
177,157,63254,1,2,0:0:0:0:
157,165,63365,1,2,0:0:0:0:
140,178,63476,1,2,0:0:0:0:
128,195,63587,1,2,0:0:0:0:
121,215,63698,1,2,0:0:0:0:
120,232,63810,5,2,0:0:0:0:
40,376,64032,1,10,0:0:0:0:
8,264,64254,1,2,0:0:0:0:
152,344,64476,6,0,B|221:362|204:290|275:308,1,131.25,6|0,3:2|0:0,0:0:0:0:
280,292,64921,1,10,0:0:0:0:
372,196,65143,2,0,P|327:205|284:215,1,87.5,2|0,0:0|3:0,0:0:0:0:
144,136,65588,2,0,P|188:145|231:155,1,87.5,2|8,0:0|0:0,0:0:0:0:
456,188,66032,6,0,B|456:141|419:125|419:125|406:87|432:59,1,131.25,2|0,0:0|0:0,0:0:0:0:
408,56,66476,1,2,0:0:0:0:
336,120,66699,1,10,0:0:0:0:
180,64,66921,2,0,B|229:54|261:89|261:89|281:46|337:37,1,175,2|0,0:0|0:0,0:0:0:0:
317,205,67588,2,0,P|326:161|336:118,1,87.5,8|2,0:0|0:0,0:0:0:0:
264,272,68032,5,2,3:2:0:0:
176,180,68254,1,2,0:0:0:0:
96,328,68476,1,10,0:0:0:0:
180,264,68699,2,0,P|128:252|92:176,1,131.25,2|0,0:0|0:0,0:0:0:0:
80,176,69143,2,0,P|36:164|-7:195,1,87.5,2|8,0:0|0:0,0:0:0:0:
32,256,69588,1,2,0:0:0:0:
176,180,69810,5,2,3:2:0:0:
260,220,70032,2,0,P|280:152|348:136,1,131.25,2|0,0:0|0:0,0:0:0:0:
344,148,70476,2,0,P|336:105|325:62,1,87.5,2|0,0:0|3:0,0:0:0:0:
424,180,70921,1,2,0:0:0:0:
344,228,71143,1,8,0:0:0:0:
512,216,71365,1,2,0:0:0:0:
512,216,71476,1,2,0:0:0:0:
512,216,71588,6,0,B|502:270|502:270|514:295|514:295|504:350,1,131.25,6|0,3:2|0:0,0:0:0:0:
488,352,72032,1,10,0:0:0:0:
344,316,72254,2,0,P|386:305|429:297,1,87.5,2|0,0:0|3:0,0:0:0:0:
292,376,72699,2,0,P|249:365|206:357,1,87.5,2|8,0:0|0:0,0:0:0:0:
240,180,73143,6,0,B|269:176|284:197|284:197|268:277,1,131.25,2|0,0:0|0:0,0:0:0:0:
252,284,73588,1,2,0:0:0:0:
176,240,73810,1,10,0:0:0:0:
264,104,74032,2,0,P|220:100|180:128,1,87.5,2|0,0:0|3:0,0:0:0:0:
80,56,74476,1,2,0:0:0:0:
164,36,74699,1,10,0:0:0:0:
112,164,74921,1,2,0:0:0:0:
248,20,75143,6,0,B|302:27|302:27|322:46|322:46|377:53,1,131.25,2|0,3:2|0:0,0:0:0:0:
384,40,75588,1,10,0:0:0:0:
512,112,75810,2,0,B|458:119|458:119|438:138|438:138|383:145,1,131.25,2|0,0:0|0:0,0:0:0:0:
376,132,76255,1,2,0:0:0:0:
240,200,76476,2,0,B|294:207|294:207|314:226|314:226|369:233,1,131.25,10|0,0:0|0:0,0:0:0:0:
376,220,76921,6,0,P|388:268|372:300,1,87.5,6|0,3:2|0:0,0:0:0:0:
208,320,77365,2,0,P|250:309|293:301,1,87.5,6|2,3:2|0:0,0:0:0:0:
140,368,77810,2,0,P|124:312|140:276,1,87.5,4|2,3:2|0:0,0:0:0:0:
200,236,78254,1,10,0:0:0:0:
56,256,78476,1,2,0:0:0:0:
212,148,78699,5,2,3:2:0:0:
133,286,78921,1,0,3:0:0:0:
92,100,79143,1,4,0:1:0:0:
272,204,79365,2,0,P|288:112|248:72,1,131.25,2|0,0:0|0:0,0:0:0:0:
280,72,79810,2,0,P|340:72|372:120,1,87.5,2|8,0:0|0:0,0:0:0:0:
376,304,80254,6,0,B|341:298|326:266|326:266|302:292|265:285,1,131.25,2|0,0:0|0:0,0:0:0:0:
252,296,80699,1,2,0:0:0:0:
308,360,80921,1,10,0:0:0:0:
124,384,81143,2,0,P|156:356|199:355,1,87.5,2|0,0:0|3:0,0:0:0:0:
100,296,81588,1,2,0:0:0:0:
192,224,81810,1,10,0:0:0:0:
88,304,82032,1,2,0:0:0:0:
0,180,82254,6,0,B|53:169|53:169|78:181|78:181|132:171,1,131.25,2|0,3:2|0:0,0:0:0:0:
136,152,82699,1,10,0:0:0:0:
312,96,82921,2,0,B|259:85|259:85|234:97|234:97|180:87,1,131.25,2|0,0:0|0:0,0:0:0:0:
177,72,83366,1,2,0:0:0:0:
228,224,83588,2,0,P|236:188|284:172,1,87.5,10|0,0:0|0:0,0:0:0:0:
412,272,84032,6,0,B|377:266|362:234|362:234|338:260|301:253,1,131.25,2|0,3:2|0:0,0:0:0:0:
296,272,84477,1,10,0:0:0:0:
304,372,84699,2,0,B|339:366|354:334|354:334|378:360|415:353,1,131.25,2|0,0:0|0:0,0:0:0:0:
420,372,85144,1,2,0:0:0:0:
296,272,85365,1,10,0:0:0:0:
464,212,85588,1,2,0:0:0:0:
464,212,85699,1,2,0:0:0:0:
464,212,85810,6,0,P|412:168|436:120,1,131.25,2|0,3:2|0:0,0:0:0:0:
440,100,86254,1,10,0:0:0:0:
272,108,86476,2,0,P|314:97|357:89,1,87.5,2|0,0:0|3:0,0:0:0:0:
256,28,86921,1,2,0:0:0:0:
200,144,87143,2,0,P|157:132|114:124,1,87.5,10|0,0:0|0:0,0:0:0:0:
72,56,87588,6,0,P|36:104|44:160,1,105.000004005432,2|2,0:0|0:0,0:0:0:0:
80,216,88254,2,0,B|160:194|142:278|226:257,1,157.500006008148,2|0,0:0|0:0,0:0:0:0:
