osu file format v14

[General]
AudioFilename: audio.ogg
AudioLeadIn: 0
PreviewTime:63814
Countdown: 0
SampleSet: Soft
StackLeniency: 0.7
Mode: 2
LetterboxInBreaks: 0
WidescreenStoryboard: 1

[Editor]
DistanceSpacing: 0.6
BeatDivisor: 4
GridSize: 4
TimelineZoom: 3.099999

[Metadata]
Title:Kimi ga Yume o Tsuretekita (TV Size)
TitleUnicode:君が夢を連れてきた (TV Size)
Artist:Pet na Kanojotachi
ArtistUnicode:ペットな彼女たち
Creator:Secre
Version:Salad
Source:さくら荘のペットな彼女
Tags:chickenbible sakurasou Sakura-sō sakura-so sakura-sou no pet petto girl of na kanojo anime 茅野愛衣 Ai Kayano 中津真莉子 Mari Mariko Nakatsu 高森奈津美 Natsumi Takamori pop jpop j-pop japanese First Opening 1 Sakura Hall Intro mashiro shiina sorata kanda nanami aoyama misaki kamiigusa jin mitaka ryunosuke akasaka meido maid
BeatmapID:3938099
BeatmapSetID:1905186

[Difficulty]
HPDrainRate:3
CircleSize:3
OverallDifficulty:6.8
ApproachRate:6.8
SliderMultiplier:1.79
SliderTickRate:2

[Events]
//Background and Video events
0,0,"fauna would wear this for sure.png",0,0
//Break Periods
//Storyboard Layer 0 (Background)
//Storyboard Layer 1 (Fail)
//Storyboard Layer 2 (Pass)
//Storyboard Layer 3 (Foreground)
//Storyboard Layer 4 (Overlay)
//Storyboard Sound Samples

[TimingPoints]
481,444.444444444444,4,2,1,50,1,0
481,-100,4,2,1,50,0,0
7592,-100,4,2,1,70,0,0
21814,-100,4,2,1,50,0,0
36036,-100,4,2,1,60,0,0
50258,-100,4,2,1,60,0,0
55592,-100,4,2,1,60,0,0
57369,-100,4,2,1,60,0,0
60925,-100,4,2,1,70,0,0
62703,-100,4,2,1,55,0,0
64480,-100,4,2,1,80,0,1
87592,-100,4,2,1,50,0,0

[Colours]
Combo1 : 238,125,125
Combo2 : 153,119,255
Combo3 : 151,203,255
Combo4 : 242,218,142

[HitObjects]
288,244,481,6,0,P|335:224|277:138,1,179,2|0,0:0|0:0,0:0:0:0:
109,244,1369,2,0,L|107:130,1,89.5,0|2,0:0|0:0,0:0:0:0:
194,92,1814,1,2,0:0:0:0:
372,100,2258,6,0,L|176:78,1,179,2|0,0:0|0:0,0:0:0:0:
374,95,3147,2,0,L|375:200,1,89.5,0|2,0:0|0:0,0:0:0:0:
287,229,3592,1,2,0:0:0:0:
100,145,4036,6,0,L|95:-47,1,179,2|0,0:0|0:0,0:0:0:0:
280,42,4925,2,0,L|383:32,2,89.5
95,183,5814,5,2,0:0:0:0:
53,170,5925,1,2,0:0:0:0:
35,131,6036,1,2,0:0:0:0:
52,91,6147,1,2,0:0:0:0:
93,77,6258,1,2,0:0:0:0:
274,73,6703,6,0,L|276:178,1,89.5,2|2,0:0|0:0,0:0:0:0:
229,181,7036,1,8,0:0:0:0:
177,184,7147,2,0,L|105:195,2,44.75,8|0|0,0:0|0:0|0:0,0:0:0:0:
371,162,7592,6,0,P|422:134|347:57,1,179,6|8,3:2|3:2,0:0:0:0:
280,72,8258,2,0,L|281:190,1,89.5,2|0,3:2|3:2,0:0:0:0:
373,175,8703,1,2,3:2:0:0:
207,236,9147,6,0,P|155:212|236:149,1,179,2|2,3:2|3:2,0:0:0:0:
298,114,9814,1,10,3:2:0:0:
391,119,10036,2,0,L|391:323,1,179,2|2,3:2|3:0,0:0:0:0:
301,323,10703,1,10,3:2:0:0:
21,198,11147,6,0,P|5:145|115:108,1,179,2|8,3:2|3:2,0:0:0:0:
188,103,11814,2,0,L|288:99,1,89.5,2|0,3:2|3:2,0:0:0:0:
188,103,12258,2,0,L|189:229,1,89.5,2|8,3:2|3:2,0:0:0:0:
470,223,12925,6,0,L|474:22,1,179,2|8,3:2|3:2,0:0:0:0:
376,40,13592,2,0,L|258:57,1,89.5,2|0,3:2|3:2,0:0:0:0:
376,40,14036,2,0,L|479:27,2,89.5,2|8|2,3:2|3:2|3:0,0:0:0:0:
183,222,14703,6,0,P|123:199|201:154,1,179,6|8,3:2|3:2,0:0:0:0:
276,135,15369,2,0,L|278:323,1,179,2|2,3:2|3:2,0:0:0:0:
100,212,16258,6,0,L|306:212,1,179,2|2,3:2|3:2,0:0:0:0:
188,148,16925,1,10,3:2:0:0:
95,175,17147,2,0,P|41:158|109:92,1,179,2|2,3:2|3:0,0:0:0:0:
183,78,17814,1,10,3:2:0:0:
475,92,18258,6,0,L|477:305,1,179,2|8,3:2|3:2,0:0:0:0:
384,281,18925,2,0,L|283:284,1,89.5,2|0,3:2|3:2,0:0:0:0:
384,281,19369,2,0,L|482:274,2,89.5,2|8|2,3:2|3:2|3:0,0:0:0:0:
192,182,20036,6,0,P|123:182|99:305,1,179,0|0,3:2|3:2,0:0:0:0:
255,288,20925,2,0,L|453:283,1,179,0|8,3:2|3:2,0:0:0:0:
121,253,21814,6,0,P|62:225|129:171,1,179,0|0,3:2|3:2,0:0:0:0:
211,161,22480,1,2,3:0:0:0:
299,157,22703,2,0,L|302:358,1,179,0|0,3:2|3:2,0:0:0:0:
119,192,23592,6,0,L|32:211,2,89.5,0|2|0,3:2|3:0|3:2,0:0:0:0:
213,163,24258,2,0,P|281:162|322:276,1,179,2|2,3:0|3:0,0:0:0:0:
249,282,24925,1,0,3:2:0:0:
330,276,25147,1,2,3:0:0:0:
415,264,25369,6,0,L|420:71,1,179,0|0,3:2|3:2,0:0:0:0:
251,86,26258,2,0,P|199:83|174:195,1,179,0|0,3:2|3:2,0:0:0:0:
344,190,27147,6,0,L|160:188,1,179,0|0,3:2|3:2,0:0:0:0:
255,134,27814,2,0,L|255:260,1,89.5,2|0,3:0|3:2,0:0:0:0:
163,250,28258,1,8,3:2:0:0:
77,204,28480,2,0,L|75:86,1,89.5,8|2,3:2|3:0,0:0:0:0:
265,116,28925,6,0,L|367:111,2,89.5,0|2|0,3:2|3:0|3:2,0:0:0:0:
92,226,29814,2,0,P|88:172|198:122,1,179,0|0,3:2|3:2,0:0:0:0:
356,118,30703,6,0,L|473:103,2,89.5,0|2|0,3:2|3:0|3:2,0:0:0:0:
266,139,31369,2,0,L|64:136,1,179,2|2,3:0|3:0,0:0:0:0:
181,170,32036,2,0,L|187:283,1,89.5,0|2,3:2|3:0,0:0:0:0:
94,279,32480,5,0,3:2:0:0:
94,279,32703,2,0,L|285:272,1,179,2|2,3:0|3:0,0:0:0:0:
178,229,33369,2,0,P|120:165|193:123,1,179,0|0,3:2|3:2,0:0:0:0:
356,115,34258,6,0,L|461:108,2,89.5,0|2|0,3:2|3:0|3:2,0:0:0:0:
266,135,34925,2,0,L|267:252,1,89.5,2|0,3:0|3:2,0:0:0:0:
362,238,35369,1,2,3:0:0:0:
453,212,35592,1,8,0:2:0:0:
155,140,36036,6,0,L|148:10,1,89.5,4|2,3:2|3:0,0:0:0:0:
246,30,36480,2,0,L|377:23,1,89.5,8|2,3:2|3:0,0:0:0:0:
246,30,36925,2,0,L|49:50,1,179,0|8,3:2|3:2,0:0:0:0:
163,117,37592,1,2,3:0:0:0:
353,117,37814,6,0,P|420:122|447:229,1,179,0|8,3:2|3:2,0:0:0:0:
363,234,38480,2,0,L|161:227,1,179,2|2,3:0|3:0,0:0:0:0:
274,157,39147,1,8,3:2:0:0:
365,140,39369,1,2,3:0:0:0:
274,157,39592,6,0,L|271:32,1,89.5,0|2,3:2|3:0,0:0:0:0:
364,38,40036,2,0,P|438:39|468:142,1,179,8|0,3:2|3:2,0:0:0:0:
300,164,40925,1,8,3:2:0:0:
211,126,41147,6,0,L|206:10,1,89.5,2|0,3:0|3:2,0:0:0:0:
300,23,41592,2,0,L|423:19,1,89.5,2|8,3:0|3:2,0:0:0:0:
300,23,42036,2,0,L|180:42,2,89.5,2|0|8,3:0|3:2|3:2,0:0:0:0:
396,27,42703,2,0,L|400:145,1,89.5,8|2,3:2|3:0,0:0:0:0:
203,165,43147,6,0,L|93:174,2,89.5,0|2|8,3:2|3:0|3:2,0:0:0:0:
395,136,44036,2,0,L|397:340,1,179,0|8,3:2|3:2,0:0:0:0:
107,233,44925,6,0,L|323:222,1,179,0|8,3:2|3:2,0:0:0:0:
193,185,45592,2,0,P|145:166|217:93,1,179,2|2,3:0|3:0,0:0:0:0:
287,80,46258,2,0,L|411:79,1,89.5,8|2,3:2|3:0,0:0:0:0:
185,127,46703,6,0,P|135:131|194:196,1,179,4|8,3:2|3:2,0:0:0:0:
274,203,47369,2,0,L|274:93,1,89.5,2|0,3:0|3:2,0:0:0:0:
179,101,47814,2,0,L|80:113,2,89.5,2|8|2,3:0|3:2|3:0,0:0:0:0:
376,76,48480,6,0,L|476:73,2,89.5,0|2|8,3:2|3:0|3:2,0:0:0:0:
277,179,49147,2,0,P|233:161|297:78,1,179,2|2,3:0|3:0,0:0:0:0:
371,64,49814,2,0,L|372:173,1,89.5,8|2,3:2|3:0,0:0:0:0:
190,188,50258,5,6,3:0:0:0:
98,147,50480,2,0,L|9:147,2,89.5,2|8|2,3:0|0:2|3:0,0:0:0:0:
188,137,51147,2,0,L|188:265,1,89.5,0|0,3:2|3:2,0:0:0:0:
98,250,51592,1,8,0:2:0:0:
414,147,52036,5,0,3:2:0:0:
499,142,52258,2,0,L|501:258,1,89.5,2|8,3:0|0:2,0:0:0:0:
414,147,52703,1,2,3:0:0:0:
324,137,52925,2,0,L|324:265,1,89.5,0|0,3:2|3:2,0:0:0:0:
414,250,53370,1,8,0:2:0:0:
116,159,53814,5,0,3:2:0:0:
116,159,54036,2,0,L|233:158,2,89.5,2|8|2,3:0|0:2|3:0,0:0:0:0:
25,162,54703,1,0,3:2:0:0:
116,164,54925,2,0,L|115:46,1,89.5,0|8,3:2|0:2,0:0:0:0:
205,54,55369,1,2,3:0:0:0:
397,61,55592,6,0,L|397:252,1,179,8|8,3:2|3:2,0:0:0:0:
222,243,56480,1,2,3:0:0:0:
127,150,56703,2,0,L|19:163,2,89.5,2|8|0,3:0|0:2|3:2,0:0:0:0:
317,129,57369,6,0,P|388:132|423:238,1,179,4|8,3:2|0:2,0:0:0:0:
337,246,58036,2,0,L|139:247,1,179,2|2,3:0|3:0,0:0:0:0:
252,184,58703,1,8,0:2:0:0:
348,180,58925,6,0,P|401:149|328:80,1,179,2|2,3:0|3:0,0:0:0:0:
251,90,59592,2,0,L|142:93,1,89.5,8|2,0:2|3:0,0:0:0:0:
251,90,60036,1,0,3:2:0:0:
347,80,60258,2,0,L|349:190,1,89.5,2|8,3:0|0:2,0:0:0:0:
35,232,60925,6,0,L|256:233,1,179,4|4,3:2|3:2,0:0:0:0:
496,254,61814,2,0,L|495:65,1,179,4|4,3:2|3:2,0:0:0:0:
173,97,62703,5,2,3:0:0:0:
130,101,62814,1,2,3:0:0:0:
107,138,62925,1,2,3:0:0:0:
123,178,63036,1,2,3:0:0:0:
165,190,63147,1,2,3:0:0:0:
256,179,63369,2,0,L|370:162,1,89.5,2|2,3:0|3:0,0:0:0:0:
256,179,63814,2,0,L|148:215,2,89.5,2|8|0,3:0|0:2|3:2,0:0:0:0:
449,209,64480,6,0,L|459:18,1,179,6|8,3:2|0:2,0:0:0:0:
360,38,65147,2,0,L|150:37,1,179,2|2,3:2|3:2,0:0:0:0:
357,50,66036,6,0,P|413:54|434:167,1,179,2|2,3:2|3:2,0:0:0:0:
349,166,66703,1,10,0:2:0:0:
152,210,66925,2,0,P|103:189|188:128,1,179,2|2,3:2|3:0,0:0:0:0:
249,99,67592,2,0,L|253:206,1,89.5,10|2,0:2|3:0,0:0:0:0:
67,218,68036,6,0,L|65:110,1,89.5,2|2,3:2|3:0,0:0:0:0:
157,86,68480,1,8,0:2:0:0:
253,71,68703,2,0,L|442:57,1,179,2|2,3:2|3:2,0:0:0:0:
431,57,69592,1,2,3:0:0:0:
240,125,69814,6,0,L|136:141,2,89.5,2|2|8,3:2|3:0|0:2,0:0:0:0:
330,108,70480,2,0,L|329:220,1,89.5,2|0,3:2|3:2,0:0:0:0:
238,223,70925,2,0,P|192:200|248:115,1,179,2|2,3:2|3:0,0:0:0:0:
439,182,71592,6,0,L|443:49,1,89.5,6|2,3:2|3:0,0:0:0:0:
348,61,72036,1,8,0:2:0:0:
250,58,72258,2,0,P|196:56|136:176,1,179,2|2,3:2|3:2,0:0:0:0:
306,156,73147,6,0,L|498:145,1,179,2|2,3:2|3:2,0:0:0:0:
393,93,73814,1,10,0:2:0:0:
303,93,74036,2,0,L|298:204,1,89.5,2|0,3:2|3:2,0:0:0:0:
395,191,74480,2,0,L|493:182,2,89.5,2|10|2,3:0|0:2|3:0,0:0:0:0:
199,237,75147,6,0,P|152:214|226:137,1,179,2|8,3:2|0:2,0:0:0:0:
302,113,75814,2,0,P|375:115|401:220,1,179,2|2,3:2|3:2,0:0:0:0:
314,227,76480,2,0,L|204:224,1,89.5,8|2,0:2|3:0,0:0:0:0:
413,234,76925,6,0,L|417:37,1,179,6|2,3:2|3:2,0:0:0:0:
322,41,77592,1,2,3:0:0:0:
232,53,77814,1,2,3:2:0:0:
322,41,78036,2,0,L|432:37,2,89.5,2|6|2,3:0|3:2|3:0,0:0:0:0:
119,272,78703,6,0,L|16:269,1,89.5,2|0,3:2|3:2,0:0:0:0:
119,272,79147,1,4,3:2:0:0:
314,248,79369,2,0,L|315:137,1,89.5,2|0,3:2|3:2,0:0:0:0:
224,158,79814,2,0,L|223:59,1,89.5,2|8,3:2|0:2,0:0:0:0:
318,53,80258,6,0,P|404:55|413:161,1,179,2|2,3:2|3:2,0:0:0:0:
339,167,80925,1,10,0:2:0:0:
241,169,81147,2,0,L|240:63,1,89.5,2|0,3:2|3:2,0:0:0:0:
338,49,81592,2,0,L|441:44,2,89.5,2|10|2,3:0|0:2|3:0,0:0:0:0:
134,199,82258,6,0,P|76:181|150:116,1,179,6|8,3:2|0:2,0:0:0:0:
221,93,82925,2,0,L|402:87,1,179,2|2,3:2|3:2,0:0:0:0:
399,87,83592,1,8,0:2:0:0:
78,206,84036,6,0,P|53:143|104:37,1,179,2|8,3:2|0:2,0:0:0:0:
202,58,84703,2,0,L|311:50,1,89.5,2|0,3:2|3:2,0:0:0:0:
202,58,85147,2,0,L|97:73,2,89.5,2|8|2,3:2|0:2|3:0,0:0:0:0:
391,51,85814,6,0,P|456:55|485:161,1,179,6|8,3:2|0:2,0:0:0:0:
394,173,86480,2,0,L|203:167,1,179,2|2,3:2|3:2,0:0:0:0:
303,103,87147,1,8,0:2:0:0:
140,229,87592,6,0,L|131:32,1,179,2|2,3:2|3:2,0:0:0:0:
223,17,88258,5,2,3:2:0:0:
256,192,88592,12,0,89369,0:0:0:0:
