osu file format v14

[General]
AudioFilename: audio.ogg
AudioLeadIn: 0
PreviewTime: 63814
Countdown: 0
SampleSet: Soft
StackLeniency: 0.7
Mode: 2
LetterboxInBreaks: 0
WidescreenStoryboard: 1

[Editor]
DistanceSpacing: 0.6
BeatDivisor: 8
GridSize: 4
TimelineZoom: 3.099999

[Metadata]
Title:Kimi ga Yume o Tsuretekita (TV Size)
TitleUnicode:君が夢を連れてきた (TV Size)
Artist:Pet na Kanojotachi
ArtistUnicode:ペットな彼女たち
Creator:Secre
Version:Dream
Source:さくら荘のペットな彼女
Tags:chickenbible sakurasou Sakura-sō sakura-so sakura-sou no pet petto girl of na kanojo anime 茅野愛衣 Ai Kayano 中津真莉子 Mari Mariko Nakatsu 高森奈津美 Natsumi Takamori pop jpop j-pop japanese First Opening 1 Sakura Hall Intro mashiro shiina sorata kanda nanami aoyama misaki kamiigusa jin mitaka ryunosuke akasaka meido maid
BeatmapID:3928485
BeatmapSetID:1905186

[Difficulty]
HPDrainRate:5
CircleSize:3.8
OverallDifficulty:8.8
ApproachRate:8.8
SliderMultiplier:2.3
SliderTickRate:2

[Events]
//Background and Video events
0,0,"fauna would wear this for sure.png",0,0
//Break Periods
//Storyboard Layer 0 (Background)
//Storyboard Layer 1 (Fail)
//Storyboard Layer 2 (Pass)
//Storyboard Layer 3 (Foreground)
//Storyboard Layer 4 (Overlay)
//Storyboard Sound Samples

[TimingPoints]
481,444.444444444444,4,2,1,50,1,0
481,-100,4,2,1,50,0,0
7592,-100,4,2,1,70,0,0
21814,-100,4,2,1,50,0,0
36036,-100,4,2,1,60,0,0
50258,-100,4,2,1,60,0,0
55592,-100,4,2,1,60,0,0
57369,-100,4,2,1,60,0,0
60925,-100,4,2,1,70,0,0
62703,-100,4,2,1,55,0,0
64480,-100,4,2,1,80,0,1
87592,-100,4,2,1,50,0,0

[Colours]
Combo1 : 238,125,125
Combo2 : 153,119,255
Combo3 : 151,203,255
Combo4 : 242,218,142

[HitObjects]
303,232,481,6,0,L|314:66,1,115,2|0,0:0|0:0,0:0:0:0:
189,115,925,2,0,L|175:-8,1,115
393,29,1369,1,0,0:0:0:0:
495,65,1591,1,2,0:0:0:0:
500,173,1813,1,2,0:0:0:0:
402,219,2035,1,0,0:0:0:0:
205,216,2258,6,0,L|195:69,1,115,2|0,0:0|0:0,0:0:0:0:
321,108,2703,2,0,L|334:-35,1,115
119,29,3147,1,0,0:0:0:0:
16,65,3369,1,2,0:0:0:0:
11,173,3591,1,2,0:0:0:0:
109,219,3813,1,0,0:0:0:0:
310,94,4036,6,0,L|321:224,1,115,2|0,0:0|0:0,0:0:0:0:
203,165,4480,2,0,L|79:211,1,115
310,94,4925,1,0,0:0:0:0:
410,101,5147,1,0,0:0:0:0:
505,184,5369,1,0,0:0:0:0:
498,301,5591,1,0,0:0:0:0:
288,167,5814,6,0,L|266:87,1,57.5,2|2,0:0|0:0,0:0:0:0:
343,77,6036,2,0,L|358:6,1,57.5,2|2,0:0|0:0,0:0:0:0:
236,28,6258,1,2,0:0:0:0:
180,31,6369,1,2,0:0:0:0:
130,73,6480,1,2,0:0:0:0:
129,131,6591,1,2,0:0:0:0:
256,141,6703,6,0,L|341:139,2,57.5,2|2|2,0:0|0:0|0:0,0:0:0:0:
191,96,7036,1,8,0:0:0:0:
365,38,7147,2,0,L|453:29,1,57.5,8|0,0:0|0:0,0:0:0:0:
225,116,7369,2,0,L|149:120,1,57.5
351,103,7592,6,0,P|422:117|487:104,1,115,6|2,3:2|3:0,0:0:0:0:
171,217,8036,2,0,L|32:205,1,115,8|2,3:2|3:2,0:0:0:0:
258,138,8480,2,0,L|269:19,1,115,0|2,3:2|3:2,0:0:0:0:
469,122,8925,2,0,L|486:-4,1,115,8|2,3:2|3:2,0:0:0:0:
195,125,9369,6,0,L|46:123,1,115,0|2,3:2|3:2,0:0:0:0:
279,174,9814,2,0,L|433:159,1,115,10|2,3:2|3:2,0:0:0:0:
193,105,10258,2,0,L|59:109,1,115,0|2,3:2|3:0,0:0:0:0:
288,75,10703,2,0,L|296:211,1,115,10|2,3:2|3:0,0:0:0:0:
221,208,11036,1,0,0:0:0:0:
23,63,11147,6,0,L|151:55,2,115,2|2|8,3:2|3:0|3:2,0:0:0:0:
206,69,11814,2,0,L|210:215,1,115,2|0,3:2|3:2,0:0:0:0:
395,187,12258,1,2,3:2:0:0:
204,169,12480,2,0,L|200:40,1,115,8|2,3:2|3:0,0:0:0:0:
490,48,12925,6,0,L|497:145,2,57.5,2|0|2,3:2|0:0|3:0,0:0:0:0:
306,88,13369,2,0,L|446:79,1,115,8|2,3:2|3:2,0:0:0:0:
228,157,13814,1,0,3:2:0:0:
408,164,14036,2,0,L|418:25,1,115,2|8,3:2|3:2,0:0:0:0:
221,44,14480,2,0,L|163:50,2,38.3333333333333,2|2|2,3:0|3:0|3:0,0:0:0:0:
358,38,14703,6,0,L|485:30,1,115,6|2,3:2|3:0,0:0:0:0:
268,125,15147,2,0,L|417:116,1,115,8|2,3:2|3:2,0:0:0:0:
174,67,15592,2,0,L|56:65,1,115,0|2,3:2|3:2,0:0:0:0:
262,155,16036,2,0,L|135:149,1,115,8|2,3:2|3:2,0:0:0:0:
461,187,16480,6,0,L|470:51,1,115,0|2,3:2|3:2,0:0:0:0:
282,114,16925,2,0,L|275:-26,1,115,10|2,3:2|3:2,0:0:0:0:
78,104,17369,2,0,L|62:-29,1,115,0|2,3:2|3:0,0:0:0:0:
270,36,17814,2,0,L|420:31,1,115,10|2,3:2|3:0,0:0:0:0:
326,92,18147,1,0,0:0:0:0:
113,162,18258,6,0,L|107:37,1,115,2|2,3:2|3:0,0:0:0:0:
299,82,18703,1,8,3:2:0:0:
112,162,18925,2,0,L|111:40,1,115,2|0,3:2|3:2,0:0:0:0:
332,96,19369,2,0,L|206:88,2,115,2|8|2,3:2|3:2|3:0,0:0:0:0:
44,226,20036,6,0,P|3:155|91:79,1,172.5,0|0,3:2|0:0,0:0:0:0:
178,62,20480,2,0,P|237:64|282:189,1,172.5,0|0,3:2|0:0,0:0:0:0:
168,228,20925,6,0,L|163:83,1,115,0|0,3:2|0:0,0:0:0:0:
286,64,21258,1,8,3:2:0:0:
402,52,21369,2,0,L|413:209,1,115,8|8,3:2|3:2,0:0:0:0:
346,202,21703,1,0,3:2:0:0:
165,176,21814,6,0,P|93:175|65:311,1,230,0|0,3:2|3:2,0:0:0:0:
246,290,22480,1,2,3:0:0:0:
433,248,22703,2,0,L|441:12,1,230,0|0,3:2|3:2,0:0:0:0:
104,99,23592,6,0,L|239:79,2,115,0|2|0,3:2|3:0|3:2,0:0:0:0:
297,95,24258,2,0,P|377:104|415:249,1,230,2|2,3:0|3:0,0:0:0:0:
215,247,24925,2,0,L|206:128,1,115,0|2,3:2|3:0,0:0:0:0:
496,103,25369,6,0,L|357:93,2,115,0|2|0,3:2|3:0|3:2,0:0:0:0:
141,62,26258,2,0,P|68:84|152:171,1,230,0|0,3:2|3:2,0:0:0:0:
418,113,27147,6,0,L|283:110,1,115,0|2,3:2|3:0,0:0:0:0:
114,119,27592,1,0,3:2:0:0:
307,105,27814,2,0,P|399:113|431:240,1,230,2|8,3:0|3:2,0:0:0:0:
233,223,28480,2,0,L|359:217,1,115,8|2,3:2|3:0,0:0:0:0:
46,127,28925,6,0,L|173:123,2,115,0|2|0,3:2|3:0|3:2,0:0:0:0:
370,83,29814,2,0,P|446:101|361:174,1,230,0|0,3:2|3:2,0:0:0:0:
69,170,30703,6,0,L|200:155,1,115,0|2,3:2|3:0,0:0:0:0:
395,119,31147,1,0,3:2:0:0:
179,176,31369,2,0,P|117:152|191:47,1,230,2|2,3:0|3:0,0:0:0:0:
359,43,32036,1,0,3:2:0:0:
365,37,32258,2,0,L|289:32,1,57.5,2|2,3:0|3:0,0:0:0:0:
132,132,32480,5,0,3:2:0:0:
21,180,32703,2,0,P|14:122|140:33,1,230,2|2,3:0|3:0,0:0:0:0:
434,57,33369,2,0,L|448:177,1,115,0|2,3:2|3:0,0:0:0:0:
237,202,33814,2,0,L|114:201,1,115,0|2,3:2|3:0,0:0:0:0:
467,105,34258,6,0,L|332:100,2,115,0|2|0,3:2|3:0|3:2,0:0:0:0:
262,133,34925,2,0,L|255:11,1,115,2|0,3:0|3:2,0:0:0:0:
463,19,35369,1,2,3:0:0:0:
143,96,35592,1,8,0:2:0:0:
429,98,36036,5,4,3:2:0:0:
237,102,36258,1,2,3:0:0:0:
429,98,36480,2,0,L|431:216,1,115,8|2,3:2|3:0,0:0:0:0:
137,187,36925,2,0,L|366:170,1,230,0|8,3:2|3:2,0:0:0:0:
184,102,37592,1,2,3:0:0:0:
476,83,37814,6,0,P|479:147|343:226,1,230,0|8,3:2|3:2,0:0:0:0:
176,149,38480,2,0,L|419:112,1,230,2|2,3:0|3:0,0:0:0:0:
233,200,39147,1,8,3:2:0:0:
416,134,39369,1,2,3:0:0:0:
126,94,39592,6,0,L|-9:94,1,115,0|2,3:2|3:0,0:0:0:0:
214,115,40036,2,0,P|291:120|349:259,1,230,8|0,3:2|3:2,0:0:0:0:
184,251,40703,2,0,L|176:118,1,115,2|8,3:0|3:2,0:0:0:0:
366,83,41147,2,0,L|288:74,1,57.5,2|2,3:0|3:0,0:0:0:0:
115,84,41369,5,0,3:2:0:0:
220,70,41592,2,0,L|221:195,1,115,2|8,3:0|3:2,0:0:0:0:
408,193,42036,1,2,3:0:0:0:
221,185,42258,2,0,L|356:183,1,115,0|8,3:2|3:2,0:0:0:0:
124,192,42703,2,0,L|120:73,1,115,8|2,3:2|3:0,0:0:0:0:
193,37,43036,1,2,3:0:0:0:
421,80,43147,6,0,L|301:84,2,115,0|2|8,3:2|3:0|3:2,0:0:0:0:
112,230,44036,2,0,P|51:210|127:113,1,230,0|8,3:2|3:2,0:0:0:0:
429,169,44925,6,0,L|190:161,1,230,0|8,3:2|3:2,0:0:0:0:
392,88,45592,2,0,P|439:104|373:220,1,230,2|2,3:0|3:0,0:0:0:0:
177,108,46258,2,0,L|51:103,1,115,8|2,3:2|3:0,0:0:0:0:
366,210,46703,6,0,L|125:205,1,230,4|8,3:2|3:2,0:0:0:0:
327,136,47369,2,0,L|332:20,1,115,2|0,3:0|3:2,0:0:0:0:
122,98,47814,2,0,L|256:85,2,115,2|8|2,3:0|3:2|3:0,0:0:0:0:
429,83,48480,5,0,3:2:0:0:
479,101,48591,1,0,0:0:0:0:
283,162,48702,1,2,3:0:0:0:
232,182,48813,1,0,0:0:0:0:
404,94,48925,2,0,L|471:93,1,57.5,8|0,3:2|0:0,0:0:0:0:
247,53,49147,2,0,P|175:52|137:188,1,230,2|2,3:0|3:0,0:0:0:0:
326,181,49814,2,0,L|446:176,1,115,8|2,3:2|3:0,0:0:0:0:
148,107,50258,5,6,3:0:0:0:
327,93,50480,2,0,L|206:80,2,115,2|8|2,3:0|0:2|3:0,0:0:0:0:
147,164,51147,1,0,3:2:0:0:
314,84,51369,1,0,3:2:0:0:
147,164,51592,1,8,0:2:0:0:
456,112,52036,5,0,3:2:0:0:
287,87,52258,2,0,L|414:70,2,115,2|8|2,3:0|0:2|3:0,0:0:0:0:
111,172,52925,1,0,3:2:0:0:
296,82,53147,1,0,3:2:0:0:
481,52,53369,1,8,0:2:0:0:
148,170,53814,5,0,3:2:0:0:
325,163,54036,2,0,L|331:48,1,115,2|8,3:0|0:2,0:0:0:0:
153,49,54480,1,2,3:0:0:0:
330,48,54702,1,0,3:2:0:0:
154,161,54925,2,0,L|153:43,1,115,0|8,3:2|0:2,0:0:0:0:
333,137,55369,1,2,3:0:0:0:
42,244,55592,6,0,P|-3:216|61:137,1,172.5,8|0,3:2|0:0,0:0:0:0:
275,103,56036,2,0,P|340:105|375:212,1,172.5,8|0,3:2|0:0,0:0:0:0:
196,200,56480,1,2,3:0:0:0:
39,129,56703,2,0,L|153:112,2,115,2|8|0,3:0|0:2|3:2,0:0:0:0:
387,89,57369,6,0,P|458:107|382:202,1,230,4|8,3:2|0:2,0:0:0:0:
193,166,58036,2,0,L|429:132,1,230,2|2,3:0|3:0,0:0:0:0:
234,71,58703,1,8,0:2:0:0:
402,49,58925,1,2,3:0:0:0:
309,41,59036,1,2,3:0:0:0:
234,71,59147,5,0,3:2:0:0:
389,113,59369,2,0,L|508:106,2,115,2|8|2,3:0|0:2|3:0,0:0:0:0:
101,202,60036,1,0,3:2:0:0:
246,151,60258,2,0,L|251:22,1,115,2|8,3:0|0:2,0:0:0:0:
426,31,60703,2,0,L|351:17,1,57.5,2|2,3:0|3:0,0:0:0:0:
184,70,60925,6,0,P|127:74|140:176,1,172.5,4|0,3:2|0:0,0:0:0:0:
353,153,61369,2,0,P|423:159|456:264,1,172.5,4|0,3:2|0:0,0:0:0:0:
223,140,61814,2,0,P|146:141|98:221,1,172.5,4|0,3:2|0:0,0:0:0:0:
329,145,62258,2,0,P|406:146|454:226,1,172.5,4|0,3:2|0:0,0:0:0:0:
205,201,62703,5,2,3:0:0:0:
154,182,62814,1,2,3:0:0:0:
157,128,62925,1,2,3:0:0:0:
209,116,63036,1,2,3:0:0:0:
281,107,63147,2,0,L|287:46,1,57.5,2|2,3:0|3:0,0:0:0:0:
175,79,63369,6,0,L|166:10,1,57.5,2|2,3:0|3:0,0:0:0:0:
230,17,63592,2,0,L|282:-15,1,57.5,2|2,3:0|3:0,0:0:0:0:
166,137,63814,1,2,3:0:0:0:
466,107,64036,2,0,L|475:244,1,115,8|0,0:2|3:2,0:0:0:0:
396,251,64369,1,0,3:2:0:0:
161,221,64480,6,0,P|90:218|53:358,1,230,6|8,3:2|0:2,0:0:0:0:
396,251,65147,2,0,L|402:117,1,115,2|0,3:2|3:2,0:0:0:0:
81,144,65592,2,0,L|66:11,1,115,2|8,3:2|0:2,0:0:0:0:
384,80,66036,6,0,L|137:75,1,230,2|2,3:2|3:2,0:0:0:0:
340,155,66703,1,10,0:2:0:0:
59,192,66925,2,0,L|48:63,1,115,2|0,3:2|3:2,0:0:0:0:
236,110,67369,2,0,L|97:103,1,115,2|10,3:0|0:2,0:0:0:0:
313,48,67814,2,0,L|390:47,1,57.5,2|2,3:0|3:0,0:0:0:0:
132,126,68036,6,0,L|3:121,2,115,2|2|8,3:2|3:0|0:2,0:0:0:0:
332,148,68703,2,0,L|460:147,1,115,2|0,3:2|3:2,0:0:0:0:
158,76,69147,2,0,L|391:71,1,230,2|2,3:2|3:0,0:0:0:0:
76,153,69814,5,2,3:2:0:0:
246,137,70036,2,0,L|252:16,1,115,2|8,3:0|0:2,0:0:0:0:
465,132,70480,2,0,L|470:7,1,115,2|0,3:2|3:2,0:0:0:0:
166,51,70925,2,0,P|98:52|42:186,1,230,2|2,3:2|3:0,0:0:0:0:
124,205,71480,1,2,3:0:0:0:
351,221,71592,6,0,P|422:218|459:358,1,230,6|8,3:2|0:2,0:0:0:0:
116,251,72259,2,0,L|110:117,1,115,2|0,3:2|3:2,0:0:0:0:
431,144,72704,2,0,L|446:11,1,115,2|8,3:2|0:2,0:0:0:0:
128,80,73148,6,0,L|375:75,1,230,2|2,3:2|3:2,0:0:0:0:
172,155,73815,1,10,0:2:0:0:
455,183,74037,2,0,L|466:54,1,115,2|0,3:2|3:2,0:0:0:0:
276,110,74481,2,0,L|415:103,1,115,2|10,3:0|0:2,0:0:0:0:
199,48,74926,2,0,L|122:47,1,57.5,2|2,3:0|3:0,0:0:0:0:
380,126,75148,6,0,L|509:121,2,115,2|2|8,3:2|3:0|0:2,0:0:0:0:
166,266,75814,2,0,P|115:249|187:134,1,230,2|2,3:2|3:2,0:0:0:0:
376,139,76480,2,0,L|381:10,1,115,8|2,0:2|3:0,0:0:0:0:
87,98,76925,6,0,P|55:137|131:223,1,172.5,6|0,3:2|0:0,0:0:0:0:
333,188,77369,2,0,L|340:110,1,57.5,2|0,3:2|0:0,0:0:0:0:
259,121,77592,2,0,L|255:53,1,57.5,2|0,3:0|0:0,0:0:0:0:
340,69,77814,2,0,L|350:-10,1,57.5,2|0,3:2|0:0,0:0:0:0:
178,54,78036,6,0,L|113:52,1,57.5,2|0,3:0|0:0,0:0:0:0:
348,92,78258,2,0,L|421:94,1,57.5,6|0,3:2|0:0,0:0:0:0:
184,157,78480,2,0,L|100:153,1,57.5,2|0,3:0|0:0,0:0:0:0:
356,113,78703,6,0,L|487:111,1,115,2|0,3:2|3:2,0:0:0:0:
356,113,79147,1,4,3:2:0:0:
48,167,79369,2,0,L|38:50,1,115,2|0,3:2|3:2,0:0:0:0:
352,44,79814,2,0,L|476:41,1,115,2|8,3:2|0:2,0:0:0:0:
164,62,80258,6,0,P|100:57|21:197,1,230,2|2,3:2|3:2,0:0:0:0:
316,192,80925,1,10,0:2:0:0:
137,155,81147,2,0,L|133:33,1,115,2|0,3:2|3:2,0:0:0:0:
439,64,81592,2,0,L|305:60,2,115,2|10|2,3:0|0:2|3:0,0:0:0:0:
111,209,82258,6,0,P|99:155|228:64,1,230,6|8,3:2|0:2,0:0:0:0:
418,61,82925,2,0,L|415:182,1,115,2|0,3:2|3:2,0:0:0:0:
209,164,83369,1,2,3:2:0:0:
411,151,83592,2,0,L|417:17,1,115,8|2,0:2|3:0,0:0:0:0:
345,16,83925,1,0,0:0:0:0:
139,199,84036,6,0,L|391:172,1,230,2|8,3:2|0:2,0:0:0:0:
81,229,84703,2,0,L|70:97,1,115,2|0,3:2|3:2,0:0:0:0:
261,78,85147,2,0,L|146:73,1,115,2|8,3:2|0:2,0:0:0:0:
357,77,85592,2,0,L|434:75,1,57.5,2|2,3:0|3:0,0:0:0:0:
171,243,85814,6,0,P|120:226|203:126,1,230,6|8,3:2|0:2,0:0:0:0:
382,143,86480,2,0,L|136:122,1,230,2|2,3:2|3:2,0:0:0:0:
358,59,87147,2,0,L|481:56,1,115,8|2,0:2|3:2,0:0:0:0:
131,235,87592,6,0,P|76:191|149:71,1,230,2|2,3:2|3:2,0:0:0:0:
355,45,88258,5,2,3:2:0:0:
256,192,88480,12,0,89369,0:0:0:0:
