osu file format v14

[General]
AudioFilename: audio.ogg
AudioLeadIn: 0
PreviewTime: 63814
Countdown: 0
SampleSet: Soft
StackLeniency: 0.7
Mode: 2
LetterboxInBreaks: 0
WidescreenStoryboard: 1

[Editor]
DistanceSpacing: 0.6
BeatDivisor: 4
GridSize: 4
TimelineZoom: 3.099999

[Metadata]
Title:Kimi ga Yume o Tsuretekita (TV Size)
TitleUnicode:君が夢を連れてきた (TV Size)
Artist:Pet na Kanojotachi
ArtistUnicode:ペットな彼女たち
Creator:Secre
Version:Cup
Source:さくら荘のペットな彼女
Tags:chickenbible sakurasou Sakura-sō sakura-so sakura-sou no pet petto girl of na kanojo anime 茅野愛衣 Ai Kayano 中津真莉子 Mari Mariko Nakatsu 高森奈津美 Natsumi Takamori pop jpop j-pop japanese First Opening 1 Sakura Hall Intro mashiro shiina sorata kanda nanami aoyama misaki kamiigusa jin mitaka ryunosuke akasaka meido maid
BeatmapID:3975463
BeatmapSetID:1905186

[Difficulty]
HPDrainRate:2
CircleSize:2.3
OverallDifficulty:5.8
ApproachRate:5.8
SliderMultiplier:1.61
SliderTickRate:1

[Events]
//Background and Video events
0,0,"fauna would wear this for sure.png",0,0
//Break Periods
//Storyboard Layer 0 (Background)
//Storyboard Layer 1 (Fail)
//Storyboard Layer 2 (Pass)
//Storyboard Layer 3 (Foreground)
//Storyboard Layer 4 (Overlay)
//Storyboard Sound Samples

[TimingPoints]
481,444.444444444444,4,2,1,50,1,0
481,-100,4,2,1,50,0,0
7592,-100,4,2,1,70,0,0
21814,-100,4,2,1,50,0,0
36036,-100,4,2,1,60,0,0
50258,-100,4,2,1,60,0,0
55592,-100,4,2,1,60,0,0
57369,-100,4,2,1,60,0,0
60925,-100,4,2,1,70,0,0
62703,-100,4,2,1,55,0,0
64480,-100,4,2,1,80,0,1
87592,-100,4,2,1,50,0,0

[Colours]
Combo1 : 238,125,125
Combo2 : 153,119,255
Combo3 : 151,203,255
Combo4 : 242,218,142

[HitObjects]
267,121,481,6,0,P|345:123|355:210,1,161,2|0,0:0|0:0,0:0:0:0:
208,243,1369,2,0,L|205:61,1,161,0|2,0:0|0:0,0:0:0:0:
362,59,2258,6,0,L|199:64,1,161,2|0,0:0|0:0,0:0:0:0:
53,183,3147,2,0,P|50:124|147:79,1,161,0|2,0:0|0:0,0:0:0:0:
289,77,4036,6,0,L|478:71,1,161,2|0,0:0|0:0,0:0:0:0:
282,87,4925,2,0,L|288:270,1,161
126,209,5814,5,2,0:0:0:0:
89,196,5925,1,2,0:0:0:0:
74,159,6036,1,2,0:0:0:0:
92,125,6147,1,2,0:0:0:0:
130,116,6258,1,2,0:0:0:0:
288,103,6703,6,0,L|377:97,1,80.5,2|2,0:0|0:0,0:0:0:0:
288,103,7147,2,0,L|222:115,2,40.25,8|0|0,0:0|0:0|0:0,0:0:0:0:
385,87,7592,6,0,L|396:259,1,161,6|8,3:2|3:2,0:0:0:0:
239,262,8480,2,0,L|63:266,1,161,0|8,3:2|3:2,0:0:0:0:
243,253,9369,6,0,L|244:75,1,161,0|10,3:2|3:2,0:0:0:0:
421,141,10258,2,0,L|428:-28,1,161,0|10,3:2|3:2,0:0:0:0:
258,51,11147,6,0,P|194:47|164:208,1,241.5,2|2,3:2|3:2,0:0:0:0:
301,200,12258,2,0,L|301:87,1,80.5,2|8,3:2|3:2,0:0:0:0:
141,87,12925,6,0,P|81:94|65:191,1,161,2|8,3:2|3:2,0:0:0:0:
216,193,13814,2,0,L|328:183,1,80.5,0|2,3:2|3:2,0:0:0:0:
216,193,14258,2,0,L|113:207,1,80.5,8|2,3:2|3:0,0:0:0:0:
216,193,14703,6,0,P|312:212|319:297,1,161,6|8,3:2|3:2,0:0:0:0:
179,289,15592,2,0,L|171:114,1,161,0|8,3:2|3:2,0:0:0:0:
21,130,16480,6,0,L|16:-37,1,161,0|10,3:2|3:2,0:0:0:0:
184,68,17369,2,0,L|356:53,1,161,0|10,3:2|3:2,0:0:0:0:
498,63,18258,6,0,P|502:140|362:216,1,241.5,2|2,3:2|3:2,0:0:0:0:
226,176,19369,2,0,L|223:73,1,80.5,2|8,3:2|3:2,0:0:0:0:
384,57,20036,6,0,L|386:248,1,161,0|0,3:2|3:2,0:0:0:0:
242,247,20925,2,0,L|237:62,1,161,0|8,3:2|3:2,0:0:0:0:
325,41,21592,1,8,3:2:0:0:
416,31,21814,5,0,3:2:0:0:
416,31,22258,2,0,L|324:25,1,80.5,0|2,3:2|3:0,0:0:0:0:
246,40,22703,2,0,P|190:38|174:132,1,161,0|0,3:2|3:2,0:0:0:0:
322,127,23592,6,0,L|417:117,2,80.5,0|2|0,3:2|3:0|3:2,0:0:0:0:
234,175,24258,2,0,P|173:147|236:88,1,161,2|2,3:0|3:0,0:0:0:0:
295,64,24925,1,0,3:2:0:0:
465,51,25369,6,0,L|472:243,1,161,0|0,3:2|3:2,0:0:0:0:
292,240,26258,2,0,L|109:234,1,161,0|0,3:2|3:2,0:0:0:0:
282,168,27147,6,0,P|333:136|274:75,1,161,0|0,3:2|3:2,0:0:0:0:
199,111,27814,2,0,L|197:20,1,80.5,2|0,3:0|3:2,0:0:0:0:
281,27,28258,2,0,L|376:23,1,80.5,8|8,3:2|3:2,0:0:0:0:
191,136,28925,6,0,L|110:139,2,80.5,0|2|0,3:2|3:0|3:2,0:0:0:0:
356,122,29814,2,0,L|359:307,1,161,0|0,3:2|3:2,0:0:0:0:
199,291,30703,5,0,3:2:0:0:
279,283,30925,1,2,3:0:0:0:
359,275,31147,1,0,3:2:0:0:
448,257,31369,2,0,P|482:232|419:150,1,161,2|2,3:0|3:0,0:0:0:0:
346,150,32036,1,0,3:2:0:0:
172,201,32480,6,0,L|166:23,1,161,0|0,3:2|3:2,0:0:0:0:
331,50,33369,2,0,L|503:41,1,161,0|0,3:2|3:2,0:0:0:0:
327,106,34258,6,0,L|237:117,2,80.5,0|2|0,3:2|3:0|3:2,0:0:0:0:
413,94,34925,2,0,L|414:188,1,80.5,2|0,3:0|3:2,0:0:0:0:
323,222,35369,2,0,L|230:220,1,80.5,2|8,3:0|0:2,0:0:0:0:
69,205,36036,6,0,L|67:17,1,161,4|8,3:2|3:2,0:0:0:0:
253,46,36925,2,0,P|321:47|344:137,1,161,0|8,3:2|3:2,0:0:0:0:
265,150,37592,1,2,3:0:0:0:
182,170,37814,6,0,L|181:4,1,161,0|8,3:2|3:2,0:0:0:0:
266,27,38480,2,0,L|447:25,1,161,2|2,3:0|3:0,0:0:0:0:
426,25,39147,1,8,3:2:0:0:
259,171,39592,6,0,L|147:177,2,80.5,0|2|8,3:2|3:0|3:2,0:0:0:0:
422,235,40480,2,0,L|428:58,1,161,0|8,3:2|3:2,0:0:0:0:
249,112,41369,6,0,L|71:132,1,161,0|8,3:2|3:2,0:0:0:0:
252,177,42258,2,0,L|257:78,1,80.5,0|8,3:2|3:2,0:0:0:0:
171,94,42703,2,0,L|166:-8,1,80.5,8|2,3:2|3:0,0:0:0:0:
264,35,43147,6,0,L|377:28,2,80.5,0|2|8,3:2|3:0|3:2,0:0:0:0:
95,220,44036,2,0,L|93:25,1,161,0|8,3:2|3:2,0:0:0:0:
256,73,44925,6,0,L|439:66,1,161,0|8,3:2|3:2,0:0:0:0:
336,140,45592,2,0,L|155:150,1,161,2|2,3:0|3:0,0:0:0:0:
175,148,46258,1,8,3:2:0:0:
359,149,46703,6,0,L|366:333,1,161,4|8,3:2|3:2,0:0:0:0:
277,323,47369,2,0,L|269:220,1,80.5,2|0,3:0|3:2,0:0:0:0:
357,174,47814,2,0,L|359:65,1,80.5,2|8,3:0|3:2,0:0:0:0:
188,73,48480,6,0,L|77:92,2,80.5,0|2|8,3:2|3:0|3:2,0:0:0:0:
285,75,49147,2,0,P|362:76|385:180,1,161,2|2,3:0|3:0,0:0:0:0:
314,189,49814,1,8,3:2:0:0:
140,126,50258,5,6,3:0:0:0:
140,126,50703,2,0,L|256:126,2,80.5,8|2|0,0:2|3:0|3:2,0:0:0:0:
60,118,51369,2,0,L|57:22,1,80.5,0|8,3:2|0:2,0:0:0:0:
217,215,52036,5,0,3:2:0:0:
217,215,52480,2,0,L|333:215,2,80.5,8|2|0,0:2|3:0|3:2,0:0:0:0:
137,207,53147,2,0,L|134:111,1,80.5,0|8,3:2|0:2,0:0:0:0:
303,169,53814,5,0,3:2:0:0:
303,169,54259,2,0,L|187:169,2,80.5,8|2|0,0:2|3:0|3:2,0:0:0:0:
383,161,54925,2,0,L|386:65,1,80.5,0|8,3:2|0:2,0:0:0:0:
297,66,55369,1,2,3:0:0:0:
215,80,55592,6,0,L|36:103,1,161,8|8,3:2|3:2,0:0:0:0:
218,65,56480,1,2,3:0:0:0:
302,49,56703,2,0,L|393:40,2,80.5,2|8|0,3:0|0:2|3:2,0:0:0:0:
214,94,57369,6,0,P|162:107|219:165,1,161,4|8,3:2|0:2,0:0:0:0:
300,125,58036,2,0,L|306:233,1,80.5,2|0,3:0|3:2,0:0:0:0:
152,172,58703,1,8,0:2:0:0:
71,147,58925,6,0,L|71:41,1,80.5,2|0,3:0|3:2,0:0:0:0:
168,49,59369,2,0,L|282:43,2,80.5,2|8|2,3:0|0:2|3:0,0:0:0:0:
84,181,60036,2,0,L|85:83,1,80.5,0|2,3:2|3:0,0:0:0:0:
173,65,60480,1,8,0:2:0:0:
341,71,60925,6,0,L|529:56,1,161,4|4,3:2|3:2,0:0:0:0:
334,74,61814,2,0,L|148:91,1,161,4|4,3:2|3:2,0:0:0:0:
329,90,62703,5,2,3:0:0:0:
362,91,62814,1,2,3:0:0:0:
379,119,62925,1,2,3:0:0:0:
365,149,63036,1,2,3:0:0:0:
332,154,63147,1,2,3:0:0:0:
257,158,63369,1,2,3:0:0:0:
113,94,63814,6,0,L|34:105,2,80.5,2|8|0,3:0|0:2|3:2,0:0:0:0:
202,80,64480,6,0,L|385:64,1,161,6|8,3:2|0:2,0:0:0:0:
446,75,65147,2,0,L|454:275,1,161,2|2,3:2|3:2,0:0:0:0:
272,202,66036,6,0,P|208:201|194:292,1,161,2|2,3:2|3:2,0:0:0:0:
269,289,66703,1,10,0:2:0:0:
355,248,66925,2,0,L|357:63,1,161,2|2,3:2|3:0,0:0:0:0:
269,63,67592,1,10,0:2:0:0:
104,83,68036,6,0,L|11:83,2,80.5,2|2|8,3:2|3:0|0:2,0:0:0:0:
191,78,68703,2,0,L|383:77,2,161,2|2|2,3:2|3:2|3:0,0:0:0:0:
104,87,69814,6,0,L|101:192,1,80.5,2|2,3:2|3:0,0:0:0:0:
274,176,70480,1,2,3:2:0:0:
274,176,70925,2,0,L|81:177,1,161,2|2,3:2|3:0,0:0:0:0:
32,247,71592,6,0,P|31:183|137:129,1,161,6|8,3:2|0:2,0:0:0:0:
192,121,72258,2,0,P|259:128|297:236,1,161,2|2,3:2|3:2,0:0:0:0:
141,270,73147,6,0,L|140:82,1,161,2|2,3:2|3:2,0:0:0:0:
227,65,73814,1,10,0:2:0:0:
315,58,74036,2,0,L|316:164,1,80.5,2|0,3:2|3:2,0:0:0:0:
237,177,74480,2,0,L|151:179,2,80.5,2|10|2,3:0|0:2|3:0,0:0:0:0:
325,176,75147,6,0,P|375:155|313:98,1,161,2|8,3:2|0:2,0:0:0:0:
244,88,75814,1,2,3:2:0:0:
94,131,76258,2,0,L|89:37,1,80.5,2|8,3:2|0:2,0:0:0:0:
248,47,76925,6,0,L|428:43,2,161,6|2|2,3:2|3:2|3:2,0:0:0:0:
161,124,78036,2,0,L|52:132,2,80.5,2|6|2,3:0|3:2|3:0,0:0:0:0:
260,116,78703,6,0,L|361:107,1,80.5,2|0,3:2|3:2,0:0:0:0:
260,116,79147,1,4,3:2:0:0:
166,204,79369,2,0,L|164:18,1,161,2|2,3:2|3:2,0:0:0:0:
320,41,80258,6,0,L|498:33,1,161,2|2,3:2|3:2,0:0:0:0:
404,102,80925,1,10,0:2:0:0:
317,97,81147,2,0,L|315:-4,1,80.5,2|0,3:2|3:2,0:0:0:0:
401,20,81592,2,0,L|490:18,2,80.5,2|10|2,3:0|0:2|3:0,0:0:0:0:
311,32,82258,6,0,P|252:33|237:131,1,161,6|8,3:2|0:2,0:0:0:0:
309,132,82925,1,2,3:2:0:0:
456,128,83369,2,0,L|461:233,1,80.5,2|8,3:2|0:2,0:0:0:0:
284,255,84036,6,0,L|97:253,1,161,2|8,3:2|0:2,0:0:0:0:
206,179,84703,1,2,3:2:0:0:
368,93,85147,2,0,L|454:88,2,80.5,2|8|2,3:2|0:2|3:0,0:0:0:0:
278,92,85814,6,0,P|214:90|173:195,1,161,6|8,3:2|0:2,0:0:0:0:
258,225,86480,2,0,L|257:395,1,161,2|2,3:2|3:2,0:0:0:0:
173,382,87147,1,8,0:2:0:0:
15,75,87592,6,0,L|200:72,1,161,2|2,3:2|3:2,0:0:0:0:
262,253,88258,5,2,3:2:0:0:
256,192,88592,12,0,89369,0:0:0:0:
