osu file format v14

[General]
AudioFilename: audio.mp3
AudioLeadIn: 0
PreviewTime: 63758
Countdown: 0
SampleSet: Soft
StackLeniency: 0.7
Mode: 0
LetterboxInBreaks: 0
WidescreenStoryboard: 0

[Editor]
Bookmarks: 535,8091,21869,36091,50313,64535,89424,103646,117869,132091,171202,185424,199646,238758,252980
DistanceSpacing: 0.5
BeatDivisor: 8
GridSize: 4
TimelineZoom: 3.099999

[Metadata]
Title:Kimi ga Yume o Tsuretekita
TitleUnicode:君が夢を連れてきた
Artist:Pet na Kanojotachi
ArtistUnicode:ペットな彼女たち
Creator:Natsume Shizuku
Version:Mashiro
Source:さくら荘のペットな彼女
Tags:sakurasou Sakura-sō sakura-so sakura-sou no pet petto girl of na kanojo anime 茅野愛衣 Ai Kayano 中津真莉子 Mari Mariko Nakatsu 高森奈津美 Natsumi Takamori pop jpop j-pop japanese First Opening 1 Sakura Hall Intro mashiro shiina sorata kanda nanami aoyama misaki kamiigusa
BeatmapID:4562915
BeatmapSetID:2163516

[Difficulty]
HPDrainRate:5
CircleSize:4
OverallDifficulty:7
ApproachRate:8.4
SliderMultiplier:1.7
SliderTickRate:1

[Events]
//Background and Video events
0,0,"sakura.jpg",0,0
//Break Periods
2,199846,206067
//Storyboard Layer 0 (Background)
//Storyboard Layer 1 (Fail)
//Storyboard Layer 2 (Pass)
//Storyboard Layer 3 (Foreground)
//Storyboard Layer 4 (Overlay)
//Storyboard Sound Samples

[TimingPoints]
535,444.444444444444,4,2,1,55,1,0
7201,-100,4,2,1,60,0,0
7423,-100,4,2,1,70,0,0
8090,-100,4,2,1,85,0,0
20090,-100,4,2,1,60,0,0
21312,-80,4,2,1,65,0,0
22312,-100,4,2,1,65,0,0
28312,-100,4,1,2,65,0,0
28534,-66.6666666666667,4,1,2,65,0,0
28646,-66.6666666666667,4,2,1,65,0,0
29423,-100,4,2,1,65,0,0
36090,-100,4,2,1,70,0,0
42534,-100,4,1,2,70,0,0
42868,-100,4,2,1,70,0,0
50312,-100,4,2,1,70,0,0
50423,-100,4,2,1,50,0,0
55646,-100,4,2,1,55,0,0
60979,-100,4,2,1,65,0,0
61868,-100,4,2,1,75,0,0
64534,-100,4,2,1,90,0,1
78757,-133.333333333333,4,2,1,90,0,0
78868,-100,4,2,1,5,0,0
78979,-133.333333333333,4,2,1,90,0,0
79090,-100,4,2,1,5,0,0
79201,-66.6666666666667,4,2,1,90,0,1
80312,-100,4,2,1,90,0,1
87646,-100,4,2,1,75,0,1
89423,-100,4,2,1,85,0,0
101868,-100,4,2,1,60,0,0
103646,-100,4,2,1,65,0,0
108090,-66.6666666666667,4,2,1,70,0,0
108979,-100,4,2,1,65,0,0
110757,-100,4,2,1,65,0,0
118312,-100,4,2,1,70,0,0
132534,-100,4,2,1,50,0,0
137423,-100,4,2,1,55,0,0
142757,-100,4,2,1,65,0,0
143646,-100,4,2,1,75,0,0
146312,-100,4,2,1,95,0,1
160534,-133.333333333333,4,2,1,95,0,0
160646,-100,4,2,1,5,0,0
160757,-133.333333333333,4,2,1,95,0,0
160868,-100,4,2,1,5,0,0
160979,-66.6666666666667,4,2,1,95,0,1
162090,-100,4,2,1,95,0,1
169423,-100,4,2,1,95,0,0
169534,-100,4,2,1,75,0,0
171201,-100,4,2,1,90,0,0
178312,-100,4,2,1,90,0,1
180757,-80,4,2,1,90,0,1
181868,-66.6666666666667,4,2,1,90,0,1
185423,-100,4,2,1,90,0,0
185868,-100,4,2,1,50,0,0
192534,-100,4,2,1,55,0,0
196090,-66.6666666666667,4,2,1,75,0,1
196312,-66.6666666666667,4,2,1,75,0,0
196534,-66.6666666666667,4,2,1,80,0,1
196757,-66.6666666666667,4,2,1,80,0,0
196979,-66.6666666666667,4,2,1,85,0,1
197201,-66.6666666666667,4,2,1,85,0,0
197423,-66.6666666666667,4,2,1,90,0,1
197646,-66.6666666666667,4,2,1,90,0,0
197868,-66.6666666666667,4,2,1,45,0,0
198979,-100,4,2,1,55,0,0
199646,-100,4,2,1,55,0,0
206757,-100,4,2,1,55,0,0
212757,-100,4,2,1,65,0,0
213423,-100,4,2,1,75,0,0
213868,-100,4,2,1,80,0,0
214312,-100,4,2,1,95,0,1
220979,-66.6666666666667,4,2,1,95,0,1
222757,-100,4,2,1,95,0,1
228090,-133.333333333333,4,2,1,95,0,0
228201,-100,4,2,1,5,0,0
228312,-133.333333333333,4,2,1,95,0,0
228423,-100,4,2,1,5,0,0
228534,-66.6666666666667,4,2,1,95,0,1
229868,-100,4,2,1,95,0,1
236979,-100,4,2,1,95,0,0
237090,-100,4,2,1,75,0,0
238312,-100,4,2,1,75,0,0
238757,-100,4,2,1,85,0,0
239201,-100,4,2,1,85,0,0
245423,-100,4,2,1,85,0,0
245868,-100,4,2,1,85,0,0
251201,-100,4,2,1,60,0,0
253423,-100,4,2,1,40,0,0
254312,-100,4,2,1,25,0,0
255201,-100,4,2,1,10,0,0
255646,-100,4,2,1,5,0,0

[Colours]
Combo1 : 192,129,129
Combo2 : 184,184,184
Combo3 : 253,188,149
Combo4 : 176,196,251
Combo5 : 252,160,236
Combo6 : 204,153,255

[HitObjects]
73,332,534,5,2,0:0:0:0:
256,243,979,1,0,0:0:0:0:
256,243,1646,5,2,0:0:0:0:
212,315,1868,1,2,0:0:0:0:
327,295,2090,1,0,0:0:0:0:
244,144,2312,5,2,0:0:0:0:
212,315,2757,1,0,0:0:0:0:
212,315,3423,5,2,0:0:0:0:
273,260,3646,1,2,0:0:0:0:
200,216,3868,1,0,0:0:0:0:
80,256,4090,6,0,P|64:216|64:168,1,85,2|0,0:0|0:0,0:0:0:0:
136,96,4534,2,0,L|224:112,1,85,2|0,0:0|0:0,0:0:0:0:
296,168,4979,1,2,0:0:0:0:
344,160,5201,1,0,0:0:0:0:
392,152,5423,1,2,0:0:0:0:
440,144,5646,1,0,0:0:0:0:
424,256,5868,5,2,0:0:0:0:
403,261,5979,1,2,0:0:0:0:
382,266,6090,1,2,0:0:0:0:
361,271,6201,1,2,0:0:0:0:
340,277,6312,1,2,0:0:0:0:
319,283,6423,1,2,0:0:0:0:
298,288,6534,1,2,0:0:0:0:
277,294,6646,1,2,0:0:0:0:
256,300,6757,5,2,3:0:0:0:
222,292,6868,1,2,3:0:0:0:
188,284,6979,1,2,3:0:0:0:
155,275,7090,1,2,3:2:0:0:
121,267,7201,1,10,2:2:0:0:
107,235,7312,1,10,2:2:0:0:
93,204,7423,1,10,0:0:0:0:
79,173,7534,1,10,2:0:0:0:
65,141,7646,1,14,0:0:0:0:
80,128,8090,6,0,P|119:147|168:152,1,85,10|0,2:2|0:0,0:0:0:0:
344,88,8534,2,0,P|305:69|256:64,1,85,2|0,3:0|0:0,0:0:0:0:
248,224,8979,1,10,0:0:0:0:
384,272,9201,1,2,0:0:0:0:
288,208,9423,1,2,3:0:0:0:
344,88,9646,1,2,0:0:0:0:
188,292,9868,6,0,P|164:256|160:208,1,85,10|2,0:0|0:0,0:0:0:0:
376,168,10312,2,0,B|412:232|360:280|360:280|392:336,1,170,2|10,3:2|0:0,0:0:0:0:
288,208,10979,1,0,0:0:0:0:
176,280,11201,1,2,3:2:0:0:
200,136,11423,1,2,0:0:0:0:
220,308,11646,1,10,0:0:0:0:
200,136,11868,1,2,0:0:0:0:
288,208,12090,5,2,3:2:0:0:
128,168,12312,1,2,0:0:0:0:
248,48,12534,1,8,0:0:0:0:
288,208,12757,1,2,0:0:0:0:
56,148,12979,2,0,P|128:140|152:140,1,85,2|2,3:2|0:0,0:0:0:0:
376,248,13423,2,0,P|344:296|232:288,1,170,8|2,0:0|3:0,0:0:0:0:
364,164,14090,2,0,P|361:121|355:79,1,85,2|8,3:0|0:0,0:0:0:0:
152,136,14534,5,0,3:0:0:0:
176,144,14646,1,0,3:0:0:0:
195,151,14757,1,6,3:2:0:0:
80,184,14979,5,2,0:0:0:0:
220,143,15201,1,8,2:0:0:0:
55,210,15423,1,2,0:0:0:0:
172,80,15646,1,2,3:2:0:0:
136,244,15868,1,2,0:0:0:0:
265,330,16090,2,0,P|318:331|360:320,1,85,8|2,0:0|0:0,0:0:0:0:
440,176,16534,1,2,3:0:0:0:
440,176,16979,6,0,P|440:128|424:88,1,85,8|0,0:0|0:0,0:0:0:0:
328,232,17423,2,0,P|297:195|259:174,1,85,2|2,3:0|0:0,0:0:0:0:
272,344,17868,2,0,P|224:335|182:344,1,85,8|2,0:0|0:0,0:0:0:0:
48,256,18312,1,2,3:0:0:0:
192,200,18534,1,2,0:0:0:0:
112,312,18757,1,8,2:0:0:0:
160,128,18979,1,0,0:0:0:0:
312,240,19201,5,2,3:0:0:0:
160,128,19423,1,2,0:0:0:0:
336,56,19646,1,8,0:0:0:0:
312,240,19868,1,2,0:0:0:0:
64,96,20090,5,2,3:0:0:0:
440,92,20534,1,2,3:0:0:0:
256,368,20979,1,2,3:0:0:0:
264,132,21312,5,8,0:0:0:0:
280,136,21423,2,0,P|336:128|392:136,1,106.25,8|4,0:0|3:0,0:0:0:0:
416,152,21757,1,8,0:0:0:0:
432,152,21868,1,6,3:2:0:0:
464,152,22312,6,0,P|456:200|464:248,1,85,2|0,3:0|0:0,0:0:0:0:
392,320,22757,2,0,P|384:264|368:152,1,170,2|0,3:0|3:0,0:0:0:0:
416,80,23423,1,0,0:0:0:0:
367,151,23646,5,2,3:0:0:0:
296,80,23868,1,2,0:0:0:0:
400,56,24090,1,2,3:0:0:0:
280,176,24312,6,0,B|240:176|216:136|216:136|200:184|224:224,1,170,2|2,0:0|0:0,0:0:0:0:
288,304,24979,1,0,3:0:0:0:
200,352,25201,1,2,0:0:0:0:
200,352,25312,1,0,0:0:0:0:
200,352,25423,1,2,3:0:0:0:
96,320,25646,1,2,0:0:0:0:
80,224,25868,2,0,P|80:168|88:136,1,85,2|0,3:0|0:0,0:0:0:0:
192,88,26312,2,0,P|192:144|184:176,1,85,2|0,3:0|0:0,0:0:0:0:
80,224,26757,1,0,3:0:0:0:
80,224,27201,5,2,3:0:0:0:
185,171,27423,1,0,0:0:0:0:
344,264,27646,1,2,3:0:0:0:
248,312,27868,2,0,P|232:232|248:136,1,170,2|10,0:0|0:0,0:0:0:0:
352,56,28534,6,0,B|304:72|304:72|256:48|256:48|216:72|152:56,1,191.250007295609,8|0,0:0|0:0,0:0:0:0:
104,16,28979,1,2,3:0:0:0:
88,128,29201,1,0,0:0:0:0:
208,160,29423,2,0,P|256:160|304:144,1,85,2|0,3:0|0:0,0:0:0:0:
408,256,29868,2,0,L|224:280,1,170,2|0,3:0|3:0,0:0:0:0:
239,277,30757,5,2,3:0:0:0:
344,184,30979,1,0,0:0:0:0:
200,136,31201,1,2,3:0:0:0:
288,48,31423,6,0,P|376:32|464:48,1,170,2|0,0:0|0:0,0:0:0:0:
416,144,32090,1,0,3:0:0:0:
303,127,32312,2,0,P|295:167|299:219,1,85,2|0,0:0|3:0,0:0:0:0:
384,312,32757,2,0,P|392:272|388:220,1,85,2|0,0:0|3:0,0:0:0:0:
298,211,33201,1,0,0:0:0:0:
472,320,33423,1,2,3:0:0:0:
424,128,33868,1,2,3:0:0:0:
216,184,34312,5,2,3:0:0:0:
304,168,34534,1,0,0:0:0:0:
360,232,34757,1,2,3:0:0:0:
264,248,34979,1,2,0:0:0:0:
112,176,35201,1,4,3:0:0:0:
168,344,35423,1,4,3:0:0:0:
168,344,35534,1,4,3:0:0:0:
168,344,35646,1,8,0:1:0:0:
168,344,36090,6,0,P|168:288|168:240,1,85,6|0,3:2|0:0,0:0:0:0:
64,80,36534,2,0,P|40:152|64:256,1,170,10|0,0:0|3:0,0:0:0:0:
160,160,37201,1,0,0:0:0:0:
272,216,37423,2,0,P|336:208|376:200,1,85,8|0,0:0|0:0,0:0:0:0:
432,112,37868,5,2,3:0:0:0:
328,128,38090,1,0,0:0:0:0:
352,288,38312,1,8,0:0:0:0:
456,280,38534,2,0,P|448:216|440:176,1,85,2|0,0:0|3:0,0:0:0:0:
456,280,38979,2,0,P|448:344|440:384,1,85,2|8,3:2|0:0,0:0:0:0:
344,192,39423,1,2,0:0:0:0:
336,160,39534,1,0,0:0:0:0:
328,128,39646,1,2,3:0:0:0:
240,216,39868,1,0,0:0:0:0:
136,160,40090,2,0,P|88:168|40:176,1,85,8|0,2:0|0:0,0:0:0:0:
84,82,40534,5,2,3:0:0:0:
172,66,40757,1,0,0:0:0:0:
252,98,40979,1,8,2:0:0:0:
292,178,41201,1,2,0:0:0:0:
286,187,41423,2,0,P|286:243|294:283,1,85,2|0,3:0|0:0,0:0:0:0:
136,160,41868,2,0,P|136:216|144:256,1,85,8|0,0:0|0:0,0:0:0:0:
372,112,42312,1,2,3:0:0:0:
380,240,42534,1,10,0:0:0:0:
220,176,42757,2,0,L|228:32,1,127.5,8|0,0:0|0:0,0:0:0:0:
144,16,43201,6,0,P|88:16|48:24,1,85,6|0,3:2|0:0,0:0:0:0:
227,48,43646,2,0,P|307:64|411:32,1,170,8|2,0:0|3:0,0:0:0:0:
480,112,44312,1,0,0:0:0:0:
404,236,44534,1,8,0:0:0:0:
404,236,44979,6,0,P|364:220|316:220,1,85,2|0,3:0|0:0,0:0:0:0:
348,308,45423,1,8,0:0:0:0:
256,152,45646,2,0,P|232:216|256:320,1,170,2|2,0:0|2:0,0:0:0:0:
322,218,46312,1,8,0:0:0:0:
192,216,46534,1,2,0:0:0:0:
112,104,46757,6,0,L|16:120,1,85,2|0,3:0|0:0,0:0:0:0:
256,152,47201,2,0,L|352:136,1,85,8|0,0:0|0:0,0:0:0:0:
144,204,47646,2,0,L|48:220,1,85,2|2,3:0|0:0,0:0:0:0:
300,252,48090,2,0,L|396:236,1,85,8|0,0:0|0:0,0:0:0:0:
224,128,48534,5,2,3:0:0:0:
200,280,48757,1,0,0:0:0:0:
328,360,48979,1,10,2:0:0:0:
352,216,49201,5,2,0:0:0:0:
176,192,49423,1,4,3:0:0:0:
288,48,49646,1,8,3:0:0:0:
288,48,49757,1,8,3:0:0:0:
288,48,49868,1,8,0:0:0:0:
448,120,50090,5,4,3:0:0:0:
412,127,50201,1,4,3:0:0:0:
376,134,50312,1,6,3:2:0:0:
96,176,50757,1,8,0:0:0:0:
344,104,51423,5,0,3:0:0:0:
152,184,51646,1,8,0:0:0:0:
216,80,51868,1,0,0:0:0:0:
288,208,52090,1,2,3:0:0:0:
48,328,52534,1,8,0:0:0:0:
240,200,53201,5,2,3:0:0:0:
104,320,53423,1,8,2:0:0:0:
120,224,53646,1,0,0:0:0:0:
256,280,53868,1,2,3:0:0:0:
464,144,54312,1,8,0:0:0:0:
296,280,54979,5,0,3:0:0:0:
416,152,55201,1,8,0:0:0:0:
416,272,55423,1,2,0:0:0:0:
288,168,55646,6,0,L|296:24,1,127.5,2|0,3:2|0:0,0:0:0:0:
248,136,56090,2,0,L|256:0,1,127.5,10|0,0:0|0:0,0:0:0:0:
208,104,56534,1,0,3:0:0:0:
200,184,56757,1,2,0:0:0:0:
112,168,56979,1,10,2:0:0:0:
128,48,57201,1,0,3:0:0:0:
328,72,57423,1,6,3:2:0:0:
300,272,57868,6,0,P|212:264|124:280,1,170,10|0,2:0|3:0,0:0:0:0:
45,249,58534,2,0,P|29:305|29:337,1,85,0|8,3:0|0:0,0:0:0:0:
132,278,58979,2,0,L|116:102,1,170,2|2,0:0|3:2,0:0:0:0:
173,174,59646,6,0,P|216:188|256:191,1,85,8|2,0:0|0:0,0:0:0:0:
316,128,60090,2,0,P|276:112|232:108,1,85,2|0,3:0|3:0,0:0:0:0:
328,292,60534,2,0,P|344:244|344:204,1,85,8|0,2:0|0:0,0:0:0:0:
160,88,60979,5,6,3:2:0:0:
264,203,61201,1,2,0:0:0:0:
394,82,61423,5,8,0:0:0:0:
264,203,61646,1,2,0:0:0:0:
407,330,61868,5,2,3:0:0:0:
264,203,62090,1,2,0:0:0:0:
112,360,62312,5,8,0:0:0:0:
264,203,62534,1,2,0:0:0:0:
256,192,62757,12,8,64090,0:0:0:0:
56,48,64534,6,0,P|144:72|232:48,1,170,6|8,3:2|0:0,0:0:0:0:
368,128,65201,2,0,P|376:184|376:224,1,85,2|0,0:0|3:0,0:0:0:0:
184,336,65646,2,0,P|176:280|176:240,1,85,2|8,0:0|0:0,0:0:0:0:
248,64,66090,1,2,0:0:0:0:
264,216,66312,1,2,3:0:0:0:
80,256,66534,1,2,0:0:0:0:
152,140,66757,1,8,0:0:0:0:
296,216,66979,5,0,0:0:0:0:
312,216,67090,1,0,0:0:0:0:
328,216,67201,2,0,P|384:224|424:216,1,85,0|2,3:0|0:0,0:0:0:0:
512,96,67646,2,0,P|456:88|416:96,1,85,8|2,0:0|0:0,0:0:0:0:
304,304,68090,5,2,3:0:0:0:
411,219,68312,1,2,0:0:0:0:
280,168,68534,1,8,0:0:0:0:
280,168,68757,1,2,0:0:0:0:
232,264,68979,5,0,3:0:0:0:
264,84,69201,1,2,0:0:0:0:
88,152,69423,1,8,0:0:0:0:
88,152,69646,1,2,0:0:0:0:
372,160,69868,6,0,L|380:64,1,85,2|2,3:2|0:0,0:0:0:0:
256,240,70312,2,0,L|264:144,1,85,8|2,0:0|0:0,0:0:0:0:
136,320,70757,2,0,L|144:224,1,85,0|2,3:0|0:0,0:0:0:0:
88,152,71201,5,8,0:0:0:0:
256,240,71423,1,2,0:0:0:0:
432,176,71646,2,0,P|456:112|432:8,1,170,6|8,3:2|0:0,0:0:0:0:
264,88,72312,1,2,0:0:0:0:
368,96,72534,1,0,3:0:0:0:
192,40,72757,1,2,0:0:0:0:
232,184,72979,1,8,0:0:0:0:
192,40,73201,1,2,0:0:0:0:
320,176,73423,6,0,P|328:232|320:280,1,85,2|0,3:0|0:0,0:0:0:0:
148,188,73868,2,0,P|204:180|252:188,1,85,8|2,0:0|0:0,0:0:0:0:
96,344,74312,2,0,P|88:288|96:240,1,85,0|2,3:0|0:0,0:0:0:0:
324,259,74757,1,8,0:0:0:0:
192,272,74979,1,2,0:0:0:0:
360,264,75201,5,2,3:2:0:0:
328,96,75423,1,2,0:0:0:0:
324,259,75646,1,8,0:0:0:0:
360,112,75868,1,2,2:0:0:0:
304,224,76090,1,0,3:0:0:0:
376,144,76312,1,2,0:0:0:0:
320,184,76534,1,8,0:0:0:0:
360,176,76757,1,2,0:0:0:0:
272,136,76979,5,6,3:2:0:0:
424,160,77201,1,2,0:0:0:0:
176,144,77423,5,12,0:0:0:0:
400,80,77646,1,2,0:0:0:0:
84,160,77868,5,0,3:2:0:0:
344,16,78090,1,2,0:0:0:0:
344,304,78312,1,10,0:0:0:0:
84,160,78534,1,2,2:0:0:0:
256,112,78757,2,0,L|256:168,1,31.8750012159348,2|0,3:0|0:0,0:0:0:0:
288,128,78979,2,0,L|288:184,1,31.8750012159348,2|0,3:2|0:0,0:0:0:0:
253,352,79201,6,0,P|221:272|261:104,1,255.000009727478,6|0,3:2|3:0,0:0:0:0:
480,144,79868,1,2,0:0:0:0:
352,186,80090,1,8,0:0:0:0:
240,40,80312,2,0,P|296:8|320:0,1,85,2|0,0:0|3:0,0:0:0:0:
216,192,80757,2,0,P|160:224|136:232,1,85,2|8,0:0|2:2,0:0:0:0:
176,104,81201,1,2,0:0:0:0:
296,128,81423,1,0,3:0:0:0:
184,352,81646,5,2,0:0:0:0:
140,230,81868,1,10,0:0:0:0:
272,256,82090,1,2,0:0:0:0:
384,344,82312,6,0,P|440:336|480:328,1,85,0|0,3:0|0:0,0:0:0:0:
496,176,82757,2,0,P|488:134|482:92,1,85,10|0,0:0|0:0,0:0:0:0:
482,92,83090,1,2,0:0:0:0:
482,92,83201,1,0,3:0:0:0:
252,184,83423,5,2,0:0:0:0:
424,224,83646,1,8,0:0:0:0:
252,184,83868,1,0,0:0:0:0:
272,8,84090,6,0,P|279:49|285:91,1,85,2|0,3:2|0:0,0:0:0:0:
252,184,84534,1,10,0:0:0:0:
312,312,84757,2,0,P|270:319|228:325,1,85,2|0,0:0|3:0,0:0:0:0:
376,168,85201,5,2,0:0:0:0:
252,184,85423,1,10,0:0:0:0:
152,320,85646,1,0,0:0:0:0:
33,328,85868,6,0,P|17:256|33:152,1,170,6|8,3:2|0:0,0:0:0:0:
144,152,86534,1,2,0:0:0:0:
256,56,86757,1,0,3:0:0:0:
256,56,86979,1,2,0:0:0:0:
372,152,87201,1,10,0:0:0:0:
481,172,87423,5,0,0:2:0:0:
481,172,87534,1,2,3:2:0:0:
481,172,87646,2,0,P|494:256|478:339,1,170,6|0,3:2|3:2,0:0:0:0:
374,355,88312,2,0,P|290:338|207:354,1,170,2|4,0:0|3:0,0:0:0:0:
209,354,88868,1,8,3:0:0:0:
209,354,88979,1,8,0:0:0:0:
107,248,89201,1,8,0:0:0:0:
127,253,89312,1,8,0:0:0:0:
147,258,89423,1,6,3:2:0:0:
182,265,89868,6,0,P|182:209|174:177,1,85,10|0,2:2|0:0,0:0:0:0:
80,40,90312,2,0,P|78:82|86:123,1,85,2|0,3:0|0:0,0:0:0:0:
264,216,90757,2,0,P|264:160|256:128,1,85,10|2,0:0|0:0,0:0:0:0:
86,123,91201,5,2,3:0:0:0:
104,216,91423,1,2,0:0:0:0:
208,100,91646,1,10,0:0:0:0:
86,123,91868,1,2,0:0:0:0:
232,236,92090,1,2,3:2:0:0:
208,100,92312,1,0,0:0:0:0:
232,236,92534,2,0,L|316:224,1,85,10|0,0:0|0:0,0:0:0:0:
476,207,92979,6,0,B|428:231|380:199|380:199|316:223,1,170,2|10,3:2|0:0,0:0:0:0:
208,100,93646,1,2,0:0:0:0:
364,116,93868,2,0,P|364:60|356:12,1,85,2|0,3:2|0:0,0:0:0:0:
239,127,94312,2,0,P|239:183|247:231,1,85,8|0,0:0|0:0,0:0:0:0:
376,288,94757,5,2,3:2:0:0:
242,211,94979,1,2,0:0:0:0:
144,316,95201,1,10,0:0:0:0:
242,211,95423,1,0,0:0:0:0:
96,148,95646,1,2,3:0:0:0:
216,48,95868,2,0,P|258:43|300:44,1,85,2|8,3:0|0:0,0:0:0:0:
440,136,96312,1,0,3:0:0:0:
440,136,96423,1,0,3:0:0:0:
440,136,96534,1,6,3:2:0:0:
440,136,96979,5,8,2:0:0:0:
320,120,97201,1,0,0:0:0:0:
308,224,97423,1,2,3:2:0:0:
428,240,97646,1,0,0:0:0:0:
416,344,97868,1,8,0:0:0:0:
296,328,98090,1,2,0:0:0:0:
320,120,98312,6,0,P|272:112|228:108,1,85,2|0,3:0|0:0,0:0:0:0:
120,192,98757,2,0,P|168:200|212:204,1,85,8|0,0:0|0:0,0:0:0:0:
240,24,99201,2,0,P|194:41|154:59,1,85,2|2,3:0|0:0,0:0:0:0:
200,288,99646,2,0,P|245:270|285:252,1,85,8|0,0:0|0:0,0:0:0:0:
388,68,100090,5,2,3:0:0:0:
320,120,100312,1,2,0:0:0:0:
376,180,100534,1,8,2:0:0:0:
444,132,100757,1,0,0:0:0:0:
388,68,100979,1,2,3:0:0:0:
240,80,101201,1,2,0:0:0:0:
240,80,101312,1,0,0:0:0:0:
240,80,101423,1,8,0:0:0:0:
256,316,101868,6,0,P|172:328|80:328,2,170,2|2|2,3:0|3:0|3:0,0:0:0:0:
400,192,103201,1,8,0:0:0:0:
88,192,103646,6,0,P|76:120|96:12,2,170,2|2|2,3:2|3:0|3:0,0:0:0:0:
160,240,104757,1,0,3:0:0:0:
160,240,104868,1,0,3:0:0:0:
160,240,104979,1,2,3:0:0:0:
472,136,105423,5,2,3:0:0:0:
392,108,105646,1,2,0:0:0:0:
308,124,105868,1,2,3:0:0:0:
256,192,106090,2,0,P|240:252|256:364,1,170,2|2,0:0|3:2,0:0:0:0:
344,288,106757,1,6,3:0:0:0:
440,248,106979,1,2,0:0:0:0:
456,248,107090,1,2,0:0:0:0:
468,248,107201,2,0,P|472:188|468:148,2,85,2|2|2,3:0|0:0|3:0,0:0:0:0:
468,248,108090,6,2,P|256:188|36:248,1,446.250017023087,2|2,3:0|0:0,0:1:0:0:
42,244,108979,2,0,P|38:184|42:144,2,85,2|0|2,3:0|0:0|3:0,0:0:0:0:
124,296,109646,5,2,0:0:0:0:
148,292,109757,1,2,0:0:0:0:
172,288,109868,1,2,0:0:0:0:
196,284,109979,1,2,0:0:0:0:
220,280,110090,1,10,0:0:0:0:
340,296,110312,1,8,0:0:0:0:
348,248,110423,1,0,3:0:0:0:
356,200,110534,2,0,L|352:164,2,21.25,0|0|2,3:0|3:0|3:0,0:0:0:0:
344,144,110757,6,0,P|268:144|248:144,1,85,6|0,3:2|0:0,0:0:0:0:
192,64,111201,2,0,P|268:64|288:64,1,85,2|0,3:0|0:0,0:0:0:0:
440,56,111646,2,0,P|464:128|440:232,1,170,2|0,3:0|3:0,0:0:0:0:
344,144,112312,1,0,0:0:0:0:
340,296,112534,2,0,L|248:344,2,85,2|0|2,3:0|0:0|3:0,0:0:0:0:
272,208,113201,2,0,P|188:188|92:220,1,170,2|0,0:0|0:0,0:0:0:0:
104,352,113868,1,2,3:2:0:0:
188,288,114090,1,2,0:0:0:0:
104,100,114312,5,0,3:0:0:0:
20,164,114534,1,2,0:0:0:0:
20,164,114646,1,2,0:0:0:0:
20,164,114757,1,0,3:0:0:0:
108,209,114979,1,2,0:0:0:0:
196,148,115201,2,0,L|280:136,1,85,2|0,3:0|0:0,0:0:0:0:
384,28,115646,2,0,L|300:40,1,85,2|0,3:0|0:0,0:0:0:0:
280,135,116090,5,2,3:0:0:0:
355,124,116312,1,0,0:0:0:0:
431,112,116534,1,2,3:0:0:0:
508,100,116757,1,2,0:0:0:0:
431,112,116979,1,4,3:0:0:0:
376,240,117201,5,4,3:0:0:0:
338,245,117312,1,4,3:0:0:0:
302,250,117423,1,10,2:0:0:0:
169,134,117646,1,8,3:0:0:0:
132,139,117757,1,8,0:0:0:0:
96,144,117868,1,6,3:2:0:0:
50,129,118312,6,0,P|42:185|50:217,1,85,10|0,0:0|0:0,0:0:0:0:
188,260,118757,2,0,L|200:76,1,170,0|8,3:0|0:0,0:0:0:0:
188,260,119646,5,2,3:0:0:0:
264,296,119868,1,0,0:0:0:0:
344,272,120090,1,8,0:0:0:0:
388,200,120312,2,0,P|404:104|384:32,1,170,2|2,0:0|3:2,0:0:0:0:
276,80,120979,1,8,0:0:0:0:
172,8,121201,5,2,0:0:0:0:
172,8,121312,1,0,0:0:0:0:
172,8,121423,1,2,3:0:0:0:
160,76,121646,1,0,0:0:0:0:
152,144,121868,2,0,L|140:240,1,85,8|0,2:0|0:0,0:0:0:0:
196,320,122312,6,0,P|152:336|108:344,2,85,2|0|8,3:0|0:0|2:0,0:0:0:0:
268,228,122979,1,2,0:0:0:0:
344,140,123201,2,0,P|335:98|320:58,1,85,2|0,3:0|0:0,0:0:0:0:
408,200,123646,2,0,P|421:159|428:117,1,85,10|0,0:0|0:0,0:0:0:0:
433,283,124090,2,0,P|464:254|491:222,1,85,0|0,3:0|3:0,0:0:0:0:
413,367,124534,2,0,P|454:358|494:343,1,85,10|0,0:0|0:0,0:0:0:0:
340,308,124979,6,0,P|260:288|172:312,1,170,6|8,3:2|0:0,0:0:0:0:
176,309,125646,1,0,0:0:0:0:
100,367,125868,2,0,P|78:285|98:203,1,170,2|8,3:0|0:0,0:0:0:0:
98,204,126757,5,2,3:0:0:0:
200,232,126979,1,0,0:0:0:0:
236,136,127201,1,8,0:0:0:0:
132,104,127423,2,0,P|184:40|268:32,1,170,2|2,0:0|2:0,0:0:0:0:
396,108,128090,2,0,L|392:208,1,85,8|2,0:0|0:0,0:0:0:0:
292,312,128534,6,0,P|304:236|288:132,1,170,2|8,3:0|0:0,0:0:0:0:
200,228,129201,1,0,0:0:0:0:
384,280,129423,2,0,P|428:276|484:284,1,85,2|2,3:0|0:0,0:0:0:0:
292,312,129868,2,0,P|248:316|192:308,1,85,8|0,0:0|0:0,0:0:0:0:
64,224,130312,5,2,3:0:0:0:
188,168,130534,1,0,0:0:0:0:
320,232,130757,1,10,2:0:0:0:
452,168,130979,1,2,0:0:0:0:
316,84,131201,1,4,3:0:0:0:
208,312,131423,5,8,3:0:0:0:
208,312,131534,1,8,3:0:0:0:
208,312,131646,1,8,0:0:0:0:
88,128,131868,1,4,3:0:0:0:
88,128,131979,1,4,3:0:0:0:
88,128,132090,1,6,3:2:0:0:
88,128,132534,6,0,P|168:148|256:124,1,170,8|0,0:0|3:0,0:0:0:0:
308,28,133201,1,2,3:0:0:0:
420,64,133423,1,8,0:0:0:0:
368,176,133646,1,2,0:0:0:0:
368,176,133757,1,0,0:0:0:0:
368,176,133868,1,2,3:0:0:0:
368,176,134312,6,0,P|344:256|372:348,2,170,10|2|10,0:0|3:0|2:0,0:0:0:0:
368,176,135646,2,0,P|288:192|184:188,1,170,2|8,3:0|0:0,0:0:0:0:
108,132,136312,1,0,0:0:0:0:
40,292,136534,2,0,P|120:276|224:280,1,170,2|8,3:0|0:0,0:0:0:0:
320,340,137201,1,2,0:0:0:0:
360,336,137312,1,0,0:0:0:0:
396,332,137423,2,0,P|404:280|404:232,1,85,2|0,3:2|0:0,0:0:0:0:
208,106,137868,2,0,P|200:158|200:206,1,85,10|0,0:0|0:0,0:0:0:0:
320,340,138312,5,0,3:0:0:0:
404,247,138534,1,2,0:0:0:0:
199,190,138757,1,10,2:0:0:0:
283,97,138979,1,0,3:0:0:0:
120,252,139201,6,0,P|172:288|283:248,1,170,6|2,3:2|0:2,0:0:0:0:
120,252,139868,1,0,3:0:0:0:
137,82,140090,2,0,L|117:270,1,170,8|0,2:0|0:0,0:0:0:0:
196,328,140757,5,2,0:0:0:0:
196,328,140868,1,0,0:0:0:0:
196,328,140979,1,2,3:0:0:0:
292,308,141201,1,10,0:2:0:0:
328,212,141423,2,0,L|336:120,1,85,2|2,3:0|3:0,0:0:0:0:
335,127,141868,1,10,2:0:0:0:
424,44,142090,2,0,L|416:136,1,85,2|0,2:0|3:0,0:0:0:0:
416,128,142757,5,6,3:2:0:0:
244,74,142979,1,2,0:0:0:0:
244,152,143201,5,8,0:0:0:0:
444,208,143423,1,2,0:0:0:0:
448,288,143646,5,2,3:0:0:0:
189,208,143868,1,2,0:0:0:0:
188,288,144090,5,8,0:0:0:0:
472,364,144312,1,2,0:0:0:0:
256,192,144534,12,0,145423,3:0:0:0:
117,66,145646,6,0,P|165:62|209:66,1,85,2|2,3:0|0:0,0:0:0:0:
157,254,146090,1,0,3:0:0:0:
157,254,146201,1,0,3:0:0:0:
157,254,146312,1,6,3:2:0:0:
153,150,146534,1,0,0:0:0:0:
333,206,146757,6,0,P|389:202|433:206,1,85,8|2,0:0|0:0,0:0:0:0:
381,326,147201,1,0,3:0:0:0:
253,262,147423,1,2,0:0:0:0:
289,114,147646,1,8,0:0:0:0:
253,262,147868,1,2,0:0:0:0:
153,150,148090,6,0,P|153:94|153:46,1,85,2|2,3:0|0:0,0:0:0:0:
51,248,148534,2,0,P|107:248|155:248,1,85,8|0,0:0|0:0,0:0:0:0:
388,200,148979,1,0,3:0:0:0:
232,160,149201,1,2,0:0:0:0:
276,312,149423,1,8,0:0:0:0:
408,184,149646,1,2,0:0:0:0:
424,180,149757,1,0,0:0:0:0:
440,176,149868,2,0,P|448:128|444:80,2,85,2|2|8,3:0|0:0|0:0,0:0:0:0:
304,132,150534,5,2,0:0:0:0:
384,316,150757,2,0,P|432:324|480:320,2,85,0|2|8,3:0|0:0|0:0,0:0:0:0:
440,176,151423,1,2,0:0:0:0:
268,308,151646,5,2,3:2:0:0:
304,132,151868,1,2,0:0:0:0:
384,316,152090,1,8,0:0:0:0:
112,244,152312,1,2,0:0:0:0:
304,44,152534,1,0,3:0:0:0:
288,220,152757,5,2,0:0:0:0:
212,124,152979,1,8,0:0:0:0:
304,44,153201,1,2,0:0:0:0:
304,44,153312,1,0,0:0:0:0:
304,44,153423,2,0,P|364:36|404:36,1,85,6|0,3:2|0:0,0:0:0:0:
212,124,153868,1,8,0:0:0:0:
472,104,154090,6,0,P|480:164|480:204,1,85,2|0,0:0|3:0,0:0:0:0:
300,275,154534,2,0,P|240:283|200:283,1,85,2|8,0:0|0:0,0:0:0:0:
48,196,154979,1,2,0:0:0:0:
48,196,155090,1,0,0:0:0:0:
48,196,155201,1,2,3:0:0:0:
184,176,155423,1,0,0:0:0:0:
136,356,155646,1,8,0:0:0:0:
184,176,155868,1,2,0:0:0:0:
300,275,156090,1,0,3:0:0:0:
363,148,156312,6,0,P|423:140|463:140,1,85,2|8,0:0|0:0,0:0:0:0:
416,264,156757,1,2,0:0:0:0:
268,180,156979,2,0,P|252:116|268:8,1,170,2|8,3:2|0:0,0:0:0:0:
360,108,157646,1,2,2:0:0:0:
180,200,157868,2,0,P|120:192|72:184,1,85,0|2,3:0|0:0,0:0:0:0:
172,52,158312,1,8,0:0:0:0:
268,180,158534,1,2,0:0:0:0:
164,304,158757,1,2,3:2:0:0:
164,304,159201,5,12,0:0:0:0:
404,360,159423,1,2,0:0:0:0:
120,312,159646,5,4,3:2:0:0:
360,252,159868,1,2,0:0:0:0:
76,320,160090,5,10,0:0:0:0:
256,60,160312,1,2,2:0:0:0:
400,344,160534,2,0,L|344:340,1,31.8750012159348,2|0,3:0|0:0,0:0:0:0:
344,364,160757,2,0,L|301:360,1,31.8750012159348,2|0,3:2|0:0,0:0:0:0:
136,208,160979,6,0,P|256:184|392:216,1,255.000009727478,6|0,3:2|3:0,0:0:0:0:
476,308,161646,1,2,0:0:0:0:
312,361,161868,1,8,0:0:0:0:
383,212,162090,2,0,P|387:156|379:116,1,85,2|0,0:0|3:0,0:0:0:0:
248,160,162534,1,2,0:0:0:0:
192,272,162757,1,8,2:2:0:0:
88,340,162979,2,0,P|24:340|-12:332,1,85,2|0,0:0|3:0,0:0:0:0:
52,228,163423,5,2,0:0:0:0:
248,160,163646,1,10,0:0:0:0:
52,228,163868,1,2,0:0:0:0:
136,36,164090,2,0,L|144:232,1,170,2|10,3:0|0:0,0:0:0:0:
316,368,164757,2,0,P|324:316|316:272,1,85,0|0,0:0|3:0,0:0:0:0:
248,160,165201,2,0,P|300:168|344:160,1,85,2|8,0:0|0:0,0:0:0:0:
331,163,165534,1,0,0:0:0:0:
331,163,165646,1,2,2:0:0:0:
496,80,165868,6,0,P|404:60|324:80,1,170,2|10,3:2|0:0,0:0:0:0:
248,160,166534,1,2,0:0:0:0:
424,144,166757,1,0,3:0:0:0:
352,372,166979,1,2,0:0:0:0:
232,264,167201,1,10,0:0:0:0:
460,244,167423,1,0,0:0:0:0:
248,160,167646,6,0,P|240:96|240:52,1,85,6|0,3:2|0:0,0:0:0:0:
376,104,168090,1,8,0:0:0:0:
232,264,168312,2,0,P|168:272|124:272,1,85,2|0,0:0|3:0,0:0:0:0:
72,156,168757,5,2,0:0:0:0:
320,184,168979,1,10,0:0:0:0:
172,364,169201,1,0,0:2:0:0:
72,156,169423,1,6,3:2:0:0:
256,192,169534,12,8,170757,0:0:0:0:
60,216,171201,6,0,P|68:120|208:144,1,255,6|2,3:2|0:0,0:0:0:0:
208,168,171979,1,2,0:0:0:0:
188,204,172090,1,0,3:0:0:0:
140,272,172312,1,2,0:0:0:0:
144,316,172423,1,2,0:0:0:0:
148,360,172534,1,8,2:0:0:0:
232,356,172757,1,2,0:0:0:0:
408,304,172979,6,0,L|240:272,1,170,2|8,3:2|0:0,0:0:0:0:
54,205,173646,2,0,B|98:222|98:222|227:195,1,170,2|2,2:2|0:0,0:0:0:0:
195,76,174312,1,8,0:0:0:0:
329,51,174534,1,2,0:0:0:0:
388,220,174757,2,0,L|292:200,1,85,2|2,3:2|0:0,0:0:0:0:
218,196,175201,1,8,0:0:0:0:
70,295,175423,2,0,L|242:275,1,170,2|0,0:0|0:0,0:0:0:0:
388,220,176090,2,0,L|292:200,1,85,10|2,0:0|0:0,0:0:0:0:
218,196,176534,5,0,3:2:0:0:
328,304,176757,1,2,0:0:0:0:
319,123,176979,1,8,0:0:0:0:
414,317,177201,1,2,0:0:0:0:
445,114,177423,1,0,3:0:0:0:
440,71,177534,1,0,3:0:0:0:
435,28,177646,1,2,3:0:0:0:
319,123,177868,2,0,L|229:110,1,85,8|2,2:0|0:0,0:0:0:0:
40,182,178312,5,6,3:2:0:0:
69,178,178423,1,2,3:0:0:0:
98,173,178534,1,4,3:0:0:0:
127,169,178646,1,4,3:0:0:0:
160,109,178757,5,10,2:0:0:0:
126,114,178868,1,0,3:0:0:0:
92,119,178979,1,2,3:0:0:0:
58,124,179090,1,2,3:0:0:0:
61,157,179201,1,10,2:0:0:0:
64,190,179312,1,0,3:0:0:0:
68,223,179423,2,0,L|78:296,1,42.5,4|4,3:3|3:3,0:0:0:0:
166,303,179646,1,8,0:0:0:0:
200,307,179757,1,2,3:0:0:0:
233,313,179868,2,0,L|306:323,1,42.5,2|2,3:0|3:0,0:0:0:0:
405,259,180090,5,10,0:0:0:0:
368,255,180201,1,2,0:0:0:0:
369,218,180312,1,8,3:0:0:0:
405,219,180423,1,10,3:0:0:0:
408,182,180534,1,10,0:0:0:0:
371,176,180646,1,2,3:0:0:0:
372,138,180757,6,2,B|300:73|300:73|258:188,1,212.5,6|2,3:2|3:2,2:1:0:0:
163,268,181423,5,10,2:0:0:0:
166,229,181534,1,2,3:0:0:0:
169,190,181646,1,4,3:0:0:0:
173,151,181757,1,8,3:0:0:0:
177,113,181868,2,2,B|247:87|247:87|349:106|349:106|442:71,1,255.000009727478,6|8,3:2|0:0,0:1:0:0:
335,271,182534,2,2,B|265:297|265:297|163:278|163:278|70:313,1,255.000009727478,2|2,2:0|2:0,2:1:0:0:
258,202,183201,2,0,L|258:65,1,127.500004863739,10|0,0:0|0:0,0:0:0:0:
128,128,183646,5,6,3:2:0:0:
384,128,183868,1,2,0:0:0:0:
257,315,184090,1,10,0:0:0:0:
144,268,184312,2,2,P|238:223|381:274,1,255.000009727478,2|0,0:0|0:0,2:1:0:0:
257,346,184979,2,0,L|257:295,8,31.8750012159348,2|2|2|2|2|2|2|2|6,3:0|0:0|0:0|0:0|0:0|0:0|0:2|0:0|3:2,0:0:0:0:
256,57,185868,5,8,0:0:0:0:
256,57,186534,5,0,3:0:0:0:
325,110,186757,1,8,0:0:0:0:
246,141,186979,1,0,0:0:0:0:
102,86,187201,1,2,3:0:0:0:
325,110,187646,1,8,0:0:0:0:
325,110,188312,5,2,3:0:0:0:
408,99,188534,1,8,2:0:0:0:
325,110,188757,1,0,0:0:0:0:
200,256,188979,1,2,3:0:0:0:
392,300,189423,1,8,0:0:0:0:
392,300,190090,5,0,3:0:0:0:
360,220,190312,1,8,0:0:0:0:
280,256,190534,1,2,0:0:0:0:
198,366,190757,6,0,P|183:282|202:224,1,127.5,2|0,3:2|0:0,0:0:0:0:
101,213,191201,6,0,P|185:198|243:217,1,127.5,10|0,0:0|0:0,0:0:0:0:
242,101,191646,5,0,3:0:0:0:
273,217,191868,1,2,0:0:0:0:
101,213,192090,1,10,2:0:0:0:
242,101,192312,1,0,3:0:0:0:
368,136,192534,6,0,P|384:192|360:304,1,170,6|10,3:2|2:0,0:0:0:0:
273,217,193201,1,0,0:0:0:0:
208,328,193423,2,0,P|128:312|40:328,2,170,0|8|0,3:0|0:0|3:0,0:0:0:0:
208,328,194757,5,8,0:0:0:0:
272,256,194979,1,2,0:0:0:0:
256,352,195201,5,2,3:0:0:0:
232,200,195423,1,0,3:0:0:0:
384,256,195646,1,8,2:0:0:0:
384,256,196090,6,0,P|392:168|384:120,1,127.500004863739,6|2,3:2|0:0,0:0:0:0:
129,349,196534,6,0,P|217:357|265:349,1,127.500004863739,12|2,0:0|0:0,0:0:0:0:
320,56,196979,6,0,P|256:47|193:53,1,127.500004863739,6|2,3:2|0:0,0:0:0:0:
255,351,197423,6,0,P|343:359|391:351,1,127.500004863739,12|2,0:0|0:0,0:0:0:0:
464,272,197868,5,2,0:0:0:0:
462,259,197979,1,2,0:0:0:0:
460,246,198090,1,2,0:0:0:0:
458,233,198201,1,2,0:0:0:0:
457,220,198312,1,2,0:0:0:0:
456,207,198423,1,2,0:0:0:0:
455,194,198534,1,2,0:0:0:0:
454,181,198646,1,2,0:0:0:0:
453,168,198757,1,2,0:0:0:0:
349,246,198979,5,2,0:0:0:0:
381,353,199201,1,10,0:0:0:0:
464,272,199423,1,4,3:0:0:0:
256,192,199646,5,6,3:2:0:0:
56,312,206757,6,0,P|136:336|232:304,1,170,6|8,3:2|0:0,0:0:0:0:
264,232,207423,1,2,0:0:0:0:
264,232,207868,5,2,3:0:0:0:
232,152,208090,1,8,0:0:0:0:
320,168,208312,1,2,0:0:0:0:
320,168,208534,2,0,L|496:152,1,170,0|8,3:0|0:0,0:0:0:0:
424,80,209201,2,0,P|392:168|448:240,1,170,2|0,0:0|3:0,0:0:0:0:
480,296,209868,1,10,2:2:0:0:
416,360,210090,1,2,0:0:0:0:
296,312,210312,2,0,P|288:232|296:128,1,170,2|8,3:2|0:0,0:0:0:0:
320,48,210979,1,2,0:0:0:0:
320,48,211423,5,2,3:0:0:0:
232,64,211646,1,8,0:0:0:0:
144,80,211868,1,0,0:0:0:0:
40,168,212090,6,0,B|192:152|136:200|296:184,1,255,6|0,3:2|0:0,0:0:0:0:
292,184,212868,1,0,3:0:0:0:
292,184,212979,1,8,0:0:0:0:
384,136,213201,1,8,0:0:0:0:
416,136,213312,1,8,0:0:0:0:
448,136,213423,1,2,3:2:0:0:
404,260,213646,5,0,3:2:0:0:
396,296,213757,1,8,0:0:0:0:
408,328,213868,1,2,3:2:0:0:
488,292,214090,1,0,3:0:0:0:
298,190,214312,6,0,P|292:138|298:77,1,85,6|2,3:2|0:0,0:0:0:0:
348,0,214757,1,0,3:0:0:0:
384,168,214979,1,2,0:0:0:0:
208,112,215201,1,8,0:0:0:0:
144,240,215423,2,0,P|96:248|56:248,1,85,2|2,0:0|3:0,0:0:0:0:
92,136,215868,1,2,0:0:0:0:
272,280,216090,5,8,0:0:0:0:
144,240,216312,1,0,0:0:0:0:
304,240,216534,1,0,3:0:0:0:
184,256,216757,1,2,0:0:0:0:
304,136,216979,1,8,0:0:0:0:
368,304,217201,1,2,0:0:0:0:
376,312,217312,1,0,0:0:0:0:
384,320,217423,2,0,P|432:328|472:328,1,85,2|2,3:0|0:0,0:0:0:0:
304,240,217868,1,8,0:0:0:0:
440,152,218090,1,2,0:0:0:0:
240,328,218312,6,0,P|200:264|232:160,1,170,0|8,3:0|0:0,0:0:0:0:
352,104,218979,1,2,0:0:0:0:
208,16,219201,5,2,3:2:0:0:
304,240,219423,1,0,0:0:0:0:
152,112,219646,1,8,0:0:0:0:
344,200,219868,1,2,0:0:0:0:
160,272,220090,2,0,P|96:272|64:264,1,85,0|2,3:0|0:0,0:0:0:0:
152,112,220534,1,8,0:0:0:0:
424,168,220757,1,2,0:0:0:0:
299,368,220979,6,0,P|275:264|299:176,1,191.250007295609,6|0,3:2|0:0,0:0:0:0:
352,128,221423,1,8,0:0:0:0:
384,272,221646,5,2,0:0:0:0:
208,200,221868,1,0,3:0:0:0:
232,336,222090,5,2,0:0:0:0:
104,160,222312,1,8,0:0:0:0:
72,320,222534,5,2,0:0:0:0:
208,200,222757,2,0,P|208:120|200:88,1,85,2|0,3:0|0:0,0:0:0:0:
16,40,223201,2,0,P|16:120|24:152,1,85,8|2,0:0|0:0,0:0:0:0:
312,80,223646,2,0,P|242:40|211:30,1,85,0|2,3:0|0:0,0:0:0:0:
208,200,224090,1,8,0:0:0:0:
398,165,224312,1,2,0:0:0:0:
96,224,224534,1,2,3:2:0:0:
96,224,224979,5,8,0:0:0:0:
124,108,225201,1,2,2:0:0:0:
208,196,225423,1,0,3:0:0:0:
96,224,225646,5,2,0:0:0:0:
56,40,225868,1,8,0:0:0:0:
240,16,226090,1,2,0:0:0:0:
264,200,226312,2,0,P|320:216|360:216,1,85,2|2,3:2|0:0,0:0:0:0:
346,216,226646,1,0,0:0:0:0:
346,216,226757,1,8,0:0:0:0:
472,179,226979,5,2,0:0:0:0:
466,149,227090,1,2,0:0:0:0:
462,119,227201,1,10,3:0:0:0:
458,89,227312,1,8,3:0:0:0:
455,59,227423,1,10,3:0:0:0:
264,200,227646,1,10,0:0:0:0:
484,328,227868,1,2,2:0:0:0:
455,59,228090,2,0,L|406:50,1,31.8750012159348,2|0,3:0|0:0,0:0:0:0:
448,8,228312,2,0,L|399:-1,1,31.8750012159348,2|0,3:2|0:0,0:0:0:0:
140,173,228534,6,0,P|228:197|404:169,1,255.000009727478,6|0,3:2|3:0,0:0:0:0:
208,112,229201,1,2,0:0:0:0:
232,296,229423,1,10,0:0:0:0:
208,112,229646,1,2,0:0:0:0:
368,280,229868,2,0,P|374:324|372:364,1,85,2|2,3:0|0:0,0:0:0:0:
304,192,230312,5,8,0:0:0:0:
440,224,230534,1,2,0:0:0:0:
392,52,230757,2,0,P|349:48|308:52,1,85,0|2,3:0|0:0,0:0:0:0:
200,168,231201,1,10,0:0:0:0:
72,80,231423,1,2,0:0:0:0:
40,280,231646,5,0,3:0:0:0:
200,168,231868,1,0,0:0:0:0:
72,320,232090,1,10,0:0:0:0:
112,184,232312,1,0,0:0:0:0:
216,288,232534,1,0,3:0:0:0:
112,184,232757,1,2,0:0:0:0:
300,288,232979,2,0,P|220:288|180:280,1,85,8|0,0:0|0:0,0:0:0:0:
368,48,233423,5,2,3:2:0:0:
232,184,233646,1,0,0:0:0:0:
424,240,233868,1,10,0:0:0:0:
316,112,234090,2,0,P|228:96|136:116,1,170,2|2,0:0|0:0,0:0:0:0:
36,256,234757,2,0,P|84:264|132:256,1,85,10|0,0:0|0:0,0:0:0:0:
192,24,235201,5,6,3:2:0:0:
80,160,235423,1,0,0:0:0:0:
356,264,235646,1,10,2:0:0:0:
176,308,235868,1,2,0:0:0:0:
356,96,236090,1,2,3:0:0:0:
328,340,236312,1,2,0:0:0:0:
119,259,236534,1,10,0:0:0:0:
256,184,236757,1,0,3:2:0:0:
256,184,236868,1,2,3:2:0:0:
256,184,236979,1,6,3:2:0:0:
256,192,237090,12,8,238312,0:0:0:0:
256,192,238534,5,8,0:0:0:0:
256,192,238646,1,8,0:0:0:0:
256,192,238757,1,6,3:2:0:0:
144,208,238979,1,0,0:0:0:0:
368,176,239201,2,0,P|384:112|384:80,1,85,10|0,2:2|0:0,0:0:0:0:
144,208,239646,2,0,P|128:272|128:304,1,85,2|0,3:0|0:0,0:0:0:0:
304,80,240090,5,10,0:0:0:0:
176,112,240312,1,2,0:0:0:0:
352,280,240534,1,2,3:0:0:0:
224,312,240757,1,2,0:0:0:0:
296,164,240979,2,0,L|304:76,1,85,10|2,0:0|0:0,0:0:0:0:
48,224,241423,6,0,B|104:248|152:184|152:184|216:216,1,170,2|10,3:2|0:0,0:0:0:0:
368,280,242090,1,0,0:0:0:0:
400,272,242201,1,0,0:0:0:0:
432,264,242312,1,2,3:2:0:0:
296,232,242534,5,2,0:0:0:0:
248,96,242757,1,10,0:0:0:0:
296,232,242979,1,2,0:0:0:0:
400,128,243201,2,0,L|392:32,1,85,2|2,3:2|0:0,0:0:0:0:
296,232,243646,2,0,L|304:328,1,85,8|2,0:0|0:0,0:0:0:0:
208,132,244090,6,0,P|144:120|28:144,1,170,2|8,3:2|0:0,0:0:0:0:
128,220,244757,1,0,0:0:0:0:
172,40,244979,1,2,3:0:0:0:
240,264,245201,1,2,3:0:0:0:
424,160,245423,5,8,2:0:0:0:
396,148,245534,1,8,3:0:0:0:
368,144,245646,1,0,3:0:0:0:
340,148,245757,1,0,3:0:0:0:
312,156,245868,1,6,3:2:0:0:
368,240,246090,1,2,0:0:0:0:
220,280,246312,6,0,P|212:328|216:372,1,85,8|2,2:0|0:0,0:0:0:0:
312,156,246757,2,0,P|320:108|316:64,1,85,2|2,3:2|0:0,0:0:0:0:
124,136,247201,1,8,0:0:0:0:
228,112,247423,1,0,0:0:0:0:
80,224,247646,5,2,3:0:0:0:
228,112,247868,1,0,0:0:0:0:
372,228,248090,2,0,L|472:228,1,85,8|0,0:0|0:0,0:0:0:0:
228,112,248534,2,0,P|188:200|232:264,1,170,2|8,3:0|0:0,0:0:0:0:
368,128,249201,1,0,0:0:0:0:
371,107,249312,1,0,0:0:0:0:
367,86,249423,1,2,3:0:0:0:
296,168,249646,5,2,0:0:0:0:
456,116,249868,1,8,2:0:0:0:
320,0,250090,1,0,0:0:0:0:
221,256,250312,5,2,3:0:0:0:
296,168,250534,1,2,0:0:0:0:
172,148,250757,1,8,0:0:0:0:
221,256,250979,1,2,0:0:0:0:
384,148,251201,6,0,P|300:128|216:148,2,170,2|2|2,3:0|3:0|3:0,0:0:0:0:
440,224,252312,1,2,0:0:0:0:
440,240,252423,1,2,0:0:0:0:
440,256,252534,1,0,3:0:0:0:
356,328,252757,2,0,B|312:336|264:328,1,85,2|0,0:0|0:2,0:0:0:0:
256,192,253090,12,0,255646,0:0:0:0:
