osu file format v14

[General]
AudioFilename: audio.mp3
AudioLeadIn: 0
PreviewTime: 30855
Countdown: 1
SampleSet: None
StackLeniency: 0.7
Mode: 1
LetterboxInBreaks: 1
StoryFireInFront: 0
CountdownOffset: 1
WidescreenStoryboard: 0

[Editor]
Bookmarks: 32203,56987,64487,81112,87737,95987,128578,161112,176862,224737
DistanceSpacing: 1.8
BeatDivisor: 4
GridSize: 4
TimelineZoom: 1.4

[Metadata]
Title:Venger [Instrumental]
TitleUnicode:Venger [Instrumental]
Artist:Perturbator
ArtistUnicode:Perturbator
Creator:Michal990909
Version:Normal
Source:The Uncanny Valley - 2016
Tags:perturbator venger instrumental techno electronic The Uncanny Valley osu song
BeatmapID:1930230
BeatmapSetID:922456

[Difficulty]
HPDrainRate:6.3
CircleSize:4.8
OverallDifficulty:6.4
ApproachRate:6.5
SliderMultiplier:1.5
SliderTickRate:2

[Events]
//Background and Video events
0,0,"CQX56Ix.jpg",0,0
//Break Periods
//Storyboard Layer 0 (Background)
//Storyboard Layer 1 (Fail)
//Storyboard Layer 2 (Pass)
//Storyboard Layer 3 (Foreground)
//Storyboard Sound Samples

[TimingPoints]
21737,500,4,2,1,100,1,0
56953,-100,4,2,1,90,0,0
64203,-100,4,2,1,100,0,0
80953,-100,4,2,1,100,0,0
95987,-90.9090909090909,4,2,1,100,0,1
128612,-100,4,2,1,100,0,0
160987,-100,4,2,1,100,0,1
176862,-100,4,2,1,100,0,0
192237,-100,4,2,1,100,0,1
224737,-100,4,2,1,100,0,0

[Colours]
Combo1 : 255,128,0
Combo2 : 61,157,228
Combo3 : 245,18,18
Combo4 : 255,21,255
Combo5 : 57,244,62

[HitObjects]
139,150,31487,5,0,0:0:0:0:
139,150,32737,1,0,0:0:0:0:
139,150,33237,1,8,0:0:0:0:
139,150,33737,1,0,0:0:0:0:
213,156,34237,1,0,0:0:0:0:
318,130,34737,1,8,0:0:0:0:
347,190,35237,1,0,0:0:0:0:
407,140,35737,1,8,0:0:0:0:
280,96,36237,1,0,0:0:0:0:
248,168,36737,1,8,0:0:0:0:
188,101,37237,1,0,0:0:0:0:
159,171,37737,1,8,0:0:0:0:
120,111,38237,1,0,0:0:0:0:
88,162,38737,1,8,0:0:0:0:
57,83,39237,1,0,0:0:0:0:
231,82,39737,1,8,0:0:0:0:
232,180,40237,1,0,0:0:0:0:
326,97,40737,1,8,0:0:0:0:
323,207,41237,1,0,0:0:0:0:
387,113,41737,1,8,0:0:0:0:
235,194,42237,1,0,0:0:0:0:
231,104,42737,1,8,0:0:0:0:
167,178,43237,1,0,0:0:0:0:
159,94,43737,1,8,0:0:0:0:
113,183,44237,1,0,0:0:0:0:
96,99,44737,1,8,0:0:0:0:
203,181,45237,1,0,0:0:0:0:
255,109,45737,1,8,0:0:0:0:
265,210,46237,1,0,0:0:0:0:
316,118,46737,1,8,0:0:0:0:
199,199,47237,1,0,0:0:0:0:
203,126,47737,1,8,0:0:0:0:
154,202,48237,1,0,0:0:0:0:
136,129,48737,1,8,0:0:0:0:
206,202,49237,1,0,0:0:0:0:
264,137,49737,1,8,0:0:0:0:
318,197,50237,1,0,0:0:0:0:
368,140,50737,1,8,0:0:0:0:
265,131,51237,1,0,0:0:0:0:
258,204,51737,1,0,0:0:0:0:
190,138,52237,1,0,0:0:0:0:
176,208,52737,1,0,0:0:0:0:
127,144,53237,1,0,0:0:0:0:
263,132,53737,1,0,0:0:0:0:
356,141,54237,1,0,0:0:0:0:
355,220,54737,1,8,0:0:0:0:
281,133,55237,1,0,0:0:0:0:
203,190,55737,1,8,0:0:0:0:
173,122,56237,1,0,0:0:0:0:
140,209,56737,1,8,0:0:0:0:
240,145,57237,1,0,0:0:0:0:
239,237,57737,1,8,0:0:0:0:
321,146,58237,1,0,0:0:0:0:
336,233,58737,1,8,0:0:0:0:
