osu file format v14

[General]
AudioFilename: audio.mp3
AudioLeadIn: 0
PreviewTime: 30855
Countdown: 1
SampleSet: Soft
StackLeniency: 0.7
Mode: 0
LetterboxInBreaks: 1
StoryFireInFront: 0
CountdownOffset: 1
WidescreenStoryboard: 1

[Editor]
Bookmarks: 32203,56987,64487,81112,87737,95987,128578,161112,176862,224737
DistanceSpacing: 1.8
BeatDivisor: 4
GridSize: 4
TimelineZoom: 1.4

[Metadata]
Title:Venger [Instrumental]
TitleUnicode:Venger [Instrumental]
Artist:Perturbator
ArtistUnicode:Perturbator
Creator:Michal990909
Version:Hard
Source:The Uncanny Valley - 2016
Tags:perturbator venger instrumental techno electronic The Uncanny Valley osu song
BeatmapID:1926346
BeatmapSetID:922456

[Difficulty]
HPDrainRate:6.4
CircleSize:4.7
OverallDifficulty:7.1
ApproachRate:7.2
SliderMultiplier:1.5
SliderTickRate:2

[Events]
//Background and Video events
0,0,"CQX56Ix.jpg",0,0
//Break Periods
2,56937,64262
2,80936,87262
//Storyboard Layer 0 (Background)
//Storyboard Layer 1 (Fail)
//Storyboard Layer 2 (Pass)
//Storyboard Layer 3 (Foreground)
//Storyboard Sound Samples

[TimingPoints]
21737,500,4,2,1,100,1,0
56953,-100,4,2,1,90,0,0
64203,-100,4,2,1,100,0,0
80953,-100,4,2,1,100,0,0
95987,-90.9090909090909,4,2,1,100,0,1
128612,-100,4,2,1,100,0,0
160987,-100,4,2,1,100,0,1
176862,-100,4,2,1,100,0,0
192237,-100,4,2,1,100,0,1
224737,-100,4,2,1,100,0,0

[Colours]
Combo1 : 255,128,0
Combo2 : 61,157,228
Combo3 : 245,18,18
Combo4 : 255,21,255
Combo5 : 57,244,62

[HitObjects]
163,188,32737,6,0,P|124:115|171:78,1,150,0|4,0:0|0:0,0:0:0:0:
288,134,33487,1,0,0:0:0:0:
400,58,33737,1,8,0:0:0:0:
144,71,34237,6,0,B|147:69|95:88|61:144,1,112.5
63,211,34737,1,2,0:0:0:0:
197,211,34987,1,0,0:0:0:0:
225,79,35237,2,0,L|300:79,1,75
327,211,35737,1,4,0:0:0:0:
57,227,36237,6,0,P|42:155|78:91,1,150,0|2,0:3|0:3,0:3:0:0:
206,48,36987,1,2,0:0:0:0:
339,69,37237,1,0,0:0:0:0:
256,175,37487,1,0,0:0:0:0:
123,149,37737,1,8,0:0:0:0:
389,189,38237,6,0,P|376:223|346:244,1,75
278,247,38612,1,2,0:0:0:0:
315,303,38737,1,0,0:0:0:0:
180,301,38987,1,0,0:0:0:0:
153,168,39237,2,0,B|109:188|81:156|81:156,1,75,0|8,0:0|0:0,0:0:0:0:
34,32,39737,1,8,0:0:0:0:
168,32,39987,1,0,0:0:0:0:
266,124,40237,2,0,P|338:116|310:68,1,150,0|8,0:0|0:0,0:0:0:0:
111,239,41237,6,0,L|181:214,1,75
316,210,41737,1,4,0:0:0:0:
53,146,42237,2,8,P|39:76|96:33,1,150
230,30,42987,1,2,0:0:0:0:
360,63,43237,2,0,P|316:47|296:71,1,75,0|8,0:0|0:0,0:0:0:0:
300,134,43612,1,0,0:0:0:0:
267,193,43737,1,2,0:0:0:0:
400,210,43987,1,4,0:0:0:0:
60,293,44237,6,0,P|163:252|157:240,1,150,0|4,0:0|2:0,0:0:0:0:
90,158,44987,1,0,0:0:0:0:
212,215,45237,1,0,0:0:0:0:
175,85,45487,1,0,0:0:0:0:
302,129,45737,1,8,2:0:0:0:
111,320,46237,6,0,B|43:353|43:353|33:273,1,150
227,90,47237,2,0,B|172:34|172:34|135:103,1,150
307,307,48237,2,0,B|379:331|379:331|391:255,1,150
232,38,49237,6,0,L|154:90,1,75
304,81,49737,1,8,0:0:0:0:
150,303,50237,6,0,P|88:334|45:280,1,150,0|8,0:0|0:0,0:0:0:0:
49,144,50987,1,0,0:0:0:0:
182,165,51237,2,0,L|138:226,1,75,2|0,0:0|0:0,0:0:0:0:
204,239,51612,1,0,0:0:0:0:
242,294,51737,1,0,0:0:0:0:
288,167,51987,1,4,0:0:0:0:
389,255,52237,6,0,P|457:191|454:137,1,150
357,45,52987,1,0,0:0:0:0:
222,48,53237,2,0,L|222:136,1,75
354,149,53737,1,12,0:0:0:0:
101,245,54237,6,0,P|145:296|201:256,1,150
198,189,54862,1,2,2:0:0:0:
71,140,55112,1,0,0:0:0:0:
132,111,55237,2,0,L|212:111,1,75,0|4,0:0|0:0,0:0:0:0:
274,115,55612,1,2,0:0:0:0:
322,68,55737,1,0,2:0:0:0:
325,202,55987,1,0,2:0:0:0:
199,250,56237,2,0,P|218:219|254:210,1,75,0|8,0:0|0:0,0:0:0:0:
256,346,56737,1,2,0:0:0:0:
32,224,65237,6,0,P|80:220|104:188,1,75
100,68,65737,2,0,P|124:48|164:68,1,75
164,196,66237,1,2,0:0:0:0:
44,136,66487,1,2,0:0:0:0:
312,212,66737,6,0,P|360:208|384:176,1,75
380,56,67237,2,0,P|404:36|444:56,1,75
444,188,67737,1,2,0:0:0:0:
324,128,67987,1,2,0:0:0:0:
380,252,68237,6,0,P|304:268|240:228,1,150,0|4,0:0|0:0,0:0:0:0:
208,112,69237,6,0,P|171:110|142:133,1,75
140,268,69737,2,0,P|110:289|78:274,1,75
72,140,70237,1,2,0:0:0:0:
192,200,70487,1,2,0:0:0:0:
288,284,70737,6,0,P|336:280|360:248,1,75
356,128,71237,2,0,P|380:108|420:128,1,75
420,264,71737,1,2,0:0:0:0:
304,196,71987,1,2,0:0:0:0:
308,332,72237,6,0,P|236:316|175:271,1,150,0|4,0:0|0:0,0:0:0:0:
240,168,73237,6,0,P|192:164|168:132,1,75
272,52,73737,2,0,P|248:32|208:52,1,75
100,124,74237,1,2,0:0:0:0:
236,116,74487,1,2,0:0:0:0:
364,72,74737,6,0,P|412:76|436:108,1,75
408,228,75237,2,0,P|432:248|472:228,1,75
356,160,75737,1,2,0:0:0:0:
396,32,75987,1,2,0:0:0:0:
326,59,76237,6,0,B|249:197,1,150,0|4,0:0|0:0,0:0:0:0:
312,212,77237,6,0,P|360:208|384:176,1,75
280,100,77737,2,0,P|304:80|344:100,1,75
236,180,78237,1,2,0:0:0:0:
140,272,78487,1,2,0:0:0:0:
276,272,78737,6,0,P|228:276|204:308,1,75
340,332,79237,2,0,P|316:352|276:332,1,75
280,200,79737,1,2,0:0:0:0:
148,228,79987,1,2,0:0:0:0:
148,92,80237,2,0,P|232:100|296:132,1,150,0|4,0:0|0:0,0:0:0:0:
256,192,88237,6,0,L|413:190,1,150,8|0,0:0|0:0,0:0:0:0:
475,31,89237,1,8,0:0:0:0:
256,192,89737,1,0,0:0:0:0:
39,343,90237,1,8,0:0:0:0:
472,344,90737,1,0,0:0:0:0:
256,192,91237,1,8,0:0:0:0:
36,32,91737,1,0,0:0:0:0:
256,32,92237,1,8,0:0:0:0:
256,192,92737,2,0,L|256:280,1,75
256,344,93237,1,8,0:0:0:0:
476,192,93737,1,0,0:0:0:0:
256,192,94237,1,8,0:0:0:0:
36,192,94737,2,0,L|36:112,1,75
36,36,95237,1,8,0:0:0:0:
256,36,95737,1,0,0:0:0:0:
248,332,96237,6,0,L|263:294,3,41.2500012588501,0|0|0|0,2:2|2:2|2:2|2:2,2:0:0:0:
287,222,96737,1,4,0:0:0:0:
431,257,96987,2,0,L|414:219,3,41.2500012588501
354,83,97612,5,2,0:0:0:0:
279,80,97737,2,0,L|237:79,3,41.2500012588501
165,45,98237,2,0,P|155:84|175:120,1,82.5000025177003
265,238,98737,1,4,0:0:0:0:
406,192,98987,6,0,L|418:232,3,41.2500012588501
441,302,99487,1,0,0:0:0:0:
298,259,99737,2,0,L|259:241,3,41.2500012588501
190,216,100237,1,4,0:0:0:0:
232,73,100487,2,0,L|297:58,1,41.2500012588501
345,50,100737,1,8,0:0:0:0:
76,120,101237,6,0,B|31:193|31:193|78:262,1,165.000005035401,0|8,0:0|0:0,0:0:0:0:
180,308,102237,2,0,B|253:353|253:353|322:306,1,165.000005035401,0|8,0:0|0:0,0:0:0:0:
436,264,103237,2,0,B|481:191|481:191|434:122,1,165.000005035401,0|8,0:0|0:0,0:0:0:0:
328,76,104237,2,0,B|255:31|255:31|186:78,1,165.000005035401,0|8,0:0|0:0,0:0:0:0:
107,124,104987,6,0,P|88:124|74:142,3,41.2500012588501
160,288,105612,1,2,0:0:0:0:
160,288,105737,2,0,P|168:308|188:311,3,41.2500012588501
256,288,106237,2,0,L|336:256,1,82.5000025177003,0|4,0:0|0:0,0:0:0:0:
424,140,106737,1,0,0:0:0:0:
276,136,106987,6,0,P|253:142|217:162,3,41.2500012588501
80,100,107612,1,0,0:0:0:0:
80,100,107737,2,0,P|91:115|111:130,3,41.2500012588501
172,192,108237,2,0,L|250:250,1,82.5000025177003,0|4,0:0|0:0,0:0:0:0:
76,120,108737,6,0,B|31:193|31:193|78:262,1,165.000005035401,0|8,0:0|0:0,0:0:0:0:
180,308,109737,2,0,B|253:353|253:353|322:306,1,165.000005035401,0|8,0:0|0:0,0:0:0:0:
436,264,110737,2,0,B|481:191|481:191|434:122,1,165.000005035401,0|8,0:0|0:0,0:0:0:0:
328,76,111737,2,0,B|255:31|255:31|186:78,1,165.000005035401,0|8,0:0|0:0,0:0:0:0:
360,164,112487,6,0,P|387:157|415:152,3,41.2500012588501
368,220,112987,2,0,P|387:234|419:260,3,41.2500012588501
457,293,113487,1,2,0:0:0:0:
308,289,113737,2,0,L|266:244,3,41.2500012588501
228,204,114237,1,2,0:0:0:0:
81,227,114487,2,2,P|91:187|118:157,1,82.5000025177003,2|8,0:0|0:0,0:0:0:0:
238,68,114987,2,0,P|225:84|212:100,3,41.2500012588501
171,161,115487,1,2,0:0:0:0:
319,162,115737,2,0,L|342:128,3,41.2500012588501
368,58,116237,1,2,0:0:0:0:
221,82,116487,1,4,0:0:0:0:
76,120,116737,6,0,B|31:193|31:193|78:262,1,165.000005035401,0|8,0:0|0:0,0:0:0:0:
180,308,117737,2,0,B|253:353|253:353|322:306,1,165.000005035401,0|8,0:0|0:0,0:0:0:0:
436,264,118737,2,0,B|481:191|481:191|434:122,1,165.000005035401,0|8,0:0|0:0,0:0:0:0:
328,76,119737,2,0,B|255:31|255:31|186:78,1,165.000005035401,0|8,0:0|0:0,0:0:0:0:
85,182,120487,1,2,0:0:0:0:
233,182,120737,1,2,0:0:0:0:
216,260,121487,1,2,0:0:0:0:
364,260,121737,2,0,P|379:250|396:232,3,41.2500012588501
392,140,122237,1,8,0:0:0:0:
264,216,122487,2,0,P|241:223|221:223,3,41.2500012588501
216,152,122987,2,0,P|236:140|258:140,3,41.2500012588501
327,153,123487,1,8,0:0:0:0:
219,255,123737,2,0,P|239:253|256:242,3,41.2500012588501
325,213,124237,1,8,0:0:0:0:
231,97,124487,1,2,2:3:0:0:
76,120,124737,6,0,B|31:193|31:193|78:262,1,165.000005035401,0|8,0:0|0:0,0:0:0:0:
180,308,125737,2,0,B|253:353|253:353|322:306,1,165.000005035401,0|8,0:0|0:0,0:0:0:0:
436,264,126737,2,0,B|481:191|481:191|434:122,1,165.000005035401,0|8,0:0|0:0,0:0:0:0:
328,76,127737,2,0,B|255:31|255:31|186:78,1,165.000005035401,0|8,0:0|0:0,0:0:0:0:
192,224,128487,1,2,0:0:0:0:
327,224,128737,5,0,0:0:0:0:
381,114,129237,2,0,P|317:78|231:103,1,150,0|4,0:0|0:0,0:0:0:0:
308,122,130237,6,0,P|363:105|373:104,2,37.5
427,169,130737,1,2,0:0:0:0:
329,261,130987,1,0,0:0:0:0:
225,173,131237,2,0,L|133:173,1,75
151,38,131737,1,4,0:0:0:0:
336,41,132237,6,0,P|371:105|356:176,1,112.5,0|4,0:3|0:3,0:3:0:0:
221,178,132987,1,2,0:0:0:0:
268,304,133237,1,0,0:0:0:0:
311,176,133487,1,0,0:0:0:0:
367,298,133737,1,4,0:0:0:0:
242,204,134237,5,0,0:0:0:0:
310,320,134487,1,0,0:0:0:0:
338,187,134737,1,0,0:0:0:0:
264,74,134987,1,2,0:0:0:0:
263,208,135237,2,0,L|171:208|171:208,1,75
114,94,135737,1,2,0:0:0:0:
114,228,135987,1,0,0:0:0:0:
210,322,136237,2,0,P|302:314|314:262,1,150,0|4,0:0|0:0,0:0:0:0:
153,76,137237,6,0,L|79:102,1,75
84,235,137737,1,4,0:0:0:0:
353,233,138237,2,0,P|413:153|373:105,1,150,0|8,0:0|0:0,0:0:0:0:
260,121,138987,1,2,0:0:0:0:
256,255,139237,2,0,L|175:261,1,75
133,133,139737,1,4,0:0:0:0:
267,212,140237,6,0,P|370:171|364:159,1,150,0|8,0:0|0:0,0:0:0:0:
419,40,140987,1,2,0:0:0:0:
306,150,141237,1,0,0:0:0:0:
198,34,141487,1,0,0:0:0:0:
177,190,141737,1,4,0:0:0:0:
467,303,142237,6,0,B|399:339|399:339|375:237,1,150,0|2,0:0|0:0,0:0:0:0:
175,93,143237,2,0,B|118:37|118:37|68:113,1,150,0|2,0:0|0:0,0:0:0:0:
257,299,144237,2,0,B|337:328|337:328|353:265,1,150,0|2,0:0|0:0,0:0:0:0:
279,168,145237,6,0,L|201:220,1,75
92,156,145737,1,2,0:0:0:0:
208,88,145987,1,8,0:0:0:0:
343,88,146237,2,0,P|395:42|450:84,1,150,0|4,0:0|0:0,0:0:0:0:
413,214,146987,1,2,0:0:0:0:
278,221,147237,2,0,L|233:160,1,75
234,25,147737,1,8,0:0:0:0:
134,116,147987,1,0,0:0:0:0:
224,215,148237,2,0,P|231:142|290:100,1,150,2|4,0:0|0:0,0:0:0:0:
425,101,148987,1,0,0:0:0:0:
367,222,149237,2,0,L|367:310,1,75,0|8,0:0|0:0,0:0:0:0:
255,220,149737,1,2,0:0:0:0:
192,64,150237,6,0,P|148:24|92:76,1,150,0|4,0:0|0:0,0:0:0:0:
93,210,150987,1,2,2:0:0:0:
201,290,151237,2,0,L|281:290,1,75,0|8,0:0|0:0,0:0:0:0:
410,291,151737,1,2,0:0:0:0:
320,189,151987,1,0,2:0:0:0:
336,54,152237,2,0,P|376:38|416:69,1,75
469,167,152737,1,4,0:0:0:0:
428,295,152987,1,0,0:0:0:0:
370,172,153237,1,2,0:0:0:0:
308,292,153487,1,0,0:0:0:0:
267,163,153737,1,2,0:0:0:0:
174,261,153987,1,4,0:0:0:0:
130,133,154237,6,0,P|82:97|50:121,2,75
52,244,154987,2,0,L|50:292,1,37.5
117,280,155237,1,8,0:0:0:0:
251,282,155487,2,0,L|251:217,1,37.5
252,177,155737,1,8,0:0:0:0:
353,179,156237,6,0,P|415:143|424:71,1,150,0|4,0:0|0:0,0:0:0:0:
291,101,156987,2,0,L|291:41,1,37.5
223,61,157237,1,8,0:0:0:0:
88,61,157487,2,0,L|87:112,1,37.5
87,165,157737,1,8,0:0:0:0:
181,292,158237,6,0,P|252:306|308:260,1,150,0|4,0:0|0:0,0:0:0:0:
52,176,159237,1,0,0:0:0:0:
308,260,159737,1,0,0:0:0:0:
81,113,160237,2,0,L|164:92,1,75
288,92,160737,1,0,0:0:0:0:
413,192,161237,6,0,L|457:192,1,37.5
449,259,161487,2,0,L|399:260,1,37.5
344,266,161737,2,0,P|250:275|241:265,1,112.5
246,203,162237,1,0,0:0:0:0:
244,71,162487,2,0,P|317:59|400:72,1,150
362,233,163237,6,0,L|390:177,1,37.5
316,171,163487,2,0,L|314:122,1,37.5
247,136,163737,2,0,P|221:190|157:201,1,112.5
169,136,164237,1,0,0:0:0:0:
180,270,164487,2,0,L|328:237,1,150
217,331,165237,5,0,0:0:0:0:
241,198,165487,1,8,0:0:0:0:
281,68,165737,2,0,L|361:108,1,75
428,208,166237,1,8,0:0:0:0:
180,218,166737,2,0,B|144:182|144:182|46:208,1,150
161,281,167487,2,0,B|201:349|201:349|249:265,1,150
371,285,168237,2,0,L|438:150,1,150
99,192,169237,6,0,L|61:192,1,37.5
63,125,169487,2,0,L|100:124,1,37.5
168,117,169737,2,0,P|216:92|266:113,1,112.5
266,181,170237,1,0,0:0:0:0:
267,313,170487,2,0,P|194:325|120:314,1,150
150,151,171237,6,0,L|133:184,1,37.5
196,213,171487,2,0,L|197:250,1,37.5
265,247,171737,2,0,P|286:197|338:179,1,112.5
343,248,172237,1,0,0:0:0:0:
332,114,172487,2,0,L|185:146,1,150
295,53,173237,5,0,0:0:0:0:
271,186,173487,1,8,0:0:0:0:
231,316,173737,2,0,L|151:276,1,75
84,176,174237,1,8,0:0:0:0:
332,166,174737,2,0,B|368:202|368:202|466:176,1,150
351,103,175487,2,0,B|311:35|311:35|263:119,1,150
141,99,176237,2,0,L|74:234,1,150
128,71,177237,6,0,L|223:22,1,75
257,156,177737,2,0,L|184:195,1,75
57,173,178237,1,0,0:0:0:0:
176,236,178487,1,0,0:0:0:0:
320,231,178737,6,0,L|225:280,1,75
191,146,179237,2,0,L|264:107,1,75
391,129,179737,1,0,0:0:0:0:
306,234,179987,1,0,0:0:0:0:
283,101,180237,2,0,P|233:70|182:136,1,150
384,313,181237,6,0,L|289:362,1,75
255,228,181737,2,0,L|328:189,1,75
455,211,182237,1,0,0:0:0:0:
373,103,182487,1,0,0:0:0:0:
192,153,182737,6,0,L|287:104,1,75
321,238,183237,2,0,L|248:277,1,75
121,255,183737,1,0,0:0:0:0:
250,215,183987,1,0,0:0:0:0:
386,207,184237,2,0,P|450:181|435:113,1,150
128,71,185237,6,0,L|194:36,1,75
257,156,185737,2,0,L|190:191,1,75
57,173,186237,1,0,0:0:0:0:
172,242,186487,1,0,0:0:0:0:
320,231,186737,6,0,L|253:265,1,75
191,146,187237,2,0,L|257:110,1,75
391,129,187737,1,0,0:0:0:0:
268,186,187987,1,0,0:0:0:0:
126,176,188237,2,0,P|61:202|76:270,1,150
128,71,189237,6,0,L|223:22,1,75
257,156,189737,2,0,L|184:195,1,75
57,173,190237,1,0,0:0:0:0:
320,231,190737,6,0,L|225:280,1,75
191,146,191237,2,0,L|264:107,1,75
391,129,191737,1,0,0:0:0:0:
264,332,192237,6,0,L|250:297,3,37.5,0|0|0|0,2:2|2:2|2:2|2:2,2:0:0:0:
225,222,192738,1,4,0:0:0:0:
81,257,192989,2,0,L|96:222,3,37.5
158,83,193613,5,2,0:0:0:0:
233,80,193738,2,0,L|270:79,3,37.5
347,45,194237,2,0,P|357:80|343:114,1,75
247,238,194738,1,4,0:0:0:0:
106,192,194988,6,0,L|95:227,3,37.5
71,302,195488,1,0,0:0:0:0:
214,259,195738,2,0,L|248:243,3,37.5
322,216,196238,1,4,0:0:0:0:
280,73,196488,2,0,L|243:64,1,37.5
167,50,196738,1,8,0:0:0:0:
436,120,197237,6,0,B|481:193|481:193|444:246,1,150,0|8,0:0|0:0,0:0:0:0:
332,308,198238,2,0,B|259:353|259:353|205:316,1,150,0|8,0:0|0:0,0:0:0:0:
76,264,199239,2,0,B|31:191|31:191|67:137,1,150,0|8,0:0|0:0,0:0:0:0:
184,76,200238,2,0,B|257:31|257:31|309:67,1,150,0|8,0:0|0:0,0:0:0:0:
404,124,200988,6,0,P|423:123|436:136,3,37.5
352,288,201613,1,2,0:0:0:0:
351,287,201737,2,0,P|346:305|329:312,3,37.5
256,288,202238,2,0,L|186:260,1,75,0|4,0:0|0:0,0:0:0:0:
88,140,202738,1,0,0:0:0:0:
235,135,202989,6,0,P|254:140|271:147,3,37.5
432,100,203613,1,0,0:0:0:0:
432,99,203737,2,0,P|420:115|406:126,3,37.5
340,192,204238,2,0,L|279:236,1,75,0|4,0:0|0:0,0:0:0:0:
436,120,204737,6,0,B|481:193|481:193|444:246,1,150,0|8,0:0|0:0,0:0:0:0:
332,308,205738,2,0,B|259:353|259:353|205:316,1,150,0|8,0:0|0:0,0:0:0:0:
76,264,206739,2,0,B|31:191|31:191|67:137,1,150,0|8,0:0|0:0,0:0:0:0:
184,76,207738,2,0,B|257:31|257:31|310:67,1,150,0|8,0:0|0:0,0:0:0:0:
152,164,208489,6,0,P|133:159|115:155,3,37.5
144,220,208988,2,0,P|128:231|114:242,3,37.5
55,293,209488,1,2,0:0:0:0:
204,289,209738,2,0,L|229:261,3,37.5
284,204,210238,1,2,0:0:0:0:
431,227,210488,2,2,P|422:190|399:161,1,75,2|8,0:0|0:0,0:0:0:0:
274,70,210987,2,0,P|284:84|296:98,3,37.5
341,161,211488,1,2,0:0:0:0:
193,162,211738,2,0,L|171:130,3,37.5
144,58,212238,1,2,0:0:0:0:
291,82,212488,1,4,0:0:0:0:
436,120,212737,6,0,B|481:193|481:193|444:246,1,150,0|8,0:0|0:0,0:0:0:0:
313,304,213738,2,0,B|250:349|250:349|189:300,1,150,0|8,0:0|0:0,0:0:0:0:
76,264,214739,2,0,B|31:191|31:191|67:137,1,150,0|8,0:0|0:0,0:0:0:0:
184,76,215738,2,0,B|257:31|257:31|310:67,1,150,0|8,0:0|0:0,0:0:0:0:
427,182,216488,1,2,0:0:0:0:
279,182,216738,1,2,0:0:0:0:
368,327,216987,6,0,P|350:334|333:326,3,37.5
296,260,217488,1,2,0:0:0:0:
148,260,217738,2,0,P|132:249|119:236,3,37.5
120,140,218238,1,8,0:0:0:0:
247,215,218489,2,0,P|265:222|284:223,3,37.5
296,152,218987,2,0,P|280:141|262:138,3,37.5
185,153,219488,1,8,0:0:0:0:
293,254,219738,2,0,P|274:253|258:244,3,37.5
187,213,220238,1,8,0:0:0:0:
281,97,220488,1,2,2:3:0:0:
436,120,220737,6,0,B|481:193|481:193|444:246,1,150,0|8,0:0|0:0,0:0:0:0:
332,308,221738,2,0,B|259:353|259:353|205:316,1,150,0|8,0:0|0:0,0:0:0:0:
76,264,222739,2,0,B|31:191|31:191|67:137,1,150,0|8,0:0|0:0,0:0:0:0:
184,76,223738,2,0,B|257:31|257:31|310:67,1,150,0|8,0:0|0:0,0:0:0:0:
255,191,224737,5,0,0:0:0:0:
309,67,225237,2,0,L|389:56,2,75
370,192,225987,1,0,0:0:0:0:
309,264,226237,1,0,0:0:0:0:
181,259,226737,2,0,L|95:254,2,75
167,148,227487,2,0,L|206:74,1,75
256,191,228237,5,0,0:0:0:0:
273,99,228487,2,0,L|372:96,1,75
203,317,229237,2,0,L|123:328,2,75
142,192,229987,1,0,0:0:0:0:
203,120,230237,1,0,0:0:0:0:
331,125,230737,2,0,L|417:130,2,75
345,236,231487,2,0,L|306:310,1,75
223,237,232237,2,0,L|308:193,2,75
