osu file format v14

[General]
AudioFilename: audio.ogg
AudioLeadIn: 0
PreviewTime: 26371
Countdown: 0
SampleSet: Soft
StackLeniency: 0.4
Mode: 0
LetterboxInBreaks: 0
WidescreenStoryboard: 1

[Editor]
Bookmarks: 107,8856,26371,28235,49719,52314,63452,86871,98568,104425,110287,116126,119052,121974
DistanceSpacing: 1.2
BeatDivisor: 4
GridSize: 16
TimelineZoom: 1.900001

[Metadata]
Title:201
TitleUnicode:201
Artist:Perspective, a lovely hand to hold
ArtistUnicode:Perspective, a lovely hand to hold
Creator:laura-
Version:formless' Absurd
Source:
Tags:celektus formless000 ralkinson fisky -tatsuo what not to do english alternative emo indie math noise pop rock palhth nashua new hampshire 2017
BeatmapID:3800129
BeatmapSetID:1645025

[Difficulty]
HPDrainRate:4.9
CircleSize:4
OverallDifficulty:7.8
ApproachRate:8.8
SliderMultiplier:2
SliderTickRate:0.5

[Events]
//Background and Video events
0,0,"bg.jpg",0,0
//Break Periods
2,50729,51685
2,87071,91992
2,93168,97836
//Storyboard Layer 0 (Background)
//Storyboard Layer 1 (Fail)
//Storyboard Layer 2 (Pass)
//Storyboard Layer 3 (Foreground)
//Storyboard Layer 4 (Overlay)
//Storyboard Sound Samples

[TimingPoints]
107,324.324324324324,6,2,1,70,1,0
593,-100,6,2,1,40,0,0
2052,324.324324324324,7,2,1,40,1,0
2052,-100,7,2,2,70,0,0
2538,-100,7,2,2,40,0,0
4322,323.450134770889,6,2,2,40,1,0
4322,-100,6,2,1,70,0,0
4807,-100,6,2,1,40,0,0
6262,324.324324324324,4,2,1,40,1,0
6262,-100,4,2,2,70,0,0
6748,-100,4,2,2,40,0,0
8856,324.324324324324,6,2,1,70,1,0
8856,-64.5161290322581,6,2,1,70,0,0
9099,-64.5161290322581,6,2,1,5,0,0
9180,-64.5161290322581,6,2,1,70,0,0
9342,-100,6,2,1,70,0,0
9991,-100,6,2,3,70,0,0
10639,-100,6,2,1,70,0,0
10801,322.58064516129,7,2,1,70,1,0
10801,-64.5161290322581,7,2,1,70,0,0
11042,-64.5161290322581,7,2,1,5,0,0
11123,-64.5161290322581,7,2,1,70,0,0
11284,-100,7,2,1,70,0,0
11930,-100,7,2,3,70,0,0
12736,-100,7,2,1,50,0,0
13059,327.868852459016,6,2,1,70,1,0
13059,-64.5161290322581,6,2,1,70,0,0
13304,-64.5161290322581,6,2,1,5,0,0
13386,-64.5161290322581,6,2,1,70,0,0
13550,-100,6,2,1,70,0,0
13714,319.148936170212,6,2,1,70,1,0
14192,-100,6,2,3,70,0,0
14671,344.827586206896,6,2,3,70,1,0
14843,-100,6,2,1,50,0,0
15015,322.58064516129,4,2,1,70,1,0
15015,-64.5161290322581,4,2,1,70,0,0
15256,-64.5161290322581,4,2,1,5,0,0
15337,-64.5161290322581,4,2,1,70,0,0
15660,-100,4,2,1,70,0,0
16144,-100,4,2,4,70,0,0
16305,325.20325203252,4,2,1,70,1,0
17605,324.324324324324,6,2,1,70,1,0
17605,-64.5161290322581,6,2,1,70,0,0
17848,-64.5161290322581,6,2,1,5,0,0
17929,-64.5161290322581,6,2,1,70,0,0
18091,-100,6,2,1,70,0,0
18740,-100,6,2,3,70,0,0
19064,331.491712707182,6,2,3,70,1,0
19229,-100,6,2,1,50,0,0
19561,317.460317460317,7,2,1,70,1,0
19561,-64.5161290322581,7,2,1,70,0,0
19799,-64.5161290322581,7,2,1,5,0,0
19878,-64.5161290322581,7,2,1,70,0,0
20037,-100,7,2,1,70,0,0
20672,340.90909090909,7,2,3,70,1,0
20842,340.90909090909,7,2,3,70,1,0
21524,306.122448979591,7,2,1,50,1,0
21830,323.450134770889,6,2,1,70,1,0
21830,-81.9672131147541,6,2,1,70,0,0
22476,-100,6,2,1,70,0,0
22962,-100,6,2,3,70,0,0
23608,-100,6,2,1,50,0,0
23770,322.58064516129,4,2,1,70,1,0
23770,-64.5161290322581,4,2,1,70,0,0
24011,-64.5161290322581,4,2,1,5,0,0
24092,-64.5161290322581,4,2,1,70,0,0
24576,-100,4,2,1,70,0,0
24898,-100,4,2,4,70,0,0
25060,327.868852459016,4,2,4,70,1,0
25223,-100,4,2,1,70,0,0
25551,-100,4,2,4,70,0,0
25715,-100,4,2,1,70,0,0
26042,-100,4,2,2,70,0,0
26371,324.324324324324,4,2,1,90,1,1
26371,-64.5161290322581,4,2,1,90,0,1
26614,-64.5161290322581,4,2,1,5,0,1
26695,-129.87012987013,4,2,1,90,0,1
27830,325.20325203252,4,2,1,90,1,1
27830,-129.87012987013,4,2,1,90,0,1
27992,325.20325203252,4,2,1,90,1,0
28154,-64.5161290322581,4,2,1,90,0,1
28397,-64.5161290322581,4,2,1,5,0,1
28479,-64.5161290322581,4,2,1,90,0,0
28643,320.855614973262,4,2,1,90,1,0
29124,325.20325203252,4,2,1,90,1,0
29286,333.333333333333,4,2,1,90,1,0
29452,327.868852459016,4,2,1,90,1,1
29452,-81.9672131147541,4,2,1,90,0,1
29615,327.868852459016,4,2,1,90,1,1
29943,322.58064516129,4,2,1,90,1,1
29943,-100,4,2,5,90,0,1
30265,-100,4,2,1,90,0,1
30588,-100,4,2,5,90,0,1
30749,-100,4,2,1,90,0,1
31878,338.983050847457,4,2,1,90,1,1
32047,-100,4,2,1,90,0,0
32216,322.58064516129,4,2,1,90,1,1
32216,-64.5161290322581,4,2,1,90,0,1
32457,-64.5161290322581,4,2,1,5,0,1
32538,-129.87012987013,4,2,1,90,0,0
33667,323.886639676113,4,2,1,90,1,1
33667,-129.87012987013,4,2,1,90,0,1
33828,323.886639676113,4,2,1,90,1,0
33989,-64.5161290322581,4,2,1,90,0,1
34231,-64.5161290322581,4,2,1,5,0,1
34313,-64.5161290322581,4,2,1,90,0,0
34637,-100,4,2,1,90,0,0
34717,-100,4,2,2,90,0,0
34879,-100,4,2,1,90,0,0
34961,322.58064516129,4,2,1,90,1,0
35283,326.086956521739,4,2,1,90,1,1
35283,-81.9672131147541,4,2,1,90,0,1
35446,326.086956521739,4,2,1,90,1,1
35772,323.450134770889,4,2,1,90,1,1
36742,323.450134770889,4,2,1,90,1,1
37874,-100,4,2,1,90,0,0
38036,324.324324324324,4,2,1,90,1,1
38036,-64.5161290322581,4,2,1,90,0,1
38279,-64.5161290322581,4,2,1,5,0,1
38360,-101.010101010101,4,2,1,90,0,0
39495,324.324324324324,4,2,1,90,1,1
39495,-129.87012987013,4,2,1,90,0,1
39657,324.324324324324,4,2,1,90,1,0
39819,-64.5161290322581,4,2,1,90,0,1
40062,-64.5161290322581,4,2,1,5,0,1
40143,352.941176470588,4,2,1,90,1,0
40143,-64.5161290322581,4,2,1,90,0,0
40319,312.5,4,2,1,90,1,0
40631,346.820809248555,4,2,1,90,1,0
40804,307.692307692307,4,2,1,90,1,0
40957,-100,4,2,2,90,0,0
41111,333.333333333333,4,2,1,90,1,1
41111,-81.9672131147541,4,2,1,90,0,1
41277,333.333333333333,4,2,1,90,1,1
41611,326.086956521739,4,2,1,90,1,1
41611,-100,4,2,5,90,0,1
41937,-100,4,2,1,90,0,1
42263,-100,4,2,5,90,0,1
42426,-100,4,2,1,90,0,1
42589,315.78947368421,4,2,1,90,1,1
43220,338.983050847457,4,2,1,90,1,1
43558,329.670329670329,4,2,1,90,1,1
43722,-100,4,2,1,90,0,0
43887,322.58064516129,4,2,1,90,1,1
43887,-64.5161290322581,4,2,1,90,0,1
44128,-64.5161290322581,4,2,1,5,0,1
44209,-101.010101010101,4,2,1,90,0,0
45338,324.324324324324,4,2,1,90,1,1
45338,-129.87012987013,4,2,1,90,0,1
45500,324.324324324324,4,2,1,90,1,0
45662,-64.5161290322581,4,2,1,90,0,1
45905,-64.5161290322581,4,2,1,5,0,1
45986,-64.5161290322581,4,2,1,90,0,0
46310,-100,4,2,1,90,0,0
46635,324.324324324324,4,2,1,90,1,0
46797,-100,4,2,2,90,0,0
46959,331.491712707182,4,2,1,90,1,1
46959,-81.9672131147541,4,2,1,90,0,1
47124,331.491712707182,4,2,1,90,1,1
47456,321.71581769437,4,2,1,90,1,1
48421,321.71581769437,4,2,1,90,1,1
49386,333.333333333333,4,2,1,90,1,1
49386,-113.636363636364,4,2,1,90,0,1
49552,-113.636363636364,4,2,1,90,0,0
49719,324.499729583559,4,2,1,90,1,0
50205,324.499729583559,4,2,1,50,1,0
50367,324.499729583559,4,2,1,50,1,0
51015,324.499729583559,4,2,1,50,1,0
52314,324.763193504736,4,2,1,70,1,0
52314,-181.818181818182,4,2,1,70,0,0
56211,323.014804845222,4,2,1,70,1,0
56857,330.578512396694,4,2,1,70,1,0
57518,310.880829015544,4,2,1,70,1,0
57518,-181.818181818182,4,2,1,70,0,0
58139,337.078651685393,4,2,1,70,1,0
58139,-181.818181818182,4,2,1,70,0,0
58813,337.078651685393,4,2,1,70,1,0
58813,-181.818181818182,4,2,1,70,0,0
58981,319.148936170213,4,2,1,70,1,0
58981,-181.818181818182,4,2,1,70,0,0
59140,319.148936170213,4,2,1,70,1,0
59459,319.148936170213,4,2,1,70,1,0
59459,-181.818181818182,4,2,1,70,0,0
60736,333.333333333334,4,2,1,70,1,0
60736,-181.818181818182,4,2,1,70,0,0
61402,340.909090909091,4,2,1,70,1,0
62083,342.368045649073,4,2,1,70,1,0
62767,-303.030303030303,4,2,1,50,0,0
63452,733.944954128441,4,2,1,50,1,0
66387,731.707317073171,4,2,1,50,1,0
73704,714.285714285715,4,2,1,50,1,0
74061,-100,4,2,1,30,0,0
74180,-100,4,2,1,40,0,0
74299,-100,4,2,1,45,0,0
74416,750,4,2,1,45,1,0
74441,-100,4,2,1,50,0,0
74791,-100,4,2,1,20,0,0
74916,-100,4,2,1,50,0,0
75166,731.707317073171,4,2,1,50,1,0
81019,729.483282674772,4,2,1,50,1,0
85395,714.285714285714,4,2,1,50,1,0
85752,-100,4,2,4,50,0,0
85871,750,4,2,1,50,1,0
86121,749.999999999999,4,2,1,50,1,0
86621,-100,4,2,6,50,0,0
86871,731.707317073171,4,2,6,50,1,0
92724,-100,4,2,4,65,0,1
92968,-100,4,2,4,65,0,0
97114,722.891566265061,4,2,4,65,1,0
98318,750.000000000001,4,2,4,65,1,0
98568,733.944954128442,4,2,1,90,1,0
98568,-39.2156862745098,4,2,1,90,0,0
98995,-39.2156862745098,4,2,1,5,0,0
99057,-39.2156862745098,4,2,1,90,0,0
99301,-39.2156862745098,4,2,1,90,0,1
100035,-39.2156862745098,4,2,1,90,0,0
100463,-39.2156862745098,4,2,1,5,0,0
100525,-39.2156862745098,4,2,1,90,0,0
100769,-39.2156862745098,4,2,1,90,0,1
101503,-39.2156862745098,4,2,1,90,0,0
101931,-39.2156862745098,4,2,1,5,0,0
101993,-39.2156862745098,4,2,1,90,0,0
102237,-39.2156862745098,4,2,1,90,0,1
102910,-39.2156862745098,4,2,1,5,0,1
102971,727.272727272729,4,2,1,90,1,0
102971,-39.2156862745098,4,2,1,90,0,0
103698,-39.2156862745098,4,2,1,90,0,1
103940,-39.2156862745098,4,2,1,50,0,1
104061,-39.2156862745098,4,2,1,60,0,1
104183,-39.2156862745098,4,2,1,70,0,1
104304,-39.2156862745098,4,2,1,80,0,1
104425,733.944954128442,4,2,1,90,1,0
104669,-39.2156862745098,4,2,1,90,0,0
104852,-39.2156862745098,4,2,1,5,0,0
104914,-39.2156862745098,4,2,1,90,0,0
105158,-39.2156862745098,4,2,1,90,0,1
105586,-39.2156862745098,4,2,1,5,0,1
105648,-39.2156862745098,4,2,1,90,0,1
105892,-39.2156862745098,4,2,1,90,0,0
106320,-39.2156862745098,4,2,1,5,0,0
106382,-39.2156862745098,4,2,1,90,0,0
106626,-39.2156862745098,4,2,1,90,0,1
107360,-39.2156862745098,4,2,1,90,0,0
107788,-39.2156862745098,4,2,1,5,0,0
107850,-39.2156862745098,4,2,1,90,0,0
108033,-39.2156862745098,4,2,1,5,0,0
108094,-39.2156862745098,4,2,1,90,0,1
108828,731.707317073172,4,2,1,90,1,0
109071,-39.2156862745098,4,2,1,90,0,0
109559,-39.2156862745098,4,2,1,90,0,1
110287,718.562874251498,4,2,1,90,1,0
110526,-39.2156862745098,4,2,1,90,0,0
110705,-39.2156862745098,4,2,1,5,0,0
110766,-39.2156862745098,4,2,1,90,0,0
111005,731.707317073172,4,2,1,90,1,1
111005,-39.2156862745098,4,2,1,90,0,1
111736,-39.2156862745098,4,2,1,90,0,0
112162,-39.2156862745098,4,2,1,5,0,0
112224,-39.2156862745098,4,2,1,90,0,0
112468,-39.2156862745098,4,2,1,90,0,1
113200,731.707317073172,4,2,1,90,1,0
113200,-39.2156862745098,4,2,1,90,0,0
113625,-39.2156862745098,4,2,1,5,0,0
113687,-39.2156862745098,4,2,1,90,0,0
113931,-39.2156862745098,4,2,1,90,0,1
114601,-39.2156862745098,4,2,1,5,0,1
114663,-39.2156862745098,4,2,1,90,0,0
115395,-39.2156862745098,4,2,1,90,0,1
116126,784.313725490198,4,2,1,90,1,0
116387,-39.2156862745098,4,2,1,90,0,1
116518,-39.2156862745098,4,2,1,90,0,0
116648,895.522388059704,4,2,1,90,1,1
116648,-39.2156862745098,4,2,1,90,0,1
116797,-39.2156862745098,4,2,1,90,0,0
116871,727.272727272729,4,2,1,90,1,1
117113,-39.2156862745098,4,2,1,90,0,1
117294,-39.2156862745098,4,2,1,5,0,1
117355,-39.2156862745098,4,2,1,90,0,1
117598,-39.2156862745098,4,2,1,90,0,0
118021,-39.2156862745098,4,2,1,5,0,0
118083,-39.2156862745098,4,2,1,90,0,0
118325,-39.2156862745098,4,2,1,90,0,1
119052,727.272727272729,4,2,1,90,1,0
119294,-39.2156862745098,4,2,1,90,0,0
121234,740.740740740742,4,2,1,90,1,0
121234,-39.2156862745098,4,2,1,90,0,0
121480,-39.2156862745098,4,2,1,85,0,0
121727,-39.2156862745098,4,2,1,80,0,0
121974,733.048259010385,4,2,1,70,1,0

[Colours]
Combo1 : 233,222,177
Combo2 : 232,203,200

[HitObjects]
125,158,107,6,0,L|26:146,1,100,6|0,3:2|2:0,2:0:0:0:
180,209,593,2,0,L|193:259,2,50,0|0|2,2:0|2:0|2:0,2:0:0:0:
210,91,917,2,0,L|199:191,2,100,0|2|2,2:0|2:0|2:0,2:0:0:0:
238,71,1566,1,2,2:0:0:0:
255,359,2052,6,0,L|269:246,1,100,6|0,3:0|2:0,2:0:0:0:
461,250,2538,2,0,L|511:237,2,50,0|0|2,2:0|2:0|2:0,2:0:0:0:
343,220,2862,2,0,L|443:231,2,100,0|2|2,2:0|2:0|2:0,2:0:0:0:
321,188,3511,1,2,2:0:0:0:
366,118,3835,1,2,2:0:0:0:
484,324,4322,6,0,L|371:313,1,100,6|0,3:2|2:0,2:0:0:0:
250,243,4807,2,0,L|237:193,2,50,0|0|2,2:0|2:0|2:0,2:0:0:0:
220,361,5130,2,0,L|231:261,2,100,0|2|2,2:0|2:0|2:0,2:0:0:0:
192,380,5777,1,2,2:0:0:0:
36,262,6262,6,0,L|50:149,1,100,6|0,3:0|2:0,2:0:0:0:
164,280,6748,2,0,L|114:293,2,50,0|0|2,2:0|2:0|2:0,2:0:0:0:
273,257,7072,2,0,L|173:246,2,100,0|2|2,2:0|2:0|2:0,2:0:0:0:
435,291,7559,2,0,B|287:231|287:231|260:188,2,200,2|2|2,2:0|2:0|2:0,2:0:0:0:
454,329,8856,6,0,B|374:335|330:133|379:332|309:361,1,232.5,6|0,3:2|2:0,2:0:0:0:
315,359,9180,1,2,1:2:0:0:
249,319,9342,2,0,L|237:271,1,50,2|0,2:0|2:0,2:0:0:0:
256,253,9504,2,0,L|267:153,1,100,0|2,2:0|2:0,2:0:0:0:
375,139,9828,5,2,1:2:0:0:
128,197,9991,2,0,L|118:147,1,50,0|0,3:0|2:0,2:0:0:0:
375,139,10315,2,0,L|363:88,1,50,0|0,3:0|2:0,2:0:0:0:
14,297,10639,5,0,3:0:0:0:
75,352,10801,2,0,B|113:246|218:264|207:379,1,232.5,4|0,3:2|2:0,2:0:0:0:
208,376,11123,1,2,1:2:0:0:
281,331,11284,2,0,L|328:374,1,50,2|0,2:0|2:0,2:0:0:0:
192,272,11446,2,0,L|178:164,1,100,0|2,3:0|3:2,2:0:0:0:
49,57,11768,5,2,1:2:0:0:
98,148,11930,2,0,L|109:99,1,50,0|0,3:0|2:0,2:0:0:0:
383,198,12252,2,0,L|373:248,1,50,0|0,3:0|2:0,2:0:0:0:
226,99,12575,2,0,L|237:50,1,50,0|0,3:0|2:0,2:0:0:0:
200,72,12736,2,0,L|215:212,1,100,2|0,1:2|1:0,2:0:0:0:
203,377,13059,6,0,B|86:307|118:197|206:213|232:279,1,232.5,4|0,3:2|2:0,2:0:0:0:
208,246,13386,1,2,1:2:0:0:
96,298,13550,2,0,L|76:230,1,50,2|0,2:0|2:0,2:0:0:0:
64,128,13714,2,0,L|54:227,1,100,0|2,3:0|3:2,2:0:0:0:
90,102,14033,1,2,1:2:0:0:
52,33,14192,2,0,L|-1:22,1,50,0|0,3:0|2:0,2:0:0:0:
271,81,14511,2,0,L|320:92,1,50,0|0,3:0|2:0,2:0:0:0:
320,92,14843,6,0,L|368:102,1,50,2|0,1:2|2:0,2:0:0:0:
454,212,15015,2,0,B|425:269|344:214|374:106|431:72,1,232.5,6|0,3:2|2:0,2:0:0:0:
427,74,15337,1,2,1:2:0:0:
351,208,15498,1,2,2:0:0:0:
327,215,15579,1,0,2:0:0:0:
302,222,15660,2,0,L|194:203,1,100,0|2,3:0|3:2,2:0:0:0:
82,375,15982,2,0,P|131:313|126:233,1,150,2|0,1:2|2:0,2:0:0:0:
68,197,16305,5,2,1:2:0:0:
1,156,16467,1,2,1:2:0:0:
152,40,16630,1,0,1:0:0:0:
177,108,16792,1,8,2:3:0:0:
1,156,16955,2,0,L|207:189,1,200,4|2,2:3|2:3,2:0:0:0:
484,83,17605,6,0,B|441:156|262:108|444:128|446:216,1,232.5,6|0,3:2|2:0,2:0:0:0:
446,216,17929,1,2,1:2:0:0:
381,259,18091,2,0,L|329:249,1,50,2|0,2:0|2:0,2:0:0:0:
303,269,18253,2,0,L|204:283,1,100,0|2,3:0|3:2,2:0:0:0:
78,246,18577,5,2,1:2:0:0:
168,173,18740,2,0,L|153:221,1,50,0|0,3:0|2:0,2:0:0:0:
335,379,19064,2,0,L|348:331,1,50,0|0,3:0|2:0,2:0:0:0:
209,298,19229,6,0,L|82:316,1,100,2|0,1:2|1:0,2:0:0:0:
168,173,19561,6,0,B|248:49|-31:191|71:73,1,232.5,4|0,3:2|2:0,2:0:0:0:
71,73,19878,1,2,1:2:0:0:
31,171,20037,2,0,L|79:161,1,50,2|0,2:0|2:0,2:0:0:0:
158,196,20195,2,0,L|255:175,1,100,0|2,3:0|3:2,2:0:0:0:
147,333,20513,5,2,1:2:0:0:
192,268,20672,2,0,L|240:282,1,50,0|0,3:0|2:0,2:0:0:0:
503,353,21012,2,0,L|454:338,1,50,0|0,3:0|2:0,2:0:0:0:
406,172,21353,6,0,L|455:183,1,50,0|0,3:0|2:0,2:0:0:0:
433,137,21524,2,0,L|261:169,1,150,2|0,1:2|2:0,2:0:0:0:
285,164,21830,6,0,P|267:210|286:243,1,61,6|0,3:2|2:0,2:0:0:0:
278,240,21991,2,0,B|304:181|282:117|241:95|156:151,1,183,2|0,2:0|2:0,2:0:0:0:
199,127,22315,1,2,2:0:0:0:
255,45,22476,2,0,L|352:24,1,100,2|0,3:2|3:0,2:0:0:0:
179,16,22800,5,2,1:2:0:0:
102,105,22962,2,0,L|113:56,1,50,0|0,3:0|2:0,2:0:0:0:
374,157,23285,2,0,L|364:207,1,50,0|0,3:0|2:0,2:0:0:0:
246,334,23608,5,0,1:0:0:0:
74,375,23770,2,0,B|3:354|24:293|130:295|163:327|169:384,1,232.5,4|0,3:2|2:0,2:0:0:0:
169,383,24092,1,0,1:0:0:0:
145,291,24253,1,0,2:0:0:0:
160,271,24334,1,0,2:0:0:0:
185,260,24415,1,0,3:0:0:0:
83,236,24576,2,0,L|60:129,2,100,0|0|0,3:0|1:0|3:0,2:0:0:0:
132,99,25060,5,0,3:0:0:0:
206,126,25223,1,0,1:0:0:0:
262,239,25387,1,2,3:2:0:0:
336,266,25551,1,0,3:0:0:0:
273,339,25715,2,0,B|293:288|229:309|293:401,2,100,0|2|4,1:0|3:2|2:3,2:0:0:0:
140,286,26371,6,0,B|32:203|134:117|57:67,1,232.5,6|0,3:2|2:0,2:0:0:0:
53,300,26695,2,0,L|40:376,1,76.9999999999999,0|2,1:0|3:2,2:0:0:0:
128,278,27019,2,0,L|60:314,1,76.9999999999999,0|0,1:0|3:0,2:0:0:0:
205,311,27343,2,0,L|130:292,1,76.9999999999999,2|0,1:2|3:0,2:0:0:0:
230,384,27668,5,0,1:0:0:0:
464,281,27830,2,0,P|456:349|407:352,1,115.5,6|0,3:2|2:0,2:0:0:0:
415,367,28154,2,0,B|382:354|382:354|335:251|416:204|399:166,1,232.5,4|0,3:2|2:0,2:0:0:0:
336,117,28479,6,0,B|331:159|368:168|427:179,1,77.5,0|0,1:0|1:0,2:0:0:0:
475,132,28643,1,2,1:2:0:0:
480,109,28723,1,8,2:3:0:0:
472,91,28803,2,0,L|410:78,1,50,4|0,2:3|2:0,2:0:0:0:
367,196,28963,6,0,L|315:221,1,50,2|8,1:2|2:3,2:0:0:0:
295,278,29124,2,0,L|319:234,1,50,0|8,1:0|2:3,2:0:0:0:
232,243,29286,1,4,2:3:0:0:
467,272,29452,6,0,P|385:163|406:32,1,243.2558,6|2,3:2|3:2,2:0:0:0:
398,319,29943,2,0,P|349:310|305:286,1,100,0|0,3:0|2:0,2:0:0:0:
233,172,30265,5,0,3:0:0:0:
244,364,30426,1,0,3:0:0:0:
155,217,30588,2,0,P|195:248|223:289,1,100,0|2,3:0|2:0,2:0:0:0:
57,328,30910,5,2,3:2:0:0:
121,292,31072,1,0,3:0:0:0:
52,346,31233,1,2,1:2:0:0:
9,231,31394,5,2,2:0:0:0:
58,111,31555,1,2,3:2:0:0:
19,249,31717,1,2,3:2:0:0:
73,189,31878,2,0,L|174:207,1,100,0|0,1:0|2:0,2:0:0:0:
419,169,32216,6,0,B|491:237|492:393|381:336,1,232.5,6|0,3:2|2:0,2:0:0:0:
406,170,32538,2,0,L|452:108,1,76.9999999999999,0|2,1:0|3:2,2:0:0:0:
338,198,32861,2,0,L|414:182,1,76.9999999999999,0|0,1:0|3:0,2:0:0:0:
273,163,33183,2,0,L|332:213,1,76.9999999999999,2|0,1:2|3:0,2:0:0:0:
268,89,33506,5,0,1:0:0:0:
241,334,33667,2,0,P|208:273|161:289,1,115.024525,6|0,3:2|2:0,2:0:0:0:
160,288,33989,2,0,B|188:238|188:238|153:138|94:215|42:203,1,232.5,4|0,3:2|2:0,2:0:0:0:
102,70,34313,6,0,P|145:82|145:133,1,77.5,0|0,1:0|1:0,2:0:0:0:
16,192,34475,1,0,1:0:0:0:
3,171,34556,1,8,2:3:0:0:
16,143,34637,2,0,L|31:79,1,50,4|4,2:3|2:3,2:0:0:0:
181,119,34799,6,0,L|228:157,1,50,0|4,1:0|2:3,2:0:0:0:
249,156,34961,2,0,L|240:214,1,50,0|8,1:0|2:3,2:0:0:0:
236,282,35122,1,2,2:0:0:0:
69,384,35283,6,0,P|168:317|309:336,1,244,6|0,3:2|3:0,2:0:0:0:
29,310,35772,2,0,P|62:231|106:192,1,100,2|2,1:2|2:0,2:0:0:0:
192,161,36095,5,0,3:0:0:0:
0,152,36257,1,2,3:2:0:0:
155,80,36418,2,0,P|121:115|77:139,1,100,2|2,1:2|2:0,2:0:0:0:
155,243,36742,5,0,3:0:0:0:
200,298,36903,1,2,3:2:0:0:
161,226,37065,1,0,1:0:0:0:
303,209,37227,5,0,2:0:0:0:
268,344,37388,1,0,3:0:0:0:
295,224,37550,1,0,3:0:0:0:
375,188,37712,2,0,L|356:81,1,100,0|0,1:0|2:0,2:0:0:0:
428,374,38036,6,0,B|320:333|377:285|433:306|498:281|520:254,1,232.5,2|0,3:2|2:0,2:0:0:0:
320,255,38360,2,0,B|340:340|356:333|340:297,1,99,0|2,1:0|3:2,2:0:0:0:
233,271,38684,2,0,B|316:296|318:278|279:274,1,99,0|0,1:0|3:0,2:0:0:0:
216,347,39008,2,0,B|279:287|265:276|242:308,1,99,2|0,1:2|3:0,2:0:0:0:
289,384,39333,5,0,1:0:0:0:
211,337,39495,2,0,P|166:316|136:365,1,115.5,6|0,3:2|2:0,2:0:0:0:
135,363,39819,2,0,B|97:339|97:339|56:222|152:176|143:146,1,232.5,4|0,3:2|2:0,2:0:0:0:
12,196,40143,6,0,P|51:200|89:192,1,77.5,0|0,1:0|1:0,2:0:0:0:
155,93,40319,1,2,1:2:0:0:
141,66,40397,1,8,2:3:0:0:
115,65,40475,2,0,L|76:123,1,50,4|0,2:3|2:0,2:0:0:0:
111,267,40631,6,0,L|160:257,1,50,2|4,1:2|2:3,2:0:0:0:
171,232,40804,2,0,L|207:197,1,50,0|4,1:0|2:3,2:0:0:0:
104,182,40957,1,4,2:3:0:0:
236,291,41111,6,0,P|388:315|461:393,1,243.268,6|2,3:2|3:2,2:0:0:0:
444,239,41611,2,0,P|367:210|331:169,1,100,0|0,3:0|2:0,2:0:0:0:
324,107,41937,5,0,3:0:0:0:
306,256,42100,1,0,3:0:0:0:
182,190,42263,2,0,P|262:176|313:193,1,100,0|2,3:0|2:0,2:0:0:0:
132,252,42589,5,2,3:2:0:0:
77,317,42746,1,0,3:0:0:0:
124,242,42904,1,2,1:2:0:0:
83,145,43062,5,2,2:0:0:0:
102,42,43220,1,2,3:2:0:0:
74,139,43389,1,2,3:2:0:0:
45,241,43558,2,0,P|112:240|149:264,1,100,0|0,1:0|2:0,2:0:0:0:
237,368,43887,6,0,B|187:342|204:324|404:311|418:325|384:360,1,232.5,2|0,3:2|2:0,2:0:0:0:
248,243,44209,2,0,P|274:293|232:266,1,99,0|2,1:0|3:2,2:0:0:0:
305,184,44532,2,0,P|274:231|277:181,1,99,0|0,1:0|3:0,2:0:0:0:
381,221,44854,2,0,P|324:218|369:195,1,99,2|0,1:2|3:0,2:0:0:0:
361,300,45177,5,0,1:0:0:0:
296,170,45338,2,0,P|310:120|291:56,1,115.5,6|0,3:2|2:0,2:0:0:0:
278,29,45662,2,0,B|252:68|252:68|266:218|414:90|405:71|428:134,1,232.5,4|0,3:2|2:0,2:0:0:0:
504,39,45986,6,0,P|457:31|412:75,1,77.5,0|0,1:0|1:0,2:0:0:0:
433,178,46148,1,0,1:0:0:0:
440,200,46229,1,8,2:3:0:0:
448,224,46310,2,0,L|529:210,1,50,4|0,2:3|2:0,2:0:0:0:
388,106,46472,6,0,L|320:118,1,50,0|4,1:0|2:3,2:0:0:0:
315,137,46635,2,0,L|258:97,1,50,0|4,1:0|2:3,2:0:0:0:
290,19,46797,1,4,2:3:0:0:
252,230,46959,6,0,P|107:225|29:144,1,243.263933333333,6|0,3:2|3:0,2:0:0:0:
80,361,47456,2,0,P|37:300|46:253,1,100,2|2,1:2|2:0,2:0:0:0:
178,170,47777,5,0,3:0:0:0:
198,42,47938,1,2,3:2:0:0:
136,232,48099,2,0,P|68:200|53:155,1,100,2|2,1:2|2:0,2:0:0:0:
185,155,48421,5,2,3:2:0:0:
265,138,48581,1,2,3:2:0:0:
328,249,48742,1,0,1:0:0:0:
275,127,48903,5,0,2:0:0:0:
334,20,49064,1,0,3:0:0:0:
416,27,49225,1,0,3:0:0:0:
344,34,49386,2,0,B|420:50|494:67|462:132,1,176.028752037761,0|4,1:0|1:3,2:0:0:0:
418,332,50205,5,2,2:0:0:0:
393,258,50529,1,6,3:2:0:0:
393,258,52314,6,0,L|401:284,1,27.5,6|0,3:2|2:0,2:0:0:0:
379,367,52476,6,0,L|393:253,1,110,2|0,3:2|2:0,2:0:0:0:
428,0,52963,6,0,L|414:113,1,110,2|0,1:2|2:0,2:0:0:0:
340,126,53450,5,2,1:2:0:0:
325,130,53531,1,0,1:0:0:0:
312,133,53613,2,0,L|303:106,1,27.5,6|0,3:2|2:0,2:0:0:0:
326,23,53775,6,0,L|312:137,1,110,2|0,1:2|2:0,2:0:0:0:
279,384,54262,6,0,L|292:274,1,110,2|0,1:2|2:0,2:0:0:0:
214,258,54749,5,2,1:2:0:0:
199,254,54830,1,0,1:0:0:0:
185,250,54912,2,0,L|176:276,1,27.5,6|0,3:2|2:0,2:0:0:0:
200,361,55074,6,0,L|186:247,1,110,2|0,1:2|2:0,2:0:0:0:
153,0,55561,6,0,L|166:109,1,110,2|0,1:2|2:0,2:0:0:0:
112,165,56048,2,0,L|63:174,1,27.5,0|0,1:0|2:0,2:0:0:0:
34,233,56211,5,6,3:2:0:0:
72,260,56426,5,2,3:2:0:0:
81,307,56641,5,2,3:2:0:0:
54,353,56857,5,2,1:2:0:0:
176,250,57077,5,2,3:2:0:0:
322,207,57297,5,2,3:2:0:0:
402,33,57518,6,0,L|428:41,1,27.5,6|0,3:2|2:0,2:0:0:0:
511,19,57673,6,0,L|397:33,1,110,2|0,3:2|2:0,2:0:0:0:
144,68,58139,6,0,L|257:54,1,110,2|0,1:2|2:0,2:0:0:0:
112,138,58644,5,2,1:2:0:0:
116,153,58728,1,0,1:0:0:0:
119,166,58813,2,0,L|92:175,1,27.5,6|0,3:2|2:0,2:0:0:0:
9,152,58981,6,0,L|123:166,1,109.655333333333,2|0,1:2|3:0,2:0:0:0:
370,199,59459,6,0,L|260:186,1,110,2|0,1:2|2:0,2:0:0:0:
393,270,59937,5,2,1:2:0:0:
389,285,60017,1,0,1:0:0:0:
386,298,60097,2,0,L|413:307,1,27.5,6|0,3:2|2:0,2:0:0:0:
496,284,60256,6,0,L|382:298,1,110,2|0,1:2|3:0,2:0:0:0:
135,331,60736,6,0,L|245:318,1,110,2|0,1:2|2:0,2:0:0:0:
80,274,61236,5,0,1:0:0:0:
84,259,61319,1,0,2:0:0:0:
87,246,61402,1,6,3:2:0:0:
58,207,61629,5,2,3:2:0:0:
79,159,61856,5,2,3:2:0:0:
135,153,62083,5,2,1:2:0:0:
304,208,62311,5,2,3:2:0:0:
487,284,62539,5,2,3:2:0:0:
458,214,62767,2,0,L|467:264,2,44,0|0|0,3:0|3:0|3:0,2:0:0:0:
410,315,63452,6,0,P|355:370|258:368,1,166.666666666667,6|0,3:2|2:0,2:0:0:0:
246,344,64185,2,0,L|259:249,2,66.6666666666667,2|2|2,1:2|2:0|3:2,2:0:0:0:
237,251,64919,2,0,P|157:231|67:299,2,200.13625,2|0|0,3:2|1:0|3:0,2:0:0:0:
237,251,66874,5,2,2:0:0:0:
218,222,67118,1,2,1:2:0:0:
238,153,67362,1,2,2:0:0:0:
317,111,67606,1,2,3:2:0:0:
431,184,67850,1,0,3:0:0:0:
442,177,68338,5,0,3:0:0:0:
328,104,68582,2,0,L|341:9,2,66.6666666666667,2|0|0,1:2|3:0|2:0,2:0:0:0:
302,125,69313,6,0,P|220:126|162:183,1,166.666666666667,0|0,3:0|2:0,2:0:0:0:
143,211,70045,2,0,L|76:201,2,66.6666666666667,2|2|2,1:2|2:0|3:2,2:0:0:0:
51,224,70777,2,0,P|77:317|166:355,1,200,2|0,3:2|1:0,2:0:0:0:
181,334,71996,5,2,3:2:0:0:
77,201,72240,2,0,L|143:211,1,66.6666666666667,2|0,3:2|2:0,2:0:0:0:
181,334,72728,1,2,2:0:0:0:
249,290,72972,2,0,L|314:299,1,66.6666666666667,2|0,1:2|2:0,2:0:0:0:
386,267,73460,2,0,L|418:271,1,33.3333333333333,2|0,3:2|2:0,2:0:0:0:
483,324,73704,1,2,3:2:0:0:
418,271,73942,6,0,L|386:267,1,33.3333333333333,2|0,2:0|1:0,2:0:0:0:
334,211,74180,1,0,1:0:0:0:
323,192,74299,1,0,3:0:0:0:
342,151,74416,2,0,L|349:108,3,33.3333333333333,0|8|4|0,1:0|3:0|2:3|1:0,2:0:0:0:
265,248,74916,2,0,L|221:269,1,33.3333333333333,0|0,1:0|2:0,2:0:0:0:
142,310,75166,6,0,L|61:300,2,66.6666666666667,0|0|0,3:0|2:0|3:0,2:0:0:0:
17,357,75897,1,2,1:2:0:0:
146,293,76141,1,2,2:0:0:0:
156,193,76385,2,0,L|147:148,1,33.3333333333333,0|2,3:0|2:0,2:0:0:0:
183,93,76629,2,0,P|248:60|370:103,2,200,0|0|0,3:0|1:0|3:0,2:0:0:0:
149,160,78336,6,0,L|162:225,1,66.6666666666667,2|2,2:0|3:2,2:0:0:0:
111,315,78824,1,2,1:2:0:0:
174,363,79068,1,2,2:0:0:0:
306,368,79312,1,2,3:2:0:0:
447,273,79556,5,0,3:0:0:0:
367,252,79800,1,0,2:0:0:0:
346,230,79922,1,0,2:0:0:0:
346,179,80044,1,0,2:0:0:0:
469,79,80287,5,0,1:0:0:0:
342,52,80531,1,0,2:0:0:0:
388,81,80653,1,0,2:0:0:0:
393,108,80775,1,0,2:0:0:0:
346,233,81019,6,0,L|280:241,2,66.6666666666667,0|0|0,3:0|2:0|3:0,2:0:0:0:
247,317,81748,1,2,1:2:0:0:
86,353,81991,1,2,2:0:0:0:
19,281,82234,1,2,3:2:0:0:
54,232,82477,1,2,3:2:0:0:
50,184,82721,5,0,2:0:0:0:
41,173,82842,1,0,3:0:0:0:
40,158,82964,1,0,3:0:0:0:
48,136,83085,1,0,3:0:0:0:
27,127,83207,1,0,1:0:0:0:
37,81,83450,5,0,2:0:0:0:
89,68,83693,1,0,3:0:0:0:
116,105,83936,2,0,L|188:141,1,66.6666666666667,2|0,3:2|2:0,2:0:0:0:
189,189,84423,1,2,3:2:0:0:
203,366,84666,5,2,1:2:0:0:
173,323,84909,1,0,2:0:0:0:
193,285,85152,1,2,2:0:0:0:
360,309,85395,6,0,L|411:326,1,33.3333333333333,0|2,1:0|1:2,2:0:0:0:
446,310,85633,1,0,3:0:0:0:
461,303,85752,1,0,3:0:0:0:
461,271,85871,2,0,L|449:235,1,33.3333333333333,0|0,3:0|3:0,2:0:0:0:
313,244,86121,6,0,L|301:208,1,33.3333333333333,8|0,2:3|2:0,2:0:0:0:
358,145,86371,1,0,1:0:0:0:
403,124,86496,1,2,2:3:0:0:
446,135,86621,1,4,3:0:0:0:
460,151,86746,1,0,2:0:0:0:
465,170,86871,1,6,3:2:0:0:
429,196,92724,5,0,3:0:0:0:
426,210,92968,1,0,2:0:0:0:
456,131,98568,6,0,B|417:205|417:205|347:232,1,127.5,6|0,3:2|2:0,2:0:0:0:
311,182,98812,2,0,B|356:246|356:246|363:314,1,127.5,2|0,3:2|2:0,2:0:0:0:
299,344,99057,2,0,L|207:358,1,85,2|0,3:2|2:0,2:0:0:0:
2,380,99301,6,0,B|15:301|90:326|133:250,2,170,2|2|2,1:2|3:2|3:2,2:0:0:0:
12,157,100035,6,0,B|77:139|77:139|151:153,1,127.5,6|0,3:2|2:0,2:0:0:0:
172,77,100280,2,0,B|169:145|169:145|143:229,1,127.5,2|0,3:2|2:0,2:0:0:0:
209,254,100525,2,0,L|303:236,1,85,2|0,3:2|2:0,2:0:0:0:
501,139,100769,6,0,B|444:165|446:179|476:294,2,170,2|2|2,1:2|3:2|3:2,2:0:0:0:
380,161,101503,6,0,B|321:206|321:206|263:187,1,127.5,6|0,3:2|2:0,2:0:0:0:
259,148,101748,2,0,B|268:62|268:62|205:79,1,127.5,2|0,3:2|2:0,2:0:0:0:
151,86,101993,2,0,B|195:58|195:58|129:46,1,85,2|0,3:2|2:0,2:0:0:0:
50,208,102237,5,2,1:2:0:0:
115,357,102482,1,2,3:2:0:0:
50,72,102727,2,0,B|12:114|12:114|37:28,1,127.5,2|0,3:2|2:0,2:0:0:0:
110,22,102971,6,0,B|152:57|152:57|177:199,2,170,6|2|2,3:2|3:2|3:2,2:0:0:0:
32,241,103698,6,0,B|46:225|46:225|140:212,1,85,2|0,1:2|2:0,2:0:0:0:
281,241,103940,5,2,1:2:0:0:
324,309,104061,1,0,1:0:0:0:
280,361,104183,1,2,1:2:0:0:
231,354,104304,1,0,1:0:0:0:
218,332,104425,1,6,3:2:0:0:
356,191,104669,6,0,B|438:192|438:192|513:228,1,127.5,2|0,3:2|2:0,2:0:0:0:
474,228,104914,2,0,B|451:186|451:186|435:125,1,85,2|0,3:2|2:0,2:0:0:0:
486,17,105158,5,2,1:2:0:0:
283,167,105403,6,0,B|211:207|211:207|142:183,1,127.5,2|0,3:2|2:0,2:0:0:0:
123,253,105648,2,0,B|109:317|109:317|106:291,1,85,2|0,3:2|2:0,2:0:0:0:
32,59,105892,6,0,B|104:18|104:18|148:37,1,127.5,6|0,3:2|2:0,2:0:0:0:
198,95,106137,2,0,B|160:60|160:60|175:169,1,127.5,2|0,3:2|2:0,2:0:0:0:
80,177,106382,2,0,B|102:177|102:177|126:236,1,85,2|0,3:2|2:0,2:0:0:0:
49,358,106626,6,0,B|52:318|75:297|222:338,2,170,2|2|2,1:2|3:2|3:2,2:0:0:0:
253,376,107360,5,6,3:2:0:0:
489,338,107605,2,0,B|429:358|429:358|360:360,1,127.5,2|0,3:2|2:0,2:0:0:0:
426,275,107850,2,0,B|409:328|409:328|392:229,1,127.5,2|0,3:2|2:0,2:0:0:0:
459,203,108094,6,0,B|480:154|480:154|473:119,1,85,2|0,1:2|2:0,2:0:0:0:
253,78,108339,2,0,L|422:62,2,170,2|2|6,3:2|3:2|3:2,2:0:0:0:
21,114,109071,6,0,B|74:118|74:118|128:179,1,127.5,2|0,3:2|2:0,2:0:0:0:
51,223,109315,2,0,B|72:273|72:273|71:232,1,85,2|0,3:2|2:0,2:0:0:0:
115,43,109559,2,0,B|189:61|189:61|191:86,1,85,2|0,1:2|2:0,2:0:0:0:
145,187,109803,5,8,2:3:0:0:
217,161,109925,1,8,2:3:0:0:
260,203,110047,1,4,2:3:0:0:
245,239,110169,1,4,2:3:0:0:
250,259,110287,1,6,3:2:0:0:
455,363,110526,6,0,B|439:316|439:316|361:353,1,127.5,2|0,3:2|2:0,2:0:0:0:
287,371,110766,2,0,B|343:330|343:330|356:293,1,85,2|0,3:2|2:0,2:0:0:0:
375,85,111005,2,0,B|352:139|406:154|396:250,2,170,2|2|2,1:2|3:2|3:2,2:0:0:0:
461,122,111736,6,0,B|486:178|486:178|424:208,1,127.5,6|0,3:2|2:0,2:0:0:0:
302,210,111980,2,0,B|342:168|342:168|413:191,1,127.5,2|0,3:2|2:0,2:0:0:0:
372,269,112224,2,0,B|330:292|330:292|287:288,1,85,2|0,3:2|2:0,2:0:0:0:
58,255,112468,6,0,B|184:221|229:217|226:280,2,170,2|2|2,1:2|3:2|3:2,2:0:0:0:
71,370,113200,6,0,B|111:286|111:286|88:238,1,127.5,6|0,3:2|2:0,2:0:0:0:
107,194,113443,2,0,B|35:246|35:246|97:232,1,127.5,2|0,3:2|2:0,2:0:0:0:
132,172,113687,2,0,B|109:129|109:129|107:89,1,85,2|0,3:2|2:0,2:0:0:0:
280,10,113931,5,2,1:2:0:0:
499,95,114175,1,2,3:2:0:0:
462,311,114419,2,0,B|500:270|500:270|475:356,1,127.5,2|0,3:2|2:0,2:0:0:0:
402,361,114663,6,0,B|360:327|360:327|335:185,2,170,6|2|2,3:2|3:2|3:2,2:0:0:0:
480,143,115395,6,0,B|466:159|466:159|372:172,1,85,2|0,1:2|2:0,2:0:0:0:
231,143,115639,5,8,2:3:0:0:
188,75,115760,1,8,2:3:0:0:
232,23,115882,1,4,2:3:0:0:
281,30,116004,1,4,2:3:0:0:
294,52,116126,1,6,3:2:0:0:
158,197,116387,6,0,B|108:165|108:165|52:158,1,85,2|0,3:0|2:0,2:0:0:0:
148,341,116648,2,0,B|138:305|138:305|115:263,1,85,2|0,3:0|2:0,2:0:0:0:
51,144,116871,1,2,1:2:0:0:
229,241,117113,6,0,B|301:200|301:200|370:224,1,127.5,2|0,3:2|2:0,2:0:0:0:
393,149,117355,2,0,B|407:85|407:85|410:111,1,85,2|0,3:2|2:0,2:0:0:0:
480,325,117598,6,0,B|413:366|413:366|364:347,1,127.5,6|0,3:2|2:0,2:0:0:0:
313,289,117840,2,0,B|351:324|351:324|336:214,1,127.5,2|0,3:2|2:0,2:0:0:0:
432,207,118083,2,0,B|410:207|410:207|386:148,1,85,2|0,3:2|2:0,2:0:0:0:
463,26,118325,6,0,B|460:66|437:87|290:46,2,170,2|2|2,1:2|3:2|3:2,2:0:0:0:
259,8,119052,5,6,3:2:0:0:
139,179,119294,2,0,B|200:153|200:153|214:89,1,127.5,2|0,3:2|2:0,2:0:0:0:
237,111,119536,2,0,B|177:26|177:26|130:41,1,127.5,2|0,3:2|2:0,2:0:0:0:
90,84,119779,2,0,B|90:126|90:126|120:172,1,85,2|0,1:2|2:0,2:0:0:0:
285,291,120021,6,0,B|401:271|401:271|384:251,1,127.5,2|0,3:2|2:0,2:0:0:0:
368,304,120264,2,0,B|360:349|360:349|386:383,1,85,2|0,3:0|2:0,2:0:0:0:
501,359,120506,2,0,B|509:314|509:314|483:280,1,85,6|0,3:2|2:0,2:0:0:0:
306,185,120748,6,0,B|270:144|270:144|266:62,1,127.5,2|0,3:2|2:0,2:0:0:0:
344,42,120991,2,0,B|323:94|323:94|286:106,1,85,2|0,3:2|2:0,2:0:0:0:
107,54,121234,2,0,B|76:42|20:103|91:172|56:196,2,170,2|0|0,1:2|3:0|3:0,2:0:0:0:
116,315,121974,5,4,3:2:0:0:
