osu file format v14

[General]
AudioFilename: audio.ogg
AudioLeadIn: 0
PreviewTime: 26371
Countdown: 0
SampleSet: Soft
StackLeniency: 0.4
Mode: 0
LetterboxInBreaks: 0
WidescreenStoryboard: 1

[Editor]
Bookmarks: 107,8856,26371,49719,52314,63452,86871,98568,104425,110287,116126,121974,127838
DistanceSpacing: 0.1
BeatDivisor: 12
GridSize: 16
TimelineZoom: 1.9

[Metadata]
Title:201
TitleUnicode:201
Artist:Perspective, a lovely hand to hold
ArtistUnicode:Perspective, a lovely hand to hold
Creator:laura-
Version:Ralkinson's Extra (feat. Fisky)
Source:
Tags:celektus formless000 ralkinson fisky -tatsuo what not to do english alternative emo indie math noise pop rock palhth nashua new hampshire 2017
BeatmapID:3725635
BeatmapSetID:1645025

[Difficulty]
HPDrainRate:6
CircleSize:4
OverallDifficulty:8
ApproachRate:9.2
SliderMultiplier:2
SliderTickRate:0.5

[Events]
//Background and Video events
0,0,"bg.jpg",0,0
//Break Periods
//Storyboard Layer 0 (Background)
//Storyboard Layer 1 (Fail)
//Storyboard Layer 2 (Pass)
//Storyboard Layer 3 (Foreground)
//Storyboard Layer 4 (Overlay)
//Storyboard Sound Samples

[TimingPoints]
107,324.324324324324,6,2,1,70,1,0
2052,324.324324324324,7,2,1,70,1,0
2052,-100,7,2,2,70,0,0
4322,323.450134770889,6,2,1,70,1,0
6262,324.324324324324,4,2,1,70,1,0
6262,-100,4,2,2,70,0,0
8856,324.324324324324,6,2,1,70,1,0
9099,-100,6,2,1,5,0,0
9180,-100,6,2,3,70,0,0
9991,-100,6,2,3,70,0,0
10153,-100,6,2,1,70,0,0
10315,-100,6,2,3,70,0,0
10477,-100,6,2,1,70,0,0
10801,322.58064516129,7,2,1,70,1,0
11930,-100,7,2,3,70,0,0
12091,-100,7,2,1,70,0,0
12252,-100,7,2,3,70,0,0
12413,-100,7,2,1,30,0,0
12575,-100,7,2,3,70,0,0
12736,-100,7,2,1,50,0,0
13059,327.868852459016,6,2,1,50,1,0
13059,-100,6,2,1,70,0,0
13304,-100,6,2,1,5,0,0
13386,-100,6,2,1,70,0,0
13714,319.148936170212,6,2,1,70,1,0
14192,-100,6,2,3,70,0,0
14352,-100,6,2,1,70,0,0
14511,-100,6,2,3,70,0,0
14671,344.827586206896,6,2,3,70,1,0
14843,-100,6,2,1,50,0,0
15015,322.58064516129,4,2,1,50,1,0
15041,-100,4,2,1,70,0,0
16144,-100,4,2,4,70,0,0
16305,325.20325203252,4,2,1,70,1,0
17605,324.324324324324,6,2,1,70,1,0
17848,-100,6,2,1,5,0,0
17929,-100,6,2,1,70,0,0
18740,-100,6,2,3,70,0,0
18902,-100,6,2,1,70,0,0
19064,331.491712707182,6,2,3,70,1,0
19229,-100,6,2,1,50,0,0
19561,317.460317460317,7,2,1,50,1,0
19561,-100,7,2,1,70,0,0
19799,-100,7,2,1,5,0,0
19878,-100,7,2,1,70,0,0
20672,340.90909090909,7,2,3,70,1,0
20842,340.90909090909,7,2,1,70,1,0
21012,-100,7,2,3,70,0,0
21182,-100,7,2,1,70,0,0
21353,-100,7,2,3,70,0,0
21524,306.122448979591,7,2,1,50,1,0
21830,323.450134770889,6,2,1,50,1,0
21991,-100,6,2,1,70,0,0
22962,-100,6,2,3,70,0,0
23123,-100,6,2,1,70,0,0
23285,-100,6,2,3,70,0,0
23447,-100,6,2,1,50,0,0
23770,322.58064516129,4,2,1,50,1,0
23801,-100,4,2,1,70,0,0
24899,-100,4,2,4,70,0,0
25060,327.868852459016,4,2,4,70,1,0
25223,-100,4,2,1,70,0,0
25551,-100,4,2,4,70,0,0
25714,-100,4,2,1,70,0,0
26043,-100,4,2,2,70,0,0
26371,324.324324324324,4,2,1,90,1,1
26371,-76.9230769230769,4,2,1,90,0,1
26614,-76.9230769230769,4,2,1,5,0,1
26695,-76.9230769230769,4,2,1,90,0,0
27830,325.20325203252,4,2,1,90,1,1
27830,-76.9230769230769,4,2,1,90,0,1
27992,325.20325203252,4,2,1,90,1,0
28154,-76.9230769230769,4,2,1,90,0,1
28479,-76.9230769230769,4,2,1,90,0,0
28643,320.855614973262,4,2,1,90,1,0
28643,-76.9230769230769,4,2,1,90,0,0
29124,325.20325203252,4,2,1,90,1,0
29286,333.333333333333,4,2,1,90,1,0
29452,327.868852459016,4,2,1,90,1,1
29452,-76.9230769230769,4,2,1,90,0,1
29615,327.868852459016,4,2,1,90,1,1
29943,322.58064516129,4,2,5,90,1,1
29943,-76.9230769230769,4,2,5,90,0,1
30265,-76.9230769230769,4,2,1,90,0,1
30588,-76.9230769230769,4,2,5,90,0,1
30749,-76.9230769230769,4,2,1,90,0,1
31878,338.983050847457,4,2,1,90,1,1
32132,-100,4,2,1,90,0,0
32216,322.58064516129,4,2,1,90,1,1
32216,-76.9230769230769,4,2,1,90,0,1
32457,-76.9230769230769,4,2,1,5,0,1
32538,-76.9230769230769,4,2,1,90,0,0
33667,323.886639676113,4,2,1,90,1,1
33667,-76.9230769230769,4,2,1,90,0,1
33828,323.886639676113,4,2,1,90,1,0
33989,-76.9230769230769,4,2,1,90,0,1
34313,-76.9230769230769,4,2,1,90,0,0
34961,322.58064516129,4,2,1,90,1,0
34961,-76.9230769230769,4,2,1,90,0,0
35283,326.086956521739,4,2,1,90,1,1
35283,-76.9230769230769,4,2,1,90,0,1
35446,326.086956521739,4,2,1,90,1,1
35772,323.450134770889,4,2,1,90,1,1
35772,-76.9230769230769,4,2,1,90,0,1
36742,323.450134770889,4,2,1,90,1,1
37712,-76.9230769230769,4,2,1,90,0,1
37954,-76.9230769230769,4,2,1,5,0,0
38036,324.324324324324,4,2,1,90,1,1
38036,-76.9230769230769,4,2,1,90,0,1
38279,-76.9230769230769,4,2,1,5,0,1
38360,-76.9230769230769,4,2,1,90,0,0
39495,324.324324324324,4,2,1,90,1,1
39495,-76.9230769230769,4,2,1,90,0,1
39657,324.324324324324,4,2,1,90,1,0
39819,-76.9230769230769,4,2,1,90,0,1
40143,352.941176470588,4,2,1,90,1,0
40319,312.5,4,2,1,90,1,0
40319,-76.9230769230769,4,2,1,90,0,0
40631,346.820809248555,4,2,1,90,1,0
40804,307.692307692307,4,2,1,90,1,0
40957,-100,4,2,2,90,0,0
41111,333.333333333333,4,2,1,90,1,1
41111,-76.9230769230769,4,2,1,90,0,1
41277,333.333333333333,4,2,1,90,1,1
41611,326.086956521739,4,2,5,90,1,1
41611,-76.9230769230769,4,2,5,90,0,1
41937,-76.9230769230769,4,2,1,90,0,1
42263,-76.9230769230769,4,2,5,90,0,1
42426,-76.9230769230769,4,2,1,90,0,1
42589,315.78947368421,4,2,1,90,1,1
42589,-76.9230769230769,4,2,1,90,0,1
43220,338.983050847457,4,2,1,90,1,1
43558,329.670329670329,4,2,1,90,1,1
43558,-76.9230769230769,4,2,1,90,0,1
43722,-76.9230769230769,4,2,1,90,0,0
43887,322.58064516129,4,2,1,90,1,1
44209,-100,4,2,1,90,0,0
45338,324.324324324324,4,2,1,90,1,1
45338,-76.9230769230769,4,2,1,90,0,1
45500,324.324324324324,4,2,1,90,1,0
45662,-76.9230769230769,4,2,1,90,0,1
45986,-76.9230769230769,4,2,1,90,0,0
46635,324.324324324324,4,2,1,90,1,0
46797,-100,4,2,2,90,0,0
46959,331.491712707182,4,2,1,90,1,1
46959,-76.9230769230769,4,2,1,90,0,1
47124,331.491712707182,4,2,1,90,1,1
47456,321.71581769437,4,2,1,90,1,1
47456,-76.9230769230769,4,2,1,90,0,1
48421,321.71581769437,4,2,1,90,1,1
49386,333.333333333333,4,2,1,90,1,1
49719,324.499729583559,4,2,2,50,1,0
49719,-142.857142857143,4,2,2,50,0,0
50205,324.499729583559,4,2,2,50,1,0
50205,-142.857142857143,4,2,2,50,0,0
50367,324.499729583559,4,2,2,50,1,0
50529,-142.857142857143,4,2,1,50,0,0
51015,324.499729583559,4,2,1,5,1,0
52314,324.763193504736,4,2,1,50,1,0
52476,-250,4,2,1,70,0,0
52963,-83.3333333333333,4,2,1,70,0,0
53775,-250,4,2,1,70,0,0
54262,-83.3333333333333,4,2,1,70,0,0
55074,-250,4,2,1,70,0,0
55561,-83.3333333333333,4,2,1,70,0,0
56211,323.014804845222,4,2,1,70,1,0
56857,330.578512396694,4,2,1,70,1,0
57518,310.880829015544,4,2,1,70,1,0
57673,-250,4,2,1,70,0,0
58139,337.078651685393,4,2,1,70,1,0
58139,-83.3333333333333,4,2,1,70,0,0
58813,337.078651685393,4,2,1,70,1,0
58981,319.148936170213,4,2,1,70,1,0
58981,-250,4,2,1,70,0,0
59140,319.148936170213,4,2,1,70,1,0
59219,-100,4,2,1,5,0,0
59299,-100,4,2,1,70,0,0
59459,319.148936170213,4,2,1,70,1,0
59459,-83.3333333333333,4,2,1,70,0,0
60256,-250,4,2,1,70,0,0
60496,-250,4,2,1,5,0,0
60576,-250,4,2,1,70,0,0
60736,333.333333333334,4,2,1,70,1,0
60736,-83.3333333333333,4,2,1,70,0,0
61402,340.909090909091,4,2,1,70,1,0
62083,342.368045649073,4,2,1,70,1,0
62767,-100,4,2,1,50,0,0
63452,733.944954128441,4,2,1,50,1,0
63452,-62.5,4,2,1,50,0,0
64185,-83.3333333333333,4,2,1,50,0,0
66387,731.707317073171,4,2,1,50,1,0
67118,-83.3333333333333,4,2,1,50,0,0
73704,714.285714285715,4,2,1,50,1,0
74061,-100,4,2,1,30,0,0
74180,-100,4,2,1,40,0,0
74299,-100,4,2,1,45,0,0
74416,750,4,2,1,45,1,0
74541,-100,4,2,1,50,0,0
74791,-100,4,2,1,20,0,0
74916,-100,4,2,1,50,0,0
75166,731.707317073171,4,2,1,50,1,0
75166,-83.3333333333333,4,2,1,50,0,0
81019,729.483282674772,4,2,1,50,1,0
81748,-83.3333333333333,4,2,1,50,0,0
85395,714.285714285714,4,2,1,50,1,0
85871,750,4,2,1,50,1,0
86121,749.999999999999,4,2,1,50,1,0
86121,-62.5,4,2,1,50,0,0
86621,-62.5,4,2,6,50,0,0
86871,731.707317073171,4,2,1,50,1,0
86871,-71.4285714285714,4,2,1,50,0,0
87602,-71.4285714285714,4,2,1,20,0,0
88334,-71.4285714285714,4,2,1,25,0,0
89066,-71.4285714285714,4,2,1,30,0,0
89797,-71.4285714285714,4,2,1,35,0,0
90529,-71.4285714285714,4,2,1,40,0,0
91261,-71.4285714285714,4,2,1,45,0,0
91505,-62.5,4,2,1,45,0,0
91992,-62.5,4,2,1,60,0,0
92724,-62.5,4,2,4,65,0,0
97114,722.891566265061,4,2,1,20,1,0
97354,-100,4,2,1,25,0,0
97595,-62.5,4,2,1,30,0,0
97836,-62.5,4,2,1,35,0,0
98077,-62.5,4,2,1,40,0,0
98318,750.000000000001,4,2,1,45,1,0
98318,-62.5,4,2,1,45,0,0
98568,733.944954128442,4,2,1,90,1,1
98568,-26.3157894736842,4,2,1,90,0,1
98751,-26.3157894736842,4,2,1,5,0,1
98812,-26.3157894736842,4,2,1,90,0,1
99301,-133.333333333333,4,2,1,90,0,1
99485,-133.333333333333,4,2,1,5,0,1
99546,-26.3157894736842,4,2,1,90,0,1
99730,-26.3157894736842,4,2,1,5,0,1
99791,-26.3157894736842,4,2,1,90,0,1
99974,-26.3157894736842,4,2,1,5,0,1
100035,-26.3157894736842,4,2,1,90,0,1
100769,-133.333333333333,4,2,1,90,0,1
101503,-26.3157894736842,4,2,1,90,0,1
101687,-26.3157894736842,4,2,1,5,0,1
101748,-26.3157894736842,4,2,1,90,0,1
102176,-26.3157894736842,4,2,1,5,0,1
102237,-133.333333333333,4,2,1,90,0,1
102421,-133.333333333333,4,2,1,5,0,1
102482,-26.3157894736842,4,2,1,90,0,1
102665,-26.3157894736842,4,2,1,5,0,1
102727,-26.3157894736842,4,2,1,90,0,1
102910,-26.3157894736842,4,2,1,5,0,1
102971,727.272727272729,4,2,1,90,1,1
103940,-100,4,2,1,50,0,1
104061,-100,4,2,1,60,0,1
104183,-100,4,2,1,70,0,1
104304,-100,4,2,1,80,0,1
104425,733.944954128442,4,2,1,90,1,1
104425,-26.3157894736842,4,2,1,90,0,1
104608,-26.3157894736842,4,2,1,5,0,1
104669,-26.3157894736842,4,2,1,90,0,1
104853,-26.3157894736842,4,2,1,5,0,1
104914,-26.3157894736842,4,2,1,90,0,1
105097,-26.3157894736842,4,2,1,5,0,1
105158,-133.333333333333,4,2,1,90,0,1
105342,-26.3157894736842,4,2,1,5,0,1
105403,-26.3157894736842,4,2,1,90,0,1
105587,-26.3157894736842,4,2,1,5,0,1
105648,-26.3157894736842,4,2,1,90,0,1
105831,-26.3157894736842,4,2,1,5,0,1
105892,-26.3157894736842,4,2,1,90,0,1
106626,-133.333333333333,4,2,1,90,0,1
107360,-26.3157894736842,4,2,1,90,0,1
107544,-26.3157894736842,4,2,1,5,0,1
107605,-26.3157894736842,4,2,1,90,0,1
107788,-26.3157894736842,4,2,1,5,0,1
107850,-26.3157894736842,4,2,1,90,0,1
108094,-133.333333333333,4,2,1,90,0,1
108278,-133.333333333333,4,2,1,5,0,1
108339,-26.3157894736842,4,2,1,90,0,1
108522,-26.3157894736842,4,2,1,5,0,1
108584,-26.3157894736842,4,2,1,90,0,1
108767,-26.3157894736842,4,2,1,5,0,1
108828,731.707317073172,4,2,1,90,1,1
110287,718.562874251498,4,2,1,90,1,1
110287,-26.3157894736842,4,2,1,90,0,1
110466,-26.3157894736842,4,2,1,5,0,1
110526,-26.3157894736842,4,2,1,90,0,1
111005,731.707317073172,4,2,1,90,1,1
111005,-133.333333333333,4,2,1,90,0,1
111187,-133.333333333333,4,2,1,5,0,1
111248,-26.3157894736842,4,2,1,90,0,1
111431,-26.3157894736842,4,2,1,5,0,1
111492,-26.3157894736842,4,2,1,90,0,1
111675,-26.3157894736842,4,2,1,5,0,1
111736,-26.3157894736842,4,2,1,90,0,1
112468,-133.333333333333,4,2,1,90,0,1
113200,731.707317073172,4,2,1,90,1,1
113200,-26.3157894736842,4,2,1,90,0,1
113382,-26.3157894736842,4,2,1,5,0,1
113443,-26.3157894736842,4,2,1,90,0,1
113870,-26.3157894736842,4,2,1,5,0,1
113931,-133.333333333333,4,2,1,90,0,1
114114,-133.333333333333,4,2,1,5,0,1
114175,-26.3157894736842,4,2,1,90,0,1
114358,-26.3157894736842,4,2,1,5,0,1
114419,-26.3157894736842,4,2,1,90,0,1
114602,-26.3157894736842,4,2,1,5,0,1
114663,-26.3157894736842,4,2,1,90,0,1
116126,784.313725490198,4,2,1,90,1,1
116126,-26.3157894736842,4,2,1,90,0,1
116322,-26.3157894736842,4,2,1,5,0,1
116387,-26.3157894736842,4,2,1,90,0,1
116583,-26.3157894736842,4,2,1,5,0,1
116648,895.522388059704,4,2,1,90,1,1
116648,-26.3157894736842,4,2,1,90,0,1
116797,-26.3157894736842,4,2,1,5,0,1
116871,727.272727272729,4,2,1,90,1,1
116871,-133.333333333333,4,2,1,90,0,1
117052,-133.333333333333,4,2,1,5,0,1
117113,-26.3157894736842,4,2,1,90,0,1
117295,-26.3157894736842,4,2,1,5,0,1
117355,-26.3157894736842,4,2,1,90,0,1
117537,-26.3157894736842,4,2,1,5,0,1
117598,-26.3157894736842,4,2,1,90,0,1
118325,-133.333333333333,4,2,1,90,0,1
119052,727.272727272729,4,2,1,90,1,1
119052,-26.3157894736842,4,2,1,90,0,1
119233,-26.3157894736842,4,2,1,5,0,1
119294,-26.3157894736842,4,2,1,90,0,1
119476,-26.3157894736842,4,2,1,5,0,1
119536,-26.3157894736842,4,2,1,90,0,1
119779,-133.333333333333,4,2,1,90,0,1
119961,-133.333333333333,4,2,1,5,0,1
120021,-26.3157894736842,4,2,1,90,0,1
120203,-26.3157894736842,4,2,1,5,0,1
120264,-26.3157894736842,4,2,1,90,0,1
120445,-26.3157894736842,4,2,1,5,0,1
120506,-26.3157894736842,4,2,1,90,0,1
121234,740.740740740742,4,2,1,90,1,1
121234,-41.6666666666667,4,2,1,90,0,1
121419,-41.6666666666667,4,2,1,5,0,1
121480,-41.6666666666667,4,2,1,85,0,1
121666,-41.6666666666667,4,2,1,5,0,1
121727,-41.6666666666667,4,2,1,80,0,1
121913,-41.6666666666667,4,2,1,5,0,1
121974,733.048259010385,4,2,1,70,1,0
123440,-100,4,2,1,60,0,0
124906,-100,4,2,1,50,0,0
126372,-100,4,2,1,40,0,0
127105,-100,4,2,1,20,0,0
127349,-100,4,2,1,15,0,0

[Colours]
Combo1 : 233,222,177
Combo2 : 232,203,200

[HitObjects]
245,65,107,6,0,L|271:182,1,100,6|0,3:2|2:0,2:0:0:0:
52,187,2052,2,0,L|144:260,1,100,6|0,3:0|2:0,2:0:0:0:
492,79,4322,2,0,L|437:169,1,100,6|0,3:2|2:0,2:0:0:0:
161,50,6262,2,0,L|184:113,1,50,6|0,3:0|2:0,2:0:0:0:
456,148,8856,6,0,L|420:320,1,150,6|0,3:2|2:0,2:0:0:0:
359,250,9180,1,2,1:2:0:0:
195,337,9342,1,2,2:0:0:0:
209,351,9423,1,0,2:0:0:0:
250,358,9504,1,0,2:0:0:0:
205,168,9666,6,0,L|252:282,1,100,2|2,2:0|1:2,2:0:0:0:
329,156,9991,2,0,L|349:95,1,50,0|0,3:0|2:0,2:0:0:0:
155,229,10153,1,2,2:0:0:0:
353,101,10315,2,0,L|313:130,1,50,0|0,3:0|2:0,2:0:0:0:
212,70,10477,1,2,2:0:0:0:
453,207,10801,6,0,L|239:272,1,200,4|2,3:2|1:2,2:0:0:0:
56,181,11284,1,2,2:0:0:0:
46,171,11365,1,0,2:0:0:0:
37,134,11446,1,0,3:0:0:0:
122,237,11607,1,2,3:2:0:0:
335,139,11768,5,2,1:2:0:0:
233,65,11930,2,0,L|334:106,1,100,0|2,3:0|2:0,2:0:0:0:
179,210,12252,2,0,L|295:160,1,100,0|0,3:0|1:0,2:0:0:0:
123,75,12575,2,0,L|231:96,1,100,0|2,3:0|1:2,2:0:0:0:
405,44,12897,1,0,1:0:0:0:
297,243,13059,6,0,L|416:146,1,150,4|0,3:2|2:0,2:0:0:0:
497,162,13386,1,2,1:2:0:0:
470,308,13550,1,2,2:0:0:0:
453,293,13632,1,0,2:0:0:0:
456,267,13714,1,0,3:0:0:0:
380,135,13873,6,0,L|407:20,1,100,2|2,3:2|1:2,2:0:0:0:
270,141,14192,2,0,L|220:198,1,50,0|0,3:0|2:0,2:0:0:0:
416,117,14352,1,2,2:0:0:0:
203,118,14511,2,0,L|289:127,1,50,0|0,3:0|2:0,2:0:0:0:
40,331,14843,1,2,1:2:0:0:
184,383,15015,6,0,L|155:243,1,100,6|0,3:2|2:0,2:0:0:0:
213,136,15337,1,2,1:2:0:0:
112,58,15498,1,2,2:0:0:0:
92,72,15579,2,0,L|135:110,1,50,0|0,2:0|3:0,2:0:0:0:
316,95,15821,6,0,L|437:59,1,100,2|2,3:2|1:2,2:0:0:0:
288,122,16144,1,0,3:0:0:0:
468,324,16305,1,2,1:2:0:0:
390,169,16467,1,2,1:2:0:0:
238,185,16630,1,0,1:0:0:0:
203,257,16792,1,8,2:3:0:0:
248,302,16955,1,4,2:3:0:0:
332,251,17280,5,2,2:3:0:0:
332,251,17605,6,0,L|277:84,1,150,6|0,3:2|2:0,2:0:0:0:
223,53,17929,1,2,1:2:0:0:
55,52,18091,1,2,2:0:0:0:
40,69,18172,1,0,2:0:0:0:
51,102,18253,1,0,3:0:0:0:
171,167,18415,6,0,L|211:52,1,100,2|2,3:2|1:2,2:0:0:0:
46,208,18740,2,0,L|-3:226,1,50,0|0,3:0|2:0,2:0:0:0:
231,227,18902,1,2,2:0:0:0:
2,166,19064,2,0,L|60:203,1,50,0|0,3:0|2:0,2:0:0:0:
142,275,19229,1,2,1:2:0:0:
367,342,19561,6,0,L|311:171,1,150,4|0,3:2|2:0,2:0:0:0:
284,155,19878,2,0,L|308:103,1,50,2|0,1:2|2:0,2:0:0:0:
401,49,20037,1,2,2:0:0:0:
433,32,20116,1,0,2:0:0:0:
456,32,20195,1,0,3:0:0:0:
503,109,20354,1,2,3:2:0:0:
252,277,20513,5,2,1:2:0:0:
393,116,20672,2,0,L|371:228,1,100,0|2,3:0|2:0,2:0:0:0:
72,190,21012,2,0,L|179:283,1,100,0|0,3:0|1:0,2:0:0:0:
331,24,21353,2,0,L|257:117,1,100.586666666667,0|2,3:0|1:2,2:0:0:0:
252,119,21677,1,0,1:0:0:0:
175,57,21830,5,6,3:2:0:0:
56,257,21991,2,0,L|169:230,1,100,2|0,2:0|1:0,2:0:0:0:
56,0,22315,1,2,2:0:0:0:
48,18,22396,1,0,2:0:0:0:
73,59,22476,1,2,3:2:0:0:
156,84,22638,1,0,3:0:0:0:
336,27,22800,5,2,1:2:0:0:
226,164,22962,2,0,L|210:233,1,50,0|0,3:0|2:0,2:0:0:0:
399,103,23123,1,2,2:0:0:0:
220,142,23285,2,0,L|148:188,1,50,0|0,3:0|2:0,2:0:0:0:
303,259,23447,1,2,1:2:0:0:
23,354,23770,6,0,L|236:300,1,200,4|0,3:2|1:0,2:0:0:0:
324,292,24253,1,0,2:0:0:0:
355,298,24334,1,0,2:0:0:0:
367,328,24415,1,0,3:0:0:0:
271,226,24576,1,0,3:0:0:0:
445,196,24737,1,0,1:0:0:0:
354,165,24899,1,0,3:0:0:0:
322,198,25060,2,0,L|422:142,1,100,0|0,3:0|1:0,2:0:0:0:
238,108,25387,1,2,3:2:0:0:
395,28,25551,2,0,L|329:161,1,100,0|0,3:0|1:0,2:0:0:0:
181,145,25879,1,2,3:2:0:0:
77,112,26043,1,4,2:3:0:0:
485,338,26371,6,0,P|385:252|311:270,1,195,6|0,3:2|2:0,2:0:0:0:
251,308,26695,1,0,1:0:0:0:
410,192,26857,1,2,3:2:0:0:
379,164,26938,1,0,2:0:0:0:
326,165,27019,1,0,1:0:0:0:
186,238,27181,1,0,3:0:0:0:
21,326,27343,1,2,1:2:0:0:
65,207,27506,1,0,3:0:0:0:
110,89,27668,1,0,1:0:0:0:
156,324,27830,6,0,P|202:280|292:292,1,129.999994049073,6|0,3:2|2:0,2:0:0:0:
379,164,28154,2,0,P|259:135|186:234,1,260,4|0,3:2|1:0,2:0:0:0:
263,312,28561,1,0,1:0:0:0:
263,312,28643,2,0,P|279:290|276:244,1,65,2|8,1:2|2:3,2:0:0:0:
317,275,28803,2,0,P|276:216|242:221,1,65,4|0,2:3|2:0,2:0:0:0:
100,201,28963,6,0,P|89:234|100:269,1,65,2|8,1:2|2:3,2:0:0:0:
178,134,29124,1,0,1:0:0:0:
155,109,29205,1,8,2:3:0:0:
110,106,29286,1,4,2:3:0:0:
289,219,29452,6,0,P|360:120|478:151,1,259.206988098145,6|2,3:2|3:2,2:0:0:0:
389,85,29943,2,0,P|444:36|509:61,1,130,0|0,3:0|2:0,2:0:0:0:
292,126,30265,1,0,3:0:0:0:
292,126,30426,1,0,3:0:0:0:
504,240,30588,2,0,P|449:191|384:216,1,130,0|2,3:0|2:0,2:0:0:0:
292,126,30910,6,0,P|214:209|58:147,1,260,2|2,3:2|1:2,2:0:0:0:
208,69,31394,1,2,2:0:0:0:
11,131,31555,2,0,P|80:144|117:85,1,130,2|2,3:2|3:2,2:0:0:0:
35,343,31878,1,0,1:0:0:0:
333,293,32216,6,0,P|241:321|174:242,1,195,6|0,3:2|2:0,2:0:0:0:
229,186,32538,1,0,1:0:0:0:
130,335,32699,1,2,3:2:0:0:
165,357,32780,1,0,2:0:0:0:
205,347,32861,1,0,1:0:0:0:
138,177,33022,1,0,3:0:0:0:
82,33,33183,1,2,1:2:0:0:
190,71,33345,1,0,3:0:0:0:
298,111,33506,1,0,1:0:0:0:
92,257,33667,6,0,P|141:218|204:228,1,129.999994049073,6|0,3:2|2:0,2:0:0:0:
388,279,33989,2,0,P|271:236|175:315,1,260,4|0,3:2|1:0,2:0:0:0:
95,356,34394,1,0,1:0:0:0:
95,356,34475,2,0,P|56:352|24:334,1,65,0|8,1:0|2:3,2:0:0:0:
268,353,34637,1,4,2:3:0:0:
134,167,34799,5,0,1:0:0:0:
134,167,34880,1,4,2:3:0:0:
134,167,34961,2,0,P|119:131|124:98,1,65,0|8,1:0|2:3,2:0:0:0:
201,62,35122,1,2,2:0:0:0:
455,194,35283,6,0,P|397:128|231:163,1,259.999988098145,6|0,3:2|3:0,2:0:0:0:
201,62,35772,2,0,P|284:57|323:117,1,130,2|2,1:2|2:0,2:0:0:0:
245,255,36095,1,0,3:0:0:0:
245,255,36257,1,2,3:2:0:0:
455,194,36418,2,0,P|372:189|333:249,1,130,2|2,1:2|2:0,2:0:0:0:
236,357,36742,5,0,3:0:0:0:
236,357,36903,1,2,3:2:0:0:
115,311,37065,5,0,1:0:0:0:
54,137,37227,1,0,2:0:0:0:
173,86,37388,5,0,3:0:0:0:
151,190,37550,1,0,3:0:0:0:
61,232,37712,6,0,L|283:199,1,195,0|0,1:0|2:0,2:0:0:0:
283,99,38036,6,0,P|374:120|446:59,1,195,2|0,3:2|2:0,2:0:0:0:
372,11,38360,1,0,1:0:0:0:
352,219,38522,1,2,3:2:0:0:
374,193,38603,1,0,2:0:0:0:
363,158,38684,1,0,1:0:0:0:
204,134,38846,1,0,3:0:0:0:
45,110,39008,1,2,1:2:0:0:
110,201,39171,1,0,3:0:0:0:
175,292,39333,1,0,1:0:0:0:
422,74,39495,6,0,P|384:122|322:114,1,129.999994049073,6|0,3:2|2:0,2:0:0:0:
137,61,39819,2,0,P|253:103|346:21,1,259.999988098145,4|0,3:2|1:0,2:0:0:0:
245,7,40231,1,0,1:0:0:0:
245,7,40319,2,0,L|225:85,1,65,2|8,1:2|2:3,2:0:0:0:
276,198,40475,1,4,2:3:0:0:
21,282,40631,5,2,1:2:0:0:
57,262,40717,1,4,2:3:0:0:
100,274,40804,2,0,L|112:326,1,50,0|4,1:0|2:3,2:0:0:0:
39,371,40957,1,4,2:3:0:0:
414,254,41111,6,0,P|294:224|217:320,1,259.219988098145,6|2,3:2|3:2,2:0:0:0:
394,335,41611,2,0,P|429:288|511:313,1,130,0|0,3:0|2:0,2:0:0:0:
307,382,41937,1,0,3:0:0:0:
307,382,42100,1,0,3:0:0:0:
414,254,42263,1,0,3:0:0:0:
293,111,42426,5,2,2:0:0:0:
482,194,42589,2,0,P|423:212|379:168,1,130,2|0,3:2|3:0,2:0:0:0:
234,213,42904,1,2,1:2:0:0:
389,78,43062,1,2,2:0:0:0:
204,26,43220,1,2,3:2:0:0:
293,111,43389,1,2,3:2:0:0:
151,166,43558,2,0,P|202:118|276:135,1,130,0|0,1:0|2:0,2:0:0:0:
13,350,43887,5,2,3:2:0:0:
13,350,44048,1,0,2:0:0:0:
104,364,44209,5,0,1:0:0:0:
94,324,44370,1,2,3:2:0:0:
214,351,44532,5,0,1:0:0:0:
164,262,44693,1,0,3:0:0:0:
347,268,44854,5,2,1:2:0:0:
198,173,45016,1,0,3:0:0:0:
357,274,45177,1,0,1:0:0:0:
91,202,45338,6,0,P|163:211|201:156,1,129.999994049073,6|0,3:2|2:0,2:0:0:0:
316,47,45662,2,0,P|241:143|125:105,1,260,4|0,3:2|1:0,2:0:0:0:
110,2,46067,1,0,1:0:0:0:
149,0,46148,1,0,1:0:0:0:
176,15,46229,1,8,2:3:0:0:
203,31,46310,1,4,2:3:0:0:
290,170,46472,1,0,1:0:0:0:
316,185,46554,1,4,2:3:0:0:
344,202,46635,1,0,1:0:0:0:
381,197,46716,1,4,2:3:0:0:
412,191,46797,1,4,2:3:0:0:
88,380,46959,6,0,P|159:280|282:295,1,259.215654764812,6|0,3:2|3:0,2:0:0:0:
107,280,47456,2,0,P|44:272|4:320,1,130,2|2,1:2|2:0,2:0:0:0:
202,244,47777,1,0,3:0:0:0:
202,244,47938,1,2,3:2:0:0:
23,127,48099,2,0,P|85:119|125:167,1,130,2|2,1:2|2:0,2:0:0:0:
297,199,48421,5,2,3:2:0:0:
376,231,48581,1,2,3:2:0:0:
501,138,48742,1,0,1:0:0:0:
427,66,48903,1,0,2:0:0:0:
419,300,49064,5,0,3:0:0:0:
472,216,49225,1,0,3:0:0:0:
403,148,49386,1,0,1:0:0:0:
84,50,49719,6,0,L|106:191,1,140,4|0,1:3|2:0,2:0:0:0:
11,244,50205,2,0,L|-3:161,1,69.9999978637696,2|2,2:0|2:0,2:0:0:0:
100,289,50529,2,0,L|331:343,1,209.999993591309,6|0,3:2|2:0,2:0:0:0:
304,336,52314,5,6,3:2:0:0:
416,241,52476,2,0,L|504:217,1,80,2|0,3:2|2:0,2:0:0:0:
395,261,52963,6,0,B|362:268|362:268|118:182,1,240,2|0,1:2|2:0,2:0:0:0:
75,110,53450,5,2,1:2:0:0:
78,126,53531,1,0,1:0:0:0:
81,142,53613,1,6,3:2:0:0:
187,102,53775,2,0,L|206:15,1,80,2|0,1:2|2:0,2:0:0:0:
175,106,54262,6,0,B|167:139|167:139|226:393,1,240,2|0,1:2|2:0,2:0:0:0:
118,372,54749,5,2,1:2:0:0:
121,356,54830,1,0,1:0:0:0:
124,340,54912,1,6,3:2:0:0:
157,235,55074,2,0,L|72:254,1,80,2|0,1:2|2:0,2:0:0:0:
178,212,55561,6,0,B|216:203|216:203|423:252,1,240,2|0,1:2|2:0,2:0:0:0:
355,54,56048,5,0,1:0:0:0:
355,54,56129,1,0,1:0:0:0:
355,54,56211,2,0,L|386:130,1,66.6666666666667,6|0,3:2|2:0,2:0:0:0:
429,192,56426,2,0,L|411:265,1,66.6666666666667,2|0,3:2|2:0,2:0:0:0:
423,347,56641,2,0,L|349:392,1,66.6666666666667,2|0,3:2|2:0,2:0:0:0:
317,228,56857,6,0,L|323:323,1,66.6666666666667,2|0,1:2|2:0,2:0:0:0:
230,95,57077,2,0,L|300:140,1,66.6666666666667,2|0,3:2|2:0,2:0:0:0:
117,23,57297,2,0,L|208:13,1,66.6666666666667,2|0,3:2|2:0,2:0:0:0:
17,12,57518,5,6,3:2:0:0:
126,131,57673,2,0,L|49:108,1,80,2|0,3:2|2:0,2:0:0:0:
147,155,58139,6,0,B|189:167|189:167|385:99,1,240,2|0,1:2|2:0,2:0:0:0:
483,102,58644,5,2,1:2:0:0:
480,118,58728,1,0,1:0:0:0:
477,134,58813,1,6,3:2:0:0:
278,89,58981,2,0,L|263:14,1,59.7493333333333,2|0,1:2|2:0,2:0:0:0:
244,13,59299,1,0,3:0:0:0:
288,100,59459,6,0,B|296:150|296:150|253:352,1,240,2|0,1:2|2:0,2:0:0:0:
206,220,59937,5,2,1:2:0:0:
222,217,60017,1,0,1:0:0:0:
238,214,60097,1,6,3:2:0:0:
374,261,60256,2,0,L|449:280,1,60,2|0,1:2|2:0,2:0:0:0:
463,261,60576,1,0,3:0:0:0:
352,283,60736,6,0,B|314:274|314:274|69:337,1,240,2|0,1:2|2:0,2:0:0:0:
40,207,61236,5,0,1:0:0:0:
40,207,61319,1,0,1:0:0:0:
40,207,61402,2,0,L|82:149,1,66.6666666666667,6|0,3:2|2:0,2:0:0:0:
119,69,61629,2,0,L|201:52,1,66.6666666666667,2|0,3:2|2:0,2:0:0:0:
274,0,61856,2,0,L|355:20,1,66.6666666666667,2|0,3:2|2:0,2:0:0:0:
387,106,62083,6,0,L|463:62,1,66.6666666666667,2|0,1:2|2:0,2:0:0:0:
261,176,62311,2,0,L|287:79,1,66.6666666666667,2|0,3:2|2:0,2:0:0:0:
168,294,62539,2,0,L|153:210,1,66.6666666666667,2|0,3:2|2:0,2:0:0:0:
314,325,62767,5,0,3:0:0:0:
314,325,62995,1,0,3:0:0:0:
314,325,63224,1,0,3:0:0:0:
79,343,63452,6,0,L|345:295,1,213.333333333333,6|0,3:2|2:0,2:0:0:0:
417,318,64185,6,0,L|435:223,1,80,2|2,1:2|2:0,2:0:0:0:
461,222,64675,1,2,3:2:0:0:
384,154,64919,5,2,3:2:0:0:
390,137,65164,1,0,2:0:0:0:
407,122,65409,1,0,2:0:0:0:
291,91,65653,1,0,1:0:0:0:
277,75,65898,1,0,2:0:0:0:
248,70,66143,1,0,3:0:0:0:
165,102,66387,5,0,3:0:0:0:
142,117,66630,1,0,2:0:0:0:
139,141,66874,1,2,2:0:0:0:
227,170,67118,2,0,L|267:263,1,80,2|2,1:2|2:0,2:0:0:0:
242,333,67606,1,2,3:2:0:0:
173,269,67850,6,0,L|368:309,1,160,0|0,3:0|3:0,2:0:0:0:
443,276,68582,2,0,L|538:222,1,80,2|0,1:2|3:0,2:0:0:0:
366,207,69069,1,0,2:0:0:0:
463,117,69313,5,0,3:0:0:0:
468,139,69557,1,0,2:0:0:0:
456,154,69801,1,0,2:0:0:0:
360,122,70045,2,0,L|273:107,1,80,2|2,1:2|2:0,2:0:0:0:
170,68,70533,1,2,3:2:0:0:
261,91,70777,6,0,L|83:124,1,160,2|0,3:2|2:0,2:0:0:0:
20,143,71508,1,0,1:0:0:0:
13,167,71752,1,0,2:0:0:0:
0,257,71996,1,2,3:2:0:0:
88,323,72240,6,0,L|253:283,1,160,2|2,3:2|2:0,2:0:0:0:
101,190,72972,2,0,L|200:209,1,80,2|0,1:2|2:0,2:0:0:0:
337,272,73460,1,2,3:2:0:0:
275,125,73704,6,0,L|293:248,1,66.6666666666667,2|2,3:2|2:0,2:0:0:0:
376,187,74061,1,0,1:0:0:0:
389,189,74180,1,0,1:0:0:0:
404,192,74299,1,0,3:0:0:0:
419,196,74416,1,0,1:0:0:0:
432,188,74541,1,8,3:0:0:0:
457,80,74791,1,0,1:0:0:0:
444,72,74916,1,0,1:0:0:0:
429,76,75041,1,0,2:0:0:0:
414,79,75166,6,0,L|330:99,1,80,0|0,3:0|2:0,2:0:0:0:
312,108,75653,1,0,3:0:0:0:
215,41,75897,2,0,L|187:145,1,80,2|2,1:2|2:0,2:0:0:0:
263,205,76385,2,0,L|149:320,1,160,0|2,3:0|2:0,2:0:0:0:
45,314,77117,1,0,3:0:0:0:
177,234,77361,2,0,L|98:221,1,80,0|0,1:0|2:0,2:0:0:0:
83,199,77848,1,0,3:0:0:0:
107,106,78092,5,0,3:0:0:0:
189,68,78336,2,0,L|279:81,1,80,2|2,2:0|3:2,2:0:0:0:
378,34,78824,2,0,L|440:123,1,80,2|2,1:2|2:0,2:0:0:0:
337,168,79312,1,2,3:2:0:0:
439,214,79556,5,0,3:0:0:0:
346,284,79800,1,0,2:0:0:0:
335,287,79922,1,0,2:0:0:0:
324,290,80044,1,0,2:0:0:0:
224,213,80287,1,0,1:0:0:0:
203,333,80531,1,0,2:0:0:0:
206,322,80653,1,0,2:0:0:0:
209,311,80775,1,0,2:0:0:0:
124,221,81019,5,0,3:0:0:0:
102,194,81262,1,0,2:0:0:0:
68,185,81505,1,0,3:0:0:0:
17,106,81748,2,0,L|-6:1,1,80,2|2,1:2|2:0,2:0:0:0:
103,35,82234,1,2,3:2:0:0:
156,123,82477,6,0,L|213:54,1,80,2|0,3:2|2:0,2:0:0:0:
255,151,82842,1,0,3:0:0:0:
255,151,82964,2,0,L|308:139,1,40,0|0,3:0|3:0,2:0:0:0:
454,100,83207,1,0,1:0:0:0:
421,106,83450,1,0,2:0:0:0:
386,87,83693,1,0,3:0:0:0:
355,187,83936,6,0,L|192:226,1,160,2|2,3:2|3:2,2:0:0:0:
206,335,84666,2,0,L|102:302,1,80,2|0,1:2|2:0,2:0:0:0:
289,241,85152,2,0,L|299:291,1,40,2|0,2:0|2:0,2:0:0:0:
412,365,85395,5,0,1:0:0:0:
465,367,85514,1,2,1:2:0:0:
505,332,85633,1,0,3:0:0:0:
444,120,85871,1,0,3:0:0:0:
401,105,85996,1,0,3:0:0:0:
352,85,86121,2,0,L|287:112,1,53.3333333333333,8|0,2:3|2:0,2:0:0:0:
217,57,86371,2,0,L|189:117,1,53.3333333333333,0|0,1:0|2:0,2:0:0:0:
107,129,86621,2,0,L|117:208,1,53.3333333333333,4|0,3:0|2:0,2:0:0:0:
316,345,86871,6,0,L|342:250,2,93.3333333333334,6|0|0,3:2|2:0|2:0,2:0:0:0:
363,242,87602,2,0,L|340:129,2,93.3333333333334,2|2|2,2:3|2:3|2:3,2:0:0:0:
232,181,88334,6,0,L|108:151,2,93.3333333333334,2|2|2,2:3|2:3|2:3,2:0:0:0:
120,128,89066,2,0,L|8:152,1,93.3333333333334,2|2,2:3|2:3,2:0:0:0:
9,152,89553,1,2,2:3:0:0:
105,228,89797,5,2,2:3:0:0:
90,306,90041,1,2,2:3:0:0:
75,384,90285,1,2,2:3:0:0:
192,149,90529,2,0,L|226:271,1,93.3333333333334,2|2,2:3|2:3,2:0:0:0:
177,325,91017,1,2,2:3:0:0:
188,358,91261,1,2,2:3:0:0:
301,317,91505,6,0,P|332:331|362:336,1,53.3333333333333,2|0,2:3|2:0,2:0:0:0:
452,290,91749,2,0,P|478:277|500:240,1,53.3333333333333,2|0,2:3|2:0,2:0:0:0:
362,347,91992,2,0,P|415:276|407:201,1,160,2|0,2:3|2:0,2:0:0:0:
313,216,92480,2,0,P|285:196|246:193,1,53.3333333333333,2|0,2:3|2:0,2:0:0:0:
481,384,92724,1,0,3:0:0:0:
107,54,97114,5,2,2:3:0:0:
156,116,97354,1,2,2:3:0:0:
268,152,97595,2,0,L|310:70,1,53.3333333333333,2|0,2:3|2:0,2:0:0:0:
478,67,97836,6,0,L|440:9,1,53.3333333333333,2|0,2:3|2:0,2:0:0:0:
446,201,98077,2,0,L|393:153,1,53.3333333333333,2|2,2:3|2:3,2:0:0:0:
445,367,98318,2,0,L|376:354,1,53.3333333333333,2|0,2:3|2:0,2:0:0:0:
77,111,98568,6,0,B|84:200|32:247|32:247|46:287,1,190,6|0,3:2|2:0,2:0:0:0:
137,380,98812,2,0,B|159:369|159:369|116:339|52:286|39:160,1,253.333333333333,2|2,3:2|3:2,2:0:0:0:
149,62,99179,5,0,2:0:0:0:
146,232,99301,2,0,L|186:236,1,37.5000000000001,2|0,1:2|2:0,2:0:0:0:
227,311,99546,6,0,B|261:291|261:291|271:191|332:159,1,190,2|0,3:2|2:0,2:0:0:0:
413,214,99791,6,0,B|345:214|250:176|250:176|261:219,1,190,2|0,3:2|2:0,2:0:0:0:
284,367,100035,5,6,3:2:0:0:
0,88,100280,5,2,3:2:0:0:
498,137,100525,5,2,3:2:0:0:
135,384,100769,6,0,L|126:329,2,50.0000000000001,2|2|2,1:2|3:2|3:2,2:0:0:0:
392,371,101503,6,0,B|422:292|492:266|492:266|522:206,1,190,6|0,3:2|2:0,2:0:0:0:
423,210,101748,6,0,B|416:228|416:228|446:259|447:305,1,63.3333316421509,2|0,3:2|2:0,2:0:0:0:
489,365,101870,1,0,2:0:0:0:
348,278,101993,2,0,B|328:292|328:292|361:186|324:93,1,190,2|0,3:2|2:0,2:0:0:0:
480,20,102237,6,0,L|520:11,1,37.5000000000001,2|0,1:2|2:0,2:0:0:0:
509,94,102482,2,0,B|464:34|358:41|358:41|327:9,1,190,2|0,3:2|2:0,2:0:0:0:
413,126,102727,2,0,B|387:129|387:129|328:208|232:215,1,190,2|0,3:2|2:0,2:0:0:0:
99,213,102971,5,6,3:2:0:0:
498,343,103213,5,2,3:2:0:0:
233,20,103455,5,2,3:2:0:0:
93,372,103698,5,2,1:2:0:0:
18,332,103940,5,2,1:2:0:0:
82,281,104061,1,0,1:0:0:0:
193,361,104183,1,2,1:2:0:0:
225,322,104304,1,0,1:0:0:0:
263,384,104425,6,0,B|253:296|333:253|333:253|356:211,1,190,6|0,3:2|2:0,2:0:0:0:
344,350,104669,2,0,B|364:354|364:354|350:253|234:246,1,190,2|0,3:2|2:0,2:0:0:0:
164,266,104914,2,0,B|241:227|290:155|290:155|284:181,1,190,2|0,3:2|2:0,2:0:0:0:
187,347,105158,6,0,L|150:358,1,37.5000000000001,2|0,1:2|2:0,2:0:0:0:
73,371,105403,6,0,B|67:331|67:331|138:261|125:193,1,190,2|0,3:2|2:0,2:0:0:0:
64,275,105648,6,0,B|-28:241|-12:147|-12:147|9:132,1,190,2|0,3:2|2:0,2:0:0:0:
92,120,105892,5,6,3:2:0:0:
279,384,106137,5,2,3:2:0:0:
439,47,106382,5,2,3:2:0:0:
0,55,106626,6,0,L|-13:2,2,50.0000000000001,2|2|2,1:2|3:2|3:2,2:0:0:0:
82,86,107360,6,0,B|93:66|93:66|191:36|254:129,1,190,6|0,3:2|2:0,2:0:0:0:
303,45,107605,2,0,B|225:61|173:140|173:140|141:148,1,190,2|0,3:2|2:0,2:0:0:0:
69,162,107850,5,2,3:2:0:0:
232,211,107972,1,0,2:0:0:0:
326,122,108094,2,0,L|331:165,1,37.5000000000001,2|0,1:2|2:0,2:0:0:0:
385,67,108339,6,0,B|407:74|407:74|455:168|524:209,1,190,2|0,3:2|2:0,2:0:0:0:
421,156,108584,2,0,B|345:175|297:252|297:252|349:222,1,189.999994926453,2|0,3:2|2:0,2:0:0:0:
430,244,108828,5,6,3:2:0:0:
58,356,109071,5,2,3:2:0:0:
233,20,109315,5,2,3:2:0:0:
457,367,109559,5,2,1:2:0:0:
493,295,109803,5,8,2:3:0:0:
430,244,109925,1,8,2:3:0:0:
344,366,110047,1,4,2:3:0:0:
316,324,110169,1,4,2:3:0:0:
264,382,110287,6,0,B|257:293|309:246|309:246|295:206,1,190,6|0,3:2|2:0,2:0:0:0:
204,113,110526,2,0,B|182:124|182:124|225:154|289:207|302:333,1,253.333333333333,2|2,3:2|3:2,2:0:0:0:
180,384,110885,5,0,2:0:0:0:
376,300,111005,2,0,L|416:312,1,37.5000000000001,2|0,1:2|2:0,2:0:0:0:
380,214,111248,6,0,B|347:219|347:219|271:282|192:285,1,190,2|0,3:2|2:0,2:0:0:0:
156,215,111492,6,0,B|217:243|287:318|287:318|282:274,1,190,2|0,3:2|2:0,2:0:0:0:
204,113,111736,5,6,3:2:0:0:
512,374,111980,5,2,3:2:0:0:
16,295,112224,5,2,3:2:0:0:
431,33,112468,6,0,L|439:83,2,50.0000000000001,2|2|2,1:2|3:2|3:2,2:0:0:0:
204,113,113200,6,0,B|171:94|171:94|94:126|16:58,1,190,6|0,3:2|2:0,2:0:0:0:
7,150,113443,6,0,B|10:160|10:160|39:172|48:201,1,63.3333316421509,2|0,3:2|2:0,2:0:0:0:
94,270,113565,1,0,2:0:0:0:
157,178,113687,2,0,B|136:177|136:177|54:99|146:1,1,190,2|0,3:2|2:0,2:0:0:0:
256,0,113931,6,0,L|251:41,1,37.5000000000001,2|0,1:2|2:0,2:0:0:0:
286,111,114175,6,0,B|308:107|308:107|341:24|451:22,1,190,2|0,3:2|2:0,2:0:0:0:
433,123,114419,2,0,B|416:151|416:151|405:64|338:20,1,190,2|0,3:2|2:0,2:0:0:0:
256,0,114663,5,6,3:2:0:0:
453,343,114907,5,2,3:2:0:0:
7,150,115151,5,2,3:2:0:0:
499,75,115395,5,2,1:2:0:0:
433,123,115639,5,8,2:3:0:0:
369,72,115760,1,8,2:3:0:0:
257,152,115882,1,4,2:3:0:0:
226,113,116004,1,4,2:3:0:0:
188,175,116126,6,0,B|194:87|116:46|116:46|95:2,1,190,6|0,3:2|2:0,2:0:0:0:
95,139,116387,6,0,B|38:299|38:299|16:312,1,190,2|0,3:0|2:0,2:0:0:0:
32,75,116648,2,0,B|68:179|68:179|82:187,1,126.666663284302,2|0,3:0|2:0,2:0:0:0:
260,369,116871,6,0,L|295:383,1,37.5000000000001,2|0,1:2|2:0,2:0:0:0:
182,343,117113,2,0,B|199:261|261:198|261:198|231:217,1,190,2|0,3:2|2:0,2:0:0:0:
114,324,117355,6,0,B|145:321|145:321|204:265|292:287,1,190,2|0,3:2|2:0,2:0:0:0:
369,326,117598,5,6,3:2:0:0:
29,0,117840,5,2,3:2:0:0:
55,382,118083,5,2,3:2:0:0:
480,90,118325,6,0,L|491:41,2,50.0000000000001,2|2|2,1:2|3:2|3:2,2:0:0:0:
414,139,119052,6,0,B|334:151|278:225|278:225|222:239,1,190,6|0,3:2|2:0,2:0:0:0:
284,102,119294,2,0,B|379:112|389:218|389:218|366:255,1,190,2|0,3:2|2:0,2:0:0:0:
323,294,119536,5,2,3:2:0:0:
224,157,119658,1,0,2:0:0:0:
112,228,119779,2,0,L|117:265,1,37.5000000000001,2|0,1:2|2:0,2:0:0:0:
84,144,120021,6,0,B|87:167|87:167|168:235|193:311,1,190,2|0,3:2|2:0,2:0:0:0:
224,157,120264,2,0,B|231:127|231:127|179:209|111:228,1,190,2|0,3:0|2:0,2:0:0:0:
30,235,120506,5,6,3:2:0:0:
417,350,120748,5,2,3:2:0:0:
151,99,120991,5,2,3:2:0:0:
403,130,121234,6,0,B|423:137|423:137|455:79|537:75,1,120,2|0,1:2|2:0,2:0:0:0:
342,175,121480,2,0,B|325:188|325:188|360:245|322:318,1,120,0|0,3:0|2:0,2:0:0:0:
333,99,121727,2,0,B|329:78|329:78|262:79|218:10,1,119.999996337891,0|0,3:0|2:0,2:0:0:0:
359,134,121974,5,6,3:2:0:0:
219,146,122218,1,0,2:0:0:0:
30,235,122462,1,0,2:0:0:0:
503,328,122707,1,2,1:2:0:0:
466,262,122951,5,0,2:0:0:0:
451,258,123195,1,0,2:0:0:0:
354,152,123440,5,2,3:2:0:0:
242,162,123684,1,0,2:0:0:0:
91,233,123928,1,0,2:0:0:0:
470,307,124173,1,2,1:2:0:0:
433,241,124417,5,0,2:0:0:0:
418,237,124661,1,0,2:0:0:0:
350,171,124906,5,2,3:2:0:0:
266,178,125150,1,0,2:0:0:0:
153,231,125394,1,0,2:0:0:0:
437,287,125639,1,2,1:2:0:0:
400,221,125883,5,0,2:0:0:0:
385,217,126127,1,0,2:0:0:0:
313,263,126372,5,2,3:2:0:0:
153,231,126616,1,0,2:0:0:0:
116,150,126860,1,0,2:0:0:0:
365,67,127105,1,2,1:2:0:0:
438,3,127349,5,2,1:2:0:0:
444,9,127471,1,0,1:0:0:0:
450,14,127594,1,2,1:2:0:0:
457,17,127716,1,0,1:0:0:0:
