osu file format v14

[General]
AudioFilename: audio.ogg
AudioLeadIn: 0
PreviewTime: 26371
Countdown: 0
SampleSet: Soft
StackLeniency: 0.4
Mode: 0
LetterboxInBreaks: 0
WidescreenStoryboard: 1

[Editor]
Bookmarks: 107,5696,8856,26371,49719,52314,63452,86871,98568,104425,110287,116126,119052,121974
DistanceSpacing: 0.9
BeatDivisor: 4
GridSize: 16
TimelineZoom: 2

[Metadata]
Title:201
TitleUnicode:201
Artist:Perspective, a lovely hand to hold
ArtistUnicode:Perspective, a lovely hand to hold
Creator:laura-
Version:Medium
Source:
Tags:celektus formless000 ralkinson fisky -tatsuo what not to do english alternative emo indie math noise pop rock palhth nashua new hampshire 2017
BeatmapID:3704348
BeatmapSetID:1645025

[Difficulty]
HPDrainRate:3
CircleSize:3
OverallDifficulty:4
ApproachRate:6
SliderMultiplier:1.2
SliderTickRate:0.5

[Events]
//Background and Video events
0,0,"bg.jpg",0,0
//Break Periods
2,93212,96017
//Storyboard Layer 0 (Background)
//Storyboard Layer 1 (Fail)
//Storyboard Layer 2 (Pass)
//Storyboard Layer 3 (Foreground)
//Storyboard Layer 4 (Overlay)
//Storyboard Sound Samples

[TimingPoints]
107,324.324324324324,6,2,1,70,1,0
431,-100,6,2,1,40,0,0
2052,324.324324324324,7,2,2,70,1,0
2052,-83.3333333333333,7,2,2,70,0,0
2376,-83.3333333333333,7,2,2,40,0,0
4322,323.450134770889,6,2,1,70,1,0
4645,-100,6,2,1,40,0,0
6262,324.324324324324,4,2,2,70,1,0
6262,-83.3333333333333,4,2,2,70,0,0
6586,-83.3333333333333,4,2,2,40,0,0
8856,324.324324324324,6,2,1,70,1,0
9991,-100,6,2,3,70,0,0
10153,-100,6,2,1,70,0,0
10315,-100,6,2,3,70,0,0
10801,322.58064516129,7,2,1,70,1,0
11930,-100,7,2,3,70,0,0
12091,-100,7,2,1,70,0,0
12252,-100,7,2,3,70,0,0
12413,-100,7,2,1,30,0,0
12575,-100,7,2,3,70,0,0
13059,327.868852459016,6,2,1,50,1,0
13096,-100,6,2,1,70,0,0
13714,319.148936170212,6,2,1,70,1,0
14192,-100,6,2,3,70,0,0
14352,-100,6,2,1,70,0,0
14511,-100,6,2,3,70,0,0
14671,344.827586206896,6,2,3,70,1,0
15015,322.58064516129,4,2,1,50,1,0
15041,-100,4,2,1,70,0,0
16305,325.20325203252,4,2,1,70,1,0
17605,324.324324324324,6,2,1,70,1,0
18740,-100,6,2,3,70,0,0
18902,-100,6,2,1,70,0,0
19064,331.491712707182,6,2,3,70,1,0
19561,317.460317460317,7,2,1,50,1,0
19591,-100,7,2,1,70,0,0
20672,340.90909090909,7,2,3,70,1,0
20842,340.90909090909,7,2,1,70,1,0
21012,-100,7,2,3,70,0,0
21182,-100,7,2,1,70,0,0
21353,-100,7,2,3,70,0,0
21524,306.122448979591,7,2,3,70,1,0
21830,323.450134770889,6,2,1,50,1,0
21861,-100,6,2,1,70,0,0
22962,-100,6,2,3,70,0,0
23123,-100,6,2,1,70,0,0
23285,-100,6,2,3,70,0,0
23770,322.58064516129,4,2,1,50,1,0
23801,-100,4,2,1,70,0,0
25060,327.868852459016,4,2,4,70,1,0
25223,-100,4,2,1,70,0,0
25551,-100,4,2,4,70,0,0
25715,-100,4,2,1,70,0,0
26043,-100,4,2,2,70,0,0
26371,324.324324324324,4,2,1,90,1,1
26371,-83.3333333333333,4,2,1,90,0,1
26695,-83.3333333333333,4,2,1,90,0,0
27830,325.20325203252,4,2,1,90,1,1
27830,-83.3333333333333,4,2,1,90,0,1
27992,325.20325203252,4,2,1,90,1,1
28154,-100,4,2,1,90,0,0
28643,320.855614973262,4,2,1,90,1,0
29124,325.20325203252,4,2,1,90,1,0
29286,333.333333333333,4,2,1,90,1,0
29452,327.868852459016,4,2,1,90,1,1
29615,327.868852459016,4,2,1,90,1,1
29943,322.58064516129,4,2,1,90,1,1
30588,-100,4,2,5,90,0,1
30910,-100,4,2,1,90,0,1
31878,338.983050847457,4,2,1,90,1,0
32216,322.58064516129,4,2,1,90,1,1
32216,-83.3333333333333,4,2,1,90,0,1
32538,-83.3333333333333,4,2,1,90,0,0
33667,323.886639676113,4,2,1,90,1,1
33667,-83.3333333333333,4,2,1,90,0,1
33828,323.886639676113,4,2,1,90,1,1
33989,-100,4,2,1,90,0,0
34961,322.58064516129,4,2,1,90,1,0
35283,326.086956521739,4,2,1,90,1,1
35446,326.086956521739,4,2,1,90,1,1
35772,323.450134770889,4,2,1,90,1,1
36742,323.450134770889,4,2,1,90,1,1
37712,-100,4,2,1,90,0,0
38036,324.324324324324,4,2,1,90,1,1
38036,-83.3333333333333,4,2,1,90,0,1
38360,-83.3333333333333,4,2,1,90,0,0
39495,324.324324324324,4,2,1,90,1,1
39495,-83.3333333333333,4,2,1,90,0,1
39657,324.324324324324,4,2,1,90,1,1
39819,-100,4,2,1,90,0,0
40143,352.941176470588,4,2,1,90,1,0
40319,312.5,4,2,1,90,1,0
40631,346.820809248555,4,2,1,90,1,0
40804,307.692307692307,4,2,1,90,1,0
41111,333.333333333333,4,2,1,90,1,1
41277,333.333333333333,4,2,1,90,1,1
41611,326.086956521739,4,2,1,90,1,1
42263,-100,4,2,5,90,0,1
42589,315.78947368421,4,2,1,90,1,1
42589,-106.157112526539,4,2,1,90,0,1
43220,338.983050847457,4,2,1,90,1,1
43558,329.670329670329,4,2,1,90,1,0
43887,322.58064516129,4,2,1,90,1,1
43887,-83.3333333333333,4,2,1,90,0,1
44209,-83.3333333333333,4,2,1,90,0,0
45338,324.324324324324,4,2,1,90,1,1
45338,-83.3333333333333,4,2,1,90,0,1
45500,324.324324324324,4,2,1,90,1,1
45662,-100,4,2,1,90,0,0
46635,324.324324324324,4,2,1,90,1,0
46959,331.491712707182,4,2,1,90,1,1
47124,331.491712707182,4,2,1,90,1,1
47456,321.71581769437,4,2,1,90,1,1
48421,321.71581769437,4,2,1,90,1,1
49386,333.333333333333,4,2,1,90,1,0
49719,324.499729583559,4,2,1,90,1,0
50205,324.499729583559,4,2,1,50,1,0
50367,324.499729583559,4,2,1,50,1,0
51015,324.499729583559,4,2,1,50,1,0
52314,324.763193504736,4,2,1,50,1,0
52349,-100,4,2,1,70,0,0
56211,323.014804845222,4,2,1,70,1,0
56211,-90.9090909090909,4,2,1,70,0,0
56857,330.578512396694,4,2,1,70,1,0
57518,310.880829015544,4,2,1,70,1,0
58139,337.078651685393,4,2,1,70,1,0
58813,337.078651685393,4,2,1,70,1,0
58981,319.148936170213,4,2,1,70,1,0
59140,319.148936170213,4,2,1,70,1,0
59459,319.148936170213,4,2,1,70,1,0
60736,333.333333333334,4,2,1,70,1,0
61402,340.909090909091,4,2,1,70,1,0
61402,-90.9090909090909,4,2,1,70,0,0
62083,342.368045649073,4,2,1,70,1,0
62767,-100,4,2,1,50,0,0
63452,733.944954128441,4,2,1,50,1,0
63452,-117.647058823529,4,2,1,50,0,0
66387,731.707317073171,4,2,1,50,1,0
67850,-117.647058823529,4,2,1,50,0,0
73704,714.285714285715,4,2,1,50,1,0
74180,-100,4,2,1,40,0,0
74416,750,4,2,1,50,1,0
75166,731.707317073171,4,2,1,50,1,0
75897,-117.647058823529,4,2,1,50,0,0
81019,729.483282674772,4,2,1,50,1,0
81748,-117.647058823529,4,2,1,50,0,0
85395,714.285714285714,4,2,1,50,1,0
85871,750,4,2,1,50,1,0
86121,749.999999999999,4,2,1,50,1,0
86871,731.707317073171,4,2,6,50,1,0
86898,-100,4,2,1,50,0,0
87602,-100,4,2,1,20,0,0
88334,-100,4,2,1,25,0,0
89066,-100,4,2,1,30,0,0
89797,-100,4,2,1,35,0,0
90529,-100,4,2,1,40,0,0
91261,-100,4,2,1,45,0,0
91992,-100,4,2,1,60,0,1
92724,-100,4,2,4,65,0,0
97114,722.891566265061,4,2,1,20,1,0
97354,-100,4,2,1,25,0,0
97595,-100,4,2,1,30,0,0
97836,-50,4,2,1,35,0,0
98077,-66.6666666666667,4,2,1,40,0,0
98318,750.000000000001,4,2,1,45,1,0
98568,733.944954128442,4,2,1,90,1,0
98568,-33.3333333333333,4,2,1,90,0,0
102971,727.272727272729,4,2,1,90,1,1
103940,-100,4,2,1,50,0,1
104183,-100,4,2,1,70,0,1
104425,733.944954128442,4,2,1,90,1,0
104425,-33.3333333333333,4,2,1,90,0,0
108828,731.707317073172,4,2,1,90,1,1
110287,718.562874251498,4,2,1,90,1,0
110287,-33.3333333333333,4,2,1,90,0,0
111005,731.707317073172,4,2,1,90,1,0
111736,-33.3333333333333,4,2,1,90,0,0
113200,731.707317073172,4,2,1,90,1,0
113443,-33.3333333333333,4,2,1,90,0,0
114663,-33.3333333333333,4,2,1,90,0,1
116126,784.313725490198,4,2,1,90,1,0
116126,-33.3333333333333,4,2,1,90,0,0
116648,895.522388059704,4,2,1,90,1,0
116871,727.272727272729,4,2,1,90,1,0
117598,-33.3333333333333,4,2,1,90,0,0
119052,727.272727272729,4,2,1,90,1,0
119779,-33.3333333333333,4,2,1,90,0,0
121234,740.740740740742,4,2,1,90,1,0
121974,733.048259010385,4,2,1,70,1,0

[Colours]
Combo1 : 233,222,177
Combo2 : 232,203,200

[HitObjects]
12,353,107,6,0,B|-8:337|-8:337|-52:230|45:132,1,240,6|2,3:2|2:0,2:0:0:0:
181,384,2052,2,0,B|310:348|310:348|373:296,1,216,6|2,3:0|2:0,2:0:0:0:
500,31,4322,6,0,B|520:47|520:47|564:154|467:252,1,240,6|2,3:2|2:0,2:0:0:0:
331,0,6262,2,0,B|201:35|201:35|138:87,1,216,6|2,3:0|2:0,2:0:0:0:
115,384,8856,6,0,P|166:348|249:335,1,120,6|2,3:2|1:2,2:0:0:0:
315,356,9504,1,0,2:0:0:0:
395,304,9828,1,2,1:2:0:0:
442,297,9991,2,0,L|458:154,1,120,0|0,3:0|3:0,2:0:0:0:
294,260,10801,6,0,P|236:245|187:210,1,120,4|2,3:2|1:2,2:0:0:0:
137,127,11446,1,0,3:0:0:0:
47,93,11768,1,2,1:2:0:0:
0,103,11930,2,0,L|-25:-25,2,120,0|0|0,3:0|3:0|3:0,2:0:0:0:
31,261,13059,6,0,P|89:276|138:311,1,120,4|2,3:2|1:2,2:0:0:0:
199,384,13714,1,0,3:0:0:0:
294,374,14033,1,2,1:2:0:0:
305,327,14192,2,0,L|440:307,1,120,0|0,3:0|3:0,2:0:0:0:
512,173,15015,6,0,P|454:158|405:123,1,120,6|2,3:2|1:2,2:0:0:0:
355,40,15660,1,0,3:0:0:0:
264,8,15982,1,2,1:2:0:0:
307,93,16305,1,2,1:2:0:0:
304,140,16467,1,2,1:2:0:0:
277,178,16630,1,0,1:0:0:0:
330,257,16955,2,0,L|337:392,1,120,4|2,2:3|2:3,2:0:0:0:
203,245,17605,6,0,P|145:260|96:295,1,120,6|2,3:2|1:2,2:0:0:0:
46,378,18253,1,0,3:0:0:0:
51,282,18577,1,2,1:2:0:0:
21,243,18740,2,0,L|33:111,1,120,0|0,3:0|3:0,2:0:0:0:
154,256,19561,6,0,P|212:241|261:206,1,120,4|2,3:2|1:2,2:0:0:0:
311,123,20195,1,0,3:0:0:0:
308,218,20513,1,2,1:2:0:0:
327,262,20672,2,0,L|279:400,2,120,0|0|0,3:0|3:0|3:0,2:0:0:0:
478,202,21830,6,0,P|463:144|428:95,1,120,6|0,3:2|1:0,2:0:0:0:
337,64,22476,1,2,3:2:0:0:
255,12,22800,1,2,1:2:0:0:
213,35,22962,2,0,L|90:-17,1,120,0|0,3:0|3:0,2:0:0:0:
0,113,23770,6,0,P|57:138|111:202,1,120,4|0,3:2|1:0,2:0:0:0:
126,270,24415,1,0,3:0:0:0:
92,359,24737,1,0,1:0:0:0:
178,317,25060,2,0,L|435:368,1,240,0|0,3:0|1:0,2:0:0:0:
508,385,26043,1,4,2:3:0:0:
512,284,26371,6,0,B|490:213|490:213|443:162,1,144,6|0,3:2|1:0,2:0:0:0:
129,0,27830,2,0,B|62:33|62:33|21:88,1,143.557195605469,6|4,3:2|3:2,2:0:0:0:
17,184,28479,1,0,1:0:0:0:
0,229,28643,1,2,1:2:0:0:
38,316,28963,1,2,1:2:0:0:
42,363,29124,1,0,1:0:0:0:
136,384,29452,6,0,P|204:354|250:298,1,119.634,6|2,3:2|3:2,2:0:0:0:
253,278,29943,1,0,3:0:0:0:
228,185,30265,1,0,3:0:0:0:
186,160,30426,1,0,3:0:0:0:
167,115,30588,1,0,3:0:0:0:
197,24,30910,2,0,B|282:0|379:51|388:121|388:121|367:136|337:139|337:139|374:162|392:204,1,360.372,2|0,3:2|1:0,2:0:0:0:
425,292,32216,6,0,B|354:314|354:314|303:361,1,144,6|0,3:2|1:0,2:0:0:0:
2,158,33667,2,0,B|17:85|17:85|60:30,1,143.555395605469,6|4,3:2|3:2,2:0:0:0:
151,0,34313,1,0,1:0:0:0:
168,45,34475,1,0,1:0:0:0:
261,66,34799,1,0,1:0:0:0:
293,102,34961,1,0,1:0:0:0:
385,78,35283,6,0,P|453:108|499:164,1,120,6|0,3:2|3:0,2:0:0:0:
502,184,35772,1,2,1:2:0:0:
477,277,36095,1,0,3:0:0:0:
435,302,36257,1,2,3:2:0:0:
416,347,36418,1,2,1:2:0:0:
327,384,36742,2,0,B|340:296|278:206|207:206|207:206|195:228|195:259|195:259|168:225|124:212,1,360,0|0,3:0|1:0,2:0:0:0:
39,212,38036,6,0,B|-6:153|-6:153|-21:85,1,144,2|0,3:2|1:0,2:0:0:0:
303,0,39495,2,0,B|375:15|375:15|430:58,1,143.999995605469,6|4,3:2|3:2,2:0:0:0:
447,157,40143,1,0,1:0:0:0:
457,197,40319,1,2,1:2:0:0:
380,244,40631,1,2,1:2:0:0:
351,215,40804,1,0,1:0:0:0:
288,287,41111,6,0,P|220:257|174:201,1,119.64,6|2,3:2|3:2,2:0:0:0:
171,181,41611,1,0,3:0:0:0:
82,143,41937,1,0,3:0:0:0:
49,179,42100,1,0,3:0:0:0:
0,187,42263,1,0,3:0:0:0:
0,91,42589,2,0,B|94:152|-61:264|-4:305|-4:305|19:293|35:268|35:268|38:312|67:347,1,347.08,2|0,3:2|1:0,2:0:0:0:
159,384,43887,6,0,B|181:313|181:313|228:262,1,144,2|0,3:2|1:0,2:0:0:0:
418,26,45338,2,0,B|349:37|349:37|288:79,1,143.999995605469,6|4,3:2|3:2,2:0:0:0:
193,66,45986,1,0,1:0:0:0:
147,49,46148,1,0,1:0:0:0:
97,131,46472,1,0,1:0:0:0:
51,148,46635,1,0,1:0:0:0:
0,229,46959,6,0,P|73:240|132:282,1,119.638,6|0,3:2|3:0,2:0:0:0:
140,301,47456,1,2,1:2:0:0:
232,325,47777,1,0,3:0:0:0:
268,292,47938,1,2,3:2:0:0:
317,288,48099,1,2,1:2:0:0:
401,332,48421,2,0,B|495:271|340:159|397:118|397:118|420:130|436:155|436:155|439:111|468:76,1,360,2|0,3:2|1:0,2:0:0:0:
512,13,49719,5,4,1:3:0:0:
341,36,50205,2,0,P|280:12|202:4,1,120,2|6,2:0|3:2,2:0:0:0:
72,76,52314,6,0,L|102:24,1,60,6|2,3:2|3:2,2:0:0:0:
0,201,52963,1,2,1:2:0:0:
143,205,53450,1,2,1:2:0:0:
164,168,53613,2,0,L|194:116,1,60,6|2,3:2|1:2,2:0:0:0:
92,293,54262,1,2,1:2:0:0:
235,297,54749,1,2,1:2:0:0:
256,260,54912,2,0,L|286:208,1,60,6|2,3:2|1:2,2:0:0:0:
184,385,55561,1,2,1:2:0:0:
322,345,56048,5,0,1:0:0:0:
371,365,56211,2,0,B|435:334|435:334|501:213,1,176,6|2,3:2|3:2,2:0:0:0:
468,174,56857,1,2,1:2:0:0:
382,58,57297,1,2,3:2:0:0:
423,0,57518,6,0,L|482:-5,1,60,6|2,3:2|3:2,2:0:0:0:
279,12,58139,1,2,1:2:0:0:
164,99,58644,1,2,1:2:0:0:
127,80,58813,2,0,L|73:55,1,60,6|2,3:2|1:2,2:0:0:0:
257,142,59459,1,2,1:2:0:0:
328,266,59937,1,2,1:2:0:0:
357,236,60097,2,0,L|398:194,1,60,6|2,3:2|1:2,2:0:0:0:
255,338,60736,1,2,1:2:0:0:
112,353,61236,5,0,1:0:0:0:
64,328,61402,2,0,B|46:259|46:259|96:130,1,176,6|2,3:2|3:2,2:0:0:0:
147,131,62083,1,2,1:2:0:0:
245,25,62539,1,2,3:2:0:0:
315,7,62767,5,0,3:0:0:0:
385,132,63224,1,0,3:0:0:0:
349,195,63452,2,0,B|265:208|289:116|222:147|202:104|188:170|166:176|67:187|67:172|107:64|3:78|-21:101,1,408.000007781983,6|0,3:2|3:0,2:0:0:0:
140,383,67850,2,0,L|308:314,1,170.000000000001,0|0,3:0|2:0,2:0:0:0:
346,342,69313,2,0,P|377:238|441:284,1,204.000000000001,0|2,3:0|3:2,2:0:0:0:
85,384,72240,5,2,3:2:0:0:
158,237,72972,1,2,1:2:0:0:
217,84,73704,1,2,3:2:0:0:
147,0,74180,5,0,1:0:0:0:
84,24,74416,1,0,1:0:0:0:
45,125,74916,1,0,1:0:0:0:
0,75,75166,1,0,3:0:0:0:
199,35,75897,6,0,L|201:118,1,68.0000000000003,2|0,1:2|3:0,2:0:0:0:
221,170,78336,2,0,L|222:126,1,34.0000000000001,2|2,2:0|3:2,2:0:0:0:
393,45,79312,1,2,2:0:0:0:
300,308,80287,5,0,1:0:0:0:
362,286,80531,1,0,2:0:0:0:
427,277,80775,1,0,2:0:0:0:
176,384,81748,6,0,L|166:339,1,34.0000000000001,2|2,1:2|2:0,2:0:0:0:
30,272,83936,1,2,3:2:0:0:
147,163,84666,2,0,L|148:117,1,34.0000000000001,2|0,1:2|2:0,2:0:0:0:
118,21,85395,5,0,1:0:0:0:
264,73,86121,1,8,2:3:0:0:
331,65,86371,1,0,1:0:0:0:
445,0,86871,6,0,B|524:16|534:129|454:156|395:196|389:288|436:321,1,360,6|2,3:2|2:3,2:0:0:0:
239,364,89797,1,2,2:3:0:0:
76,262,90529,1,2,2:3:0:0:
10,81,91261,1,2,2:3:0:0:
109,0,91749,1,2,2:3:0:0:
134,58,91992,1,2,2:3:0:0:
201,52,92236,1,2,2:3:0:0:
270,70,92480,1,2,2:3:0:0:
333,118,92724,5,0,3:0:0:0:
403,384,97114,6,0,L|413:286,1,80,2|2,2:3|2:3,2:0:0:0:
488,243,97836,2,0,L|470:84,1,160,2|2,2:3|2:3,2:0:0:0:
402,0,98568,6,0,P|277:-4|192:115,1,240,6|2,3:2|3:2,2:0:0:0:
196,170,99301,1,2,1:2:0:0:
485,318,100035,2,0,P|375:269|256:264,1,240,6|2,3:2|3:2,2:0:0:0:
173,314,100769,1,2,1:2:0:0:
22,195,101259,1,2,3:2:0:0:
0,288,101503,2,0,P|94:209|135:93,1,240,6|2,3:2|3:2,2:0:0:0:
192,25,102237,1,2,1:2:0:0:
289,190,102727,1,2,3:2:0:0:
380,218,102971,5,6,3:2:0:0:
188,236,103455,1,2,3:2:0:0:
92,245,103698,1,2,1:2:0:0:
185,266,103940,1,2,1:2:0:0:
272,302,104183,1,2,1:2:0:0:
350,352,104425,6,0,P|229:350|116:384,1,240,6|2,3:2|3:2,2:0:0:0:
20,374,105158,1,2,1:2:0:0:
84,193,105648,1,2,3:2:0:0:
158,132,105892,2,0,P|171:32|40:12,1,240,6|2,3:2|3:2,2:0:0:0:
11,85,106626,1,2,1:2:0:0:
211,384,107360,1,6,3:2:0:0:
267,200,107850,1,2,3:2:0:0:
218,117,108094,2,0,P|302:45|438:-8,1,240,2|2,1:2|3:2,2:0:0:0:
512,24,108828,5,6,3:2:0:0:
451,98,109071,1,2,3:2:0:0:
474,191,109315,1,2,3:2:0:0:
390,237,109559,1,2,1:2:0:0:
454,307,109803,1,8,2:3:0:0:
358,293,110047,1,4,2:3:0:0:
285,356,110287,6,0,P|158:309|83:174,1,240,6|2,3:2|3:2,2:0:0:0:
76,133,111005,1,2,1:2:0:0:
410,2,111736,2,0,P|459:112|464:231,1,240,6|2,3:2|3:2,2:0:0:0:
414,312,112468,1,2,1:2:0:0:
278,175,112956,1,2,3:2:0:0:
312,85,113200,1,6,3:2:0:0:
246,14,113443,2,0,B|181:53|123:15|69:-59|-24:25,1,240,2|2,3:2|1:2,2:0:0:0:
182,171,114419,1,2,3:2:0:0:
103,226,114663,6,0,B|35:232|35:232|-29:249,2,120,6|2|2,3:2|3:2|3:2,2:0:0:0:
165,299,115395,1,2,1:2:0:0:
260,293,115639,1,8,2:3:0:0:
336,350,115882,1,4,2:3:0:0:
426,316,116126,6,0,B|442:201|442:201|388:222|388:222|319:167,1,240.000009155274,6|2,3:2|3:0,2:0:0:0:
294,93,116871,1,2,1:2:0:0:
466,8,117355,1,2,3:2:0:0:
438,100,117598,2,0,P|346:78|238:-19,1,240,6|2,3:2|3:2,2:0:0:0:
144,2,118325,1,2,1:2:0:0:
184,359,119052,1,6,3:2:0:0:
39,233,119536,1,2,3:2:0:0:
81,146,119779,2,0,P|246:101|400:-18,1,360,2|6,1:2|3:2,2:0:0:0:
0,384,121974,1,4,3:2:0:0:
