osu file format v14

[General]
AudioFilename: audio.ogg
AudioLeadIn: 0
PreviewTime: 26371
Countdown: 0
SampleSet: Soft
StackLeniency: 0.4
Mode: 0
LetterboxInBreaks: 0
WidescreenStoryboard: 1

[Editor]
Bookmarks: 107,8856,26371,49719,52314,63452,86871,98568,104304,110287,116126,118931,121851
DistanceSpacing: 0.6
BeatDivisor: 4
GridSize: 16
TimelineZoom: 2

[Metadata]
Title:201
TitleUnicode:201
Artist:Perspective, a lovely hand to hold
ArtistUnicode:Perspective, a lovely hand to hold
Creator:laura-
Version:Hard
Source:
Tags:celektus formless000 ralkinson fisky -tatsuo what not to do english alternative emo indie math noise pop rock palhth nashua new hampshire 2017
BeatmapID:3771436
BeatmapSetID:1645025

[Difficulty]
HPDrainRate:5
CircleSize:3.8
OverallDifficulty:7
ApproachRate:8
SliderMultiplier:1.4
SliderTickRate:0.5

[Events]
//Background and Video events
0,0,"bg.jpg",0,0
//Break Periods
2,93212,96017
//Storyboard Layer 0 (Background)
//Storyboard Layer 1 (Fail)
//Storyboard Layer 2 (Pass)
//Storyboard Layer 3 (Foreground)
//Storyboard Layer 4 (Overlay)
//Storyboard Sound Samples

[TimingPoints]
107,324.324324324324,6,2,1,70,1,0
2052,324.324324324324,7,2,2,70,1,0
2052,-83.3333333333333,7,2,2,70,0,0
4322,323.450134770889,6,2,1,70,1,0
6262,324.324324324324,4,2,2,70,1,0
6262,-83.3333333333333,4,2,2,70,0,0
8856,324.324324324324,6,2,1,70,1,0
8856,-83.3333333333333,6,2,1,70,0,0
9099,-83.3333333333333,6,2,1,5,0,0
9180,-83.3333333333333,6,2,1,70,0,0
9504,-100,6,2,1,70,0,0
9991,-100,6,2,3,70,0,0
10153,-100,6,2,1,70,0,0
10315,-100,6,2,3,70,0,0
10801,322.58064516129,7,2,1,70,1,0
10801,-83.3333333333333,7,2,1,70,0,0
11042,-83.3333333333333,7,2,1,5,0,0
11123,-83.3333333333333,7,2,1,70,0,0
11446,-100,7,2,1,70,0,0
11930,-100,7,2,3,70,0,0
12091,-100,7,2,1,70,0,0
12252,-100,7,2,3,70,0,0
12413,-100,7,2,1,30,0,0
12575,-100,7,2,3,70,0,0
12736,-100,7,2,1,50,0,0
13059,327.868852459016,6,2,1,70,1,0
13059,-83.3333333333333,6,2,1,70,0,0
13304,-83.3333333333333,6,2,1,5,0,0
13386,-83.3333333333333,6,2,1,70,0,0
13714,319.148936170212,6,2,1,70,1,0
14192,-100,6,2,3,70,0,0
14352,-100,6,2,1,70,0,0
14511,-100,6,2,3,70,0,0
14671,344.827586206896,6,2,3,70,1,0
15015,322.58064516129,4,2,1,70,1,0
15015,-83.3333333333333,4,2,1,70,0,0
15256,-83.3333333333333,4,2,1,5,0,0
15337,-83.3333333333333,4,2,1,70,0,0
15660,-100,4,2,1,70,0,0
16143,-100,4,2,4,70,0,0
16305,325.20325203252,4,2,1,70,1,0
17605,324.324324324324,6,2,1,70,1,0
17605,-83.3333333333333,6,2,1,70,0,0
17848,-83.3333333333333,6,2,1,5,0,0
17929,-83.3333333333333,6,2,1,70,0,0
18253,-100,6,2,1,70,0,0
18740,-100,6,2,3,70,0,0
18902,-100,6,2,1,70,0,0
19064,331.491712707182,6,2,3,70,1,0
19561,317.460317460317,7,2,1,70,1,0
19561,-83.3333333333333,7,2,1,70,0,0
19799,-83.3333333333333,7,2,1,5,0,0
19878,-83.3333333333333,7,2,1,70,0,0
20195,-100,7,2,1,70,0,0
20672,340.90909090909,7,2,3,70,1,0
20842,340.90909090909,7,2,1,70,1,0
21012,-100,7,2,3,70,0,0
21182,-100,7,2,1,70,0,0
21353,-100,7,2,3,70,0,0
21524,306.122448979591,7,2,1,50,1,0
21830,323.450134770889,6,2,1,70,1,0
21830,-83.3333333333333,6,2,1,70,0,0
22072,-83.3333333333333,6,2,1,5,0,0
22153,-83.3333333333333,6,2,1,70,0,0
22476,-100,6,2,1,70,0,0
22962,-100,6,2,3,70,0,0
23123,-100,6,2,1,70,0,0
23285,-100,6,2,3,70,0,0
23770,322.58064516129,4,2,1,70,1,0
23770,-83.3333333333333,4,2,1,70,0,0
24011,-83.3333333333333,4,2,1,5,0,0
24092,-83.3333333333333,4,2,1,70,0,0
24415,-100,4,2,1,70,0,0
24898,-100,4,2,4,70,0,0
25060,327.868852459016,4,2,4,70,1,0
25223,-100,4,2,1,70,0,0
25551,-100,4,2,4,70,0,0
25715,-100,4,2,1,70,0,0
26042,-100,4,2,2,70,0,0
26371,324.324324324324,4,2,1,70,1,0
27343,-76.9230769230769,4,2,1,90,0,1
27830,325.20325203252,4,2,1,90,1,1
27830,-76.9230769230769,4,2,1,90,0,1
27992,325.20325203252,4,2,1,90,1,1
28479,-100,4,2,1,90,0,0
28643,320.855614973262,4,2,1,90,1,0
29124,325.20325203252,4,2,1,90,1,0
29286,333.333333333333,4,2,1,90,1,0
29452,327.868852459016,4,2,1,90,1,1
29615,327.868852459016,4,2,1,90,1,1
29943,322.58064516129,4,2,5,90,1,1
29943,-76.9230769230769,4,2,5,90,0,1
30265,-76.9230769230769,4,2,1,90,0,1
30507,-76.9230769230769,4,2,1,5,0,0
30588,-76.9230769230769,4,2,5,90,0,1
30749,-76.9230769230769,4,2,1,90,0,1
31878,338.983050847457,4,2,1,90,1,0
32216,322.58064516129,4,2,1,90,1,0
32269,-100,4,2,1,90,0,1
33183,-76.9230769230769,4,2,1,90,0,1
33667,323.886639676113,4,2,1,90,1,1
33667,-76.9230769230769,4,2,1,90,0,1
33828,323.886639676113,4,2,1,90,1,1
34313,-100,4,2,1,90,0,0
34961,322.58064516129,4,2,1,90,1,0
35283,326.086956521739,4,2,1,90,1,1
35446,326.086956521739,4,2,1,90,1,1
35772,323.450134770889,4,2,1,90,1,1
35772,-76.9230769230769,4,2,1,90,0,1
36338,-76.9230769230769,4,2,1,5,0,1
36418,-76.9230769230769,4,2,1,90,0,1
36742,323.450134770889,4,2,1,90,1,1
37065,-76.9230769230769,4,2,1,90,0,1
37712,-76.9230769230769,4,2,1,90,0,0
38036,324.324324324324,4,2,1,90,1,1
39008,-76.9230769230769,4,2,1,90,0,1
39495,324.324324324324,4,2,1,90,1,1
39495,-76.9230769230769,4,2,1,90,0,1
39657,324.324324324324,4,2,1,90,1,1
40143,352.941176470588,4,2,1,90,1,0
40319,312.5,4,2,1,90,1,0
40631,346.820809248555,4,2,1,90,1,0
40804,307.692307692307,4,2,1,90,1,0
40957,-100,4,2,2,90,0,0
41111,333.333333333333,4,2,1,90,1,1
41277,333.333333333333,4,2,1,90,1,1
41611,326.086956521739,4,2,5,90,1,1
41611,-76.9230769230769,4,2,5,90,0,1
41937,-76.9230769230769,4,2,1,90,0,1
42181,-76.9230769230769,4,2,1,5,0,1
42263,-76.9230769230769,4,2,5,90,0,1
42426,-76.9230769230769,4,2,1,90,0,1
42589,315.78947368421,4,2,1,90,1,1
42904,-76.9230769230769,4,2,1,90,0,1
43220,338.983050847457,4,2,1,90,1,1
43558,329.670329670329,4,2,1,90,1,0
43887,322.58064516129,4,2,1,90,1,0
43940,-100,4,2,1,90,0,1
44854,-76.9230769230769,4,2,1,90,0,1
45338,324.324324324324,4,2,1,90,1,1
45338,-76.9230769230769,4,2,1,90,0,1
45500,324.324324324324,4,2,1,90,1,1
45986,-100,4,2,1,90,0,0
46635,324.324324324324,4,2,1,90,1,0
46797,-100,4,2,2,90,0,0
46959,331.491712707182,4,2,1,90,1,1
47124,331.491712707182,4,2,1,90,1,1
47456,321.71581769437,4,2,1,90,1,1
47456,-76.9230769230769,4,2,1,90,0,1
48019,-76.9230769230769,4,2,1,5,0,1
48099,-76.9230769230769,4,2,1,90,0,1
48421,321.71581769437,4,2,1,90,1,1
48742,-76.9230769230769,4,2,1,90,0,1
49386,333.333333333333,4,2,1,90,1,0
49719,324.499729583559,4,2,1,90,1,0
50205,324.499729583559,4,2,1,50,1,0
50367,324.499729583559,4,2,1,50,1,0
51015,324.499729583559,4,2,1,50,1,0
52314,324.763193504736,4,2,1,70,1,0
56211,323.014804845222,4,2,1,70,1,0
56211,-90.9090909090909,4,2,1,70,0,0
56857,330.578512396694,4,2,1,70,1,0
57518,310.880829015544,4,2,1,70,1,0
58139,337.078651685393,4,2,1,70,1,0
58813,337.078651685393,4,2,1,70,1,0
58981,319.148936170213,4,2,1,70,1,0
59140,319.148936170213,4,2,1,70,1,0
59459,319.148936170213,4,2,1,70,1,0
60736,333.333333333334,4,2,1,70,1,0
61402,340.909090909091,4,2,1,70,1,0
61402,-83.3333333333333,4,2,1,70,0,0
62083,342.368045649073,4,2,1,70,1,0
63452,733.944954128441,4,2,1,50,1,0
66387,731.707317073171,4,2,1,50,1,0
73704,714.285714285715,4,2,1,50,1,0
74061,-100,4,2,1,35,0,0
74416,750,4,2,1,50,1,0
75166,731.707317073171,4,2,1,50,1,0
81019,729.483282674772,4,2,1,50,1,0
85395,714.285714285714,4,2,1,50,1,0
85871,750,4,2,1,50,1,0
86121,749.999999999999,4,2,1,50,1,0
86621,-100,4,2,6,50,0,0
86871,731.707317073171,4,2,1,50,1,0
87602,-100,4,2,1,20,0,0
88334,-100,4,2,1,25,0,0
89066,-100,4,2,1,30,0,0
89797,-100,4,2,1,35,0,0
90529,-100,4,2,1,40,0,0
91261,-100,4,2,1,45,0,0
91992,-100,4,2,1,60,0,0
92724,-100,4,2,4,65,0,0
97114,722.891566265061,4,2,1,20,1,0
97354,-100,4,2,1,25,0,0
97595,-100,4,2,1,30,0,0
97836,-100,4,2,1,35,0,0
98077,-100,4,2,1,40,0,0
98318,750.000000000001,4,2,1,45,1,0
98568,733.944954128442,4,2,1,90,1,0
98568,-37.037037037037,4,2,1,90,0,0
100035,-35.7142857142857,4,2,1,90,0,0
101503,-34.4827586206897,4,2,1,90,0,0
102971,727.272727272729,4,2,1,90,1,1
102971,-33.3333333333333,4,2,1,90,0,1
103940,-33.3333333333333,4,2,1,50,0,1
104061,-33.3333333333333,4,2,1,60,0,1
104183,-33.3333333333333,4,2,1,70,0,1
104304,-33.3333333333333,4,2,1,80,0,1
104425,733.944954128442,4,2,1,90,1,0
104425,-37.037037037037,4,2,1,90,0,0
105892,-35.7142857142857,4,2,1,90,0,0
107360,-34.4827586206897,4,2,1,90,0,0
108828,731.707317073172,4,2,1,90,1,1
108828,-33.3333333333333,4,2,1,90,0,1
110287,718.562874251498,4,2,1,90,1,0
110287,-37.037037037037,4,2,1,90,0,0
111005,731.707317073172,4,2,1,90,1,0
111005,-37.037037037037,4,2,1,90,0,0
112468,-35.7142857142857,4,2,1,90,0,0
113200,731.707317073172,4,2,1,90,1,0
113200,-35.7142857142857,4,2,1,90,0,0
113931,-34.4827586206897,4,2,1,90,0,0
114663,-34.4827586206897,4,2,1,90,0,1
115395,-33.3333333333333,4,2,1,90,0,1
116126,784.313725490198,4,2,1,90,1,0
116126,-35.7142857142857,4,2,1,90,0,0
116648,895.522388059704,4,2,1,90,1,0
116871,727.272727272729,4,2,1,90,1,0
116871,-37.037037037037,4,2,1,90,0,0
118325,-35.7142857142857,4,2,1,90,0,0
119052,727.272727272729,4,2,1,90,1,0
119779,-35.7142857142857,4,2,1,90,0,0
120506,-35.7142857142857,4,2,1,90,0,0
121234,740.740740740742,4,2,1,90,1,0
121974,733.048259010385,4,2,1,70,1,0

[Colours]
Combo1 : 233,222,177
Combo2 : 232,203,200

[HitObjects]
373,362,107,6,0,L|540:343,1,140,6|0,3:2|2:0,2:0:0:0:
0,148,2052,2,0,B|10:72|10:72|66:-2,1,168,6|0,3:0|2:0,2:0:0:0:
139,362,4322,6,0,L|-28:343,1,140,6|0,3:2|2:0,2:0:0:0:
512,148,6262,2,0,B|502:72|502:72|446:-2,1,168,6|0,3:0|2:0,2:0:0:0:
213,377,8856,6,0,P|144:355|103:306,1,126,6|0,3:2|2:0,2:0:0:0:
95,276,9180,1,2,1:2:0:0:
167,234,9342,1,2,2:0:0:0:
171,209,9423,1,0,2:0:0:0:
174,188,9504,2,0,L|132:130,1,70,0|2,2:0|2:0,2:0:0:0:
126,47,9828,1,2,1:2:0:0:
177,139,9991,2,0,L|327:126,1,140,0|0,3:0|3:0,2:0:0:0:
359,357,10801,6,0,P|407:305|417:243,1,126,4|0,3:2|2:0,2:0:0:0:
412,211,11123,1,2,1:2:0:0:
329,227,11284,1,2,2:0:0:0:
307,213,11365,1,0,2:0:0:0:
289,201,11446,2,0,L|275:130,1,70,0|2,3:0|3:2,2:0:0:0:
284,48,11768,1,2,1:2:0:0:
334,140,11930,2,0,L|419:86,1,70,0|2,3:0|2:0,2:0:0:0:
461,53,12252,2,0,L|430:148,1,70,0|0,3:0|1:0,2:0:0:0:
475,195,12575,2,0,L|469:295,1,70,0|2,3:0|1:2,2:0:0:0:
268,354,13059,6,0,P|206:315|142:315,1,126,4|0,3:2|2:0,2:0:0:0:
114,328,13386,1,2,1:2:0:0:
49,274,13550,1,2,2:0:0:0:
47,248,13632,1,0,2:0:0:0:
45,222,13714,2,0,L|93:169,1,70,0|2,3:0|3:2,2:0:0:0:
127,94,14033,1,2,1:2:0:0:
36,147,14192,2,0,L|-27:283,1,140,0|0,3:0|3:0,2:0:0:0:
206,43,15015,6,0,P|275:65|316:114,1,126,6|0,3:2|2:0,2:0:0:0:
324,144,15337,1,2,1:2:0:0:
284,218,15498,1,2,2:0:0:0:
289,242,15579,1,0,2:0:0:0:
294,262,15660,2,0,L|354:297,1,70,0|2,3:0|3:2,2:0:0:0:
233,320,15982,2,0,L|302:315,1,70,2|0,1:2|3:0,2:0:0:0:
137,345,16305,1,2,1:2:0:0:
61,308,16467,1,2,1:2:0:0:
124,253,16630,1,0,1:0:0:0:
157,178,16792,1,8,2:3:0:0:
91,125,16955,2,0,L|69:-40,1,140,4|2,2:3|2:3,2:0:0:0:
257,180,17605,6,0,P|322:134|401:146,1,126,6|0,3:2|2:0,2:0:0:0:
408,158,17929,1,2,1:2:0:0:
487,129,18091,1,2,2:0:0:0:
492,104,18172,1,0,2:0:0:0:
496,83,18253,2,0,L|475:3,1,70,0|2,3:0|3:2,2:0:0:0:
396,38,18577,1,2,1:2:0:0:
314,104,18740,2,0,L|181:29,1,140,0|0,3:0|3:0,2:0:0:0:
87,253,19561,6,0,P|156:231|197:182,1,126,4|0,3:2|2:0,2:0:0:0:
205,152,19878,1,2,1:2:0:0:
145,93,20037,1,2,2:0:0:0:
120,90,20116,1,0,2:0:0:0:
99,88,20195,2,0,L|39:53,1,70,0|2,3:0|3:2,2:0:0:0:
83,170,20513,1,2,1:2:0:0:
136,235,20672,2,0,L|117:302,1,70,0|2,3:0|2:0,2:0:0:0:
161,374,21012,2,0,L|162:304,1,70,0|0,3:0|1:0,2:0:0:0:
235,263,21353,2,0,L|276:206,1,70.4106666666667,0|2,3:0|1:2,2:0:0:0:
355,368,21830,6,0,P|419:332|483:335,1,126,6|0,3:2|2:0,2:0:0:0:
512,349,22153,1,0,1:0:0:0:
437,309,22315,1,2,2:0:0:0:
420,290,22396,1,0,2:0:0:0:
406,274,22476,2,0,L|409:194,1,70,2|0,3:2|3:0,2:0:0:0:
369,128,22800,1,2,1:2:0:0:
452,218,22962,2,0,L|521:93,1,140,0|0,3:0|3:0,2:0:0:0:
200,0,23770,6,0,P|127:8|77:48,1,126,4|0,3:2|2:0,2:0:0:0:
63,76,24092,1,0,1:0:0:0:
90,155,24253,1,0,2:0:0:0:
84,179,24334,1,0,2:0:0:0:
78,199,24415,2,0,L|18:234,1,70,0|0,3:0|3:0,2:0:0:0:
139,257,24737,2,0,L|70:252,1,70,0|0,1:0|3:0,2:0:0:0:
234,282,25060,1,0,3:0:0:0:
303,235,25223,1,0,1:0:0:0:
386,237,25387,1,2,3:2:0:0:
324,179,25551,1,0,3:0:0:0:
389,126,25715,2,0,L|367:-39,1,140,0|4,1:0|2:3,2:0:0:0:
281,364,26371,5,6,3:2:0:0:
281,364,26533,2,0,P|246:351|213:345,2,70,0|0|2,2:0|1:0|3:2,2:0:0:0:
237,264,27019,1,0,1:0:0:0:
165,219,27181,1,0,3:0:0:0:
82,256,27343,2,0,B|-10:225|32:189|81:218|117:169|87:123,1,182,2|0,1:2|1:0,2:0:0:0:
167,81,27830,2,0,B|240:70|205:26|177:17,1,90.9999958343508,6|0,3:2|2:0,2:0:0:0:
104,0,28154,1,4,3:2:0:0:
313,14,28479,5,0,1:0:0:0:
304,55,28561,1,0,1:0:0:0:
295,96,28643,1,2,1:2:0:0:
433,191,28963,1,2,1:2:0:0:
379,255,29124,2,0,L|395:344,1,70,0|4,1:0|2:3,2:0:0:0:
450,384,29452,6,0,P|502:373|483:299,1,139.573,6|2,3:2|3:2,2:0:0:0:
512,213,29943,2,0,B|524:225|520:242|520:242|445:267|395:220|395:220|410:207|413:189|413:189|307:245|273:181,1,318.5,0|0,3:0|2:0,2:0:0:0:
279,248,30588,2,0,P|226:237|176:212,1,91,0|2,3:0|2:0,2:0:0:0:
130,155,30910,1,2,3:2:0:0:
130,155,31072,1,0,3:0:0:0:
206,106,31233,2,0,L|187:8,1,91,2|2,1:2|2:0,2:0:0:0:
98,0,31555,1,2,3:2:0:0:
138,81,31717,1,2,3:2:0:0:
179,160,31878,1,0,1:0:0:0:
156,327,32216,5,6,3:2:0:0:
155,327,32377,2,0,P|186:310|219:299,2,70,0|0|2,2:0|1:0|3:2,2:0:0:0:
267,368,32861,1,0,1:0:0:0:
342,330,33022,1,0,3:0:0:0:
432,321,33183,2,0,B|514:371|515:316|461:297|476:238|530:231,1,182,2|0,1:2|1:0,2:0:0:0:
512,142,33667,2,0,B|550:204|494:206|469:190,1,90.9999958343508,6|0,3:2|2:0,2:0:0:0:
410,146,33989,1,4,3:2:0:0:
258,0,34313,5,0,1:0:0:0:
217,8,34394,1,0,1:0:0:0:
175,18,34475,1,0,1:0:0:0:
125,178,34799,1,0,1:0:0:0:
42,164,34961,2,0,L|53:251,1,70,0|2,1:0|2:0,2:0:0:0:
3,302,35283,6,0,P|-16:362|42:384,1,140,6|0,3:2|3:0,2:0:0:0:
113,326,35772,2,0,B|126:321|137:308|137:308|200:329|245:378|245:378|252:351|241:330|241:330|278:343|341:364|359:311,1,318.5,2|0,1:2|2:0,2:0:0:0:
371,295,36418,2,0,P|424:279|480:238,1,91,2|2,1:2|2:0,2:0:0:0:
502,184,36742,1,0,3:0:0:0:
502,184,36903,1,2,3:2:0:0:
463,101,37065,2,0,L|508:11,1,91,0|0,1:0|2:0,2:0:0:0:
414,0,37388,1,0,3:0:0:0:
399,89,37550,1,0,3:0:0:0:
384,178,37712,1,0,1:0:0:0:
231,105,38036,5,2,3:2:0:0:
231,105,38198,2,0,P|214:58|191:20,2,70,0|0|2,2:0|1:0|3:2,2:0:0:0:
212,186,38684,1,0,1:0:0:0:
235,266,38846,1,0,3:0:0:0:
176,335,39008,2,0,B|154:254|80:381|14:309|29:258,1,182,2|0,1:2|1:0,2:0:0:0:
91,217,39495,2,0,B|128:205|120:142|88:127,1,90.9999958343508,6|0,3:2|2:0,2:0:0:0:
27,88,39819,1,4,3:2:0:0:
217,0,40143,5,0,1:0:0:0:
209,41,40231,1,0,1:0:0:0:
198,83,40319,1,2,1:2:0:0:
280,228,40631,1,2,1:2:0:0:
292,310,40804,2,0,L|379:349,1,70,0|4,1:0|2:3,2:0:0:0:
439,346,41111,6,0,P|434:301|516:298,1,139.58,6|2,3:2|3:2,2:0:0:0:
510,201,41611,2,0,B|516:216|528:224|528:224|464:238|407:211|407:211|387:219|374:238|374:238|326:190|255:185,1,318.5,0|0,3:0|2:0,2:0:0:0:
224,199,42263,2,0,P|173:187|121:186,1,91,0|2,3:0|2:0,2:0:0:0:
51,216,42589,1,2,3:2:0:0:
51,216,42746,1,0,3:0:0:0:
0,140,42904,2,0,L|10:49,1,91,2|2,1:2|2:0,2:0:0:0:
87,0,43220,1,2,3:2:0:0:
71,89,43389,1,2,3:2:0:0:
55,178,43558,1,0,1:0:0:0:
144,321,43887,5,2,3:2:0:0:
143,321,44048,2,0,P|175:305|208:295,2,70,0|0|2,2:0|1:0|3:2,2:0:0:0:
281,336,44532,1,0,1:0:0:0:
356,297,44693,1,0,3:0:0:0:
446,300,44854,2,0,B|505:240|358:239|387:146|439:134,1,182,2|0,1:2|1:0,2:0:0:0:
504,119,45338,2,0,B|531:100|548:66|521:34,1,90.9999958343508,6|0,3:2|2:0,2:0:0:0:
444,0,45662,1,4,3:2:0:0:
302,154,45986,5,0,1:0:0:0:
265,173,46067,1,0,1:0:0:0:
225,190,46148,1,0,1:0:0:0:
140,45,46472,1,0,1:0:0:0:
62,12,46635,2,0,L|49:100,1,70,0|4,1:0|2:3,2:0:0:0:
55,165,46959,6,0,P|6:204|43:255,1,139.577666666667,6|0,3:2|3:0,2:0:0:0:
48,347,47456,2,0,B|55:340|66:339|66:339|125:376|206:376|206:376|198:366|199:357|199:357|280:369|337:328,1,318.5,2|0,1:2|2:0,2:0:0:0:
369,326,48099,2,0,P|406:289|428:251,1,91,2|2,1:2|2:0,2:0:0:0:
437,165,48421,1,2,3:2:0:0:
437,165,48581,1,2,3:2:0:0:
508,109,48742,2,0,L|499:18,1,91,0|0,1:0|2:0,2:0:0:0:
409,0,49064,1,0,3:0:0:0:
373,83,49225,1,0,3:0:0:0:
337,166,49386,1,0,1:0:0:0:
136,232,49719,5,4,1:3:0:0:
136,232,50205,1,2,2:0:0:0:
106,153,50367,2,0,P|118:111|134:83,1,70,2|6,2:0|3:2,2:0:0:0:
512,315,52314,6,0,L|501:395,1,70,6|2,3:2|3:2,2:0:0:0:
354,180,52963,2,0,L|424:59,1,140,2|0,1:2|2:0,2:0:0:0:
362,0,53450,2,0,L|369:50,2,35,2|0|6,1:2|1:0|3:2,2:0:0:0:
328,77,53775,1,2,1:2:0:0:
280,236,54100,1,0,2:0:0:0:
200,262,54262,2,0,L|270:141,1,140,2|0,1:2|2:0,2:0:0:0:
208,82,54749,2,0,L|215:132,2,35,2|0|6,1:2|1:0|3:2,2:0:0:0:
174,159,55074,1,2,1:2:0:0:
126,318,55399,1,0,2:0:0:0:
46,344,55561,2,0,L|116:223,1,140,2|0,1:2|2:0,2:0:0:0:
54,163,56048,6,0,L|57:187,1,23.3333333333333,0|0,1:0|1:0,2:0:0:0:
73,130,56211,2,0,B|49:83|49:83|-37:33,2,102.666666666667,6|2|2,3:2|3:2|3:2,2:0:0:0:
128,35,56857,1,2,1:2:0:0:
236,16,57077,1,2,3:2:0:0:
319,86,57297,1,2,3:2:0:0:
425,110,57518,6,0,L|497:74,1,70,6|2,3:2|3:2,2:0:0:0:
378,306,58139,2,0,L|225:346,1,140,2|0,1:2|2:0,2:0:0:0:
200,268,58644,2,0,L|246:287,2,35.2076666666667,2|0|6,1:2|1:0|3:2,2:0:0:0:
282,247,58981,1,2,1:2:0:0:
193,105,59299,1,0,3:0:0:0:
179,22,59459,2,0,L|51:120,1,140,2|0,1:2|2:0,2:0:0:0:
96,187,59937,2,0,L|91:221,2,35,2|0|6,1:2|1:0|3:2,2:0:0:0:
55,261,60256,1,2,1:2:0:0:
168,384,60576,1,0,3:0:0:0:
124,312,60736,2,0,L|276:295,1,140,2|0,1:2|2:0,2:0:0:0:
323,237,61236,6,0,L|320:261,1,23.3333333333333,0|0,1:0|1:0,2:0:0:0:
304,204,61402,2,0,B|328:157|328:157|414:107,2,112,6|2|2,3:2|3:2|3:2,2:0:0:0:
249,109,62083,1,2,1:2:0:0:
141,90,62311,1,2,3:2:0:0:
69,4,62539,1,2,3:2:0:0:
124,350,63452,2,0,B|155:359|193:345|190:305|214:276|260:239|307:255|336:332|344:301|340:284|326:254|360:248,1,280,6|2,3:2|3:2,2:0:0:0:
447,258,65164,6,0,L|465:300,1,46.6666666666667,0|0,2:0|2:0,2:0:0:0:
496,187,65653,2,0,P|458:140|470:44,1,140.19075,0|0,1:0|3:0,2:0:0:0:
213,7,67118,1,2,1:2:0:0:
106,235,67850,6,0,P|83:227|63:216,1,46.6666666666667,0|0,3:0|2:0,2:0:0:0:
184,203,68338,1,0,3:0:0:0:
155,124,68582,1,2,1:2:0:0:
306,286,69069,1,0,2:0:0:0:
271,362,69313,2,0,L|363:374,1,93.3333333333333,0|0,3:0|2:0,2:0:0:0:
188,343,70045,6,0,P|173:323|155:305,1,46.6666666666667,2|2,1:2|2:0,2:0:0:0:
77,280,70533,1,2,3:2:0:0:
54,198,70777,2,0,P|31:153|33:101,1,93.3333333333333,2|0,3:2|2:0,2:0:0:0:
80,43,71508,1,0,1:0:0:0:
186,173,71996,1,2,3:2:0:0:
214,93,72240,2,0,L|311:110,1,93.3333333333333,2|2,3:2|2:0,2:0:0:0:
351,38,72972,2,0,L|398:63,1,46.6666666666667,2|0,1:2|2:0,2:0:0:0:
512,183,73704,1,2,3:2:0:0:
425,274,74061,5,0,1:0:0:0:
393,245,74180,1,0,1:0:0:0:
315,225,74416,1,0,1:0:0:0:
150,259,74916,1,0,1:0:0:0:
77,212,75166,6,0,P|83:189|45:135,1,93.3333333333333,0|0,3:0|3:0,2:0:0:0:
65,53,75897,2,0,L|95:17,2,46.6666666666667,2|2|0,1:2|2:0|3:0,2:0:0:0:
178,2,76629,1,0,3:0:0:0:
138,165,77117,1,0,3:0:0:0:
172,241,77361,2,0,L|218:233,2,46.6666666666667,0|0|0,1:0|2:0|3:0,2:0:0:0:
299,254,78092,1,0,3:0:0:0:
384,109,78580,1,2,3:2:0:0:
440,171,78824,2,0,P|475:162|516:116,1,93.3333333333333,2|2,1:2|3:2,2:0:0:0:
503,37,79556,5,0,3:0:0:0:
420,53,79800,2,0,L|385:36,1,23.3333333333333,0|0,2:0|2:0,2:0:0:0:
370,11,80044,1,0,2:0:0:0:
303,62,80287,1,0,1:0:0:0:
353,130,80531,1,0,2:0:0:0:
297,191,80775,1,0,2:0:0:0:
286,274,81019,6,0,P|319:324|313:373,1,93.3333333333333,0|0,3:0|3:0,2:0:0:0:
239,384,81748,2,0,L|132:367,1,93.3333333333333,2|2,1:2|3:2,2:0:0:0:
109,293,82477,1,2,3:2:0:0:
172,137,82964,1,0,3:0:0:0:
106,83,83207,2,0,P|156:54|187:22,1,93.3333333333333,0|0,1:0|3:0,2:0:0:0:
260,0,83936,6,0,L|274:103,1,93.3333333333333,2|2,3:2|3:2,2:0:0:0:
338,144,84666,2,0,L|334:203,1,46.6666666666667,2|0,1:2|2:0,2:0:0:0:
259,345,85395,1,0,1:0:0:0:
333,384,85633,1,0,3:0:0:0:
406,241,86121,1,8,2:3:0:0:
488,227,86371,1,0,1:0:0:0:
448,152,86621,1,4,3:0:0:0:
481,72,86871,6,0,P|466:47|442:27,1,46.6666666666667,6|0,3:2|2:0,2:0:0:0:
288,66,87602,2,0,P|264:62|242:55,2,46.6666666666667,2|2|2,2:3|2:3|2:3,2:0:0:0:
195,125,88334,2,0,P|172:131|149:135,1,46.6666666666667,2|2,2:3|2:3,2:0:0:0:
21,245,89066,2,0,P|42:256|60:271,2,46.6666666666667,2|2|2,2:3|2:3|2:3,2:0:0:0:
135,233,89797,1,2,2:3:0:0:
193,293,90041,1,2,2:3:0:0:
356,332,90529,5,2,2:3:0:0:
334,250,90773,1,2,2:3:0:0:
355,167,91017,1,2,2:3:0:0:
414,105,91261,1,2,2:3:0:0:
393,188,91505,1,2,2:3:0:0:
309,210,91749,1,2,2:3:0:0:
244,145,91992,1,2,2:3:0:0:
150,120,92236,1,2,2:3:0:0:
247,92,92480,1,2,2:3:0:0:
170,9,92724,5,0,3:0:0:0:
136,333,97114,6,0,L|41:276,1,93.3333333333333,2|2,2:3|2:3,2:0:0:0:
77,203,97836,1,2,2:3:0:0:
55,121,98077,1,2,2:3:0:0:
95,47,98318,1,2,2:3:0:0:
25,0,98568,6,0,P|110:100|165:232,1,252.000000961304,6|2,3:2|3:2,2:0:0:0:
130,358,99301,2,0,P|186:330|248:324,1,126.000000480652,2|2,1:2|3:2,2:0:0:0:
394,363,99791,1,2,3:2:0:0:
252,295,100035,2,0,P|333:228|152:177,1,391.99998803711,6|2,3:2|1:2,2:0:0:0:
71,292,101014,2,0,P|16:243|3:187,1,130.666662679037,2|2,3:2|3:2,2:0:0:0:
267,0,101748,5,2,3:2:0:0:
105,14,101993,2,0,P|187:62|260:117,1,135.333337463379,2|2,3:2|1:2,2:0:0:0:
286,234,102482,1,2,3:2:0:0:
444,196,102727,1,2,3:2:0:0:
425,362,102971,2,0,B|458:300|458:300|516:254,2,140.000005340576,6|2|2,3:2|3:2|3:2,2:0:0:0:
257,384,103698,1,2,1:2:0:0:
103,315,103940,2,0,L|13:321,1,70.0000026702882,2|0,1:2|1:0,2:0:0:0:
0,257,104183,1,2,1:2:0:0:
57,216,104304,1,0,1:0:0:0:
114,175,104425,6,0,P|172:157|64:104,1,252.000000961304,6|2,3:2|3:2,2:0:0:0:
7,190,105158,2,0,P|56:261|70:316,1,126.000000480652,2|2,1:2|3:2,2:0:0:0:
193,384,105648,1,2,3:2:0:0:
252,238,105892,2,0,P|337:221|403:170,2,130.666662679037,6|2|2,3:2|3:2|3:2,2:0:0:0:
108,173,106626,2,0,P|228:101|341:20,1,261.333325358073,2|2,1:2|3:2,2:0:0:0:
486,0,107360,2,0,P|459:137|421:271,1,270.666674926758,6|2,3:2|3:2,2:0:0:0:
309,384,108094,6,0,P|375:369|442:365,1,135.333337463379,2|2,1:2|3:2,2:0:0:0:
207,344,108584,1,2,3:2:0:0:
61,259,108828,2,0,B|15:205|15:205|-5:134,2,140.000005340576,6|2|2,3:2|3:2|3:2,2:0:0:0:
228,247,109559,1,2,1:2:0:0:
296,93,109803,2,0,L|363:110,3,70.0000026702882,8|8|4|4,2:3|2:3|2:3|2:3,2:0:0:0:
266,22,110287,6,0,P|208:-10|131:-15,1,126.000000480652,6|2,3:2|3:2,2:0:0:0:
10,43,110766,1,2,3:2:0:0:
132,131,111005,2,0,P|115:194|68:240,1,126.000000480652,2|2,1:2|3:2,2:0:0:0:
113,384,111492,1,2,3:2:0:0:
265,356,111736,2,0,P|358:234|334:399,1,378.000001441956,6|2,3:2|1:2,2:0:0:0:
512,297,112712,2,0,P|493:219|459:148,1,130.666662679037,2|2,3:2|3:2,2:0:0:0:
196,0,113443,5,2,3:2:0:0:
51,74,113687,2,0,P|126:130|206:152,1,130.666662679037,2|2,3:2|1:2,2:0:0:0:
31,239,114175,1,2,3:2:0:0:
140,358,114419,1,2,3:2:0:0:
292,287,114663,2,0,B|307:218|307:218|351:159,2,135.333337463379,6|2|2,3:2|3:2|3:2,2:0:0:0:
430,384,115395,1,2,1:2:0:0:
484,224,115639,2,0,L|469:155,3,70.0000026702882,8|8|4|4,2:3|2:3|2:3|2:3,2:0:0:0:
420,96,116126,6,0,B|425:75|425:75|469:29|469:29|491:-14,2,130.666662679037,6|2|2,3:2|3:0|3:0,2:0:0:0:
270,121,116871,1,2,1:2:0:0:
136,51,117113,1,2,3:2:0:0:
80,191,117355,1,2,3:2:0:0:
171,316,117598,2,0,P|109:297|45:290,1,126.000000480652,6|2,3:2|3:2,2:0:0:0:
269,384,118083,1,2,3:2:0:0:
375,268,118325,2,0,P|464:191|321:-4,1,391.99998803711,2|6,1:2|3:2,2:0:0:0:
120,215,119536,1,2,3:2:0:0:
191,354,119779,2,0,P|93:292|65:288,1,130.666662679037,2|2,1:2|3:2,2:0:0:0:
20,144,120264,1,2,3:0:0:0:
161,95,120506,2,0,L|96:-26,2,130.666662679037,6|2|2,3:2|3:2|3:2,2:0:0:0:
312,108,121234,1,2,1:2:0:0:
0,384,121974,1,4,3:2:0:0:
