osu file format v14

[General]
AudioFilename: audio.ogg
AudioLeadIn: 0
PreviewTime: 26371
Countdown: 0
SampleSet: Soft
StackLeniency: 0.4
Mode: 0
LetterboxInBreaks: 0
WidescreenStoryboard: 1

[Editor]
Bookmarks: 107,8856,26371,49719,52314,63452,86871,98568,104364,110230,116065,119052,121974
DistanceSpacing: 1.4
BeatDivisor: 4
GridSize: 16
TimelineZoom: 2

[Metadata]
Title:201
TitleUnicode:201
Artist:Perspective, a lovely hand to hold
ArtistUnicode:Perspective, a lovely hand to hold
Creator:laura-
Version:Expert
Source:
Tags:celektus formless000 ralkinson fisky -tatsuo what not to do english alternative emo indie math noise pop rock palhth nashua new hampshire 2017
BeatmapID:3357878
BeatmapSetID:1645025

[Difficulty]
HPDrainRate:5
CircleSize:4
OverallDifficulty:8.5
ApproachRate:9.5
SliderMultiplier:2
SliderTickRate:0.5

[Events]
//Background and Video events
0,0,"bg.jpg",0,0
//Break Periods
2,93212,96017
//Storyboard Layer 0 (Background)
//Storyboard Layer 1 (Fail)
//Storyboard Layer 2 (Pass)
//Storyboard Layer 3 (Foreground)
//Storyboard Layer 4 (Overlay)
//Storyboard Sound Samples

[TimingPoints]
107,324.324324324324,6,2,1,70,1,0
377,-100,6,2,1,5,0,0
431,-200,6,2,1,40,0,0
2052,324.324324324324,7,2,1,70,1,0
2052,-100,7,2,2,70,0,0
4322,323.450134770889,6,2,1,70,1,0
4591,-100,6,2,1,5,0,0
4645,-200,6,2,1,40,0,0
6262,324.324324324324,4,2,1,70,1,0
6262,-100,4,2,2,70,0,0
8856,324.324324324324,6,2,1,70,1,0
8856,-83.3333333333333,6,2,1,70,0,0
9099,-83.3333333333333,6,2,1,5,0,0
9180,-83.3333333333333,6,2,1,70,0,0
9828,-100,6,2,1,70,0,0
9991,-100,6,2,3,70,0,0
10153,-100,6,2,1,70,0,0
10315,-100,6,2,3,70,0,0
10477,-100,6,2,1,70,0,0
10801,322.58064516129,7,2,1,70,1,0
10801,-83.3333333333333,7,2,1,70,0,0
11042,-83.3333333333333,7,2,1,5,0,0
11123,-83.3333333333333,7,2,1,70,0,0
11768,-100,7,2,1,70,0,0
11930,-100,7,2,3,70,0,0
12091,-100,7,2,1,70,0,0
12252,-100,7,2,3,70,0,0
12413,-100,7,2,1,30,0,0
12575,-100,7,2,3,70,0,0
12736,-100,7,2,1,50,0,0
13059,327.868852459016,6,2,1,70,1,0
13059,-83.3333333333333,6,2,1,70,0,0
13304,-83.3333333333333,6,2,1,5,0,0
13386,-83.3333333333333,6,2,1,70,0,0
13714,319.148936170212,6,2,1,70,1,0
14192,-100,6,2,3,70,0,0
14351,-100,6,2,1,70,0,0
14511,-100,6,2,3,70,0,0
14671,344.827586206896,6,2,1,50,1,0
15015,322.58064516129,4,2,1,70,1,0
15015,-83.3333333333333,4,2,1,70,0,0
15256,-83.3333333333333,4,2,1,5,0,0
15337,-83.3333333333333,4,2,1,70,0,0
16144,-83.3333333333333,4,2,4,70,0,0
16305,325.20325203252,4,2,1,70,1,0
17605,324.324324324324,6,2,1,70,1,0
17605,-83.3333333333333,6,2,1,70,0,0
17848,-83.3333333333333,6,2,1,5,0,0
17929,-83.3333333333333,6,2,1,70,0,0
18577,-100,6,2,1,70,0,0
18740,-100,6,2,3,70,0,0
18902,-100,6,2,1,70,0,0
19064,331.491712707182,6,2,3,70,1,0
19229,-100,6,2,1,50,0,0
19561,317.460317460317,7,2,1,70,1,0
19561,-83.3333333333333,7,2,1,70,0,0
19799,-83.3333333333333,7,2,1,5,0,0
19878,-83.3333333333333,7,2,1,70,0,0
20513,-100,7,2,1,70,0,0
20672,340.90909090909,7,2,3,70,1,0
20842,340.90909090909,7,2,1,70,1,0
21012,-100,7,2,3,70,0,0
21182,-100,7,2,1,70,0,0
21353,-100,7,2,3,70,0,0
21524,306.122448979591,7,2,1,50,1,0
21830,323.450134770889,6,2,1,70,1,0
21830,-83.3333333333333,6,2,1,70,0,0
22072,-83.3333333333333,6,2,1,5,0,0
22153,-83.3333333333333,6,2,1,70,0,0
22800,-100,6,2,1,70,0,0
22962,-100,6,2,3,70,0,0
23123,-100,6,2,1,70,0,0
23285,-100,6,2,3,70,0,0
23447,-100,6,2,1,50,0,0
23770,322.58064516129,4,2,1,70,1,0
23770,-83.3333333333333,4,2,1,70,0,0
24011,-83.3333333333333,4,2,1,5,0,0
24092,-83.3333333333333,4,2,1,70,0,0
24899,-83.3333333333333,4,2,4,70,0,0
25060,327.868852459016,4,2,4,70,1,0
25223,-100,4,2,1,70,0,0
25551,-100,4,2,4,70,0,0
25715,-100,4,2,1,70,0,0
25960,-100,4,2,1,5,0,0
26043,-100,4,2,2,70,0,0
26371,324.324324324324,4,2,1,90,1,1
26371,-66.6666666666667,4,2,1,90,0,1
26614,-66.6666666666667,4,2,1,5,0,1
26695,-66.6666666666667,4,2,1,90,0,0
26857,-83.3333333333333,4,2,1,90,0,0
26938,-83.3333333333333,4,2,1,5,0,0
27019,-83.3333333333333,4,2,1,90,0,0
27262,-83.3333333333333,4,2,1,5,0,0
27343,-83.3333333333333,4,2,1,90,0,0
27587,-83.3333333333333,4,2,1,5,0,0
27668,-83.3333333333333,4,2,1,90,0,0
27830,325.20325203252,4,2,1,90,1,1
27830,-66.6666666666667,4,2,1,90,0,1
27992,325.20325203252,4,2,1,90,1,0
28154,-66.6666666666667,4,2,1,90,0,1
28397,-66.6666666666667,4,2,1,5,0,1
28479,-66.6666666666667,4,2,1,90,0,0
28643,320.855614973262,4,2,1,90,1,0
28963,-66.6666666666667,4,2,1,90,0,0
29124,325.20325203252,4,2,1,90,1,0
29286,333.333333333333,4,2,1,90,1,0
29452,327.868852459016,4,2,1,90,1,1
29452,-76.9230769230769,4,2,1,90,0,1
29615,327.868852459016,4,2,1,90,1,1
29696,-100,4,2,1,5,0,1
29778,-100,4,2,1,90,0,1
29943,322.58064516129,4,2,5,90,1,1
29943,-71.4285714285714,4,2,5,90,0,1
30184,-71.4285714285714,4,2,5,5,0,1
30265,-71.4285714285714,4,2,1,90,0,1
30588,-71.4285714285714,4,2,5,90,0,1
30749,-71.4285714285714,4,2,1,90,0,1
30829,-71.4285714285714,4,2,1,5,0,1
30910,-71.4285714285714,4,2,1,90,0,1
31878,338.983050847457,4,2,1,90,1,1
31878,-142.857142857143,4,2,1,90,0,1
32047,-142.857142857143,4,2,1,90,0,0
32132,-142.857142857143,4,2,1,5,0,0
32216,322.58064516129,4,2,1,90,1,1
32216,-66.6666666666667,4,2,1,90,0,1
32457,-66.6666666666667,4,2,1,5,0,1
32538,-66.6666666666667,4,2,1,90,0,0
32699,-83.3333333333333,4,2,1,90,0,0
32779,-83.3333333333333,4,2,1,5,0,0
32861,-83.3333333333333,4,2,1,90,0,0
33102,-83.3333333333333,4,2,1,5,0,0
33183,-83.3333333333333,4,2,1,90,0,0
33425,-83.3333333333333,4,2,1,5,0,0
33506,-83.3333333333333,4,2,1,90,0,0
33667,323.886639676113,4,2,1,90,1,1
33667,-66.6666666666667,4,2,1,90,0,1
33828,323.886639676113,4,2,1,90,1,0
33989,-66.6666666666667,4,2,1,90,0,1
34231,-66.6666666666667,4,2,1,5,0,1
34313,-66.6666666666667,4,2,1,90,0,0
34718,-66.6666666666667,4,2,2,90,0,0
34879,-66.6666666666667,4,2,1,90,0,0
34961,322.58064516129,4,2,1,90,1,0
35202,-100,4,2,2,90,0,0
35283,326.086956521739,4,2,1,90,1,1
35283,-76.9230769230769,4,2,1,90,0,1
35446,326.086956521739,4,2,1,90,1,1
35527,-100,4,2,1,5,0,1
35609,-100,4,2,1,90,0,1
35772,323.450134770889,4,2,1,90,1,1
35772,-71.4285714285714,4,2,1,90,0,1
36014,-71.4285714285714,4,2,1,5,0,1
36095,-71.4285714285714,4,2,1,90,0,1
36660,-71.4285714285714,4,2,1,5,0,1
36742,323.450134770889,4,2,1,90,1,1
37712,-142.857142857143,4,2,1,90,0,1
37874,-142.857142857143,4,2,1,90,0,0
37954,-142.857142857143,4,2,1,5,0,0
38036,324.324324324324,4,2,1,90,1,1
38036,-66.6666666666667,4,2,1,90,0,1
38279,-66.6666666666667,4,2,1,5,0,1
38360,-66.6666666666667,4,2,1,90,0,0
38522,-83.3333333333333,4,2,1,90,0,0
38603,-83.3333333333333,4,2,1,5,0,0
38684,-83.3333333333333,4,2,1,90,0,0
38927,-83.3333333333333,4,2,1,5,0,0
39008,-83.3333333333333,4,2,1,90,0,0
39252,-83.3333333333333,4,2,1,5,0,0
39333,-83.3333333333333,4,2,1,90,0,0
39495,324.324324324324,4,2,1,90,1,1
39495,-66.6666666666667,4,2,1,90,0,1
39657,324.324324324324,4,2,1,90,1,0
39819,-66.6666666666667,4,2,1,90,0,1
40062,-66.6666666666667,4,2,1,5,0,1
40143,352.941176470588,4,2,1,90,1,0
40319,312.5,4,2,1,90,1,0
40631,346.820809248555,4,2,1,90,1,0
40631,-66.6666666666667,4,2,1,90,0,0
40804,307.692307692307,4,2,1,90,1,0
40957,-100,4,2,2,90,0,0
41111,333.333333333333,4,2,1,90,1,1
41111,-76.9230769230769,4,2,1,90,0,1
41277,333.333333333333,4,2,1,90,1,1
41360,-100,4,2,1,5,0,1
41443,-100,4,2,1,90,0,1
41611,326.086956521739,4,2,5,90,1,1
41611,-71.4285714285714,4,2,5,90,0,1
41855,-71.4285714285714,4,2,5,5,0,1
41937,-71.4285714285714,4,2,1,90,0,1
42263,-71.4285714285714,4,2,5,90,0,1
42426,-71.4285714285714,4,2,1,90,0,1
42507,-71.4285714285714,4,2,1,5,0,1
42589,315.78947368421,4,2,1,90,1,1
43220,338.983050847457,4,2,1,90,1,1
43558,329.670329670329,4,2,1,90,1,1
43558,-142.857142857143,4,2,1,90,0,1
43722,-142.857142857143,4,2,1,90,0,0
43805,-142.857142857143,4,2,1,5,0,0
43887,322.58064516129,4,2,1,90,1,1
43887,-66.6666666666667,4,2,1,90,0,1
44128,-66.6666666666667,4,2,1,5,0,1
44209,-66.6666666666667,4,2,1,90,0,0
44370,-83.3333333333333,4,2,1,90,0,0
44450,-83.3333333333333,4,2,1,5,0,0
44532,-83.3333333333333,4,2,1,90,0,0
44773,-83.3333333333333,4,2,1,5,0,0
44854,-83.3333333333333,4,2,1,90,0,0
45096,-83.3333333333333,4,2,1,5,0,0
45177,-83.3333333333333,4,2,1,90,0,0
45338,324.324324324324,4,2,1,90,1,1
45338,-66.6666666666667,4,2,1,90,0,1
45500,324.324324324324,4,2,1,90,1,0
45662,-66.6666666666667,4,2,1,90,0,1
45905,-66.6666666666667,4,2,1,5,0,1
45986,-66.6666666666667,4,2,1,90,0,0
46635,324.324324324324,4,2,1,90,1,0
46797,-100,4,2,2,90,0,0
46959,331.491712707182,4,2,1,90,1,1
46959,-76.9230769230769,4,2,1,90,0,1
47124,331.491712707182,4,2,1,90,1,1
47206,-100,4,2,1,5,0,1
47289,-100,4,2,1,90,0,1
47456,321.71581769437,4,2,1,90,1,1
47456,-71.4285714285714,4,2,1,90,0,1
47697,-71.4285714285714,4,2,1,5,0,1
47777,-71.4285714285714,4,2,1,90,0,1
48340,-71.4285714285714,4,2,1,5,0,1
48421,321.71581769437,4,2,1,90,1,1
49386,333.333333333333,4,2,1,90,1,1
49386,-142.857142857143,4,2,1,90,0,1
49552,-142.857142857143,4,2,1,90,0,0
49636,-142.857142857143,4,2,1,5,0,0
49719,324.499729583559,4,2,1,50,1,0
50205,324.499729583559,4,2,1,50,1,0
50367,324.499729583559,4,2,1,50,1,0
50529,-322.58064516129,4,2,1,50,0,0
51015,324.499729583559,4,2,1,50,1,0
52314,324.763193504736,4,2,1,70,1,0
52476,-999.99999999999,4,2,1,70,0,0
52881,-999.99999999999,4,2,1,5,0,0
52963,-83.3333333333333,4,2,1,70,0,0
53368,-83.3333333333333,4,2,1,5,0,0
53450,-83.3333333333333,4,2,1,70,0,0
53775,-1000,4,2,1,70,0,0
54262,-83.3333333333333,4,2,1,70,0,0
54667,-83.3333333333333,4,2,1,5,0,0
54749,-83.3333333333333,4,2,1,70,0,0
55074,-1000,4,2,1,70,0,0
55561,-83.3333333333333,4,2,1,70,0,0
55966,-83.3333333333333,4,2,1,5,0,0
56048,-83.3333333333333,4,2,1,70,0,0
56211,323.014804845222,4,2,1,70,1,0
56211,-55.5555555555556,4,2,1,70,0,0
56857,330.578512396694,4,2,1,70,1,0
56857,-37.037037037037,4,2,1,70,0,0
57518,310.880829015544,4,2,1,70,1,0
57673,-1000,4,2,1,70,0,0
58061,-1000,4,2,1,5,0,0
58139,337.078651685393,4,2,1,70,1,0
58139,-83.3333333333333,4,2,1,70,0,0
58560,-83.3333333333333,4,2,1,5,0,0
58644,-83.3333333333333,4,2,1,70,0,0
58813,337.078651685393,4,2,1,70,1,0
58981,319.148936170213,4,2,1,70,1,0
58981,-1000,4,2,1,70,0,0
59140,319.148936170213,4,2,1,70,1,0
59459,319.148936170213,4,2,1,70,1,0
59459,-83.3333333333333,4,2,1,70,0,0
59857,-83.3333333333333,4,2,1,5,0,0
59937,-83.3333333333333,4,2,1,70,0,0
60256,-1000,4,2,1,70,0,0
60736,333.333333333334,4,2,1,70,1,0
60736,-83.3333333333333,4,2,1,70,0,0
61152,-83.3333333333333,4,2,1,5,0,0
61236,-83.3333333333333,4,2,1,70,0,0
61402,340.909090909091,4,2,1,70,1,0
61402,-55.5555555555556,4,2,1,70,0,0
62083,342.368045649073,4,2,1,70,1,0
62083,-37.037037037037,4,2,1,70,0,0
62767,-37.037037037037,4,2,1,50,0,0
63452,733.944954128441,4,2,1,50,1,0
63452,-76.9230769230769,4,2,1,50,0,0
64063,-76.9230769230769,4,2,1,5,0,0
64185,-100,4,2,1,50,0,0
66387,731.707317073171,4,2,1,50,1,0
67850,-76.9230769230769,4,2,1,50,0,0
69313,-90.9090909090909,4,2,1,50,0,0
70045,-100,4,2,1,50,0,0
73704,714.285714285715,4,2,1,50,1,0
74061,-100,4,2,1,30,0,0
74120,-100,4,2,1,35,0,0
74180,-100,4,2,1,40,0,0
74416,750,4,2,1,45,1,0
74666,-100,4,2,1,50,0,0
74791,-100,4,2,1,20,0,0
74916,-100,4,2,1,50,0,0
75166,731.707317073171,4,2,1,50,1,0
81019,729.483282674772,4,2,1,50,1,0
81019,-90.9090909090909,4,2,1,50,0,0
85395,714.285714285714,4,2,1,50,1,0
85871,750,4,2,1,50,1,0
86121,749.999999999999,4,2,1,50,1,0
86621,-100,4,2,6,50,0,0
86871,731.707317073171,4,2,1,50,1,0
86871,-142.857142857143,4,2,1,50,0,0
87602,-90.909090909091,4,2,1,20,0,0
88334,-125,4,2,1,25,0,0
89066,-83.3333333333333,4,2,1,30,0,0
89797,-83.3333333333333,4,2,1,35,0,0
90529,-83.3333333333333,4,2,1,40,0,0
91261,-83.3333333333333,4,2,1,45,0,0
91992,-83.3333333333333,4,2,1,60,0,0
92724,-25,4,2,4,65,0,1
92968,-25,4,2,4,65,0,0
97114,722.891566265061,4,2,1,20,1,0
97354,-100,4,2,1,25,0,0
97595,-100,4,2,1,30,0,0
97836,-100,4,2,1,35,0,0
98077,-100,4,2,1,40,0,0
98318,750.000000000001,4,2,1,45,1,0
98318,-66.6666666666667,4,2,1,45,0,0
98568,733.944954128442,4,2,1,90,1,0
98568,-66.6666666666667,4,2,1,90,0,0
98996,-66.6666666666667,4,2,1,5,0,0
99057,-66.6666666666667,4,2,1,90,0,0
99240,-66.6666666666667,4,2,1,5,0,0
99301,-22.2222222222222,4,2,1,90,0,1
99485,-22.2222222222222,4,2,1,5,0,1
99546,-22.2222222222222,4,2,1,90,0,1
99730,-22.2222222222222,4,2,1,5,0,1
99791,-22.2222222222222,4,2,1,90,0,1
99974,-22.2222222222222,4,2,1,5,0,1
100035,-66.6666666666667,4,2,1,90,0,0
100464,-66.6666666666667,4,2,1,5,0,0
100525,-66.6666666666667,4,2,1,90,0,0
100708,-66.6666666666667,4,2,1,5,0,0
100769,-21.7391304347826,4,2,1,90,0,1
100953,-21.7391304347826,4,2,1,5,0,1
101014,-21.7391304347826,4,2,1,90,0,1
101197,-21.7391304347826,4,2,1,5,0,1
101259,-21.7391304347826,4,2,1,90,0,1
101442,-21.7391304347826,4,2,1,5,0,1
101503,-66.6666666666667,4,2,1,90,0,0
101931,-66.6666666666667,4,2,1,5,0,0
101993,-66.6666666666667,4,2,1,90,0,0
102176,-66.6666666666667,4,2,1,5,0,0
102237,-21.2765957446809,4,2,1,90,0,1
102421,-21.2765957446809,4,2,1,5,0,1
102482,-21.2765957446809,4,2,1,90,0,1
102665,-21.2765957446809,4,2,1,5,0,1
102727,-21.2765957446809,4,2,1,90,0,1
102910,-21.2765957446809,4,2,1,5,0,1
102971,727.272727272729,4,2,1,90,1,0
102971,-20,4,2,1,90,0,0
103698,-18.1818181818182,4,2,1,90,0,1
103940,-18.1818181818182,4,2,1,50,0,1
104061,-18.1818181818182,4,2,1,60,0,1
104183,-18.1818181818182,4,2,1,70,0,1
104304,-18.1818181818182,4,2,1,80,0,1
104425,733.944954128442,4,2,1,80,1,1
104425,-66.6666666666667,4,2,1,90,0,0
104853,-66.6666666666667,4,2,1,5,0,0
104914,-66.6666666666667,4,2,1,90,0,0
105097,-66.6666666666667,4,2,1,5,0,0
105158,-22.2222222222222,4,2,1,90,0,1
105342,-22.2222222222222,4,2,1,5,0,1
105403,-22.2222222222222,4,2,1,90,0,1
105587,-22.2222222222222,4,2,1,5,0,1
105648,-22.2222222222222,4,2,1,90,0,1
105831,-22.2222222222222,4,2,1,5,0,1
105892,-66.6666666666667,4,2,1,90,0,0
106321,-66.6666666666667,4,2,1,5,0,0
106382,-66.6666666666667,4,2,1,90,0,0
106565,-66.6666666666667,4,2,1,5,0,0
106626,-21.7391304347826,4,2,1,90,0,1
106810,-21.7391304347826,4,2,1,5,0,1
106871,-21.7391304347826,4,2,1,90,0,1
107054,-21.7391304347826,4,2,1,5,0,1
107116,-21.7391304347826,4,2,1,90,0,1
107299,-21.7391304347826,4,2,1,5,0,1
107360,-66.6666666666667,4,2,1,90,0,0
107788,-66.6666666666667,4,2,1,5,0,0
107850,-66.6666666666667,4,2,1,90,0,0
108033,-66.6666666666667,4,2,1,5,0,0
108094,-21.2765957446809,4,2,1,90,0,1
108278,-21.2765957446809,4,2,1,5,0,1
108339,-21.2765957446809,4,2,1,90,0,1
108522,-21.2765957446809,4,2,1,5,0,1
108584,-21.2765957446809,4,2,1,90,0,1
108767,-21.2765957446809,4,2,1,5,0,1
108828,731.707317073172,4,2,1,90,1,1
108828,-20,4,2,1,90,0,0
109559,-18.1818181818182,4,2,1,90,0,1
110287,718.562874251498,4,2,1,90,1,1
110287,-66.6666666666667,4,2,1,90,0,0
110706,-66.6666666666667,4,2,1,5,0,0
110766,-66.6666666666667,4,2,1,90,0,0
110945,-66.6666666666667,4,2,1,5,0,0
111005,731.707317073172,4,2,1,90,1,0
111005,-22.2222222222222,4,2,1,90,0,1
111187,-22.2222222222222,4,2,1,5,0,1
111248,-22.2222222222222,4,2,1,90,0,1
111431,-22.2222222222222,4,2,1,5,0,1
111492,-22.2222222222222,4,2,1,90,0,1
111675,-22.2222222222222,4,2,1,5,0,1
111736,-66.6666666666667,4,2,1,90,0,0
112163,-66.6666666666667,4,2,1,5,0,0
112224,-66.6666666666667,4,2,1,90,0,0
112407,-66.6666666666667,4,2,1,5,0,0
112468,-21.7391304347826,4,2,1,90,0,1
112651,-21.7391304347826,4,2,1,5,0,1
112712,-21.7391304347826,4,2,1,90,0,1
112895,-21.7391304347826,4,2,1,5,0,1
112956,-21.7391304347826,4,2,1,90,0,1
113139,-21.7391304347826,4,2,1,5,0,1
113200,731.707317073172,4,2,1,90,1,1
113200,-66.6666666666667,4,2,1,90,0,0
113626,-66.6666666666667,4,2,1,5,0,0
113687,-66.6666666666667,4,2,1,90,0,0
113870,-66.6666666666667,4,2,1,5,0,0
113931,-21.2765957446809,4,2,1,90,0,1
114114,-21.2765957446809,4,2,1,5,0,1
114175,-21.2765957446809,4,2,1,90,0,1
114358,-21.2765957446809,4,2,1,5,0,1
114419,-21.2765957446809,4,2,1,90,0,1
114602,-21.2765957446809,4,2,1,5,0,1
114663,-20,4,2,1,90,0,0
115395,-18.1818181818182,4,2,1,90,0,1
116126,784.313725490198,4,2,1,90,1,1
116126,-66.6666666666667,4,2,1,90,0,0
116387,-18.1818181818182,4,2,1,90,0,1
116518,-18.1818181818182,4,2,1,90,0,0
116648,895.522388059704,4,2,1,90,1,0
116648,-18.1818181818182,4,2,1,90,0,1
116797,-18.1818181818182,4,2,1,90,0,0
116871,727.272727272729,4,2,1,90,1,1
116871,-22.2222222222222,4,2,1,90,0,1
117052,-22.2222222222222,4,2,1,5,0,1
117113,-22.2222222222222,4,2,1,90,0,1
117295,-22.2222222222222,4,2,1,5,0,1
117355,-22.2222222222222,4,2,1,90,0,1
117537,-22.2222222222222,4,2,1,5,0,1
117598,-66.6666666666667,4,2,1,90,0,0
118022,-66.6666666666667,4,2,1,5,0,0
118083,-66.6666666666667,4,2,1,90,0,0
118264,-66.6666666666667,4,2,1,5,0,0
118325,-21.7391304347826,4,2,1,90,0,1
118507,-21.7391304347826,4,2,1,5,0,1
118567,-21.7391304347826,4,2,1,90,0,1
118749,-21.7391304347826,4,2,1,5,0,1
118810,-21.7391304347826,4,2,1,90,0,1
118991,-21.7391304347826,4,2,1,5,0,1
119052,727.272727272729,4,2,1,90,1,0
119052,-28.5714285714286,4,2,1,90,0,0
120506,-33.3333333333333,4,2,1,90,0,0
121234,740.740740740742,4,2,1,90,1,0
121234,-33.3333333333333,4,2,1,90,0,0
121419,-33.3333333333333,4,2,1,5,0,0
121480,-37.037037037037,4,2,1,85,0,0
121727,-33.3333333333333,4,2,1,80,0,0
121974,733.048259010385,4,2,1,70,1,0
121974,-33.3333333333333,4,2,1,70,0,0

[Colours]
Combo1 : 233,222,177
Combo2 : 232,203,200

[HitObjects]
425,344,107,6,0,P|448:307|351:245,1,166.666666666667,6|0,3:2|2:0,2:0:0:0:
363,247,431,2,0,L|477:257,1,100,0|2,2:0|2:0,2:0:0:0:
0,384,2052,2,0,B|76:317|76:317|199:291,1,200,6|0,3:0|2:0,2:0:0:0:
13,0,4322,6,0,P|-10:37|87:99,1,166.666666666667,6|0,3:2|2:0,2:0:0:0:
75,97,4645,2,0,L|-39:87,1,100,0|2,2:0|2:0,2:0:0:0:
447,0,6262,2,0,B|374:69|374:69|338:190,1,200,6|0,3:0|2:0,2:0:0:0:
280,384,8856,6,0,P|169:350|104:271,1,180,6|0,3:2|2:0,2:0:0:0:
105,234,9180,1,2,1:2:0:0:
105,234,9342,1,2,2:0:0:0:
123,201,9423,1,0,2:0:0:0:
122,163,9504,1,0,2:0:0:0:
68,111,9666,1,2,2:0:0:0:
197,33,9828,2,0,L|209:-30,1,50,2|0,1:2|2:0,2:0:0:0:
263,96,9991,2,0,L|206:190,1,100,0|2,3:0|2:0,2:0:0:0:
175,378,10315,2,0,L|276:295,1,100,0|2,3:0|2:0,2:0:0:0:
290,222,10639,1,0,3:0:0:0:
380,0,10801,6,0,P|459:84|475:185,1,180,4|0,3:2|2:0,2:0:0:0:
457,217,11123,1,2,1:2:0:0:
457,217,11284,1,2,2:0:0:0:
425,237,11365,1,0,2:0:0:0:
407,270,11446,1,0,3:0:0:0:
428,342,11607,1,2,3:2:0:0:
299,271,11768,2,0,L|287:208,1,50,2|0,1:2|2:0,2:0:0:0:
346,109,11930,2,0,L|289:15,1,100,0|2,3:0|2:0,2:0:0:0:
95,0,12252,2,0,L|180:68,1,100,0|0,3:0|1:0,2:0:0:0:
210,258,12575,2,0,L|121:236,1,50,0|0,3:0|2:0,2:0:0:0:
92,232,12736,1,2,1:2:0:0:
92,232,12897,1,0,1:0:0:0:
277,384,13059,6,0,P|388:350|453:271,1,180,4|0,3:2|2:0,2:0:0:0:
452,234,13386,1,2,1:2:0:0:
452,234,13550,1,2,2:0:0:0:
434,201,13632,1,0,2:0:0:0:
435,163,13714,1,0,3:0:0:0:
489,111,13873,1,2,3:2:0:0:
360,33,14033,2,0,L|348:-30,1,50,2|0,1:2|2:0,2:0:0:0:
294,96,14192,2,0,L|351:190,1,100,0|2,3:0|2:0,2:0:0:0:
382,378,14511,2,0,L|326:332,1,50,0|0,3:0|2:0,2:0:0:0:
288,302,14671,1,0,1:0:0:0:
288,302,14843,1,2,1:2:0:0:
213,74,15015,6,0,P|102:105|36:183,1,180,6|0,3:2|2:0,2:0:0:0:
36,221,15337,1,2,1:2:0:0:
36,221,15498,1,2,2:0:0:0:
53,255,15579,1,0,2:0:0:0:
52,292,15660,1,0,3:0:0:0:
0,343,15821,1,2,3:2:0:0:
56,148,15982,1,2,1:2:0:0:
31,49,16144,1,0,3:0:0:0:
172,0,16305,6,0,L|264:24,1,50,2|0,1:2|2:0,2:0:0:0:
273,96,16467,2,0,L|351:150,1,50,2|0,1:2|2:0,2:0:0:0:
335,220,16630,2,0,L|390:297,1,50,0|0,1:0|2:0,2:0:0:0:
350,357,16792,1,8,2:3:0:0:
187,384,16955,2,0,L|128:171,1,200,4|2,2:3|2:3,2:0:0:0:
138,309,17605,6,0,P|198:245|286:240,1,180,6|0,3:2|2:0,2:0:0:0:
339,300,17929,1,2,1:2:0:0:
339,300,18091,1,2,2:0:0:0:
371,317,18172,1,0,2:0:0:0:
409,316,18253,1,0,3:0:0:0:
461,263,18415,1,2,3:2:0:0:
347,164,18577,2,0,L|408:181,1,50,2|0,1:2|2:0,2:0:0:0:
254,234,18740,2,0,L|165:169,1,100,0|2,3:0|2:0,2:0:0:0:
99,0,19064,2,0,L|163:18,1,50,0|0,3:0|2:0,2:0:0:0:
223,36,19229,1,2,1:2:0:0:
223,36,19395,1,0,1:0:0:0:
0,124,19561,6,0,P|60:188|148:193,1,180,4|0,3:2|2:0,2:0:0:0:
201,133,19878,1,2,1:2:0:0:
201,133,20037,1,2,2:0:0:0:
233,116,20116,1,0,2:0:0:0:
271,117,20195,1,0,3:0:0:0:
323,170,20354,1,2,3:2:0:0:
472,160,20513,2,0,L|533:143,1,50,2|0,1:2|2:0,2:0:0:0:
379,90,20672,2,0,L|290:155,1,100,0|2,3:0|2:0,2:0:0:0:
247,342,21012,2,0,L|308:250,1,100,0|0,3:0|1:0,2:0:0:0:
225,42,21353,2,0,L|211:98,1,50,0|0,3:0|2:0,2:0:0:0:
199,166,21524,1,2,1:2:0:0:
199,166,21677,1,0,1:0:0:0:
141,384,21830,6,0,P|63:342|36:258,1,180,6|0,3:2|2:0,2:0:0:0:
80,192,22153,1,0,1:0:0:0:
80,192,22315,1,2,2:0:0:0:
88,156,22396,1,0,2:0:0:0:
77,120,22476,1,2,3:2:0:0:
12,83,22638,1,0,3:0:0:0:
137,0,22800,2,0,L|193:13,1,50,2|0,1:2|2:0,2:0:0:0:
279,95,22962,2,0,L|386:89,1,100,0|2,3:0|2:0,2:0:0:0:
206,226,23285,2,0,L|140:247,1,50,0|0,3:0|2:0,2:0:0:0:
90,268,23447,1,2,1:2:0:0:
90,268,23608,1,0,1:0:0:0:
299,384,23770,6,0,P|363:323|367:235,1,180,4|0,3:2|2:0,2:0:0:0:
307,182,24092,1,0,1:0:0:0:
307,182,24253,1,0,2:0:0:0:
290,149,24334,1,0,2:0:0:0:
292,111,24415,1,0,3:0:0:0:
344,59,24576,1,0,3:0:0:0:
367,235,24737,1,0,1:0:0:0:
327,326,24899,1,0,3:0:0:0:
488,246,25060,6,0,L|551:214,1,50,0|0,3:0|2:0,2:0:0:0:
447,131,25223,2,0,L|419:172,1,50,0|0,1:0|2:0,2:0:0:0:
432,59,25387,1,2,3:2:0:0:
294,0,25551,2,0,L|300:49,1,50,0|0,3:0|2:0,2:0:0:0:
315,173,25715,2,0,L|219:338,1,150,0|0,1:0|2:0,2:0:0:0:
205,370,26043,1,4,2:3:0:0:
205,370,26371,6,0,B|163:234|163:234|73:137,1,225,6|0,3:2|2:0,2:0:0:0:
23,153,26695,5,0,1:0:0:0:
23,153,26857,2,0,L|114:162,1,60,2|0,3:2|2:0,2:0:0:0:
161,69,27019,1,0,1:0:0:0:
161,69,27181,2,0,L|249:44,1,60,0|0,3:0|2:0,2:0:0:0:
325,104,27343,1,2,1:2:0:0:
325,104,27506,2,0,L|416:94,1,60,0|0,3:0|2:0,2:0:0:0:
503,84,27668,1,0,1:0:0:0:
248,177,27830,6,0,B|193:197|193:197|103:266,1,150.000005722046,6|0,3:2|2:0,2:0:0:0:
303,384,28154,2,0,B|334:279|334:279|425:208,1,225,4|0,3:2|2:0,2:0:0:0:
512,195,28479,5,0,1:0:0:0:
512,195,28561,1,0,1:0:0:0:
443,226,28643,1,2,1:2:0:0:
446,188,28723,1,8,2:3:0:0:
449,150,28803,1,4,2:3:0:0:
452,112,28883,1,0,2:0:0:0:
507,61,28963,2,0,L|411:102,1,75,2|8,1:2|2:3,2:0:0:0:
351,128,29124,1,0,1:0:0:0:
309,111,29205,1,8,2:3:0:0:
263,109,29286,1,4,2:3:0:0:
219,122,29369,1,0,2:0:0:0:
176,183,29452,6,0,P|276:140|342:59,1,194.206991073609,6|0,3:2|2:0,2:0:0:0:
344,0,29778,1,2,3:2:0:0:
247,187,29943,2,0,B|223:196|212:216|212:216|130:164|57:201,1,210,0|0,3:0|2:0,2:0:0:0:
0,263,30265,1,0,3:0:0:0:
182,159,30426,1,0,3:0:0:0:
104,384,30588,2,0,B|113:346|174:319|231:351|231:351|265:338|294:351,1,210,0|0,3:0|2:0,2:0:0:0:
367,384,30910,5,2,3:2:0:0:
275,260,31072,1,0,3:0:0:0:
387,343,31233,1,2,1:2:0:0:
362,176,31394,1,2,2:0:0:0:
412,45,31555,1,2,3:2:0:0:
347,158,31717,1,2,3:2:0:0:
292,75,31878,2,0,L|164:67,1,105,0|0,1:0|2:0,2:0:0:0:
316,0,32216,6,0,B|274:136|274:136|184:233,1,225,6|0,3:2|2:0,2:0:0:0:
134,217,32538,5,0,1:0:0:0:
134,217,32699,2,0,L|75:211,1,60,2|0,3:2|2:0,2:0:0:0:
201,322,32861,1,0,1:0:0:0:
201,322,33022,2,0,L|257:303,1,60,0|0,3:0|2:0,2:0:0:0:
335,212,33183,1,2,1:2:0:0:
335,212,33345,2,0,L|426:206,1,60,0|0,3:0|2:0,2:0:0:0:
512,200,33506,1,0,1:0:0:0:
312,384,33667,6,0,B|257:364|257:364|184:308,1,150.000005722046,6|0,3:2|2:0,2:0:0:0:
512,321,33989,2,0,B|481:216|481:216|390:145,1,225,4|0,3:2|2:0,2:0:0:0:
303,132,34313,5,0,1:0:0:0:
303,132,34394,1,0,1:0:0:0:
372,163,34475,1,0,1:0:0:0:
346,138,34556,1,8,2:3:0:0:
320,113,34637,1,4,2:3:0:0:
294,88,34718,1,4,2:3:0:0:
284,13,34799,2,0,L|328:120,1,75,0|4,1:0|2:3,2:0:0:0:
271,220,34961,1,0,1:0:0:0:
229,237,35041,1,8,2:3:0:0:
183,239,35122,1,2,2:0:0:0:
139,226,35202,1,4,2:3:0:0:
96,165,35283,6,0,P|196:208|262:289,1,194.999991073609,6|0,3:2|2:0,2:0:0:0:
264,348,35609,1,0,3:0:0:0:
167,161,35772,2,0,B|174:136|192:121|192:121|268:125|309:180|309:180|363:175,1,210,2|0,1:2|2:0,2:0:0:0:
418,167,36095,1,0,3:0:0:0:
252,271,36257,1,2,3:2:0:0:
313,26,36418,2,0,B|254:34|211:91|210:142|210:142|238:166|282:165,1,210,2|0,1:2|2:0,2:0:0:0:
330,150,36742,5,0,3:0:0:0:
344,303,36903,1,2,3:2:0:0:
229,384,37065,1,0,1:0:0:0:
299,228,37227,1,0,2:0:0:0:
216,340,37388,1,0,3:0:0:0:
119,258,37550,1,0,3:0:0:0:
21,263,37712,2,0,L|-11:142,1,105,0|0,1:0|2:0,2:0:0:0:
0,348,38036,6,0,B|136:306|136:306|233:216,1,225,2|0,3:2|2:0,2:0:0:0:
217,166,38360,5,0,1:0:0:0:
217,166,38522,2,0,L|211:225,1,60,2|0,3:2|2:0,2:0:0:0:
141,66,38684,1,0,1:0:0:0:
141,66,38846,2,0,L|146:125,1,60,0|0,3:0|2:0,2:0:0:0:
296,3,39008,1,2,1:2:0:0:
296,3,39171,2,0,L|268:90,1,60,0|0,3:0|2:0,2:0:0:0:
241,174,39333,1,0,1:0:0:0:
321,384,39495,6,0,B|376:364|376:364|449:308,1,150.000005722046,6|0,3:2|2:0,2:0:0:0:
430,84,39819,2,0,B|512:156|512:156|537:268,1,225,4|0,3:2|2:0,2:0:0:0:
512,356,40143,5,0,1:0:0:0:
512,356,40231,1,0,1:0:0:0:
498,282,40319,1,2,1:2:0:0:
460,277,40397,1,8,2:3:0:0:
422,272,40475,1,4,2:3:0:0:
384,267,40553,1,0,2:0:0:0:
325,219,40631,2,0,L|179:238,1,75,2|4,1:2|2:3,2:0:0:0:
139,244,40804,1,0,1:0:0:0:
181,227,40880,1,4,2:3:0:0:
227,225,40957,1,4,2:3:0:0:
271,238,41034,1,4,2:3:0:0:
314,299,41111,6,0,P|214:256|148:175,1,194.999991073609,6|0,3:2|2:0,2:0:0:0:
146,116,41443,1,2,3:2:0:0:
89,319,41611,2,0,B|98:305|115:300|115:300|118:274|98:252|98:252|22:241|-21:304,1,210,0|0,3:0|2:0,2:0:0:0:
0,375,41937,1,0,3:0:0:0:
47,169,42100,1,0,3:0:0:0:
214,0,42263,2,0,B|237:23|239:65|239:65|208:41|170:45|170:45|162:88|120:109,1,210,0|0,3:0|2:0,2:0:0:0:
59,132,42589,5,2,3:2:0:0:
181,225,42746,1,0,3:0:0:0:
103,341,42904,1,2,1:2:0:0:
266,384,43062,1,2,2:0:0:0:
218,252,43220,1,2,3:2:0:0:
277,362,43389,1,2,3:2:0:0:
321,275,43558,2,0,L|449:267,1,105,0|0,1:0|2:0,2:0:0:0:
277,188,43887,6,0,B|141:230|141:230|44:320,1,225,2|0,3:2|2:0,2:0:0:0:
60,370,44209,5,0,1:0:0:0:
60,370,44370,2,0,L|69:279,1,60,2|0,3:2|2:0,2:0:0:0:
4,214,44532,1,0,1:0:0:0:
4,214,44693,2,0,L|-5:123,1,60,0|0,3:0|2:0,2:0:0:0:
42,47,44854,1,2,1:2:0:0:
42,47,45016,2,0,L|76:-1,1,60,0|0,3:0|2:0,2:0:0:0:
114,142,45177,1,0,1:0:0:0:
343,0,45338,6,0,B|398:20|398:20|471:76,1,150.000005722046,6|0,3:2|2:0,2:0:0:0:
512,296,45662,2,0,B|426:227|426:227|311:221,1,225,4|0,3:2|2:0,2:0:0:0:
232,261,45986,5,0,1:0:0:0:
232,261,46067,1,0,1:0:0:0:
306,246,46148,1,0,1:0:0:0:
271,241,46229,1,8,2:3:0:0:
235,235,46310,1,4,2:3:0:0:
199,230,46391,1,0,2:0:0:0:
148,174,46472,2,0,L|245:236,1,75,0|4,1:0|2:3,2:0:0:0:
256,353,46635,1,0,1:0:0:0:
215,330,46716,1,4,2:3:0:0:
169,322,46797,1,4,2:3:0:0:
125,329,46878,1,4,2:3:0:0:
74,384,46959,6,0,P|178:353|253:281,1,194.215657740276,6|0,3:2|2:0,2:0:0:0:
264,224,47289,1,0,3:0:0:0:
229,17,47456,2,0,B|215:5|195:4|195:4|211:25|215:56|215:56|272:32|354:42,1,210,2|0,1:2|2:0,2:0:0:0:
407,71,47777,1,0,3:0:0:0:
452,277,47938,1,2,3:2:0:0:
273,120,48099,2,0,B|247:108|247:108|176:120|112:156|112:156|82:154|61:138,1,210,2|0,1:2|2:0,2:0:0:0:
5,100,48421,5,2,3:2:0:0:
70,239,48581,1,2,3:2:0:0:
111,105,48742,1,0,1:0:0:0:
243,0,48903,1,0,2:0:0:0:
116,60,49064,1,0,3:0:0:0:
170,173,49225,1,0,3:0:0:0:
147,268,49386,2,0,L|155:396,1,105,0|0,1:0|2:0,2:0:0:0:
153,372,49719,5,4,1:3:0:0:
166,197,50205,1,2,2:0:0:0:
196,115,50367,1,2,2:0:0:0:
275,78,50529,2,0,B|296:78|305:92|305:92|281:107|280:135|280:135|339:125|400:63|404:0|404:0|418:10|433:13,1,309.808924368084,6|0,3:2|2:0,2:0:0:0:
512,0,52314,5,6,3:2:0:0:
188,18,52476,2,0,L|183:42,1,25.0000000000002,2|0,3:2|2:0,2:0:0:0:
182,42,52963,2,0,L|24:314,1,300,2|0,1:2|2:0,2:0:0:0:
70,384,53450,5,2,1:2:0:0:
70,384,53531,2,0,L|151:370,1,60,0|6,1:0|3:2,2:0:0:0:
195,193,53775,2,0,L|217:195,1,20,2|0,1:2|2:0,2:0:0:0:
342,42,54262,2,0,L|184:314,1,300,2|0,1:2|2:0,2:0:0:0:
230,384,54749,5,2,1:2:0:0:
230,384,54830,2,0,L|311:370,1,60,0|6,1:0|3:2,2:0:0:0:
355,193,55074,2,0,L|377:195,1,20,2|0,1:2|2:0,2:0:0:0:
502,42,55561,2,0,L|344:314,1,300,2|0,1:2|2:0,2:0:0:0:
386,380,56048,5,0,1:0:0:0:
386,380,56102,1,0,1:0:0:0:
469,384,56211,2,0,B|430:306|430:306|282:222,2,240,6|2|2,3:2|3:2|3:2,2:0:0:0:
0,181,56857,6,0,B|101:166|101:166|231:130|231:130|404:114,2,360,2|2|2,1:2|3:2|3:2,2:0:0:0:
389,0,57518,5,6,3:2:0:0:
454,201,57673,2,0,L|433:214,1,25,2|0,3:2|2:0,2:0:0:0:
433,214,58139,2,0,L|128:294,1,300,2|0,1:2|2:0,2:0:0:0:
113,377,58644,5,2,1:2:0:0:
113,377,58728,2,0,L|227:368,1,60.7119981689454,0|6,1:0|3:2,2:0:0:0:
271,166,58981,2,0,L|291:156,1,19.9373333333333,2|0,1:2|3:0,2:0:0:0:
84,0,59459,2,0,L|109:314,1,300,2|0,1:2|2:0,2:0:0:0:
188,343,59937,5,2,1:2:0:0:
188,343,60017,2,0,L|198:229,1,60,0|6,1:0|3:2,2:0:0:0:
8,151,60256,2,0,L|1:129,1,20,2|0,1:2|3:0,2:0:0:0:
298,0,60736,2,0,L|191:296,1,300,2|0,1:2|2:0,2:0:0:0:
248,353,61236,5,0,1:0:0:0:
248,353,61291,1,0,1:0:0:0:
329,341,61402,2,0,B|275:271|275:271|114:217,2,240,6|2|2,3:2|3:2|3:2,2:0:0:0:
122,71,62083,6,0,B|221:48|221:48|348:3|348:3|519:-23,2,360,2|2|2,1:2|3:2|3:2,2:0:0:0:
69,384,62767,5,0,3:0:0:0:
160,384,62995,1,0,3:0:0:0:
251,384,63224,1,0,3:0:0:0:
0,243,63452,2,0,B|-6:218|-26:197|-26:197|30:222|47:265|47:265|75:238|130:232,1,216.666666666667,6|0,3:2|2:0,2:0:0:0:
184,247,64185,6,0,L|179:293,1,33.3333333333333,2|0,1:2|2:0,2:0:0:0:
224,151,64430,1,2,2:0:0:0:
224,151,64675,1,2,3:2:0:0:
206,280,64919,2,0,P|255:324|284:384,1,133.333333333333,2|0,3:2|2:0,2:0:0:0:
332,183,65653,2,0,L|351:140,1,33.3333333333333,0|0,1:0|2:0,2:0:0:0:
337,271,66143,1,0,3:0:0:0:
206,242,66387,2,0,P|147:271|105:321,1,66.6666666666667,0|0,3:0|2:0,2:0:0:0:
222,226,66874,5,2,2:0:0:0:
348,314,67118,2,0,L|406:304,1,33.3333333333333,2|0,1:2|2:0,2:0:0:0:
454,273,67362,1,2,2:0:0:0:
503,160,67606,1,2,3:2:0:0:
404,1,67850,2,0,L|333:169,1,173.333333333333,0|0,3:0|3:0,2:0:0:0:
331,39,68582,2,0,L|333:85,1,43.3333333333333,2|0,1:2|2:0,2:0:0:0:
345,384,69313,2,0,P|370:303|420:339,1,146.666666666667,0|0,3:0|2:0,2:0:0:0:
177,375,70045,6,0,L|129:370,1,33.3333333333333,2|0,1:2|2:0,2:0:0:0:
88,286,70289,1,2,2:0:0:0:
88,286,70533,1,2,3:2:0:0:
140,149,70777,2,0,P|131:88|86:33,1,133.333333333333,2|0,3:2|2:0,2:0:0:0:
271,12,71508,2,0,L|277:-35,1,33.3333333333333,0|0,1:0|2:0,2:0:0:0:
299,96,71996,5,2,3:2:0:0:
265,270,72240,2,0,P|220:250|221:168,1,133.333333333333,2|2,3:2|2:0,2:0:0:0:
113,346,72972,2,0,L|98:300,1,33.3333333333333,2|0,1:2|2:0,2:0:0:0:
395,384,73460,1,2,3:2:0:0:
444,293,73704,1,2,3:2:0:0:
419,213,74061,5,0,1:0:0:0:
419,213,74120,1,0,1:0:0:0:
419,213,74180,2,0,P|439:217|462:216,1,33.3333333333333,0|0,1:0|3:0,2:0:0:0:
368,48,74416,2,0,L|410:36,1,33.3333333333333,0|8,1:0|3:0,2:0:0:0:
482,200,74666,2,0,P|501:195|522:184,1,33.3333333333333,4|0,2:3|1:0,2:0:0:0:
305,97,74916,1,0,1:0:0:0:
256,0,75166,6,0,P|210:-9|154:0,1,66.6666666666667,0|0,3:0|2:0,2:0:0:0:
98,33,75653,1,0,3:0:0:0:
25,160,75897,2,0,L|35:193,1,33.3333333333333,2|0,1:2|2:0,2:0:0:0:
96,247,76141,1,2,2:0:0:0:
64,117,76385,1,0,3:0:0:0:
0,271,76629,5,0,3:0:0:0:
241,384,77117,1,0,3:0:0:0:
165,226,77361,2,0,L|205:229,1,33.3333333333333,0|0,1:0|2:0,2:0:0:0:
257,287,77605,1,0,2:0:0:0:
215,379,77848,1,0,3:0:0:0:
146,187,78092,5,0,3:0:0:0:
335,0,78580,1,2,3:2:0:0:
169,20,78824,2,0,L|159:53,1,33.3333333333333,2|0,1:2|2:0,2:0:0:0:
179,133,79068,1,2,2:0:0:0:
87,229,79312,1,2,3:2:0:0:
214,384,79556,5,0,3:0:0:0:
245,289,79800,1,0,2:0:0:0:
278,286,79922,1,0,2:0:0:0:
311,283,80044,1,0,2:0:0:0:
166,83,80287,2,0,L|170:30,1,33.3333333333333,0|0,1:0|2:0,2:0:0:0:
171,182,80531,1,0,2:0:0:0:
202,194,80653,1,0,2:0:0:0:
233,205,80775,1,0,2:0:0:0:
335,0,81019,6,0,P|366:-14|410:-20,1,73.3333333333333,0|0,3:0|2:0,2:0:0:0:
305,80,81505,1,0,3:0:0:0:
512,153,81748,2,0,L|524:199,1,36.6666666666667,2|0,1:2|2:0,2:0:0:0:
507,279,81991,1,2,2:0:0:0:
475,135,82234,1,2,3:2:0:0:
417,347,82477,5,2,3:2:0:0:
314,384,82721,1,0,2:0:0:0:
322,352,82842,1,0,3:0:0:0:
312,320,82964,1,0,3:0:0:0:
287,297,83085,1,0,3:0:0:0:
322,229,83207,2,0,L|298:187,1,36.6666666666667,0|0,1:0|2:0,2:0:0:0:
137,272,83450,1,0,2:0:0:0:
61,227,83693,1,0,3:0:0:0:
112,90,83936,6,0,P|48:45|45:-19,1,146.666666666667,2|2,3:2|3:2,2:0:0:0:
0,192,84666,2,0,L|45:179,1,36.6666666666667,2|0,1:2|2:0,2:0:0:0:
303,244,85152,1,2,2:0:0:0:
421,172,85395,5,0,1:0:0:0:
475,177,85514,1,2,1:2:0:0:
405,153,85633,1,0,3:0:0:0:
273,329,85871,1,0,3:0:0:0:
319,334,85996,1,0,3:0:0:0:
257,343,86121,1,8,2:3:0:0:
116,384,86371,1,0,1:0:0:0:
42,334,86621,1,4,3:0:0:0:
117,0,86871,6,0,P|94:-16|68:-22,2,46.6666666666666,6|0|0,3:2|2:0|2:0,2:0:0:0:
187,129,87602,2,0,P|233:124|279:110,2,73.3333333333332,2|2|2,2:3|2:3|2:3,2:0:0:0:
95,226,88334,2,0,P|78:203|56:188,2,53.3333333333333,2|2|2,2:3|2:3|2:3,2:0:0:0:
116,371,89066,2,0,P|160:382|208:384,2,80,2|2|2,2:3|2:3|2:3,2:0:0:0:
0,131,89797,5,2,2:3:0:0:
22,97,90041,1,2,2:3:0:0:
56,63,90285,1,2,2:3:0:0:
104,35,90529,1,2,2:3:0:0:
166,22,90773,1,2,2:3:0:0:
237,31,91017,1,2,2:3:0:0:
306,70,91261,1,2,2:3:0:0:
357,141,91505,1,2,2:3:0:0:
373,235,91749,1,2,2:3:0:0:
290,381,91992,1,2,2:3:0:0:
459,260,92236,1,2,2:3:0:0:
324,52,92480,1,2,2:3:0:0:
403,0,92724,6,0,B|397:19|407:35|430:36|430:36|370:113|396:168|396:168|419:163|437:127|411:103,1,266.666666666667,0|0,3:0|2:0,2:0:0:0:
189,87,97114,5,2,2:3:0:0:
269,77,97354,1,2,2:3:0:0:
327,0,97595,1,2,2:3:0:0:
250,172,97836,1,2,2:3:0:0:
216,245,98077,1,2,2:3:0:0:
207,206,98198,1,2,2:3:0:0:
284,289,98318,1,2,2:3:0:0:
264,384,98568,5,6,3:2:0:0:
338,375,98690,1,0,2:0:0:0:
388,320,98812,2,0,L|381:244,1,75,2|0,3:2|2:0,2:0:0:0:
418,180,99057,1,2,3:2:0:0:
418,180,99118,2,0,L|406:242,1,50,0|0,2:0|2:0,2:0:0:0:
503,129,99301,6,0,P|383:129|275:110,1,225,2|0,1:2|2:0,2:0:0:0:
170,136,99546,2,0,P|282:119|416:96,1,225,2|0,3:2|2:0,2:0:0:0:
451,4,99791,1,2,3:2:0:0:
451,4,99852,2,0,P|388:21|442:72,1,150,0|0,2:0|2:0,2:0:0:0:
422,75,100035,5,6,3:2:0:0:
455,143,100158,1,0,2:0:0:0:
436,214,100280,2,0,L|410:137,1,75,2|0,3:2|2:0,2:0:0:0:
398,306,100525,1,2,3:2:0:0:
398,306,100586,2,0,L|403:245,1,50,0|0,2:0|2:0,2:0:0:0:
466,344,100769,6,0,P|343:346|223:276,1,230,2|0,1:2|2:0,2:0:0:0:
212,221,101014,2,0,P|317:292|425:363,1,230,2|0,3:2|2:0,2:0:0:0:
481,379,101259,1,2,3:2:0:0:
481,379,101320,2,0,P|482:315|411:341,1,153.333333333333,0|0,2:0|2:0,2:0:0:0:
414,329,101503,5,6,3:2:0:0:
349,367,101626,1,0,2:0:0:0:
274,354,101748,2,0,L|223:289,1,75,2|0,3:2|2:0,2:0:0:0:
243,224,101993,1,2,3:2:0:0:
243,224,102054,2,0,L|248:288,1,50,0|0,2:0|2:0,2:0:0:0:
292,154,102237,6,0,P|211:241|111:315,1,234.999999999999,2|0,1:2|2:0,2:0:0:0:
59,375,102482,2,0,P|129:264|182:140,1,234.999999999999,2|0,3:2|2:0,2:0:0:0:
168,81,102727,1,2,3:2:0:0:
168,81,102788,2,0,P|121:102|143:195,1,156.666666666666,0|0,2:0|2:0,2:0:0:0:
136,191,102971,6,0,B|84:247|84:247|0:280,1,166.666666666667,6|0,3:2|2:0,2:0:0:0:
115,0,103213,2,0,B|199:33|199:33|250:89,1,166.666666666667,2|0,3:2|2:0,2:0:0:0:
273,306,103455,2,0,B|362:295|362:295|427:254,1,166.666666666667,2|0,3:2|2:0,2:0:0:0:
447,0,103698,5,2,1:2:0:0:
432,384,103940,1,2,1:2:0:0:
493,305,104061,1,0,1:0:0:0:
427,253,104183,1,2,1:2:0:0:
412,154,104304,1,0,1:0:0:0:
386,266,104425,5,6,3:2:0:0:
330,213,104547,1,0,2:0:0:0:
254,207,104669,2,0,L|215:133,1,75,2|0,3:2|2:0,2:0:0:0:
234,68,104914,1,2,3:2:0:0:
234,68,104975,2,0,L|236:131,1,50,0|0,2:0|2:0,2:0:0:0:
298,0,105158,6,0,P|273:114|226:239,1,225,2|0,1:2|2:0,2:0:0:0:
167,306,105403,2,0,P|247:223|347:160,1,225,2|0,3:2|2:0,2:0:0:0:
456,155,105648,1,2,3:2:0:0:
456,155,105709,2,0,P|488:211|414:209,1,150,0|0,2:0|2:0,2:0:0:0:
424,224,105892,5,6,3:2:0:0:
352,249,106015,1,0,2:0:0:0:
316,312,106137,2,0,L|329:233,1,75,2|0,3:2|2:0,2:0:0:0:
293,164,106382,1,2,3:2:0:0:
293,164,106443,2,0,L|289:103,1,50,0|0,2:0|2:0,2:0:0:0:
270,252,106626,6,0,P|146:241|32:213,1,230,2|0,1:2|2:0,2:0:0:0:
0,142,106871,2,0,P|89:225|177:292,1,230,2|0,3:2|2:0,2:0:0:0:
198,376,107116,1,2,3:2:0:0:
198,376,107177,2,0,P|171:308|238:347,1,153.333333333333,0|0,2:0|2:0,2:0:0:0:
226,306,107360,5,6,3:2:0:0:
299,290,107483,1,0,2:0:0:0:
344,230,107605,2,0,L|323:152,1,75,2|0,3:2|2:0,2:0:0:0:
356,76,107850,1,2,3:2:0:0:
356,76,107911,2,0,L|348:139,1,50,0|0,2:0|2:0,2:0:0:0:
411,5,108094,6,0,P|326:76|256:222,1,234.999999999999,2|0,1:2|2:0,2:0:0:0:
196,237,108339,2,0,P|240:146|166:29,1,234.999999999999,2|0,3:2|2:0,2:0:0:0:
92,28,108584,1,2,3:2:0:0:
92,28,108645,2,0,P|49:58|113:116,1,156.666666666666,0|0,2:0|2:0,2:0:0:0:
103,119,108828,6,0,B|84:202|84:202|34:285,1,166.666666666667,6|0,3:2|2:0,2:0:0:0:
330,133,109071,2,0,B|311:50|311:50|261:-33,1,166.666666666667,2|0,3:2|2:0,2:0:0:0:
167,235,109315,2,0,B|186:318|186:318|236:401,1,166.666666666667,2|0,3:2|2:0,2:0:0:0:
512,359,109559,5,2,1:2:0:0:
0,95,109803,1,8,2:3:0:0:
15,47,109925,1,8,2:3:0:0:
61,28,110047,1,4,2:3:0:0:
104,50,110169,1,4,2:3:0:0:
42,158,110287,5,6,3:2:0:0:
47,232,110406,1,0,2:0:0:0:
98,285,110526,2,0,L|89:380,1,75,2|0,3:2|2:0,2:0:0:0:
5,384,110766,1,2,3:2:0:0:
5,384,110825,2,0,L|23:322,1,50,0|0,2:0|2:0,2:0:0:0:
172,307,111005,6,0,P|286:264|360:180,1,225.000008583069,2|0,1:2|2:0,2:0:0:0:
395,83,111248,2,0,P|371:193|323:330,1,225,2|0,3:2|2:0,2:0:0:0:
258,384,111492,1,2,3:2:0:0:
258,384,111553,2,0,P|271:323|351:323,1,150,0|0,2:0|2:0,2:0:0:0:
347,319,111736,5,6,3:2:0:0:
422,318,111858,1,0,2:0:0:0:
478,269,111980,2,0,L|450:193,1,75,2|0,3:2|2:0,2:0:0:0:
486,118,112224,1,2,3:2:0:0:
486,118,112285,2,0,L|480:181,1,50,0|0,2:0|2:0,2:0:0:0:
359,237,112468,6,0,P|271:191|243:67,1,230,2|0,1:2|2:0,2:0:0:0:
290,0,112712,2,0,P|237:105|190:241,1,230,2|0,3:2|2:0,2:0:0:0:
188,295,112956,1,2,3:2:0:0:
188,295,113017,2,0,P|139:296|185:214,1,153.333333333333,0|0,2:0|2:0,2:0:0:0:
142,213,113200,5,6,3:2:0:0:
175,146,113321,1,0,2:0:0:0:
157,73,113443,2,0,L|202:7,1,75,2|0,3:2|2:0,2:0:0:0:
56,165,113687,1,2,3:2:0:0:
56,165,113748,2,0,L|39:103,1,50,0|0,2:0|2:0,2:0:0:0:
69,0,113931,6,0,P|29:112|-9:227,1,234.999999999999,2|0,1:2|2:0,2:0:0:0:
28,302,114175,2,0,P|91:245|70:95,1,234.999999999999,2|0,3:2|2:0,2:0:0:0:
5,64,114419,1,2,3:2:0:0:
5,64,114480,2,0,P|-5:25|95:31,1,156.666666666666,0|0,2:0|2:0,2:0:0:0:
83,2,114663,6,0,B|18:63|18:63|-68:184,1,166.666666666667,6|0,3:2|2:0,2:0:0:0:
380,274,114907,2,0,B|466:253|466:253|601:191,1,166.666666666667,2|0,3:2|2:0,2:0:0:0:
156,272,115151,2,0,B|86:327|86:327|-10:440,1,166.666666666667,2|0,3:2|2:0,2:0:0:0:
176,0,115395,5,2,1:2:0:0:
318,384,115639,1,8,2:3:0:0:
275,356,115760,1,8,2:3:0:0:
269,306,115882,1,4,2:3:0:0:
302,270,116004,1,4,2:3:0:0:
389,358,116126,5,6,3:2:0:0:
462,343,116256,1,0,2:0:0:0:
295,221,116387,6,0,B|279:239|279:239|320:3,1,183.333333333333,2|0,3:0|2:0,2:0:0:0:
247,0,116648,2,0,B|231:-18|231:-18|272:218,1,183.333335081736,2|0,3:0|2:0,2:0:0:0:
301,384,116871,6,0,P|329:284|406:140,1,225,2|0,1:2|2:0,2:0:0:0:
379,63,117113,2,0,P|363:179|345:337,1,225,2|0,3:2|2:0,2:0:0:0:
410,384,117355,1,2,3:2:0:0:
410,384,117416,2,0,P|476:357|485:254,1,150,0|0,2:0|2:0,2:0:0:0:
461,205,117598,5,6,3:2:0:0:
453,130,117719,1,0,2:0:0:0:
495,67,117840,2,0,L|477:161,1,75,2|0,3:2|2:0,2:0:0:0:
366,22,118083,1,2,3:2:0:0:
366,22,118143,2,0,L|403:-35,1,50,0|0,2:0|2:0,2:0:0:0:
397,95,118325,6,0,P|286:51|126:45,1,230,2|0,1:2|2:0,2:0:0:0:
69,86,118567,2,0,P|182:84|307:73,1,230,2|0,3:2|2:0,2:0:0:0:
307,178,118810,1,2,3:2:0:0:
307,178,118871,2,0,P|253:127|180:140,1,153.333333333333,0|0,2:0|2:0,2:0:0:0:
180,139,119052,6,0,P|118:135|63:115,1,116.666666666667,6|0,3:2|2:0,2:0:0:0:
349,235,119294,2,0,P|409:220|460:191,1,116.666666666667,2|0,3:2|2:0,2:0:0:0:
220,321,119536,2,0,P|163:296|118:258,1,116.666666666667,2|0,3:2|2:0,2:0:0:0:
51,35,119779,5,2,1:2:0:0:
0,222,120021,1,2,3:2:0:0:
264,0,120264,1,2,3:0:0:0:
279,384,120506,6,0,B|326:379|326:379|468:273,1,200,6|2,3:2|3:2,2:0:0:0:
29,259,120991,2,0,L|-37:358,1,100,2|0,3:2|2:0,2:0:0:0:
32,39,121234,2,0,L|216:96,1,150.000005722046,2|0,1:2|2:0,2:0:0:0:
16,0,121480,2,0,B|32:31|32:31|16:164|16:164|31:212,1,180,0|0,3:0|3:0,2:0:0:0:
512,391,121974,5,4,3:2:0:0:
