osu file format v14

[General]
AudioFilename: audio.mp3
AudioLeadIn: 0
PreviewTime: -1
Countdown: 0
SampleSet: Soft
StackLeniency: 0.7
Mode: 0
LetterboxInBreaks: 0
WidescreenStoryboard: 0

[Editor]
Bookmarks: 31293,46175,49482,49718,49954,57365,57483,59373,61529,65278,65633
DistanceSpacing: 2.1
BeatDivisor: 4
GridSize: 16
TimelineZoom: 2.8

[Metadata]
Title:Wake Up, Get Up, Get Out There
TitleUnicode:Wake Up, Get Up, Get Out There
Artist:Persona 5
ArtistUnicode:Persona 5
Creator:moneybags
Version:Take Your Heart
Source:
Tags:
BeatmapID:1750128
BeatmapSetID:835651

[Difficulty]
HPDrainRate:4
CircleSize:4
OverallDifficulty:8.5
ApproachRate:9.5
SliderMultiplier:2
SliderTickRate:1

[Events]
//Background and Video events
0,0,"ma1q70da19ry (1).png",0,0
//Break Periods
//Storyboard Layer 0 (Background)
//Storyboard Layer 1 (Fail)
//Storyboard Layer 2 (Pass)
//Storyboard Layer 3 (Foreground)
//Storyboard Sound Samples

[TimingPoints]
1027,472.44094488189,4,2,0,50,1,0
33389,-50,4,2,0,50,0,0
33861,-100,4,2,0,50,0,0
40948,-50,4,2,0,50,0,0
41420,-100,4,2,0,50,0,0
44255,-100,4,2,0,50,0,0
49688,-25,4,2,0,50,0,0
50160,-100,4,2,0,50,0,0
50190,-100,4,2,0,50,0,0
53467,-25,4,2,0,50,0,0
53940,-100,4,2,0,50,0,0
57247,-25,4,2,0,50,0,0
57719,-100,4,2,0,50,0,0
61499,-83.3333333333333,4,2,0,50,0,0
66223,-25,4,2,0,50,0,0
66460,-83.3333333333333,4,2,0,50,0,0
68586,-25,4,2,0,50,0,0
69058,-83.3333333333333,4,2,0,50,0,0

[HitObjects]
66,208,31263,6,0,P|115:223|193:187,1,100
289,153,31617,1,0,0:0:0:0:
149,19,31735,2,0,P|129:58|140:133,1,100
323,76,32089,5,0,0:0:0:0:
323,76,32208,2,0,P|279:70|212:106,1,100
508,181,32680,1,0,0:0:0:0:
325,211,32916,6,0,P|336:236|360:254,1,50
486,327,33152,1,0,0:0:0:0:
207,378,33389,6,0,B|204:300|177:238|177:238|230:282,1,200
25,299,33743,2,0,P|7:250|16:191,1,100
264,148,33979,1,0,0:0:0:0:
109,70,34097,2,0,L|-1:81,1,100
206,0,34452,6,0,L|223:62,1,50
264,148,34688,1,0,0:0:0:0:
335,13,34806,1,0,0:0:0:0:
486,216,34924,5,0,0:0:0:0:
486,216,35042,2,0,P|443:242|370:235,1,100
218,162,35397,1,0,0:0:0:0:
218,162,35515,2,0,L|204:215,1,50
75,369,35751,2,0,P|44:328|58:238,1,100
76,99,36105,1,0,0:0:0:0:
169,122,36223,2,0,P|200:163|186:253,1,100
266,34,36578,6,0,L|357:27,1,50
426,81,36814,1,0,0:0:0:0:
426,81,36932,2,0,P|409:130|422:190,1,100
484,360,37286,5,0,0:0:0:0:
484,360,37404,2,0,P|506:316|481:250,1,100
233,155,37877,6,0,L|251:264,1,100
272,374,38349,1,0,0:0:0:0:
47,303,38586,2,0,L|33:253,1,50
10,141,38822,2,0,P|55:160|119:132,1,100
218,6,39176,1,0,0:0:0:0:
57,47,39294,1,0,0:0:0:0:
406,133,39530,6,0,L|388:19,1,100
256,169,39885,1,0,0:0:0:0:
303,347,40003,2,0,P|334:350|364:321,1,50
482,240,40239,1,0,0:0:0:0:
179,300,40357,2,0,P|146:300|102:279,1,50
14,161,40712,1,0,0:0:0:0:
14,161,40948,6,2,P|100:188|153:93,1,200
241,32,41302,2,2,P|293:33|339:49,1,100
506,148,41538,1,4,0:0:0:0:
280,261,41656,2,0,P|258:213|267:145,1,100
427,321,42011,5,0,0:0:0:0:
358,369,42129,1,0,0:0:0:0:
276,389,42247,1,0,0:0:0:0:
193,378,42365,1,0,0:0:0:0:
119,338,42483,1,0,0:0:0:0:
65,280,42601,6,0,P|38:232|49:149,1,100
125,15,42956,2,0,L|136:95,1,50
184,225,43192,1,0,0:0:0:0:
184,225,43310,2,0,P|229:232|306:191,1,100
381,29,43664,1,0,0:0:0:0:
458,188,43782,2,0,L|472:243,1,50
329,371,44019,2,0,L|318:314,1,50
223,190,44255,5,0,0:0:0:0:
75,376,44491,2,0,P|50:325|91:222,1,100
223,190,44845,1,0,0:0:0:0:
21,155,44964,1,0,0:0:0:0:
289,41,45436,6,0,P|384:25|472:95,1,200
380,277,46145,2,0,L|373:209,1,50
360,106,46381,5,0,0:0:0:0:
223,231,46499,1,0,0:0:0:0:
227,113,46617,5,0,0:0:0:0:
374,227,46735,1,0,0:0:0:0:
374,227,47089,5,0,0:0:0:0:
323,368,47208,1,0,0:0:0:0:
323,368,47326,2,0,P|271:385|206:351,1,100
79,289,47680,1,0,0:0:0:0:
153,212,47798,2,0,L|206:205,1,50
373,125,48034,2,0,P|328:105|266:117,1,100
203,206,48389,1,0,0:0:0:0:
23,115,48625,5,0,0:0:0:0:
38,222,48861,1,0,0:0:0:0:
54,331,49097,2,0,L|188:316,1,100
324,304,49452,1,0,0:0:0:0:
181,125,49688,6,2,B|134:154|90:169|90:169|143:169|248:204,1,200,6|2,0:0|0:0,0:0:0:0:
302,171,49924,6,2,B|349:200|393:215|393:215|345:214|235:250,1,200,6|2,0:0|0:0,0:0:0:0:
285,43,50160,6,0,L|335:58,1,50
442,205,50397,2,0,P|440:254|413:296,1,100
184,244,50751,1,0,0:0:0:0:
199,249,50869,6,0,L|265:239,1,50
192,378,51105,2,0,L|125:386,1,50
222,94,51341,2,0,L|232:155,1,50
246,243,51578,2,0,L|224:104,1,100
42,53,51932,5,0,0:0:0:0:
42,53,52050,2,0,L|126:42,1,50
138,295,52404,1,0,0:0:0:0:
230,144,52641,1,0,0:0:0:0:
413,138,52877,2,0,L|542:133,1,100
392,13,53231,2,0,L|331:15,1,50
203,0,53467,2,0,B|166:79|166:79|188:235,1,200
383,329,53704,2,0,B|424:240|424:240|400:23,1,200
181,190,53940,6,0,P|233:199|281:164,1,100
113,30,54294,2,0,P|61:21|13:56,1,100
84,296,54649,2,0,P|101:272|102:219,1,50
131,373,54885,2,0,L|269:359,1,100
384,329,55239,1,0,0:0:0:0:
244,225,55357,6,0,L|333:208,1,50
465,158,55593,2,0,L|398:154,1,50
226,116,55830,1,0,0:0:0:0:
226,116,55948,2,0,L|80:129,1,100
1,272,56420,1,0,0:0:0:0:
78,368,56656,2,0,B|124:348|124:348|199:373,1,100
243,224,57011,5,0,0:0:0:0:
372,294,57247,2,0,P|373:238|387:305,1,200
372,294,57483,6,0,P|373:238|387:305,1,200
243,224,57719,6,0,L|231:115,1,100
214,2,58074,1,0,0:0:0:0:
23,99,58192,1,0,0:0:0:0:
214,165,58428,6,0,L|241:206,1,50
227,354,58664,2,0,L|204:309,1,50
253,132,58901,6,0,L|247:181,1,50
218,384,59137,1,0,0:0:0:0:
275,6,59373,5,0,0:0:0:0:
464,248,59845,6,0,P|393:229|300:290,1,150
216,379,60318,2,0,L|202:319,1,50
193,176,60554,1,0,0:0:0:0:
20,239,60672,1,0,0:0:0:0:
111,317,60790,2,0,P|158:338|223:317,1,100
356,51,61263,6,0,L|378:129,1,50
404,215,61499,2,0,L|366:84,1,119.999996337891
125,137,61853,1,0,0:0:0:0:
206,199,61971,2,0,P|242:203|281:181,1,59.9999981689454
213,27,62208,1,0,0:0:0:0:
55,112,62326,2,0,P|35:174|82:249,1,119.999996337891
176,296,62680,2,0,P|162:265|125:234,1,59.9999981689454
21,311,62916,1,0,0:0:0:0:
256,182,63152,6,0,L|322:188,1,59.9999981689454
469,200,63389,2,0,P|455:238|386:287,1,119.999996337891
311,367,63743,2,0,P|294:335|301:269,1,59.9999981689454
371,147,63979,1,0,0:0:0:0:
214,185,64097,6,0,L|155:197,1,59.9999981689454
4,128,64334,2,0,L|63:116,1,59.9999981689454
195,82,64570,1,0,0:0:0:0:
331,209,64688,2,0,L|208:183,1,119.999996337891
469,200,65042,2,0,P|476:230|445:288,1,59.9999981689454
204,303,65278,6,0,L|214:167,1,119.999996337891
256,130,65633,2,0,L|233:241,1,59.9999981689454
56,81,65987,2,0,L|148:73,1,59.9999981689454
304,79,66223,6,0,B|212:42|212:42|97:81,1,200
2,170,66460,1,0,0:0:0:0:
298,254,66696,2,0,B|271:155|339:172|296:56,1,179.999994506836
303,78,67168,6,0,L|333:161,1,59.9999981689454
395,326,67404,1,0,0:0:0:0:
395,326,67523,2,0,P|366:313|306:313,1,59.9999981689454
195,373,67759,2,0,P|182:311|220:248,1,119.999996337891
307,192,68113,2,0,L|151:173,1,119.999996337891
37,227,68467,1,0,0:0:0:0:
187,177,68586,6,0,B|161:115|153:46|153:46|131:118,1,200
324,206,68822,6,0,B|351:269|359:338|359:338|381:266,1,200
375,36,69058,6,0,L|244:16,1,119.999996337891
134,106,69412,2,0,L|234:99,1,59.9999981689454
