osu file format v14

[General]
AudioFilename: audio.ogg
AudioLeadIn: 0
PreviewTime: 126691
Countdown: 0
SampleSet: Normal
StackLeniency: 0.8
Mode: 3
LetterboxInBreaks: 0
SpecialStyle: 1
WidescreenStoryboard: 0

[Editor]
DistanceSpacing: 0.8
BeatDivisor: 8
GridSize: 32
TimelineZoom: 2

[Metadata]
Title:Phoenix [feat. Kobaryo]
TitleUnicode:Phoenix [feat. Kobaryo]
Artist:Persian Groovies
ArtistUnicode:Persian Groovies
Creator:Herkkupala
Version:Reborn From Ashes
Source:
Tags:hnx005 gravity noize 窓壁九真好キ mkdb hitnex jacks
BeatmapID:1580167
BeatmapSetID:750366

[Difficulty]
HPDrainRate:8.2
CircleSize:4
OverallDifficulty:8.8
ApproachRate:5
SliderMultiplier:1.4
SliderTickRate:1

[Events]
//Background and Video events
0,0,"bg.png",0,0
//Break Periods
//Storyboard Layer 0 (Background)
//Storyboard Layer 1 (Fail)
//Storyboard Layer 2 (Pass)
//Storyboard Layer 3 (Foreground)
//Storyboard Sound Samples

[TimingPoints]
25,333.333333,4,1,0,20,1,0

[HitObjects]
192,192,25,5,0,0:0:0:0:
320,192,358,1,0,0:0:0:0:
448,192,358,1,0,0:0:0:0:
192,192,608,1,0,0:0:0:0:
320,192,774,1,0,0:0:0:0:
192,192,858,1,0,0:0:0:0:
320,192,1024,1,0,0:0:0:0:
448,192,1024,1,0,0:0:0:0:
192,192,1358,1,0,0:0:0:0:
320,192,1691,1,0,0:0:0:0:
448,192,1691,1,0,0:0:0:0:
192,192,1941,1,0,0:0:0:0:
320,192,2108,1,0,0:0:0:0:
192,192,2191,1,0,0:0:0:0:
320,192,2358,1,0,0:0:0:0:
448,192,2358,1,0,0:0:0:0:
192,192,2691,1,0,0:0:0:0:
320,192,3024,1,0,0:0:0:0:
448,192,3024,1,0,0:0:0:0:
192,192,3274,1,0,0:0:0:0:
320,192,3441,1,0,0:0:0:0:
192,192,3524,1,0,0:0:0:0:
320,192,3691,1,0,0:0:0:0:
448,192,3691,1,0,0:0:0:0:
192,192,4024,1,0,0:0:0:0:
320,192,4358,1,0,0:0:0:0:
192,192,4608,1,0,0:0:0:0:
320,192,4774,1,0,0:0:0:0:
192,192,4858,1,0,0:0:0:0:
448,192,5024,1,0,0:0:0:0:
64,192,5191,1,0,0:0:0:0:
448,192,5358,1,0,0:0:0:0:
64,192,5524,1,0,0:0:0:0:
448,192,5691,1,0,0:0:0:0:
64,192,5858,1,0,0:0:0:0:
320,192,5941,1,0,0:0:0:0:
192,192,6108,1,0,0:0:0:0:
448,192,6191,1,0,0:0:0:0:
64,192,6358,1,0,0:0:0:0:
448,192,6524,1,0,0:0:0:0:
64,192,6691,1,0,0:0:0:0:
448,192,6858,1,0,0:0:0:0:
64,192,7024,1,0,0:0:0:0:
448,192,7191,1,0,0:0:0:0:
192,192,7274,1,0,0:0:0:0:
320,192,7441,1,0,0:0:0:0:
64,192,7524,1,0,0:0:0:0:
448,192,7691,1,0,0:0:0:0:
64,192,7858,1,0,0:0:0:0:
192,192,7941,128,0,8024:0:0:0:0:
448,192,8024,1,0,0:0:0:0:
64,192,8191,1,0,0:0:0:0:
320,192,8274,128,0,8358:0:0:0:0:
448,192,8358,1,0,0:0:0:0:
64,192,8524,1,0,0:0:0:0:
192,192,8608,128,0,8691:0:0:0:0:
448,192,8691,1,0,0:0:0:0:
320,192,8941,128,0,9024:0:0:0:0:
64,192,9024,1,0,0:0:0:0:
192,192,9274,128,0,9358:0:0:0:0:
448,192,9358,1,0,0:0:0:0:
320,192,9608,128,0,9691:0:0:0:0:
64,192,9691,1,0,0:0:0:0:
192,192,9941,128,0,10024:0:0:0:0:
448,192,10024,1,0,0:0:0:0:
64,192,10108,1,0,0:0:0:0:
320,192,10274,128,0,10358:0:0:0:0:
64,192,10358,1,0,0:0:0:0:
192,192,10608,128,0,10691:0:0:0:0:
64,192,10691,1,0,0:0:0:0:
448,192,10691,1,0,0:0:0:0:
320,192,10858,1,0,0:0:0:0:
448,192,10941,1,0,0:0:0:0:
64,192,11024,1,0,0:0:0:0:
192,192,11024,1,0,0:0:0:0:
192,192,11191,1,0,0:0:0:0:
320,192,11274,1,0,0:0:0:0:
448,192,11274,1,0,0:0:0:0:
64,192,11358,1,0,0:0:0:0:
320,192,11441,1,0,0:0:0:0:
448,192,11441,1,0,0:0:0:0:
64,192,11524,1,0,0:0:0:0:
192,192,11524,1,0,0:0:0:0:
448,192,11608,1,0,0:0:0:0:
192,192,11691,1,0,0:0:0:0:
320,192,11691,1,0,0:0:0:0:
320,192,11858,1,0,0:0:0:0:
448,192,11941,1,0,0:0:0:0:
64,192,12024,1,0,0:0:0:0:
192,192,12024,1,0,0:0:0:0:
192,192,12191,1,0,0:0:0:0:
64,192,12274,1,0,0:0:0:0:
320,192,12358,1,0,0:0:0:0:
448,192,12358,1,0,0:0:0:0:
320,192,12524,1,0,0:0:0:0:
64,192,12608,1,0,0:0:0:0:
192,192,12608,1,0,0:0:0:0:
448,192,12691,1,0,0:0:0:0:
64,192,12774,1,0,0:0:0:0:
192,192,12774,1,0,0:0:0:0:
320,192,12858,1,0,0:0:0:0:
448,192,12858,1,0,0:0:0:0:
64,192,12941,1,0,0:0:0:0:
192,192,13024,1,0,0:0:0:0:
320,192,13024,1,0,0:0:0:0:
192,192,13191,1,0,0:0:0:0:
64,192,13274,1,0,0:0:0:0:
320,192,13358,1,0,0:0:0:0:
448,192,13358,1,0,0:0:0:0:
320,192,13524,1,0,0:0:0:0:
448,192,13608,1,0,0:0:0:0:
64,192,13691,1,0,0:0:0:0:
192,192,13691,1,0,0:0:0:0:
192,192,13858,1,0,0:0:0:0:
320,192,13941,1,0,0:0:0:0:
448,192,13941,1,0,0:0:0:0:
64,192,14024,1,0,0:0:0:0:
320,192,14108,1,0,0:0:0:0:
448,192,14108,1,0,0:0:0:0:
64,192,14191,1,0,0:0:0:0:
192,192,14191,1,0,0:0:0:0:
448,192,14274,1,0,0:0:0:0:
192,192,14358,1,0,0:0:0:0:
320,192,14358,1,0,0:0:0:0:
320,192,14524,1,0,0:0:0:0:
448,192,14608,1,0,0:0:0:0:
64,192,14691,1,0,0:0:0:0:
192,192,14691,1,0,0:0:0:0:
192,192,14858,1,0,0:0:0:0:
64,192,14941,1,0,0:0:0:0:
320,192,15024,1,0,0:0:0:0:
448,192,15024,1,0,0:0:0:0:
192,192,15191,1,0,0:0:0:0:
320,192,15274,1,0,0:0:0:0:
64,192,15358,1,0,0:0:0:0:
320,192,15441,1,0,0:0:0:0:
192,192,15524,1,0,0:0:0:0:
448,192,15608,1,0,0:0:0:0:
64,192,15691,1,0,0:0:0:0:
448,192,15858,1,0,0:0:0:0:
64,192,16024,1,0,0:0:0:0:
448,192,16191,1,0,0:0:0:0:
64,192,16358,1,0,0:0:0:0:
448,192,16524,1,0,0:0:0:0:
320,192,16608,1,0,0:0:0:0:
64,192,16691,1,0,0:0:0:0:
192,192,16774,1,0,0:0:0:0:
448,192,16858,1,0,0:0:0:0:
320,192,16941,1,0,0:0:0:0:
64,192,17024,1,0,0:0:0:0:
448,192,17191,1,0,0:0:0:0:
64,192,17358,1,0,0:0:0:0:
448,192,17524,1,0,0:0:0:0:
64,192,17691,1,0,0:0:0:0:
448,192,17858,1,0,0:0:0:0:
320,192,17941,1,0,0:0:0:0:
64,192,18024,1,0,0:0:0:0:
192,192,18108,1,0,0:0:0:0:
448,192,18191,1,0,0:0:0:0:
320,192,18274,1,0,0:0:0:0:
64,192,18358,1,0,0:0:0:0:
448,192,18524,1,0,0:0:0:0:
320,192,18608,128,0,18691:0:0:0:0:
64,192,18691,1,0,0:0:0:0:
448,192,18858,1,0,0:0:0:0:
192,192,18941,128,0,19024:0:0:0:0:
64,192,19024,1,0,0:0:0:0:
448,192,19191,1,0,0:0:0:0:
320,192,19274,128,0,19358:0:0:0:0:
64,192,19358,1,0,0:0:0:0:
192,192,19441,1,0,0:0:0:0:
320,192,19524,1,0,0:0:0:0:
192,192,19608,128,0,19691:0:0:0:0:
448,192,19691,1,0,0:0:0:0:
320,192,19941,128,0,20024:0:0:0:0:
64,192,20024,1,0,0:0:0:0:
192,192,20274,128,0,20358:0:0:0:0:
448,192,20358,1,0,0:0:0:0:
320,192,20608,128,0,20691:0:0:0:0:
64,192,20691,1,0,0:0:0:0:
192,192,20754,1,0,0:0:0:0:
448,192,20830,1,0,0:0:0:0:
64,192,20899,1,0,0:0:0:0:
320,192,20962,1,0,0:0:0:0:
448,192,21024,1,0,0:0:0:0:
192,192,21087,1,0,0:0:0:0:
320,192,21163,1,0,0:0:0:0:
64,192,21233,1,0,0:0:0:0:
192,192,21295,1,0,0:0:0:0:
320,192,21358,1,0,0:0:0:0:
448,192,21358,1,0,0:0:0:0:
320,192,21524,1,0,0:0:0:0:
448,192,21608,1,0,0:0:0:0:
64,192,21691,1,0,0:0:0:0:
192,192,21691,1,0,0:0:0:0:
192,192,21858,1,0,0:0:0:0:
320,192,21941,1,0,0:0:0:0:
448,192,21941,1,0,0:0:0:0:
64,192,22024,1,0,0:0:0:0:
320,192,22108,1,0,0:0:0:0:
448,192,22108,1,0,0:0:0:0:
64,192,22191,1,0,0:0:0:0:
192,192,22191,1,0,0:0:0:0:
448,192,22274,1,0,0:0:0:0:
192,192,22358,1,0,0:0:0:0:
320,192,22358,1,0,0:0:0:0:
320,192,22524,1,0,0:0:0:0:
448,192,22608,1,0,0:0:0:0:
64,192,22691,1,0,0:0:0:0:
192,192,22691,1,0,0:0:0:0:
192,192,22858,1,0,0:0:0:0:
64,192,22941,1,0,0:0:0:0:
320,192,23024,1,0,0:0:0:0:
448,192,23024,1,0,0:0:0:0:
320,192,23191,1,0,0:0:0:0:
64,192,23274,1,0,0:0:0:0:
192,192,23274,1,0,0:0:0:0:
448,192,23358,1,0,0:0:0:0:
64,192,23441,1,0,0:0:0:0:
192,192,23441,1,0,0:0:0:0:
320,192,23524,1,0,0:0:0:0:
448,192,23524,1,0,0:0:0:0:
64,192,23608,1,0,0:0:0:0:
192,192,23691,1,0,0:0:0:0:
320,192,23691,1,0,0:0:0:0:
192,192,23858,1,0,0:0:0:0:
64,192,23941,1,0,0:0:0:0:
320,192,24024,1,0,0:0:0:0:
448,192,24024,1,0,0:0:0:0:
320,192,24191,1,0,0:0:0:0:
448,192,24274,1,0,0:0:0:0:
64,192,24358,1,0,0:0:0:0:
192,192,24358,1,0,0:0:0:0:
192,192,24524,1,0,0:0:0:0:
320,192,24608,1,0,0:0:0:0:
448,192,24608,1,0,0:0:0:0:
64,192,24691,1,0,0:0:0:0:
320,192,24774,1,0,0:0:0:0:
448,192,24774,1,0,0:0:0:0:
64,192,24858,1,0,0:0:0:0:
192,192,24858,1,0,0:0:0:0:
448,192,24941,1,0,0:0:0:0:
192,192,25024,1,0,0:0:0:0:
320,192,25024,1,0,0:0:0:0:
320,192,25191,1,0,0:0:0:0:
448,192,25274,1,0,0:0:0:0:
64,192,25358,1,0,0:0:0:0:
192,192,25358,1,0,0:0:0:0:
192,192,25524,1,0,0:0:0:0:
64,192,25608,1,0,0:0:0:0:
320,192,25691,1,0,0:0:0:0:
448,192,25691,1,0,0:0:0:0:
192,192,25858,1,0,0:0:0:0:
320,192,25941,1,0,0:0:0:0:
448,192,25941,1,0,0:0:0:0:
64,192,26024,1,0,0:0:0:0:
320,192,26108,1,0,0:0:0:0:
448,192,26108,1,0,0:0:0:0:
64,192,26191,1,0,0:0:0:0:
192,192,26191,1,0,0:0:0:0:
448,192,26358,1,0,0:0:0:0:
64,192,26524,1,0,0:0:0:0:
448,192,26691,1,0,0:0:0:0:
64,192,26858,1,0,0:0:0:0:
448,192,27024,1,0,0:0:0:0:
64,192,27191,1,0,0:0:0:0:
192,192,27274,1,0,0:0:0:0:
448,192,27358,1,0,0:0:0:0:
320,192,27441,1,0,0:0:0:0:
64,192,27524,1,0,0:0:0:0:
192,192,27608,1,0,0:0:0:0:
448,192,27691,1,0,0:0:0:0:
64,192,27858,1,0,0:0:0:0:
448,192,28024,1,0,0:0:0:0:
64,192,28191,1,0,0:0:0:0:
448,192,28358,1,0,0:0:0:0:
64,192,28524,1,0,0:0:0:0:
192,192,28608,1,0,0:0:0:0:
448,192,28691,1,0,0:0:0:0:
320,192,28774,1,0,0:0:0:0:
64,192,28858,1,0,0:0:0:0:
192,192,28941,1,0,0:0:0:0:
448,192,29024,1,0,0:0:0:0:
64,192,29191,1,0,0:0:0:0:
192,192,29274,128,0,29358:0:0:0:0:
448,192,29358,1,0,0:0:0:0:
64,192,29524,1,0,0:0:0:0:
320,192,29608,128,0,29691:0:0:0:0:
448,192,29691,1,0,0:0:0:0:
64,192,29858,1,0,0:0:0:0:
192,192,29941,128,0,30024:0:0:0:0:
448,192,30024,1,0,0:0:0:0:
64,192,30108,1,0,0:0:0:0:
320,192,30274,128,0,30358:0:0:0:0:
64,192,30358,1,0,0:0:0:0:
192,192,30608,128,0,30691:0:0:0:0:
448,192,30691,1,0,0:0:0:0:
320,192,30941,128,0,31024:0:0:0:0:
64,192,31024,1,0,0:0:0:0:
192,192,31274,128,0,31358:0:0:0:0:
448,192,31358,1,0,0:0:0:0:
64,192,31441,1,0,0:0:0:0:
320,192,31608,128,0,31691:0:0:0:0:
64,192,31691,1,0,0:0:0:0:
192,192,31941,128,0,32024:0:0:0:0:
64,192,32024,1,0,0:0:0:0:
448,192,32024,1,0,0:0:0:0:
320,192,32191,1,0,0:0:0:0:
448,192,32274,1,0,0:0:0:0:
64,192,32358,1,0,0:0:0:0:
192,192,32358,1,0,0:0:0:0:
192,192,32524,1,0,0:0:0:0:
320,192,32608,1,0,0:0:0:0:
448,192,32608,1,0,0:0:0:0:
64,192,32691,1,0,0:0:0:0:
320,192,32774,1,0,0:0:0:0:
448,192,32774,1,0,0:0:0:0:
64,192,32858,1,0,0:0:0:0:
192,192,32858,1,0,0:0:0:0:
448,192,32941,1,0,0:0:0:0:
192,192,33024,1,0,0:0:0:0:
320,192,33024,1,0,0:0:0:0:
320,192,33191,1,0,0:0:0:0:
448,192,33274,1,0,0:0:0:0:
64,192,33358,1,0,0:0:0:0:
192,192,33358,1,0,0:0:0:0:
192,192,33524,1,0,0:0:0:0:
64,192,33608,1,0,0:0:0:0:
320,192,33691,1,0,0:0:0:0:
448,192,33691,1,0,0:0:0:0:
320,192,33858,1,0,0:0:0:0:
64,192,33941,1,0,0:0:0:0:
192,192,33941,1,0,0:0:0:0:
448,192,34024,1,0,0:0:0:0:
64,192,34108,1,0,0:0:0:0:
192,192,34108,1,0,0:0:0:0:
320,192,34191,1,0,0:0:0:0:
448,192,34191,1,0,0:0:0:0:
64,192,34274,1,0,0:0:0:0:
192,192,34358,1,0,0:0:0:0:
320,192,34358,1,0,0:0:0:0:
192,192,34524,1,0,0:0:0:0:
64,192,34608,1,0,0:0:0:0:
320,192,34691,1,0,0:0:0:0:
448,192,34691,1,0,0:0:0:0:
320,192,34858,1,0,0:0:0:0:
448,192,34941,1,0,0:0:0:0:
64,192,35024,1,0,0:0:0:0:
192,192,35024,1,0,0:0:0:0:
192,192,35191,1,0,0:0:0:0:
320,192,35274,1,0,0:0:0:0:
448,192,35274,1,0,0:0:0:0:
64,192,35358,1,0,0:0:0:0:
320,192,35441,1,0,0:0:0:0:
448,192,35441,1,0,0:0:0:0:
64,192,35524,1,0,0:0:0:0:
192,192,35524,1,0,0:0:0:0:
448,192,35608,1,0,0:0:0:0:
192,192,35691,1,0,0:0:0:0:
320,192,35691,1,0,0:0:0:0:
320,192,35858,1,0,0:0:0:0:
448,192,35941,1,0,0:0:0:0:
64,192,36024,1,0,0:0:0:0:
192,192,36024,1,0,0:0:0:0:
192,192,36191,1,0,0:0:0:0:
64,192,36274,1,0,0:0:0:0:
320,192,36358,1,0,0:0:0:0:
448,192,36358,1,0,0:0:0:0:
192,192,36524,1,0,0:0:0:0:
320,192,36608,1,0,0:0:0:0:
448,192,36608,1,0,0:0:0:0:
64,192,36691,1,0,0:0:0:0:
320,192,36774,1,0,0:0:0:0:
448,192,36774,1,0,0:0:0:0:
64,192,36858,1,0,0:0:0:0:
192,192,36858,1,0,0:0:0:0:
448,192,36941,1,0,0:0:0:0:
192,192,37024,1,0,0:0:0:0:
320,192,37024,1,0,0:0:0:0:
64,192,37191,1,0,0:0:0:0:
448,192,37191,1,0,0:0:0:0:
64,192,37358,1,0,0:0:0:0:
448,192,37358,1,0,0:0:0:0:
320,192,37524,1,0,0:0:0:0:
192,192,37608,1,0,0:0:0:0:
320,192,37691,1,0,0:0:0:0:
448,192,37691,1,0,0:0:0:0:
192,192,37858,1,0,0:0:0:0:
320,192,37941,1,0,0:0:0:0:
64,192,38024,1,0,0:0:0:0:
192,192,38024,1,0,0:0:0:0:
320,192,38191,1,0,0:0:0:0:
64,192,38274,1,0,0:0:0:0:
320,192,38358,1,0,0:0:0:0:
448,192,38358,1,0,0:0:0:0:
192,192,38524,1,0,0:0:0:0:
448,192,38608,1,0,0:0:0:0:
64,192,38691,1,0,0:0:0:0:
192,192,38691,1,0,0:0:0:0:
448,192,38858,1,0,0:0:0:0:
64,192,38941,1,0,0:0:0:0:
320,192,39024,1,0,0:0:0:0:
448,192,39024,1,0,0:0:0:0:
64,192,39191,1,0,0:0:0:0:
448,192,39274,1,0,0:0:0:0:
64,192,39358,1,0,0:0:0:0:
192,192,39358,1,0,0:0:0:0:
320,192,39524,1,0,0:0:0:0:
192,192,39608,1,0,0:0:0:0:
64,192,39691,1,0,0:0:0:0:
448,192,39691,1,0,0:0:0:0:
192,192,39858,1,0,0:0:0:0:
320,192,39941,1,0,0:0:0:0:
64,192,40024,1,0,0:0:0:0:
448,192,40024,1,0,0:0:0:0:
192,192,40191,1,0,0:0:0:0:
320,192,40274,1,0,0:0:0:0:
192,192,40358,1,0,0:0:0:0:
448,192,40524,1,0,0:0:0:0:
64,192,40608,1,0,0:0:0:0:
448,192,40691,1,0,0:0:0:0:
192,192,40858,1,0,0:0:0:0:
320,192,40941,1,0,0:0:0:0:
192,192,41024,1,0,0:0:0:0:
448,192,41191,1,0,0:0:0:0:
64,192,41274,1,0,0:0:0:0:
320,192,41358,1,0,0:0:0:0:
448,192,41358,1,0,0:0:0:0:
320,192,41524,1,0,0:0:0:0:
448,192,41524,1,0,0:0:0:0:
64,192,41691,1,0,0:0:0:0:
192,192,41691,128,0,41816:0:0:0:0:
448,192,41858,128,0,41899:0:0:0:0:
64,192,41941,128,0,41983:0:0:0:0:
448,192,42024,128,0,42066:0:0:0:0:
64,192,42108,128,0,42149:0:0:0:0:
320,192,42191,1,0,0:0:0:0:
448,192,42191,1,0,0:0:0:0:
64,192,42358,1,0,0:0:0:0:
192,192,42358,128,0,42483:0:0:0:0:
448,192,42524,128,0,42566:0:0:0:0:
64,192,42608,128,0,42649:0:0:0:0:
192,192,42691,1,0,0:0:0:0:
320,192,42691,1,0,0:0:0:0:
448,192,42691,1,0,0:0:0:0:
64,192,42858,1,0,0:0:0:0:
192,192,42858,1,0,0:0:0:0:
448,192,42941,1,0,0:0:0:0:
64,192,43024,1,0,0:0:0:0:
320,192,43024,1,0,0:0:0:0:
448,192,43024,1,0,0:0:0:0:
192,192,43191,1,0,0:0:0:0:
192,192,43274,1,0,0:0:0:0:
64,192,43358,1,0,0:0:0:0:
320,192,43358,1,0,0:0:0:0:
448,192,43358,1,0,0:0:0:0:
320,192,43524,1,0,0:0:0:0:
448,192,43524,1,0,0:0:0:0:
64,192,43608,1,0,0:0:0:0:
64,192,43691,1,0,0:0:0:0:
192,192,43691,1,0,0:0:0:0:
448,192,43691,1,0,0:0:0:0:
320,192,43858,1,0,0:0:0:0:
320,192,43941,1,0,0:0:0:0:
64,192,44024,1,0,0:0:0:0:
192,192,44024,1,0,0:0:0:0:
448,192,44024,1,0,0:0:0:0:
64,192,44191,1,0,0:0:0:0:
192,192,44191,1,0,0:0:0:0:
448,192,44274,1,0,0:0:0:0:
64,192,44358,1,0,0:0:0:0:
320,192,44358,1,0,0:0:0:0:
448,192,44358,1,0,0:0:0:0:
192,192,44524,1,0,0:0:0:0:
192,192,44608,1,0,0:0:0:0:
64,192,44691,1,0,0:0:0:0:
320,192,44691,1,0,0:0:0:0:
448,192,44691,1,0,0:0:0:0:
320,192,44858,1,0,0:0:0:0:
448,192,44858,1,0,0:0:0:0:
64,192,44941,1,0,0:0:0:0:
64,192,45024,1,0,0:0:0:0:
192,192,45024,1,0,0:0:0:0:
448,192,45024,1,0,0:0:0:0:
320,192,45191,1,0,0:0:0:0:
320,192,45274,1,0,0:0:0:0:
64,192,45358,1,0,0:0:0:0:
192,192,45358,1,0,0:0:0:0:
448,192,45358,1,0,0:0:0:0:
64,192,45524,1,0,0:0:0:0:
192,192,45524,1,0,0:0:0:0:
448,192,45608,1,0,0:0:0:0:
64,192,45691,1,0,0:0:0:0:
320,192,45691,1,0,0:0:0:0:
448,192,45691,1,0,0:0:0:0:
192,192,45858,1,0,0:0:0:0:
192,192,45941,1,0,0:0:0:0:
64,192,46024,1,0,0:0:0:0:
320,192,46024,1,0,0:0:0:0:
448,192,46024,1,0,0:0:0:0:
320,192,46191,1,0,0:0:0:0:
448,192,46191,1,0,0:0:0:0:
64,192,46274,1,0,0:0:0:0:
64,192,46358,1,0,0:0:0:0:
192,192,46358,1,0,0:0:0:0:
448,192,46358,1,0,0:0:0:0:
320,192,46524,1,0,0:0:0:0:
320,192,46608,1,0,0:0:0:0:
64,192,46691,1,0,0:0:0:0:
192,192,46691,1,0,0:0:0:0:
448,192,46747,1,0,0:0:0:0:
192,192,46802,1,0,0:0:0:0:
320,192,46858,1,0,0:0:0:0:
448,192,46913,1,0,0:0:0:0:
64,192,46969,1,0,0:0:0:0:
320,192,47024,1,0,0:0:0:0:
448,192,47024,1,0,0:0:0:0:
192,192,47080,1,0,0:0:0:0:
320,192,47136,1,0,0:0:0:0:
192,192,47191,1,0,0:0:0:0:
64,192,47247,1,0,0:0:0:0:
320,192,47302,1,0,0:0:0:0:
64,192,47358,1,0,0:0:0:0:
192,192,47358,1,0,0:0:0:0:
448,192,47413,1,0,0:0:0:0:
192,192,47469,1,0,0:0:0:0:
320,192,47524,1,0,0:0:0:0:
448,192,47580,1,0,0:0:0:0:
64,192,47636,1,0,0:0:0:0:
320,192,47691,1,0,0:0:0:0:
448,192,47691,1,0,0:0:0:0:
192,192,47747,1,0,0:0:0:0:
320,192,47802,1,0,0:0:0:0:
192,192,47858,1,0,0:0:0:0:
64,192,47913,1,0,0:0:0:0:
448,192,47969,1,0,0:0:0:0:
64,192,48024,1,0,0:0:0:0:
192,192,48024,1,0,0:0:0:0:
320,192,48024,1,0,0:0:0:0:
64,192,48191,1,0,0:0:0:0:
192,192,48191,1,0,0:0:0:0:
448,192,48274,1,0,0:0:0:0:
64,192,48358,1,0,0:0:0:0:
320,192,48358,1,0,0:0:0:0:
448,192,48358,1,0,0:0:0:0:
192,192,48524,1,0,0:0:0:0:
192,192,48608,1,0,0:0:0:0:
64,192,48691,1,0,0:0:0:0:
320,192,48691,1,0,0:0:0:0:
448,192,48691,1,0,0:0:0:0:
320,192,48858,1,0,0:0:0:0:
448,192,48858,1,0,0:0:0:0:
64,192,48941,1,0,0:0:0:0:
64,192,49024,1,0,0:0:0:0:
192,192,49024,1,0,0:0:0:0:
448,192,49024,1,0,0:0:0:0:
320,192,49191,1,0,0:0:0:0:
320,192,49274,1,0,0:0:0:0:
64,192,49358,1,0,0:0:0:0:
192,192,49358,1,0,0:0:0:0:
448,192,49358,1,0,0:0:0:0:
64,192,49524,1,0,0:0:0:0:
192,192,49524,1,0,0:0:0:0:
448,192,49608,1,0,0:0:0:0:
64,192,49691,1,0,0:0:0:0:
320,192,49691,1,0,0:0:0:0:
448,192,49691,1,0,0:0:0:0:
192,192,49858,1,0,0:0:0:0:
192,192,49941,1,0,0:0:0:0:
64,192,50024,1,0,0:0:0:0:
320,192,50024,1,0,0:0:0:0:
448,192,50024,1,0,0:0:0:0:
320,192,50191,1,0,0:0:0:0:
448,192,50191,1,0,0:0:0:0:
64,192,50274,1,0,0:0:0:0:
64,192,50358,1,0,0:0:0:0:
192,192,50358,1,0,0:0:0:0:
448,192,50358,1,0,0:0:0:0:
320,192,50524,1,0,0:0:0:0:
320,192,50608,1,0,0:0:0:0:
64,192,50691,1,0,0:0:0:0:
192,192,50691,1,0,0:0:0:0:
448,192,50691,1,0,0:0:0:0:
64,192,50858,1,0,0:0:0:0:
192,192,50858,1,0,0:0:0:0:
448,192,50941,1,0,0:0:0:0:
64,192,51024,1,0,0:0:0:0:
320,192,51024,1,0,0:0:0:0:
448,192,51024,1,0,0:0:0:0:
192,192,51191,1,0,0:0:0:0:
192,192,51274,1,0,0:0:0:0:
64,192,51358,1,0,0:0:0:0:
320,192,51358,1,0,0:0:0:0:
448,192,51358,1,0,0:0:0:0:
320,192,51524,1,0,0:0:0:0:
448,192,51524,1,0,0:0:0:0:
64,192,51608,1,0,0:0:0:0:
64,192,51691,1,0,0:0:0:0:
192,192,51691,1,0,0:0:0:0:
448,192,51691,1,0,0:0:0:0:
320,192,51858,1,0,0:0:0:0:
320,192,51941,1,0,0:0:0:0:
64,192,52024,128,0,52691:0:0:0:0:
192,192,52024,1,0,0:0:0:0:
448,192,52024,1,0,0:0:0:0:
320,192,52191,1,0,0:0:0:0:
192,192,52274,1,0,0:0:0:0:
320,192,52358,1,0,0:0:0:0:
448,192,52358,1,0,0:0:0:0:
192,192,52524,1,0,0:0:0:0:
320,192,52608,1,0,0:0:0:0:
448,192,52691,1,0,0:0:0:0:
320,192,52774,1,0,0:0:0:0:
192,192,52858,1,0,0:0:0:0:
320,192,52941,1,0,0:0:0:0:
64,192,53024,128,0,53108:0:0:0:0:
192,192,53024,128,0,53108:0:0:0:0:
448,192,53024,128,0,53108:0:0:0:0:
64,192,53191,128,0,53274:0:0:0:0:
320,192,53191,128,0,53274:0:0:0:0:
448,192,53191,128,0,53274:0:0:0:0:
64,192,53358,1,0,0:0:0:0:
192,192,53358,1,0,0:0:0:0:
320,192,53358,1,0,0:0:0:0:
64,192,53524,1,0,0:0:0:0:
192,192,53524,1,0,0:0:0:0:
448,192,53608,1,0,0:0:0:0:
192,192,53691,1,0,0:0:0:0:
320,192,53691,1,0,0:0:0:0:
448,192,53691,1,0,0:0:0:0:
64,192,53858,1,0,0:0:0:0:
64,192,53941,1,0,0:0:0:0:
192,192,54024,1,0,0:0:0:0:
320,192,54024,1,0,0:0:0:0:
448,192,54024,1,0,0:0:0:0:
320,192,54191,1,0,0:0:0:0:
448,192,54191,1,0,0:0:0:0:
64,192,54274,1,0,0:0:0:0:
64,192,54358,1,0,0:0:0:0:
192,192,54358,1,0,0:0:0:0:
320,192,54358,1,0,0:0:0:0:
448,192,54524,1,0,0:0:0:0:
448,192,54608,1,0,0:0:0:0:
64,192,54691,1,0,0:0:0:0:
192,192,54691,1,0,0:0:0:0:
320,192,54691,1,0,0:0:0:0:
64,192,54858,1,0,0:0:0:0:
192,192,54858,1,0,0:0:0:0:
448,192,54941,1,0,0:0:0:0:
192,192,55024,1,0,0:0:0:0:
320,192,55024,1,0,0:0:0:0:
448,192,55024,1,0,0:0:0:0:
64,192,55191,1,0,0:0:0:0:
64,192,55274,1,0,0:0:0:0:
192,192,55358,1,0,0:0:0:0:
320,192,55358,1,0,0:0:0:0:
448,192,55358,1,0,0:0:0:0:
320,192,55524,1,0,0:0:0:0:
448,192,55524,1,0,0:0:0:0:
64,192,55608,1,0,0:0:0:0:
64,192,55691,1,0,0:0:0:0:
192,192,55691,1,0,0:0:0:0:
320,192,55691,1,0,0:0:0:0:
448,192,55858,1,0,0:0:0:0:
448,192,55941,1,0,0:0:0:0:
64,192,56024,1,0,0:0:0:0:
192,192,56024,1,0,0:0:0:0:
320,192,56024,1,0,0:0:0:0:
64,192,56191,1,0,0:0:0:0:
192,192,56191,1,0,0:0:0:0:
448,192,56274,1,0,0:0:0:0:
192,192,56358,1,0,0:0:0:0:
320,192,56358,1,0,0:0:0:0:
448,192,56358,1,0,0:0:0:0:
64,192,56524,1,0,0:0:0:0:
64,192,56608,1,0,0:0:0:0:
192,192,56691,1,0,0:0:0:0:
320,192,56691,1,0,0:0:0:0:
448,192,56691,1,0,0:0:0:0:
320,192,56858,1,0,0:0:0:0:
448,192,56858,1,0,0:0:0:0:
64,192,56941,1,0,0:0:0:0:
64,192,57024,1,0,0:0:0:0:
192,192,57024,1,0,0:0:0:0:
320,192,57024,1,0,0:0:0:0:
448,192,57191,1,0,0:0:0:0:
448,192,57274,1,0,0:0:0:0:
64,192,57358,1,0,0:0:0:0:
320,192,57358,1,0,0:0:0:0:
192,192,57413,1,0,0:0:0:0:
320,192,57469,1,0,0:0:0:0:
192,192,57524,1,0,0:0:0:0:
64,192,57580,1,0,0:0:0:0:
320,192,57636,1,0,0:0:0:0:
192,192,57691,1,0,0:0:0:0:
448,192,57691,1,0,0:0:0:0:
64,192,57747,1,0,0:0:0:0:
448,192,57802,1,0,0:0:0:0:
320,192,57858,1,0,0:0:0:0:
192,192,57913,1,0,0:0:0:0:
448,192,57969,1,0,0:0:0:0:
64,192,58024,1,0,0:0:0:0:
320,192,58024,1,0,0:0:0:0:
192,192,58080,1,0,0:0:0:0:
320,192,58136,1,0,0:0:0:0:
192,192,58191,1,0,0:0:0:0:
64,192,58247,1,0,0:0:0:0:
320,192,58302,1,0,0:0:0:0:
192,192,58358,1,0,0:0:0:0:
448,192,58358,1,0,0:0:0:0:
64,192,58413,1,0,0:0:0:0:
448,192,58469,1,0,0:0:0:0:
320,192,58524,1,0,0:0:0:0:
192,192,58580,1,0,0:0:0:0:
448,192,58636,1,0,0:0:0:0:
64,192,58691,1,0,0:0:0:0:
192,192,58691,1,0,0:0:0:0:
320,192,58691,1,0,0:0:0:0:
64,192,58858,1,0,0:0:0:0:
192,192,58858,1,0,0:0:0:0:
448,192,58941,1,0,0:0:0:0:
64,192,59024,1,0,0:0:0:0:
320,192,59024,1,0,0:0:0:0:
448,192,59024,1,0,0:0:0:0:
192,192,59191,1,0,0:0:0:0:
192,192,59274,1,0,0:0:0:0:
64,192,59358,1,0,0:0:0:0:
320,192,59358,1,0,0:0:0:0:
448,192,59358,1,0,0:0:0:0:
320,192,59524,1,0,0:0:0:0:
448,192,59524,1,0,0:0:0:0:
64,192,59608,1,0,0:0:0:0:
64,192,59691,1,0,0:0:0:0:
192,192,59691,1,0,0:0:0:0:
448,192,59691,1,0,0:0:0:0:
320,192,59858,1,0,0:0:0:0:
320,192,59941,1,0,0:0:0:0:
64,192,60024,1,0,0:0:0:0:
192,192,60024,1,0,0:0:0:0:
448,192,60024,1,0,0:0:0:0:
64,192,60191,1,0,0:0:0:0:
192,192,60191,1,0,0:0:0:0:
448,192,60274,1,0,0:0:0:0:
64,192,60358,1,0,0:0:0:0:
320,192,60358,1,0,0:0:0:0:
448,192,60358,1,0,0:0:0:0:
192,192,60524,1,0,0:0:0:0:
192,192,60608,1,0,0:0:0:0:
64,192,60691,1,0,0:0:0:0:
320,192,60691,1,0,0:0:0:0:
448,192,60691,1,0,0:0:0:0:
320,192,60858,1,0,0:0:0:0:
448,192,60858,1,0,0:0:0:0:
64,192,60941,1,0,0:0:0:0:
64,192,61024,1,0,0:0:0:0:
192,192,61024,1,0,0:0:0:0:
448,192,61024,1,0,0:0:0:0:
320,192,61191,1,0,0:0:0:0:
320,192,61274,1,0,0:0:0:0:
64,192,61358,1,0,0:0:0:0:
192,192,61358,1,0,0:0:0:0:
448,192,61358,1,0,0:0:0:0:
64,192,61524,1,0,0:0:0:0:
192,192,61524,1,0,0:0:0:0:
448,192,61608,1,0,0:0:0:0:
64,192,61691,1,0,0:0:0:0:
320,192,61691,1,0,0:0:0:0:
448,192,61691,1,0,0:0:0:0:
192,192,61858,1,0,0:0:0:0:
192,192,61941,1,0,0:0:0:0:
64,192,62024,1,0,0:0:0:0:
320,192,62024,1,0,0:0:0:0:
448,192,62024,1,0,0:0:0:0:
320,192,62191,1,0,0:0:0:0:
448,192,62191,1,0,0:0:0:0:
64,192,62274,1,0,0:0:0:0:
64,192,62358,1,0,0:0:0:0:
192,192,62358,1,0,0:0:0:0:
448,192,62358,1,0,0:0:0:0:
320,192,62524,1,0,0:0:0:0:
320,192,62608,1,0,0:0:0:0:
64,192,62691,1,0,0:0:0:0:
192,192,62691,1,0,0:0:0:0:
64,192,62774,1,0,0:0:0:0:
192,192,62774,1,0,0:0:0:0:
64,192,62858,1,0,0:0:0:0:
192,192,62858,1,0,0:0:0:0:
320,192,62858,1,0,0:0:0:0:
320,192,63024,1,0,0:0:0:0:
448,192,63024,1,0,0:0:0:0:
320,192,63108,1,0,0:0:0:0:
448,192,63108,1,0,0:0:0:0:
192,192,63191,1,0,0:0:0:0:
320,192,63191,1,0,0:0:0:0:
448,192,63191,1,0,0:0:0:0:
64,192,63358,1,0,0:0:0:0:
192,192,63358,1,0,0:0:0:0:
64,192,63441,1,0,0:0:0:0:
192,192,63441,1,0,0:0:0:0:
320,192,63524,1,0,0:0:0:0:
448,192,63524,1,0,0:0:0:0:
320,192,63608,1,0,0:0:0:0:
448,192,63608,1,0,0:0:0:0:
64,192,63691,128,0,63774:0:0:0:0:
192,192,63691,128,0,63774:0:0:0:0:
448,192,63691,128,0,63774:0:0:0:0:
64,192,63858,128,0,63941:0:0:0:0:
320,192,63858,128,0,63941:0:0:0:0:
448,192,63858,128,0,63941:0:0:0:0:
192,192,64024,1,0,0:0:0:0:
320,192,64024,1,0,0:0:0:0:
448,192,64024,1,0,0:0:0:0:
192,192,64191,1,0,0:0:0:0:
448,192,64191,1,0,0:0:0:0:
64,192,64274,1,0,0:0:0:0:
64,192,64358,1,0,0:0:0:0:
192,192,64358,1,0,0:0:0:0:
320,192,64358,1,0,0:0:0:0:
448,192,64413,1,0,0:0:0:0:
320,192,64469,1,0,0:0:0:0:
192,192,64524,1,0,0:0:0:0:
320,192,64608,1,0,0:0:0:0:
448,192,64608,1,0,0:0:0:0:
64,192,64691,1,0,0:0:0:0:
320,192,64691,1,0,0:0:0:0:
448,192,64691,1,0,0:0:0:0:
64,192,64858,1,0,0:0:0:0:
320,192,64858,1,0,0:0:0:0:
448,192,64941,1,0,0:0:0:0:
192,192,65024,1,0,0:0:0:0:
320,192,65024,1,0,0:0:0:0:
448,192,65024,1,0,0:0:0:0:
64,192,65080,1,0,0:0:0:0:
192,192,65136,1,0,0:0:0:0:
320,192,65191,1,0,0:0:0:0:
64,192,65274,1,0,0:0:0:0:
192,192,65274,1,0,0:0:0:0:
64,192,65358,1,0,0:0:0:0:
192,192,65358,1,0,0:0:0:0:
448,192,65358,1,0,0:0:0:0:
192,192,65524,1,0,0:0:0:0:
448,192,65524,1,0,0:0:0:0:
64,192,65608,1,0,0:0:0:0:
64,192,65691,1,0,0:0:0:0:
192,192,65691,1,0,0:0:0:0:
320,192,65691,1,0,0:0:0:0:
448,192,65747,1,0,0:0:0:0:
320,192,65802,1,0,0:0:0:0:
192,192,65858,1,0,0:0:0:0:
320,192,65941,1,0,0:0:0:0:
448,192,65941,1,0,0:0:0:0:
64,192,66024,1,0,0:0:0:0:
320,192,66024,1,0,0:0:0:0:
448,192,66024,1,0,0:0:0:0:
64,192,66191,1,0,0:0:0:0:
320,192,66191,1,0,0:0:0:0:
448,192,66274,1,0,0:0:0:0:
192,192,66358,1,0,0:0:0:0:
320,192,66358,1,0,0:0:0:0:
448,192,66358,1,0,0:0:0:0:
64,192,66413,1,0,0:0:0:0:
192,192,66469,1,0,0:0:0:0:
320,192,66524,1,0,0:0:0:0:
64,192,66608,1,0,0:0:0:0:
192,192,66608,1,0,0:0:0:0:
64,192,66691,1,0,0:0:0:0:
192,192,66691,1,0,0:0:0:0:
448,192,66691,1,0,0:0:0:0:
192,192,66858,1,0,0:0:0:0:
448,192,66858,1,0,0:0:0:0:
64,192,66941,1,0,0:0:0:0:
64,192,67024,1,0,0:0:0:0:
192,192,67024,1,0,0:0:0:0:
320,192,67024,1,0,0:0:0:0:
448,192,67080,1,0,0:0:0:0:
320,192,67136,1,0,0:0:0:0:
192,192,67191,1,0,0:0:0:0:
320,192,67274,1,0,0:0:0:0:
448,192,67274,1,0,0:0:0:0:
64,192,67358,1,0,0:0:0:0:
320,192,67358,1,0,0:0:0:0:
448,192,67358,1,0,0:0:0:0:
64,192,67524,1,0,0:0:0:0:
320,192,67524,1,0,0:0:0:0:
448,192,67608,1,0,0:0:0:0:
192,192,67691,1,0,0:0:0:0:
320,192,67691,1,0,0:0:0:0:
448,192,67691,1,0,0:0:0:0:
64,192,67747,1,0,0:0:0:0:
192,192,67802,1,0,0:0:0:0:
320,192,67858,1,0,0:0:0:0:
64,192,67941,1,0,0:0:0:0:
192,192,67941,1,0,0:0:0:0:
320,192,68024,1,0,0:0:0:0:
448,192,68024,1,0,0:0:0:0:
64,192,68080,1,0,0:0:0:0:
320,192,68136,1,0,0:0:0:0:
192,192,68191,1,0,0:0:0:0:
64,192,68247,1,0,0:0:0:0:
448,192,68302,1,0,0:0:0:0:
64,192,68358,1,0,0:0:0:0:
192,192,68358,1,0,0:0:0:0:
320,192,68413,1,0,0:0:0:0:
192,192,68469,1,0,0:0:0:0:
320,192,68524,1,0,0:0:0:0:
448,192,68580,1,0,0:0:0:0:
192,192,68636,1,0,0:0:0:0:
320,192,68691,1,0,0:0:0:0:
448,192,68691,1,0,0:0:0:0:
64,192,68747,1,0,0:0:0:0:
320,192,68802,1,0,0:0:0:0:
192,192,68858,1,0,0:0:0:0:
64,192,68913,1,0,0:0:0:0:
448,192,68969,1,0,0:0:0:0:
64,192,69024,1,0,0:0:0:0:
192,192,69024,1,0,0:0:0:0:
320,192,69080,1,0,0:0:0:0:
192,192,69136,1,0,0:0:0:0:
320,192,69191,1,0,0:0:0:0:
448,192,69247,1,0,0:0:0:0:
192,192,69302,1,0,0:0:0:0:
64,192,69358,1,0,0:0:0:0:
320,192,69358,1,0,0:0:0:0:
448,192,69358,1,0,0:0:0:0:
320,192,69524,1,0,0:0:0:0:
448,192,69524,1,0,0:0:0:0:
64,192,69608,1,0,0:0:0:0:
64,192,69691,1,0,0:0:0:0:
192,192,69691,1,0,0:0:0:0:
320,192,69691,1,0,0:0:0:0:
448,192,69747,1,0,0:0:0:0:
320,192,69802,1,0,0:0:0:0:
64,192,69858,1,0,0:0:0:0:
192,192,69941,1,0,0:0:0:0:
448,192,69941,1,0,0:0:0:0:
64,192,70024,1,0,0:0:0:0:
192,192,70024,1,0,0:0:0:0:
320,192,70024,1,0,0:0:0:0:
64,192,70191,1,0,0:0:0:0:
192,192,70191,1,0,0:0:0:0:
448,192,70274,1,0,0:0:0:0:
192,192,70358,1,0,0:0:0:0:
320,192,70358,1,0,0:0:0:0:
448,192,70358,1,0,0:0:0:0:
64,192,70413,1,0,0:0:0:0:
192,192,70469,1,0,0:0:0:0:
448,192,70524,1,0,0:0:0:0:
64,192,70608,1,0,0:0:0:0:
320,192,70608,1,0,0:0:0:0:
192,192,70691,1,0,0:0:0:0:
320,192,70691,1,0,0:0:0:0:
448,192,70691,1,0,0:0:0:0:
320,192,70858,1,0,0:0:0:0:
448,192,70858,1,0,0:0:0:0:
64,192,70941,1,0,0:0:0:0:
64,192,71024,1,0,0:0:0:0:
192,192,71024,1,0,0:0:0:0:
320,192,71024,1,0,0:0:0:0:
448,192,71080,1,0,0:0:0:0:
320,192,71136,1,0,0:0:0:0:
64,192,71191,1,0,0:0:0:0:
192,192,71274,1,0,0:0:0:0:
448,192,71274,1,0,0:0:0:0:
64,192,71358,1,0,0:0:0:0:
192,192,71358,1,0,0:0:0:0:
320,192,71358,1,0,0:0:0:0:
64,192,71524,1,0,0:0:0:0:
192,192,71524,1,0,0:0:0:0:
448,192,71608,1,0,0:0:0:0:
192,192,71691,1,0,0:0:0:0:
320,192,71691,1,0,0:0:0:0:
448,192,71691,1,0,0:0:0:0:
64,192,71747,1,0,0:0:0:0:
192,192,71802,1,0,0:0:0:0:
448,192,71858,1,0,0:0:0:0:
64,192,71941,1,0,0:0:0:0:
320,192,71941,1,0,0:0:0:0:
192,192,72024,1,0,0:0:0:0:
320,192,72024,1,0,0:0:0:0:
448,192,72024,1,0,0:0:0:0:
320,192,72191,1,0,0:0:0:0:
448,192,72191,1,0,0:0:0:0:
64,192,72274,1,0,0:0:0:0:
64,192,72358,1,0,0:0:0:0:
192,192,72358,1,0,0:0:0:0:
320,192,72358,1,0,0:0:0:0:
448,192,72413,1,0,0:0:0:0:
320,192,72469,1,0,0:0:0:0:
64,192,72524,1,0,0:0:0:0:
192,192,72608,1,0,0:0:0:0:
448,192,72608,1,0,0:0:0:0:
64,192,72691,1,0,0:0:0:0:
192,192,72691,1,0,0:0:0:0:
320,192,72691,1,0,0:0:0:0:
64,192,72858,1,0,0:0:0:0:
192,192,72858,1,0,0:0:0:0:
448,192,72941,1,0,0:0:0:0:
192,192,73024,1,0,0:0:0:0:
320,192,73024,1,0,0:0:0:0:
448,192,73024,1,0,0:0:0:0:
64,192,73080,1,0,0:0:0:0:
192,192,73136,1,0,0:0:0:0:
448,192,73191,1,0,0:0:0:0:
64,192,73274,1,0,0:0:0:0:
320,192,73274,1,0,0:0:0:0:
64,192,73358,1,0,0:0:0:0:
192,192,73358,1,0,0:0:0:0:
64,192,73441,1,0,0:0:0:0:
192,192,73441,1,0,0:0:0:0:
320,192,73524,1,0,0:0:0:0:
448,192,73524,1,0,0:0:0:0:
320,192,73608,1,0,0:0:0:0:
448,192,73608,1,0,0:0:0:0:
64,192,73691,1,0,0:0:0:0:
192,192,73691,1,0,0:0:0:0:
320,192,73858,1,0,0:0:0:0:
448,192,73858,1,0,0:0:0:0:
320,192,73941,1,0,0:0:0:0:
448,192,73941,1,0,0:0:0:0:
64,192,74024,1,0,0:0:0:0:
192,192,74024,1,0,0:0:0:0:
64,192,74108,1,0,0:0:0:0:
192,192,74108,1,0,0:0:0:0:
320,192,74191,1,0,0:0:0:0:
448,192,74191,1,0,0:0:0:0:
320,192,74274,1,0,0:0:0:0:
448,192,74274,1,0,0:0:0:0:
64,192,74358,128,0,74441:0:0:0:0:
320,192,74358,128,0,74441:0:0:0:0:
448,192,74358,128,0,74441:0:0:0:0:
64,192,74524,128,0,74608:0:0:0:0:
192,192,74524,128,0,74608:0:0:0:0:
448,192,74524,128,0,74608:0:0:0:0:
64,192,74691,1,0,0:0:0:0:
192,192,74691,1,0,0:0:0:0:
320,192,74691,1,0,0:0:0:0:
192,192,74858,1,0,0:0:0:0:
448,192,74858,1,0,0:0:0:0:
64,192,74941,1,0,0:0:0:0:
64,192,75024,1,0,0:0:0:0:
192,192,75024,1,0,0:0:0:0:
320,192,75024,1,0,0:0:0:0:
448,192,75080,1,0,0:0:0:0:
320,192,75136,1,0,0:0:0:0:
192,192,75191,1,0,0:0:0:0:
320,192,75274,1,0,0:0:0:0:
448,192,75274,1,0,0:0:0:0:
64,192,75358,1,0,0:0:0:0:
320,192,75358,1,0,0:0:0:0:
448,192,75358,1,0,0:0:0:0:
64,192,75524,1,0,0:0:0:0:
320,192,75524,1,0,0:0:0:0:
448,192,75608,1,0,0:0:0:0:
192,192,75691,1,0,0:0:0:0:
320,192,75691,1,0,0:0:0:0:
448,192,75691,1,0,0:0:0:0:
64,192,75747,1,0,0:0:0:0:
192,192,75802,1,0,0:0:0:0:
320,192,75858,1,0,0:0:0:0:
64,192,75941,1,0,0:0:0:0:
192,192,75941,1,0,0:0:0:0:
64,192,76024,1,0,0:0:0:0:
192,192,76024,1,0,0:0:0:0:
448,192,76024,1,0,0:0:0:0:
192,192,76191,1,0,0:0:0:0:
448,192,76191,1,0,0:0:0:0:
64,192,76274,1,0,0:0:0:0:
64,192,76358,1,0,0:0:0:0:
192,192,76358,1,0,0:0:0:0:
320,192,76358,1,0,0:0:0:0:
448,192,76413,1,0,0:0:0:0:
320,192,76469,1,0,0:0:0:0:
192,192,76524,1,0,0:0:0:0:
320,192,76608,1,0,0:0:0:0:
448,192,76608,1,0,0:0:0:0:
64,192,76691,1,0,0:0:0:0:
320,192,76691,1,0,0:0:0:0:
448,192,76691,1,0,0:0:0:0:
64,192,76858,1,0,0:0:0:0:
320,192,76858,1,0,0:0:0:0:
448,192,76941,1,0,0:0:0:0:
192,192,77024,1,0,0:0:0:0:
320,192,77024,1,0,0:0:0:0:
448,192,77024,1,0,0:0:0:0:
64,192,77080,1,0,0:0:0:0:
192,192,77136,1,0,0:0:0:0:
320,192,77191,1,0,0:0:0:0:
64,192,77274,1,0,0:0:0:0:
192,192,77274,1,0,0:0:0:0:
64,192,77358,1,0,0:0:0:0:
192,192,77358,1,0,0:0:0:0:
448,192,77358,1,0,0:0:0:0:
192,192,77524,1,0,0:0:0:0:
448,192,77524,1,0,0:0:0:0:
64,192,77608,1,0,0:0:0:0:
64,192,77691,1,0,0:0:0:0:
192,192,77691,1,0,0:0:0:0:
320,192,77691,1,0,0:0:0:0:
448,192,77747,1,0,0:0:0:0:
320,192,77802,1,0,0:0:0:0:
192,192,77858,1,0,0:0:0:0:
320,192,77941,1,0,0:0:0:0:
448,192,77941,1,0,0:0:0:0:
64,192,78024,1,0,0:0:0:0:
320,192,78024,1,0,0:0:0:0:
448,192,78024,1,0,0:0:0:0:
64,192,78191,1,0,0:0:0:0:
320,192,78191,1,0,0:0:0:0:
448,192,78274,1,0,0:0:0:0:
192,192,78358,1,0,0:0:0:0:
320,192,78358,1,0,0:0:0:0:
448,192,78358,1,0,0:0:0:0:
64,192,78413,1,0,0:0:0:0:
192,192,78469,1,0,0:0:0:0:
320,192,78524,1,0,0:0:0:0:
64,192,78608,1,0,0:0:0:0:
192,192,78608,1,0,0:0:0:0:
64,192,78691,1,0,0:0:0:0:
192,192,78691,1,0,0:0:0:0:
448,192,78747,1,0,0:0:0:0:
192,192,78802,1,0,0:0:0:0:
320,192,78858,1,0,0:0:0:0:
448,192,78913,1,0,0:0:0:0:
64,192,78969,1,0,0:0:0:0:
320,192,79024,1,0,0:0:0:0:
448,192,79024,1,0,0:0:0:0:
192,192,79080,1,0,0:0:0:0:
320,192,79136,1,0,0:0:0:0:
192,192,79191,1,0,0:0:0:0:
64,192,79247,1,0,0:0:0:0:
320,192,79302,1,0,0:0:0:0:
64,192,79358,1,0,0:0:0:0:
192,192,79358,1,0,0:0:0:0:
448,192,79413,1,0,0:0:0:0:
192,192,79469,1,0,0:0:0:0:
320,192,79524,1,0,0:0:0:0:
448,192,79580,1,0,0:0:0:0:
64,192,79636,1,0,0:0:0:0:
320,192,79691,1,0,0:0:0:0:
448,192,79691,1,0,0:0:0:0:
192,192,79747,1,0,0:0:0:0:
320,192,79802,1,0,0:0:0:0:
192,192,79858,1,0,0:0:0:0:
64,192,79913,1,0,0:0:0:0:
448,192,79969,1,0,0:0:0:0:
64,192,80024,1,0,0:0:0:0:
192,192,80024,1,0,0:0:0:0:
320,192,80024,1,0,0:0:0:0:
320,192,80191,1,0,0:0:0:0:
448,192,80191,1,0,0:0:0:0:
64,192,80274,1,0,0:0:0:0:
64,192,80358,1,0,0:0:0:0:
192,192,80358,1,0,0:0:0:0:
320,192,80358,1,0,0:0:0:0:
448,192,80413,1,0,0:0:0:0:
320,192,80469,1,0,0:0:0:0:
64,192,80524,1,0,0:0:0:0:
192,192,80608,1,0,0:0:0:0:
448,192,80608,1,0,0:0:0:0:
64,192,80691,1,0,0:0:0:0:
192,192,80691,1,0,0:0:0:0:
320,192,80691,1,0,0:0:0:0:
64,192,80858,1,0,0:0:0:0:
192,192,80858,1,0,0:0:0:0:
448,192,80941,1,0,0:0:0:0:
192,192,81024,1,0,0:0:0:0:
320,192,81024,1,0,0:0:0:0:
448,192,81024,1,0,0:0:0:0:
64,192,81080,1,0,0:0:0:0:
192,192,81136,1,0,0:0:0:0:
448,192,81191,1,0,0:0:0:0:
64,192,81274,1,0,0:0:0:0:
320,192,81274,1,0,0:0:0:0:
192,192,81358,1,0,0:0:0:0:
320,192,81358,1,0,0:0:0:0:
448,192,81358,1,0,0:0:0:0:
320,192,81524,1,0,0:0:0:0:
448,192,81524,1,0,0:0:0:0:
64,192,81608,1,0,0:0:0:0:
64,192,81691,1,0,0:0:0:0:
192,192,81691,1,0,0:0:0:0:
320,192,81691,1,0,0:0:0:0:
448,192,81747,1,0,0:0:0:0:
320,192,81802,1,0,0:0:0:0:
64,192,81858,1,0,0:0:0:0:
192,192,81941,1,0,0:0:0:0:
448,192,81941,1,0,0:0:0:0:
64,192,82024,1,0,0:0:0:0:
192,192,82024,1,0,0:0:0:0:
320,192,82024,1,0,0:0:0:0:
64,192,82191,1,0,0:0:0:0:
192,192,82191,1,0,0:0:0:0:
448,192,82274,1,0,0:0:0:0:
192,192,82358,1,0,0:0:0:0:
320,192,82358,1,0,0:0:0:0:
448,192,82358,1,0,0:0:0:0:
64,192,82413,1,0,0:0:0:0:
192,192,82469,1,0,0:0:0:0:
448,192,82524,1,0,0:0:0:0:
64,192,82608,1,0,0:0:0:0:
320,192,82608,1,0,0:0:0:0:
192,192,82691,1,0,0:0:0:0:
320,192,82691,1,0,0:0:0:0:
448,192,82691,1,0,0:0:0:0:
320,192,82858,1,0,0:0:0:0:
448,192,82858,1,0,0:0:0:0:
64,192,82941,1,0,0:0:0:0:
64,192,83024,1,0,0:0:0:0:
192,192,83024,1,0,0:0:0:0:
320,192,83024,1,0,0:0:0:0:
448,192,83080,1,0,0:0:0:0:
320,192,83136,1,0,0:0:0:0:
64,192,83191,1,0,0:0:0:0:
192,192,83274,1,0,0:0:0:0:
448,192,83274,1,0,0:0:0:0:
64,192,83358,1,0,0:0:0:0:
192,192,83358,1,0,0:0:0:0:
320,192,83358,1,0,0:0:0:0:
64,192,83524,1,0,0:0:0:0:
192,192,83524,1,0,0:0:0:0:
448,192,83608,1,0,0:0:0:0:
192,192,83691,1,0,0:0:0:0:
320,192,83691,1,0,0:0:0:0:
448,192,83691,1,0,0:0:0:0:
64,192,83747,1,0,0:0:0:0:
192,192,83802,1,0,0:0:0:0:
448,192,83858,1,0,0:0:0:0:
64,192,83941,1,0,0:0:0:0:
320,192,83941,1,0,0:0:0:0:
192,192,84024,1,0,0:0:0:0:
448,192,84108,1,0,0:0:0:0:
64,192,84191,1,0,0:0:0:0:
192,192,84191,1,0,0:0:0:0:
320,192,84191,1,0,0:0:0:0:
320,192,84358,1,0,0:0:0:0:
64,192,84441,1,0,0:0:0:0:
192,192,84524,1,0,0:0:0:0:
320,192,84524,1,0,0:0:0:0:
448,192,84524,1,0,0:0:0:0:
192,192,84691,1,0,0:0:0:0:
320,192,84774,1,0,0:0:0:0:
192,192,84858,1,0,0:0:0:0:
320,192,84941,1,0,0:0:0:0:
64,192,85024,128,0,85108:0:0:0:0:
192,192,85024,128,0,85108:0:0:0:0:
448,192,85024,128,0,85108:0:0:0:0:
64,192,85191,128,0,85274:0:0:0:0:
320,192,85191,128,0,85274:0:0:0:0:
448,192,85191,128,0,85274:0:0:0:0:
192,192,85358,1,0,0:0:0:0:
320,192,85358,1,0,0:0:0:0:
64,192,85524,1,0,0:0:0:0:
192,192,85608,1,0,0:0:0:0:
64,192,85691,1,0,0:0:0:0:
320,192,85691,1,0,0:0:0:0:
192,192,85858,1,0,0:0:0:0:
64,192,85941,1,0,0:0:0:0:
320,192,86024,1,0,0:0:0:0:
64,192,86191,1,0,0:0:0:0:
192,192,86274,1,0,0:0:0:0:
64,192,86358,1,0,0:0:0:0:
320,192,86358,1,0,0:0:0:0:
192,192,86524,1,0,0:0:0:0:
320,192,86608,1,0,0:0:0:0:
64,192,86691,1,0,0:0:0:0:
448,192,86858,1,0,0:0:0:0:
320,192,86941,1,0,0:0:0:0:
192,192,87024,1,0,0:0:0:0:
448,192,87024,1,0,0:0:0:0:
320,192,87191,1,0,0:0:0:0:
448,192,87274,1,0,0:0:0:0:
192,192,87358,1,0,0:0:0:0:
448,192,87524,1,0,0:0:0:0:
320,192,87608,1,0,0:0:0:0:
192,192,87691,1,0,0:0:0:0:
448,192,87691,1,0,0:0:0:0:
320,192,87858,1,0,0:0:0:0:
192,192,87941,1,0,0:0:0:0:
448,192,88024,1,0,0:0:0:0:
192,192,88191,1,0,0:0:0:0:
64,192,88274,1,0,0:0:0:0:
192,192,88358,1,0,0:0:0:0:
320,192,88358,1,0,0:0:0:0:
64,192,88524,1,0,0:0:0:0:
192,192,88608,1,0,0:0:0:0:
320,192,88691,1,0,0:0:0:0:
192,192,88858,1,0,0:0:0:0:
64,192,88941,1,0,0:0:0:0:
192,192,89024,1,0,0:0:0:0:
320,192,89024,1,0,0:0:0:0:
64,192,89191,1,0,0:0:0:0:
320,192,89274,1,0,0:0:0:0:
192,192,89358,1,0,0:0:0:0:
448,192,89524,1,0,0:0:0:0:
192,192,89608,1,0,0:0:0:0:
64,192,89691,1,0,0:0:0:0:
448,192,89691,1,0,0:0:0:0:
192,192,89858,1,0,0:0:0:0:
64,192,89941,1,0,0:0:0:0:
448,192,90024,1,0,0:0:0:0:
64,192,90191,1,0,0:0:0:0:
192,192,90274,1,0,0:0:0:0:
64,192,90358,1,0,0:0:0:0:
448,192,90358,1,0,0:0:0:0:
192,192,90524,1,0,0:0:0:0:
64,192,90608,1,0,0:0:0:0:
320,192,90691,1,0,0:0:0:0:
448,192,90691,1,0,0:0:0:0:
192,192,90858,1,0,0:0:0:0:
320,192,90941,1,0,0:0:0:0:
64,192,91024,1,0,0:0:0:0:
192,192,91024,1,0,0:0:0:0:
448,192,91191,1,0,0:0:0:0:
320,192,91274,1,0,0:0:0:0:
448,192,91358,1,0,0:0:0:0:
64,192,91524,1,0,0:0:0:0:
320,192,91608,1,0,0:0:0:0:
64,192,91691,1,0,0:0:0:0:
320,192,91858,1,0,0:0:0:0:
192,192,91941,1,0,0:0:0:0:
320,192,92024,1,0,0:0:0:0:
448,192,92191,1,0,0:0:0:0:
192,192,92274,1,0,0:0:0:0:
448,192,92358,1,0,0:0:0:0:
64,192,92524,1,0,0:0:0:0:
192,192,92608,1,0,0:0:0:0:
64,192,92691,1,0,0:0:0:0:
320,192,92858,1,0,0:0:0:0:
192,192,92941,1,0,0:0:0:0:
320,192,93024,1,0,0:0:0:0:
64,192,93191,1,0,0:0:0:0:
448,192,93274,1,0,0:0:0:0:
64,192,93358,1,0,0:0:0:0:
192,192,93441,1,0,0:0:0:0:
320,192,93524,1,0,0:0:0:0:
192,192,93608,1,0,0:0:0:0:
64,192,93691,1,0,0:0:0:0:
320,192,93774,1,0,0:0:0:0:
448,192,93858,1,0,0:0:0:0:
320,192,93941,1,0,0:0:0:0:
192,192,94024,1,0,0:0:0:0:
448,192,94108,1,0,0:0:0:0:
64,192,94191,1,0,0:0:0:0:
192,192,94274,1,0,0:0:0:0:
320,192,94358,1,0,0:0:0:0:
192,192,94441,1,0,0:0:0:0:
64,192,94524,1,0,0:0:0:0:
192,192,94608,1,0,0:0:0:0:
448,192,94691,128,0,95191:0:0:0:0:
64,192,95191,128,0,95441:0:0:0:0:
64,192,95524,128,0,95691:0:0:0:0:
320,192,95691,128,0,95774:0:0:0:0:
320,192,95858,128,0,95941:0:0:0:0:
64,192,96024,1,0,0:0:0:0:
192,192,96024,1,0,0:0:0:0:
448,192,96191,1,0,0:0:0:0:
320,192,96274,1,0,0:0:0:0:
192,192,96358,1,0,0:0:0:0:
448,192,96358,1,0,0:0:0:0:
320,192,96524,1,0,0:0:0:0:
448,192,96608,1,0,0:0:0:0:
192,192,96691,1,0,0:0:0:0:
448,192,96858,1,0,0:0:0:0:
320,192,96941,1,0,0:0:0:0:
192,192,97024,1,0,0:0:0:0:
448,192,97024,1,0,0:0:0:0:
320,192,97191,1,0,0:0:0:0:
192,192,97274,1,0,0:0:0:0:
448,192,97358,1,0,0:0:0:0:
64,192,97524,1,0,0:0:0:0:
192,192,97608,1,0,0:0:0:0:
64,192,97691,1,0,0:0:0:0:
320,192,97691,1,0,0:0:0:0:
192,192,97858,1,0,0:0:0:0:
64,192,97941,1,0,0:0:0:0:
320,192,98024,1,0,0:0:0:0:
64,192,98191,1,0,0:0:0:0:
192,192,98274,1,0,0:0:0:0:
64,192,98358,1,0,0:0:0:0:
320,192,98358,1,0,0:0:0:0:
192,192,98524,1,0,0:0:0:0:
320,192,98608,1,0,0:0:0:0:
64,192,98691,1,0,0:0:0:0:
320,192,98858,1,0,0:0:0:0:
448,192,98941,1,0,0:0:0:0:
192,192,99024,1,0,0:0:0:0:
320,192,99024,1,0,0:0:0:0:
448,192,99191,1,0,0:0:0:0:
320,192,99274,1,0,0:0:0:0:
192,192,99358,1,0,0:0:0:0:
320,192,99524,1,0,0:0:0:0:
448,192,99608,1,0,0:0:0:0:
192,192,99691,1,0,0:0:0:0:
320,192,99691,1,0,0:0:0:0:
448,192,99858,1,0,0:0:0:0:
192,192,99941,1,0,0:0:0:0:
320,192,100024,1,0,0:0:0:0:
64,192,100191,1,0,0:0:0:0:
320,192,100274,1,0,0:0:0:0:
64,192,100358,1,0,0:0:0:0:
448,192,100358,1,0,0:0:0:0:
320,192,100524,1,0,0:0:0:0:
448,192,100608,1,0,0:0:0:0:
64,192,100691,1,0,0:0:0:0:
448,192,100858,1,0,0:0:0:0:
320,192,100941,1,0,0:0:0:0:
64,192,101024,1,0,0:0:0:0:
448,192,101024,1,0,0:0:0:0:
192,192,101191,1,0,0:0:0:0:
320,192,101274,1,0,0:0:0:0:
64,192,101358,1,0,0:0:0:0:
192,192,101358,1,0,0:0:0:0:
448,192,101524,1,0,0:0:0:0:
320,192,101608,1,0,0:0:0:0:
448,192,101691,1,0,0:0:0:0:
64,192,101858,1,0,0:0:0:0:
320,192,101941,1,0,0:0:0:0:
64,192,102024,1,0,0:0:0:0:
192,192,102191,1,0,0:0:0:0:
320,192,102274,1,0,0:0:0:0:
192,192,102358,1,0,0:0:0:0:
448,192,102524,1,0,0:0:0:0:
64,192,102608,1,0,0:0:0:0:
448,192,102691,1,0,0:0:0:0:
192,192,102858,1,0,0:0:0:0:
64,192,102941,1,0,0:0:0:0:
192,192,103024,1,0,0:0:0:0:
320,192,103191,1,0,0:0:0:0:
64,192,103274,1,0,0:0:0:0:
320,192,103358,1,0,0:0:0:0:
448,192,103524,1,0,0:0:0:0:
320,192,103608,1,0,0:0:0:0:
448,192,103691,1,0,0:0:0:0:
64,192,103858,1,0,0:0:0:0:
320,192,103941,1,0,0:0:0:0:
64,192,104024,1,0,0:0:0:0:
448,192,104108,1,0,0:0:0:0:
192,192,104191,1,0,0:0:0:0:
320,192,104274,1,0,0:0:0:0:
192,192,104358,1,0,0:0:0:0:
64,192,104441,1,0,0:0:0:0:
448,192,104524,1,0,0:0:0:0:
192,192,104608,1,0,0:0:0:0:
448,192,104691,1,0,0:0:0:0:
320,192,104774,1,0,0:0:0:0:
64,192,104858,1,0,0:0:0:0:
192,192,104941,1,0,0:0:0:0:
64,192,105024,1,0,0:0:0:0:
448,192,105108,1,0,0:0:0:0:
320,192,105191,1,0,0:0:0:0:
192,192,105274,1,0,0:0:0:0:
320,192,105358,1,0,0:0:0:0:
448,192,105358,1,0,0:0:0:0:
320,192,105524,1,0,0:0:0:0:
448,192,105524,1,0,0:0:0:0:
64,192,105691,1,0,0:0:0:0:
192,192,105691,128,0,105816:0:0:0:0:
448,192,105858,128,0,105899:0:0:0:0:
64,192,105941,128,0,105983:0:0:0:0:
448,192,106024,128,0,106066:0:0:0:0:
64,192,106108,128,0,106149:0:0:0:0:
320,192,106191,1,0,0:0:0:0:
448,192,106191,1,0,0:0:0:0:
64,192,106358,1,0,0:0:0:0:
192,192,106358,128,0,106483:0:0:0:0:
448,192,106524,128,0,106566:0:0:0:0:
64,192,106608,128,0,106649:0:0:0:0:
192,192,106691,1,0,0:0:0:0:
320,192,106691,1,0,0:0:0:0:
448,192,106691,1,0,0:0:0:0:
192,192,106774,1,0,0:0:0:0:
320,192,106858,1,0,0:0:0:0:
320,192,107024,1,0,0:0:0:0:
448,192,107108,1,0,0:0:0:0:
192,192,107191,1,0,0:0:0:0:
192,192,107274,1,0,0:0:0:0:
320,192,107358,1,0,0:0:0:0:
64,192,107441,1,0,0:0:0:0:
448,192,107524,1,0,0:0:0:0:
448,192,107608,1,0,0:0:0:0:
192,192,107691,1,0,0:0:0:0:
448,192,107858,1,0,0:0:0:0:
192,192,107941,1,0,0:0:0:0:
64,192,108024,1,0,0:0:0:0:
64,192,108108,1,0,0:0:0:0:
320,192,108191,1,0,0:0:0:0:
320,192,108358,1,0,0:0:0:0:
448,192,108441,1,0,0:0:0:0:
192,192,108524,1,0,0:0:0:0:
192,192,108608,1,0,0:0:0:0:
448,192,108691,1,0,0:0:0:0:
64,192,108774,1,0,0:0:0:0:
320,192,108858,1,0,0:0:0:0:
320,192,108941,1,0,0:0:0:0:
192,192,109024,1,0,0:0:0:0:
192,192,109191,1,0,0:0:0:0:
320,192,109274,1,0,0:0:0:0:
64,192,109358,1,0,0:0:0:0:
64,192,109441,1,0,0:0:0:0:
448,192,109524,1,0,0:0:0:0:
192,192,109691,1,0,0:0:0:0:
448,192,109774,1,0,0:0:0:0:
320,192,109858,1,0,0:0:0:0:
320,192,109941,1,0,0:0:0:0:
64,192,110024,1,0,0:0:0:0:
320,192,110108,1,0,0:0:0:0:
192,192,110191,1,0,0:0:0:0:
192,192,110274,1,0,0:0:0:0:
448,192,110358,1,0,0:0:0:0:
64,192,110524,1,0,0:0:0:0:
448,192,110608,1,0,0:0:0:0:
192,192,110691,1,0,0:0:0:0:
192,192,110774,1,0,0:0:0:0:
64,192,110858,1,0,0:0:0:0:
192,192,111024,1,0,0:0:0:0:
320,192,111108,1,0,0:0:0:0:
64,192,111191,1,0,0:0:0:0:
64,192,111274,1,0,0:0:0:0:
320,192,111358,1,0,0:0:0:0:
448,192,111358,1,0,0:0:0:0:
64,192,111441,1,0,0:0:0:0:
192,192,111441,1,0,0:0:0:0:
320,192,111524,1,0,0:0:0:0:
192,192,111608,1,0,0:0:0:0:
64,192,111691,1,0,0:0:0:0:
448,192,111691,1,0,0:0:0:0:
320,192,111774,1,0,0:0:0:0:
64,192,111858,1,0,0:0:0:0:
192,192,111858,1,0,0:0:0:0:
320,192,111941,1,0,0:0:0:0:
448,192,111941,1,0,0:0:0:0:
64,192,112024,1,0,0:0:0:0:
192,192,112024,1,0,0:0:0:0:
448,192,112191,1,0,0:0:0:0:
192,192,112358,1,0,0:0:0:0:
448,192,112441,1,0,0:0:0:0:
192,192,112524,1,0,0:0:0:0:
192,192,112608,1,0,0:0:0:0:
64,192,112691,1,0,0:0:0:0:
320,192,112774,1,0,0:0:0:0:
448,192,112858,1,0,0:0:0:0:
448,192,112941,1,0,0:0:0:0:
64,192,113024,1,0,0:0:0:0:
320,192,113191,1,0,0:0:0:0:
192,192,113274,1,0,0:0:0:0:
448,192,113358,1,0,0:0:0:0:
448,192,113441,1,0,0:0:0:0:
192,192,113524,1,0,0:0:0:0:
192,192,113691,1,0,0:0:0:0:
320,192,113774,1,0,0:0:0:0:
64,192,113858,1,0,0:0:0:0:
64,192,113941,1,0,0:0:0:0:
320,192,114024,1,0,0:0:0:0:
192,192,114108,1,0,0:0:0:0:
448,192,114191,1,0,0:0:0:0:
448,192,114274,1,0,0:0:0:0:
64,192,114358,1,0,0:0:0:0:
448,192,114524,1,0,0:0:0:0:
64,192,114608,1,0,0:0:0:0:
320,192,114691,1,0,0:0:0:0:
448,192,114691,1,0,0:0:0:0:
192,192,114858,1,0,0:0:0:0:
320,192,114941,1,0,0:0:0:0:
448,192,115024,1,0,0:0:0:0:
64,192,115191,1,0,0:0:0:0:
192,192,115274,1,0,0:0:0:0:
320,192,115358,1,0,0:0:0:0:
448,192,115524,1,0,0:0:0:0:
320,192,115608,1,0,0:0:0:0:
192,192,115691,1,0,0:0:0:0:
320,192,115858,1,0,0:0:0:0:
192,192,115941,1,0,0:0:0:0:
64,192,116024,1,0,0:0:0:0:
320,192,116024,1,0,0:0:0:0:
448,192,116191,1,0,0:0:0:0:
192,192,116274,1,0,0:0:0:0:
320,192,116358,1,0,0:0:0:0:
64,192,116524,1,0,0:0:0:0:
448,192,116524,1,0,0:0:0:0:
320,192,116608,1,0,0:0:0:0:
192,192,116691,1,0,0:0:0:0:
320,192,116858,1,0,0:0:0:0:
448,192,116941,1,0,0:0:0:0:
192,192,117024,1,0,0:0:0:0:
320,192,117024,1,0,0:0:0:0:
64,192,117191,1,0,0:0:0:0:
192,192,117274,1,0,0:0:0:0:
320,192,117358,1,0,0:0:0:0:
448,192,117358,1,0,0:0:0:0:
320,192,117441,1,0,0:0:0:0:
448,192,117441,1,0,0:0:0:0:
64,192,117524,1,0,0:0:0:0:
192,192,117524,1,0,0:0:0:0:
64,192,117608,1,0,0:0:0:0:
192,192,117608,1,0,0:0:0:0:
320,192,117691,1,0,0:0:0:0:
448,192,117691,1,0,0:0:0:0:
64,192,117774,1,0,0:0:0:0:
192,192,117774,1,0,0:0:0:0:
320,192,117858,1,0,0:0:0:0:
448,192,117858,1,0,0:0:0:0:
64,192,117941,1,0,0:0:0:0:
192,192,117941,1,0,0:0:0:0:
320,192,118024,1,0,0:0:0:0:
448,192,118024,1,0,0:0:0:0:
320,192,118358,1,0,0:0:0:0:
448,192,118358,1,0,0:0:0:0:
320,192,118524,1,0,0:0:0:0:
448,192,118524,1,0,0:0:0:0:
320,192,118691,1,0,0:0:0:0:
448,192,118691,1,0,0:0:0:0:
320,192,118774,1,0,0:0:0:0:
448,192,118774,1,0,0:0:0:0:
64,192,118858,1,0,0:0:0:0:
192,192,118858,1,0,0:0:0:0:
64,192,118941,1,0,0:0:0:0:
192,192,118941,1,0,0:0:0:0:
320,192,119024,1,0,0:0:0:0:
448,192,119024,1,0,0:0:0:0:
64,192,119108,1,0,0:0:0:0:
192,192,119108,1,0,0:0:0:0:
320,192,119191,1,0,0:0:0:0:
448,192,119191,1,0,0:0:0:0:
64,192,119274,1,0,0:0:0:0:
192,192,119274,1,0,0:0:0:0:
320,192,119358,1,0,0:0:0:0:
448,192,119358,1,0,0:0:0:0:
64,192,119524,1,0,0:0:0:0:
192,192,119524,1,0,0:0:0:0:
64,192,119608,1,0,0:0:0:0:
192,192,119608,1,0,0:0:0:0:
320,192,119691,1,0,0:0:0:0:
448,192,119691,1,0,0:0:0:0:
320,192,119774,1,0,0:0:0:0:
448,192,119774,1,0,0:0:0:0:
64,192,119858,1,0,0:0:0:0:
192,192,119858,1,0,0:0:0:0:
320,192,120024,1,0,0:0:0:0:
448,192,120024,1,0,0:0:0:0:
320,192,120108,1,0,0:0:0:0:
448,192,120108,1,0,0:0:0:0:
64,192,120191,1,0,0:0:0:0:
192,192,120191,1,0,0:0:0:0:
64,192,120274,1,0,0:0:0:0:
192,192,120274,1,0,0:0:0:0:
320,192,120358,1,0,0:0:0:0:
448,192,120358,1,0,0:0:0:0:
64,192,120441,1,0,0:0:0:0:
192,192,120441,1,0,0:0:0:0:
320,192,120524,1,0,0:0:0:0:
448,192,120524,1,0,0:0:0:0:
64,192,120608,1,0,0:0:0:0:
192,192,120608,1,0,0:0:0:0:
320,192,120691,1,0,0:0:0:0:
448,192,120691,1,0,0:0:0:0:
64,192,121024,1,0,0:0:0:0:
192,192,121024,1,0,0:0:0:0:
64,192,121191,1,0,0:0:0:0:
192,192,121191,1,0,0:0:0:0:
64,192,121358,1,0,0:0:0:0:
192,192,121358,1,0,0:0:0:0:
64,192,121441,1,0,0:0:0:0:
192,192,121441,1,0,0:0:0:0:
320,192,121524,1,0,0:0:0:0:
448,192,121524,1,0,0:0:0:0:
320,192,121608,1,0,0:0:0:0:
448,192,121608,1,0,0:0:0:0:
64,192,121691,1,0,0:0:0:0:
192,192,121691,1,0,0:0:0:0:
320,192,121774,1,0,0:0:0:0:
448,192,121774,1,0,0:0:0:0:
64,192,121858,1,0,0:0:0:0:
192,192,121858,1,0,0:0:0:0:
64,192,121941,1,0,0:0:0:0:
192,192,121941,1,0,0:0:0:0:
320,192,122024,1,0,0:0:0:0:
448,192,122024,1,0,0:0:0:0:
64,192,122191,1,0,0:0:0:0:
192,192,122191,1,0,0:0:0:0:
320,192,122274,1,0,0:0:0:0:
448,192,122274,1,0,0:0:0:0:
64,192,122358,1,0,0:0:0:0:
192,192,122358,1,0,0:0:0:0:
64,192,122441,1,0,0:0:0:0:
192,192,122441,1,0,0:0:0:0:
320,192,122524,1,0,0:0:0:0:
448,192,122524,1,0,0:0:0:0:
320,192,122691,1,0,0:0:0:0:
448,192,122691,1,0,0:0:0:0:
320,192,122774,1,0,0:0:0:0:
448,192,122774,1,0,0:0:0:0:
64,192,122858,1,0,0:0:0:0:
192,192,122858,1,0,0:0:0:0:
64,192,122941,1,0,0:0:0:0:
192,192,122941,1,0,0:0:0:0:
320,192,123024,1,0,0:0:0:0:
448,192,123024,1,0,0:0:0:0:
64,192,123108,1,0,0:0:0:0:
192,192,123108,1,0,0:0:0:0:
320,192,123191,1,0,0:0:0:0:
448,192,123191,1,0,0:0:0:0:
320,192,123274,1,0,0:0:0:0:
448,192,123274,1,0,0:0:0:0:
64,192,123358,1,0,0:0:0:0:
192,192,123358,1,0,0:0:0:0:
320,192,123441,1,0,0:0:0:0:
448,192,123441,1,0,0:0:0:0:
64,192,123524,1,0,0:0:0:0:
192,192,123524,1,0,0:0:0:0:
64,192,123608,1,0,0:0:0:0:
192,192,123608,1,0,0:0:0:0:
320,192,123691,1,0,0:0:0:0:
448,192,123691,1,0,0:0:0:0:
320,192,123774,1,0,0:0:0:0:
448,192,123774,1,0,0:0:0:0:
64,192,123858,1,0,0:0:0:0:
192,192,123858,1,0,0:0:0:0:
64,192,123941,1,0,0:0:0:0:
192,192,123941,1,0,0:0:0:0:
64,192,124024,1,0,0:0:0:0:
192,192,124024,1,0,0:0:0:0:
64,192,124108,1,0,0:0:0:0:
192,192,124108,1,0,0:0:0:0:
320,192,124191,1,0,0:0:0:0:
448,192,124191,1,0,0:0:0:0:
320,192,124274,1,0,0:0:0:0:
448,192,124274,1,0,0:0:0:0:
64,192,124358,1,0,0:0:0:0:
192,192,124358,1,0,0:0:0:0:
320,192,124441,1,0,0:0:0:0:
448,192,124441,1,0,0:0:0:0:
64,192,124524,1,0,0:0:0:0:
192,192,124524,1,0,0:0:0:0:
64,192,124608,1,0,0:0:0:0:
192,192,124608,1,0,0:0:0:0:
320,192,124691,1,0,0:0:0:0:
448,192,124691,1,0,0:0:0:0:
64,192,124774,1,0,0:0:0:0:
192,192,124774,1,0,0:0:0:0:
320,192,124858,1,0,0:0:0:0:
448,192,124858,1,0,0:0:0:0:
320,192,124941,1,0,0:0:0:0:
448,192,124941,1,0,0:0:0:0:
64,192,125024,1,0,0:0:0:0:
192,192,125024,1,0,0:0:0:0:
64,192,125108,1,0,0:0:0:0:
192,192,125108,1,0,0:0:0:0:
320,192,125191,1,0,0:0:0:0:
448,192,125191,1,0,0:0:0:0:
320,192,125274,1,0,0:0:0:0:
448,192,125274,1,0,0:0:0:0:
320,192,125358,1,0,0:0:0:0:
448,192,125358,1,0,0:0:0:0:
320,192,125441,1,0,0:0:0:0:
448,192,125441,1,0,0:0:0:0:
64,192,125524,1,0,0:0:0:0:
192,192,125524,1,0,0:0:0:0:
64,192,125608,1,0,0:0:0:0:
192,192,125608,1,0,0:0:0:0:
320,192,125691,1,0,0:0:0:0:
448,192,125691,1,0,0:0:0:0:
64,192,125774,1,0,0:0:0:0:
192,192,125774,1,0,0:0:0:0:
320,192,125858,1,0,0:0:0:0:
448,192,125858,1,0,0:0:0:0:
320,192,125941,1,0,0:0:0:0:
448,192,125941,1,0,0:0:0:0:
64,192,126024,1,0,0:0:0:0:
192,192,126024,1,0,0:0:0:0:
320,192,126108,1,0,0:0:0:0:
448,192,126108,1,0,0:0:0:0:
64,192,126191,1,0,0:0:0:0:
192,192,126191,1,0,0:0:0:0:
64,192,126274,1,0,0:0:0:0:
192,192,126274,1,0,0:0:0:0:
320,192,126358,1,0,0:0:0:0:
448,192,126358,1,0,0:0:0:0:
320,192,126441,1,0,0:0:0:0:
448,192,126441,1,0,0:0:0:0:
64,192,126524,1,0,0:0:0:0:
192,192,126524,1,0,0:0:0:0:
64,192,126608,1,0,0:0:0:0:
192,192,126608,1,0,0:0:0:0:
320,192,126691,1,0,0:0:0:0:
448,192,126691,1,0,0:0:0:0:
320,192,126858,1,0,0:0:0:0:
448,192,126858,1,0,0:0:0:0:
64,192,127024,1,0,0:0:0:0:
192,192,127024,128,0,127149:0:0:0:0:
448,192,127191,128,0,127233:0:0:0:0:
64,192,127274,128,0,127316:0:0:0:0:
448,192,127358,128,0,127399:0:0:0:0:
64,192,127441,128,0,127483:0:0:0:0:
320,192,127524,1,0,0:0:0:0:
448,192,127524,1,0,0:0:0:0:
64,192,127691,1,0,0:0:0:0:
192,192,127691,128,0,127858:0:0:0:0:
448,192,127858,128,0,127899:0:0:0:0:
64,192,127941,128,0,127983:0:0:0:0:
192,192,128024,1,0,0:0:0:0:
320,192,128024,1,0,0:0:0:0:
448,192,128024,1,0,0:0:0:0:
64,192,128108,1,0,0:0:0:0:
320,192,128191,1,0,0:0:0:0:
192,192,128274,1,0,0:0:0:0:
320,192,128274,1,0,0:0:0:0:
64,192,128358,1,0,0:0:0:0:
192,192,128358,1,0,0:0:0:0:
448,192,128358,1,0,0:0:0:0:
64,192,128441,1,0,0:0:0:0:
320,192,128441,1,0,0:0:0:0:
448,192,128441,1,0,0:0:0:0:
192,192,128524,1,0,0:0:0:0:
192,192,128608,1,0,0:0:0:0:
320,192,128608,1,0,0:0:0:0:
64,192,128691,1,0,0:0:0:0:
320,192,128691,1,0,0:0:0:0:
448,192,128691,1,0,0:0:0:0:
64,192,128774,1,0,0:0:0:0:
192,192,128774,1,0,0:0:0:0:
448,192,128774,1,0,0:0:0:0:
320,192,128858,1,0,0:0:0:0:
64,192,128941,1,0,0:0:0:0:
192,192,128941,1,0,0:0:0:0:
64,192,129024,1,0,0:0:0:0:
320,192,129024,1,0,0:0:0:0:
448,192,129024,1,0,0:0:0:0:
192,192,129108,1,0,0:0:0:0:
320,192,129191,1,0,0:0:0:0:
448,192,129191,1,0,0:0:0:0:
64,192,129274,1,0,0:0:0:0:
192,192,129274,1,0,0:0:0:0:
64,192,129358,1,0,0:0:0:0:
192,192,129358,1,0,0:0:0:0:
448,192,129358,1,0,0:0:0:0:
448,192,129441,1,0,0:0:0:0:
192,192,129524,1,0,0:0:0:0:
192,192,129608,1,0,0:0:0:0:
320,192,129608,1,0,0:0:0:0:
64,192,129691,1,0,0:0:0:0:
320,192,129691,1,0,0:0:0:0:
448,192,129691,1,0,0:0:0:0:
64,192,129774,1,0,0:0:0:0:
192,192,129774,1,0,0:0:0:0:
448,192,129774,1,0,0:0:0:0:
320,192,129858,1,0,0:0:0:0:
192,192,129941,1,0,0:0:0:0:
320,192,129941,1,0,0:0:0:0:
64,192,130024,1,0,0:0:0:0:
192,192,130024,1,0,0:0:0:0:
448,192,130024,1,0,0:0:0:0:
64,192,130108,1,0,0:0:0:0:
320,192,130108,1,0,0:0:0:0:
448,192,130108,1,0,0:0:0:0:
192,192,130191,1,0,0:0:0:0:
320,192,130274,1,0,0:0:0:0:
448,192,130274,1,0,0:0:0:0:
64,192,130358,1,0,0:0:0:0:
192,192,130358,1,0,0:0:0:0:
448,192,130358,1,0,0:0:0:0:
320,192,130441,1,0,0:0:0:0:
64,192,130524,1,0,0:0:0:0:
192,192,130524,1,0,0:0:0:0:
320,192,130608,1,0,0:0:0:0:
448,192,130608,1,0,0:0:0:0:
64,192,130691,1,0,0:0:0:0:
320,192,130691,1,0,0:0:0:0:
448,192,130691,1,0,0:0:0:0:
64,192,130774,1,0,0:0:0:0:
320,192,130858,1,0,0:0:0:0:
192,192,130941,1,0,0:0:0:0:
320,192,130941,1,0,0:0:0:0:
64,192,131024,1,0,0:0:0:0:
192,192,131024,1,0,0:0:0:0:
448,192,131024,1,0,0:0:0:0:
64,192,131108,1,0,0:0:0:0:
320,192,131108,1,0,0:0:0:0:
448,192,131108,1,0,0:0:0:0:
192,192,131191,1,0,0:0:0:0:
192,192,131274,1,0,0:0:0:0:
320,192,131274,1,0,0:0:0:0:
64,192,131358,1,0,0:0:0:0:
320,192,131358,1,0,0:0:0:0:
448,192,131358,1,0,0:0:0:0:
64,192,131441,1,0,0:0:0:0:
192,192,131441,1,0,0:0:0:0:
448,192,131441,1,0,0:0:0:0:
320,192,131524,1,0,0:0:0:0:
64,192,131608,1,0,0:0:0:0:
192,192,131608,1,0,0:0:0:0:
192,192,131691,1,0,0:0:0:0:
320,192,131691,1,0,0:0:0:0:
448,192,131691,1,0,0:0:0:0:
64,192,131774,1,0,0:0:0:0:
320,192,131858,1,0,0:0:0:0:
448,192,131858,1,0,0:0:0:0:
64,192,131941,1,0,0:0:0:0:
192,192,131941,1,0,0:0:0:0:
64,192,132024,1,0,0:0:0:0:
192,192,132024,1,0,0:0:0:0:
448,192,132024,1,0,0:0:0:0:
448,192,132108,1,0,0:0:0:0:
192,192,132191,1,0,0:0:0:0:
192,192,132274,1,0,0:0:0:0:
320,192,132274,1,0,0:0:0:0:
64,192,132358,1,0,0:0:0:0:
320,192,132358,1,0,0:0:0:0:
448,192,132358,1,0,0:0:0:0:
64,192,132441,1,0,0:0:0:0:
192,192,132441,1,0,0:0:0:0:
448,192,132441,1,0,0:0:0:0:
320,192,132524,1,0,0:0:0:0:
192,192,132608,1,0,0:0:0:0:
320,192,132608,1,0,0:0:0:0:
64,192,132691,1,0,0:0:0:0:
192,192,132691,1,0,0:0:0:0:
448,192,132691,1,0,0:0:0:0:
64,192,132774,1,0,0:0:0:0:
320,192,132774,1,0,0:0:0:0:
448,192,132774,1,0,0:0:0:0:
192,192,132858,1,0,0:0:0:0:
320,192,132941,1,0,0:0:0:0:
448,192,132941,1,0,0:0:0:0:
64,192,133024,1,0,0:0:0:0:
192,192,133024,1,0,0:0:0:0:
448,192,133024,1,0,0:0:0:0:
320,192,133108,1,0,0:0:0:0:
64,192,133191,1,0,0:0:0:0:
192,192,133191,1,0,0:0:0:0:
320,192,133274,1,0,0:0:0:0:
448,192,133274,1,0,0:0:0:0:
64,192,133358,1,0,0:0:0:0:
320,192,133358,1,0,0:0:0:0:
448,192,133358,1,0,0:0:0:0:
64,192,133441,1,0,0:0:0:0:
320,192,133524,1,0,0:0:0:0:
192,192,133608,1,0,0:0:0:0:
320,192,133608,1,0,0:0:0:0:
64,192,133691,1,0,0:0:0:0:
192,192,133691,1,0,0:0:0:0:
448,192,133691,1,0,0:0:0:0:
64,192,133774,1,0,0:0:0:0:
320,192,133774,1,0,0:0:0:0:
448,192,133774,1,0,0:0:0:0:
192,192,133858,1,0,0:0:0:0:
192,192,133941,1,0,0:0:0:0:
320,192,133941,1,0,0:0:0:0:
64,192,134024,1,0,0:0:0:0:
320,192,134024,1,0,0:0:0:0:
448,192,134024,1,0,0:0:0:0:
64,192,134108,1,0,0:0:0:0:
192,192,134108,1,0,0:0:0:0:
448,192,134108,1,0,0:0:0:0:
320,192,134191,1,0,0:0:0:0:
64,192,134274,1,0,0:0:0:0:
192,192,134274,1,0,0:0:0:0:
64,192,134358,1,0,0:0:0:0:
320,192,134358,1,0,0:0:0:0:
448,192,134358,1,0,0:0:0:0:
192,192,134441,1,0,0:0:0:0:
320,192,134524,1,0,0:0:0:0:
448,192,134524,1,0,0:0:0:0:
64,192,134608,1,0,0:0:0:0:
192,192,134608,1,0,0:0:0:0:
64,192,134691,1,0,0:0:0:0:
192,192,134691,1,0,0:0:0:0:
448,192,134691,1,0,0:0:0:0:
448,192,134774,1,0,0:0:0:0:
192,192,134858,1,0,0:0:0:0:
192,192,134941,1,0,0:0:0:0:
320,192,134941,1,0,0:0:0:0:
64,192,135024,1,0,0:0:0:0:
320,192,135024,1,0,0:0:0:0:
448,192,135024,1,0,0:0:0:0:
64,192,135108,1,0,0:0:0:0:
192,192,135108,1,0,0:0:0:0:
448,192,135108,1,0,0:0:0:0:
320,192,135191,1,0,0:0:0:0:
192,192,135274,1,0,0:0:0:0:
320,192,135274,1,0,0:0:0:0:
64,192,135358,1,0,0:0:0:0:
192,192,135358,1,0,0:0:0:0:
448,192,135358,1,0,0:0:0:0:
64,192,135441,1,0,0:0:0:0:
320,192,135441,1,0,0:0:0:0:
448,192,135441,1,0,0:0:0:0:
192,192,135524,1,0,0:0:0:0:
320,192,135608,1,0,0:0:0:0:
448,192,135608,1,0,0:0:0:0:
64,192,135691,1,0,0:0:0:0:
192,192,135691,1,0,0:0:0:0:
448,192,135691,1,0,0:0:0:0:
320,192,135774,1,0,0:0:0:0:
64,192,135858,1,0,0:0:0:0:
192,192,135858,1,0,0:0:0:0:
320,192,135941,1,0,0:0:0:0:
448,192,135941,1,0,0:0:0:0:
64,192,136024,1,0,0:0:0:0:
320,192,136024,1,0,0:0:0:0:
448,192,136024,1,0,0:0:0:0:
64,192,136108,1,0,0:0:0:0:
320,192,136191,1,0,0:0:0:0:
192,192,136274,1,0,0:0:0:0:
320,192,136274,1,0,0:0:0:0:
64,192,136358,1,0,0:0:0:0:
192,192,136358,1,0,0:0:0:0:
448,192,136358,1,0,0:0:0:0:
64,192,136441,1,0,0:0:0:0:
320,192,136441,1,0,0:0:0:0:
448,192,136441,1,0,0:0:0:0:
192,192,136524,1,0,0:0:0:0:
192,192,136608,1,0,0:0:0:0:
320,192,136608,1,0,0:0:0:0:
64,192,136691,1,0,0:0:0:0:
192,192,136691,1,0,0:0:0:0:
448,192,136691,1,0,0:0:0:0:
64,192,136774,1,0,0:0:0:0:
320,192,136774,1,0,0:0:0:0:
448,192,136774,1,0,0:0:0:0:
192,192,136858,1,0,0:0:0:0:
320,192,136941,1,0,0:0:0:0:
448,192,136941,1,0,0:0:0:0:
64,192,137024,1,0,0:0:0:0:
192,192,137024,1,0,0:0:0:0:
448,192,137024,1,0,0:0:0:0:
320,192,137108,1,0,0:0:0:0:
64,192,137191,1,0,0:0:0:0:
192,192,137191,1,0,0:0:0:0:
320,192,137274,1,0,0:0:0:0:
448,192,137274,1,0,0:0:0:0:
192,192,137358,1,0,0:0:0:0:
320,192,137358,1,0,0:0:0:0:
448,192,137358,1,0,0:0:0:0:
64,192,137524,1,0,0:0:0:0:
192,192,137524,1,0,0:0:0:0:
64,192,137608,1,0,0:0:0:0:
192,192,137608,1,0,0:0:0:0:
64,192,137691,1,0,0:0:0:0:
192,192,137691,1,0,0:0:0:0:
320,192,137691,1,0,0:0:0:0:
64,192,137858,1,0,0:0:0:0:
192,192,137858,1,0,0:0:0:0:
64,192,137941,1,0,0:0:0:0:
192,192,137941,1,0,0:0:0:0:
320,192,138024,1,0,0:0:0:0:
448,192,138024,1,0,0:0:0:0:
64,192,138108,1,0,0:0:0:0:
192,192,138108,1,0,0:0:0:0:
320,192,138191,1,0,0:0:0:0:
448,192,138191,1,0,0:0:0:0:
320,192,138274,1,0,0:0:0:0:
448,192,138274,1,0,0:0:0:0:
64,192,138358,1,0,0:0:0:0:
320,192,138358,1,0,0:0:0:0:
448,192,138358,1,0,0:0:0:0:
64,192,138524,1,0,0:0:0:0:
192,192,138524,1,0,0:0:0:0:
448,192,138524,1,0,0:0:0:0:
192,192,138608,1,0,0:0:0:0:
320,192,138608,1,0,0:0:0:0:
64,192,138691,1,0,0:0:0:0:
320,192,138691,1,0,0:0:0:0:
448,192,138691,1,0,0:0:0:0:
64,192,138774,1,0,0:0:0:0:
320,192,138858,1,0,0:0:0:0:
192,192,138941,1,0,0:0:0:0:
320,192,138941,1,0,0:0:0:0:
64,192,139024,1,0,0:0:0:0:
192,192,139024,1,0,0:0:0:0:
448,192,139024,1,0,0:0:0:0:
64,192,139108,1,0,0:0:0:0:
320,192,139108,1,0,0:0:0:0:
448,192,139108,1,0,0:0:0:0:
192,192,139191,1,0,0:0:0:0:
192,192,139274,1,0,0:0:0:0:
320,192,139274,1,0,0:0:0:0:
64,192,139358,1,0,0:0:0:0:
320,192,139358,1,0,0:0:0:0:
448,192,139358,1,0,0:0:0:0:
64,192,139441,1,0,0:0:0:0:
192,192,139441,1,0,0:0:0:0:
448,192,139441,1,0,0:0:0:0:
320,192,139524,1,0,0:0:0:0:
64,192,139608,1,0,0:0:0:0:
192,192,139608,1,0,0:0:0:0:
64,192,139691,1,0,0:0:0:0:
320,192,139691,1,0,0:0:0:0:
448,192,139691,1,0,0:0:0:0:
192,192,139774,1,0,0:0:0:0:
320,192,139858,1,0,0:0:0:0:
448,192,139858,1,0,0:0:0:0:
64,192,139941,1,0,0:0:0:0:
192,192,139941,1,0,0:0:0:0:
64,192,140024,1,0,0:0:0:0:
192,192,140024,1,0,0:0:0:0:
448,192,140024,1,0,0:0:0:0:
448,192,140108,1,0,0:0:0:0:
192,192,140191,1,0,0:0:0:0:
192,192,140274,1,0,0:0:0:0:
320,192,140274,1,0,0:0:0:0:
64,192,140358,1,0,0:0:0:0:
320,192,140358,1,0,0:0:0:0:
448,192,140358,1,0,0:0:0:0:
64,192,140441,1,0,0:0:0:0:
192,192,140441,1,0,0:0:0:0:
448,192,140441,1,0,0:0:0:0:
320,192,140524,1,0,0:0:0:0:
192,192,140608,1,0,0:0:0:0:
320,192,140608,1,0,0:0:0:0:
64,192,140691,1,0,0:0:0:0:
192,192,140691,1,0,0:0:0:0:
448,192,140691,1,0,0:0:0:0:
64,192,140774,1,0,0:0:0:0:
320,192,140774,1,0,0:0:0:0:
448,192,140774,1,0,0:0:0:0:
192,192,140858,1,0,0:0:0:0:
320,192,140941,1,0,0:0:0:0:
448,192,140941,1,0,0:0:0:0:
64,192,141024,1,0,0:0:0:0:
192,192,141024,1,0,0:0:0:0:
448,192,141024,1,0,0:0:0:0:
320,192,141108,1,0,0:0:0:0:
64,192,141191,1,0,0:0:0:0:
192,192,141191,1,0,0:0:0:0:
320,192,141274,1,0,0:0:0:0:
448,192,141274,1,0,0:0:0:0:
64,192,141358,1,0,0:0:0:0:
320,192,141358,1,0,0:0:0:0:
448,192,141358,1,0,0:0:0:0:
64,192,141441,1,0,0:0:0:0:
320,192,141524,1,0,0:0:0:0:
192,192,141608,1,0,0:0:0:0:
320,192,141608,1,0,0:0:0:0:
64,192,141691,1,0,0:0:0:0:
192,192,141691,1,0,0:0:0:0:
448,192,141691,1,0,0:0:0:0:
64,192,141774,1,0,0:0:0:0:
320,192,141774,1,0,0:0:0:0:
448,192,141774,1,0,0:0:0:0:
192,192,141858,1,0,0:0:0:0:
192,192,141941,1,0,0:0:0:0:
320,192,141941,1,0,0:0:0:0:
64,192,142024,1,0,0:0:0:0:
320,192,142024,1,0,0:0:0:0:
448,192,142024,1,0,0:0:0:0:
64,192,142108,1,0,0:0:0:0:
192,192,142108,1,0,0:0:0:0:
448,192,142108,1,0,0:0:0:0:
320,192,142191,1,0,0:0:0:0:
64,192,142274,1,0,0:0:0:0:
192,192,142274,1,0,0:0:0:0:
192,192,142358,1,0,0:0:0:0:
320,192,142358,1,0,0:0:0:0:
448,192,142358,1,0,0:0:0:0:
64,192,142441,1,0,0:0:0:0:
320,192,142524,1,0,0:0:0:0:
448,192,142524,1,0,0:0:0:0:
64,192,142608,1,0,0:0:0:0:
192,192,142608,1,0,0:0:0:0:
64,192,142691,1,0,0:0:0:0:
192,192,142691,1,0,0:0:0:0:
448,192,142691,1,0,0:0:0:0:
448,192,142774,1,0,0:0:0:0:
192,192,142858,1,0,0:0:0:0:
192,192,142941,1,0,0:0:0:0:
320,192,142941,1,0,0:0:0:0:
64,192,143024,1,0,0:0:0:0:
320,192,143024,1,0,0:0:0:0:
448,192,143024,1,0,0:0:0:0:
64,192,143108,1,0,0:0:0:0:
192,192,143108,1,0,0:0:0:0:
448,192,143108,1,0,0:0:0:0:
320,192,143191,1,0,0:0:0:0:
192,192,143274,1,0,0:0:0:0:
320,192,143274,1,0,0:0:0:0:
64,192,143358,1,0,0:0:0:0:
192,192,143358,1,0,0:0:0:0:
448,192,143358,1,0,0:0:0:0:
64,192,143441,1,0,0:0:0:0:
320,192,143441,1,0,0:0:0:0:
448,192,143441,1,0,0:0:0:0:
192,192,143524,1,0,0:0:0:0:
320,192,143608,1,0,0:0:0:0:
448,192,143608,1,0,0:0:0:0:
64,192,143691,1,0,0:0:0:0:
192,192,143691,1,0,0:0:0:0:
448,192,143691,1,0,0:0:0:0:
320,192,143774,1,0,0:0:0:0:
64,192,143858,1,0,0:0:0:0:
192,192,143858,1,0,0:0:0:0:
320,192,143941,1,0,0:0:0:0:
448,192,143941,1,0,0:0:0:0:
64,192,144024,1,0,0:0:0:0:
320,192,144024,1,0,0:0:0:0:
448,192,144024,1,0,0:0:0:0:
64,192,144108,1,0,0:0:0:0:
320,192,144191,1,0,0:0:0:0:
192,192,144274,1,0,0:0:0:0:
320,192,144274,1,0,0:0:0:0:
64,192,144358,1,0,0:0:0:0:
192,192,144358,1,0,0:0:0:0:
448,192,144358,1,0,0:0:0:0:
64,192,144441,1,0,0:0:0:0:
320,192,144441,1,0,0:0:0:0:
448,192,144441,1,0,0:0:0:0:
192,192,144524,1,0,0:0:0:0:
192,192,144608,1,0,0:0:0:0:
320,192,144608,1,0,0:0:0:0:
64,192,144691,1,0,0:0:0:0:
320,192,144691,1,0,0:0:0:0:
448,192,144691,1,0,0:0:0:0:
64,192,144774,1,0,0:0:0:0:
192,192,144774,1,0,0:0:0:0:
448,192,144774,1,0,0:0:0:0:
320,192,144858,1,0,0:0:0:0:
64,192,144941,1,0,0:0:0:0:
192,192,144941,1,0,0:0:0:0:
64,192,145024,1,0,0:0:0:0:
320,192,145024,1,0,0:0:0:0:
448,192,145024,1,0,0:0:0:0:
192,192,145108,1,0,0:0:0:0:
320,192,145191,1,0,0:0:0:0:
448,192,145191,1,0,0:0:0:0:
64,192,145274,1,0,0:0:0:0:
192,192,145274,1,0,0:0:0:0:
64,192,145358,1,0,0:0:0:0:
192,192,145358,1,0,0:0:0:0:
448,192,145358,1,0,0:0:0:0:
448,192,145441,1,0,0:0:0:0:
192,192,145524,1,0,0:0:0:0:
192,192,145608,1,0,0:0:0:0:
320,192,145608,1,0,0:0:0:0:
64,192,145691,1,0,0:0:0:0:
320,192,145691,1,0,0:0:0:0:
448,192,145691,1,0,0:0:0:0:
64,192,145774,1,0,0:0:0:0:
192,192,145774,1,0,0:0:0:0:
448,192,145774,1,0,0:0:0:0:
320,192,145858,1,0,0:0:0:0:
192,192,145941,1,0,0:0:0:0:
320,192,145941,1,0,0:0:0:0:
64,192,146024,1,0,0:0:0:0:
192,192,146024,1,0,0:0:0:0:
448,192,146024,1,0,0:0:0:0:
64,192,146108,1,0,0:0:0:0:
320,192,146108,1,0,0:0:0:0:
448,192,146108,1,0,0:0:0:0:
192,192,146191,1,0,0:0:0:0:
320,192,146274,1,0,0:0:0:0:
448,192,146274,1,0,0:0:0:0:
64,192,146358,1,0,0:0:0:0:
192,192,146358,1,0,0:0:0:0:
448,192,146358,1,0,0:0:0:0:
320,192,146441,1,0,0:0:0:0:
64,192,146524,1,0,0:0:0:0:
192,192,146524,1,0,0:0:0:0:
320,192,146608,1,0,0:0:0:0:
448,192,146608,1,0,0:0:0:0:
64,192,146691,1,0,0:0:0:0:
320,192,146691,1,0,0:0:0:0:
448,192,146691,1,0,0:0:0:0:
64,192,146774,1,0,0:0:0:0:
320,192,146858,1,0,0:0:0:0:
192,192,146941,1,0,0:0:0:0:
320,192,146941,1,0,0:0:0:0:
64,192,147024,1,0,0:0:0:0:
192,192,147024,1,0,0:0:0:0:
448,192,147024,1,0,0:0:0:0:
64,192,147108,1,0,0:0:0:0:
320,192,147108,1,0,0:0:0:0:
448,192,147108,1,0,0:0:0:0:
192,192,147191,1,0,0:0:0:0:
192,192,147274,1,0,0:0:0:0:
320,192,147274,1,0,0:0:0:0:
64,192,147358,1,0,0:0:0:0:
192,192,147358,1,0,0:0:0:0:
448,192,147358,1,0,0:0:0:0:
64,192,147441,1,0,0:0:0:0:
320,192,147441,1,0,0:0:0:0:
448,192,147441,1,0,0:0:0:0:
192,192,147524,1,0,0:0:0:0:
320,192,147608,1,0,0:0:0:0:
448,192,147608,1,0,0:0:0:0:
64,192,147691,1,0,0:0:0:0:
192,192,147691,1,0,0:0:0:0:
448,192,147691,1,0,0:0:0:0:
320,192,147774,1,0,0:0:0:0:
64,192,147858,1,0,0:0:0:0:
192,192,147858,1,0,0:0:0:0:
320,192,147941,1,0,0:0:0:0:
448,192,147941,1,0,0:0:0:0:
64,192,148024,1,0,0:0:0:0:
192,192,148024,1,0,0:0:0:0:
64,192,148108,1,0,0:0:0:0:
192,192,148108,1,0,0:0:0:0:
64,192,148191,1,0,0:0:0:0:
192,192,148191,1,0,0:0:0:0:
448,192,148191,1,0,0:0:0:0:
64,192,148358,1,0,0:0:0:0:
192,192,148358,1,0,0:0:0:0:
64,192,148441,1,0,0:0:0:0:
192,192,148441,1,0,0:0:0:0:
64,192,148524,1,0,0:0:0:0:
192,192,148524,1,0,0:0:0:0:
448,192,148524,1,0,0:0:0:0:
64,192,148691,1,0,0:0:0:0:
192,192,148691,1,0,0:0:0:0:
320,192,148774,1,0,0:0:0:0:
448,192,148774,1,0,0:0:0:0:
64,192,148858,1,0,0:0:0:0:
192,192,148858,1,0,0:0:0:0:
64,192,148941,1,0,0:0:0:0:
192,192,148941,1,0,0:0:0:0:
64,192,149024,128,0,149108:0:0:0:0:
320,192,149024,128,0,149108:0:0:0:0:
448,192,149024,128,0,149108:0:0:0:0:
192,192,149108,1,0,0:0:0:0:
64,192,149191,128,0,149274:0:0:0:0:
320,192,149191,128,0,149274:0:0:0:0:
448,192,149191,128,0,149274:0:0:0:0:
192,192,149358,1,0,0:0:0:0:
320,192,149358,1,0,0:0:0:0:
448,192,149358,1,0,0:0:0:0:
64,192,149441,1,0,0:0:0:0:
320,192,149524,1,0,0:0:0:0:
192,192,149608,1,0,0:0:0:0:
320,192,149608,1,0,0:0:0:0:
64,192,149691,1,0,0:0:0:0:
192,192,149691,1,0,0:0:0:0:
448,192,149691,1,0,0:0:0:0:
64,192,149774,1,0,0:0:0:0:
320,192,149774,1,0,0:0:0:0:
448,192,149774,1,0,0:0:0:0:
192,192,149858,1,0,0:0:0:0:
192,192,149941,1,0,0:0:0:0:
320,192,149941,1,0,0:0:0:0:
64,192,150024,1,0,0:0:0:0:
320,192,150024,1,0,0:0:0:0:
448,192,150024,1,0,0:0:0:0:
64,192,150108,1,0,0:0:0:0:
192,192,150108,1,0,0:0:0:0:
448,192,150108,1,0,0:0:0:0:
320,192,150191,1,0,0:0:0:0:
64,192,150274,1,0,0:0:0:0:
192,192,150274,1,0,0:0:0:0:
64,192,150358,1,0,0:0:0:0:
320,192,150358,1,0,0:0:0:0:
448,192,150358,1,0,0:0:0:0:
192,192,150441,1,0,0:0:0:0:
320,192,150524,1,0,0:0:0:0:
448,192,150524,1,0,0:0:0:0:
64,192,150608,1,0,0:0:0:0:
192,192,150608,1,0,0:0:0:0:
64,192,150691,1,0,0:0:0:0:
192,192,150691,1,0,0:0:0:0:
448,192,150691,1,0,0:0:0:0:
448,192,150774,1,0,0:0:0:0:
192,192,150858,1,0,0:0:0:0:
192,192,150941,1,0,0:0:0:0:
320,192,150941,1,0,0:0:0:0:
64,192,151024,1,0,0:0:0:0:
320,192,151024,1,0,0:0:0:0:
448,192,151024,1,0,0:0:0:0:
64,192,151108,1,0,0:0:0:0:
192,192,151108,1,0,0:0:0:0:
448,192,151108,1,0,0:0:0:0:
320,192,151191,1,0,0:0:0:0:
192,192,151274,1,0,0:0:0:0:
320,192,151274,1,0,0:0:0:0:
64,192,151358,1,0,0:0:0:0:
192,192,151358,1,0,0:0:0:0:
448,192,151358,1,0,0:0:0:0:
64,192,151441,1,0,0:0:0:0:
320,192,151441,1,0,0:0:0:0:
448,192,151441,1,0,0:0:0:0:
192,192,151524,1,0,0:0:0:0:
320,192,151608,1,0,0:0:0:0:
448,192,151608,1,0,0:0:0:0:
64,192,151691,1,0,0:0:0:0:
192,192,151691,1,0,0:0:0:0:
448,192,151691,1,0,0:0:0:0:
320,192,151774,1,0,0:0:0:0:
64,192,151858,1,0,0:0:0:0:
192,192,151858,1,0,0:0:0:0:
320,192,151941,1,0,0:0:0:0:
448,192,151941,1,0,0:0:0:0:
64,192,152024,1,0,0:0:0:0:
320,192,152024,1,0,0:0:0:0:
448,192,152024,1,0,0:0:0:0:
64,192,152108,1,0,0:0:0:0:
320,192,152191,1,0,0:0:0:0:
192,192,152274,1,0,0:0:0:0:
320,192,152274,1,0,0:0:0:0:
64,192,152358,1,0,0:0:0:0:
192,192,152358,1,0,0:0:0:0:
448,192,152358,1,0,0:0:0:0:
64,192,152441,1,0,0:0:0:0:
320,192,152441,1,0,0:0:0:0:
448,192,152441,1,0,0:0:0:0:
192,192,152524,1,0,0:0:0:0:
192,192,152608,1,0,0:0:0:0:
320,192,152608,1,0,0:0:0:0:
64,192,152691,1,0,0:0:0:0:
320,192,152691,1,0,0:0:0:0:
448,192,152691,1,0,0:0:0:0:
64,192,152774,1,0,0:0:0:0:
192,192,152774,1,0,0:0:0:0:
448,192,152774,1,0,0:0:0:0:
320,192,152858,1,0,0:0:0:0:
64,192,152941,1,0,0:0:0:0:
192,192,152941,1,0,0:0:0:0:
192,192,153024,1,0,0:0:0:0:
320,192,153024,1,0,0:0:0:0:
448,192,153024,1,0,0:0:0:0:
64,192,153108,1,0,0:0:0:0:
320,192,153191,1,0,0:0:0:0:
448,192,153191,1,0,0:0:0:0:
64,192,153274,1,0,0:0:0:0:
192,192,153274,1,0,0:0:0:0:
64,192,153358,1,0,0:0:0:0:
192,192,153358,1,0,0:0:0:0:
448,192,153358,1,0,0:0:0:0:
448,192,153441,1,0,0:0:0:0:
192,192,153524,1,0,0:0:0:0:
192,192,153608,1,0,0:0:0:0:
320,192,153608,1,0,0:0:0:0:
64,192,153691,1,0,0:0:0:0:
320,192,153691,1,0,0:0:0:0:
448,192,153691,1,0,0:0:0:0:
64,192,153774,1,0,0:0:0:0:
192,192,153774,1,0,0:0:0:0:
448,192,153774,1,0,0:0:0:0:
320,192,153858,1,0,0:0:0:0:
192,192,153941,1,0,0:0:0:0:
320,192,153941,1,0,0:0:0:0:
64,192,154024,1,0,0:0:0:0:
192,192,154024,1,0,0:0:0:0:
448,192,154024,1,0,0:0:0:0:
64,192,154108,1,0,0:0:0:0:
320,192,154108,1,0,0:0:0:0:
448,192,154108,1,0,0:0:0:0:
192,192,154191,1,0,0:0:0:0:
320,192,154274,1,0,0:0:0:0:
448,192,154274,1,0,0:0:0:0:
64,192,154358,1,0,0:0:0:0:
192,192,154358,1,0,0:0:0:0:
448,192,154358,1,0,0:0:0:0:
320,192,154441,1,0,0:0:0:0:
64,192,154524,1,0,0:0:0:0:
192,192,154524,1,0,0:0:0:0:
320,192,154608,1,0,0:0:0:0:
448,192,154608,1,0,0:0:0:0:
64,192,154691,1,0,0:0:0:0:
320,192,154691,1,0,0:0:0:0:
448,192,154691,1,0,0:0:0:0:
64,192,154774,1,0,0:0:0:0:
320,192,154858,1,0,0:0:0:0:
192,192,154941,1,0,0:0:0:0:
320,192,154941,1,0,0:0:0:0:
64,192,155024,1,0,0:0:0:0:
192,192,155024,1,0,0:0:0:0:
448,192,155024,1,0,0:0:0:0:
64,192,155108,1,0,0:0:0:0:
320,192,155108,1,0,0:0:0:0:
448,192,155108,1,0,0:0:0:0:
192,192,155191,1,0,0:0:0:0:
192,192,155274,1,0,0:0:0:0:
320,192,155274,1,0,0:0:0:0:
64,192,155358,1,0,0:0:0:0:
320,192,155358,1,0,0:0:0:0:
448,192,155358,1,0,0:0:0:0:
64,192,155441,1,0,0:0:0:0:
192,192,155441,1,0,0:0:0:0:
448,192,155441,1,0,0:0:0:0:
320,192,155524,1,0,0:0:0:0:
64,192,155608,1,0,0:0:0:0:
192,192,155608,1,0,0:0:0:0:
64,192,155691,1,0,0:0:0:0:
320,192,155691,1,0,0:0:0:0:
448,192,155691,1,0,0:0:0:0:
192,192,155774,1,0,0:0:0:0:
320,192,155858,1,0,0:0:0:0:
448,192,155858,1,0,0:0:0:0:
64,192,155941,1,0,0:0:0:0:
192,192,155941,1,0,0:0:0:0:
64,192,156024,1,0,0:0:0:0:
192,192,156024,1,0,0:0:0:0:
448,192,156024,1,0,0:0:0:0:
448,192,156108,1,0,0:0:0:0:
192,192,156191,1,0,0:0:0:0:
192,192,156274,1,0,0:0:0:0:
320,192,156274,1,0,0:0:0:0:
64,192,156358,1,0,0:0:0:0:
320,192,156358,1,0,0:0:0:0:
448,192,156358,1,0,0:0:0:0:
64,192,156441,1,0,0:0:0:0:
192,192,156441,1,0,0:0:0:0:
448,192,156441,1,0,0:0:0:0:
320,192,156524,1,0,0:0:0:0:
192,192,156608,1,0,0:0:0:0:
320,192,156608,1,0,0:0:0:0:
64,192,156691,1,0,0:0:0:0:
192,192,156691,1,0,0:0:0:0:
448,192,156691,1,0,0:0:0:0:
64,192,156774,1,0,0:0:0:0:
320,192,156774,1,0,0:0:0:0:
448,192,156774,1,0,0:0:0:0:
192,192,156858,1,0,0:0:0:0:
320,192,156941,1,0,0:0:0:0:
448,192,156941,1,0,0:0:0:0:
64,192,157024,1,0,0:0:0:0:
192,192,157024,1,0,0:0:0:0:
448,192,157024,1,0,0:0:0:0:
320,192,157108,1,0,0:0:0:0:
64,192,157191,1,0,0:0:0:0:
192,192,157191,1,0,0:0:0:0:
320,192,157274,1,0,0:0:0:0:
448,192,157274,1,0,0:0:0:0:
64,192,157358,1,0,0:0:0:0:
320,192,157358,1,0,0:0:0:0:
448,192,157358,1,0,0:0:0:0:
64,192,157441,1,0,0:0:0:0:
320,192,157524,1,0,0:0:0:0:
192,192,157608,1,0,0:0:0:0:
320,192,157608,1,0,0:0:0:0:
64,192,157691,1,0,0:0:0:0:
192,192,157691,1,0,0:0:0:0:
448,192,157691,1,0,0:0:0:0:
64,192,157774,1,0,0:0:0:0:
320,192,157774,1,0,0:0:0:0:
448,192,157774,1,0,0:0:0:0:
192,192,157858,1,0,0:0:0:0:
192,192,157941,1,0,0:0:0:0:
320,192,157941,1,0,0:0:0:0:
64,192,158024,1,0,0:0:0:0:
192,192,158024,1,0,0:0:0:0:
448,192,158024,1,0,0:0:0:0:
64,192,158108,1,0,0:0:0:0:
320,192,158108,1,0,0:0:0:0:
448,192,158108,1,0,0:0:0:0:
192,192,158191,1,0,0:0:0:0:
320,192,158274,1,0,0:0:0:0:
448,192,158274,1,0,0:0:0:0:
64,192,158358,1,0,0:0:0:0:
192,192,158358,1,0,0:0:0:0:
448,192,158358,1,0,0:0:0:0:
320,192,158441,1,0,0:0:0:0:
64,192,158524,1,0,0:0:0:0:
192,192,158524,1,0,0:0:0:0:
320,192,158608,1,0,0:0:0:0:
448,192,158608,1,0,0:0:0:0:
64,192,158691,1,0,0:0:0:0:
192,192,158691,1,0,0:0:0:0:
320,192,158858,1,0,0:0:0:0:
448,192,158858,1,0,0:0:0:0:
320,192,158941,1,0,0:0:0:0:
448,192,158941,1,0,0:0:0:0:
64,192,159024,1,0,0:0:0:0:
192,192,159024,1,0,0:0:0:0:
320,192,159108,1,0,0:0:0:0:
448,192,159108,1,0,0:0:0:0:
320,192,159191,1,0,0:0:0:0:
448,192,159191,1,0,0:0:0:0:
64,192,159274,1,0,0:0:0:0:
192,192,159274,1,0,0:0:0:0:
320,192,159358,1,0,0:0:0:0:
448,192,159358,1,0,0:0:0:0:
320,192,159441,1,0,0:0:0:0:
448,192,159441,1,0,0:0:0:0:
64,192,159524,1,0,0:0:0:0:
192,192,159524,1,0,0:0:0:0:
64,192,159608,1,0,0:0:0:0:
192,192,159608,1,0,0:0:0:0:
320,192,159691,1,0,0:0:0:0:
448,192,159691,1,0,0:0:0:0:
320,192,159858,1,0,0:0:0:0:
448,192,159858,1,0,0:0:0:0:
64,192,160024,1,0,0:0:0:0:
192,192,160024,1,0,0:0:0:0:
320,192,160191,1,0,0:0:0:0:
320,192,160274,1,0,0:0:0:0:
448,192,160358,1,0,0:0:0:0:
192,192,160441,1,0,0:0:0:0:
64,192,160524,1,0,0:0:0:0:
64,192,160608,1,0,0:0:0:0:
192,192,160691,1,0,0:0:0:0:
448,192,160774,1,0,0:0:0:0:
320,192,160858,1,0,0:0:0:0:
320,192,160941,1,0,0:0:0:0:
192,192,161024,1,0,0:0:0:0:
64,192,161191,1,0,0:0:0:0:
192,192,161274,1,0,0:0:0:0:
448,192,161358,1,0,0:0:0:0:
448,192,161441,1,0,0:0:0:0:
320,192,161524,1,0,0:0:0:0:
320,192,161608,1,0,0:0:0:0:
64,192,161691,1,0,0:0:0:0:
448,192,161774,1,0,0:0:0:0:
192,192,161858,1,0,0:0:0:0:
192,192,161941,1,0,0:0:0:0:
448,192,162024,1,0,0:0:0:0:
64,192,162108,1,0,0:0:0:0:
320,192,162191,1,0,0:0:0:0:
320,192,162274,1,0,0:0:0:0:
192,192,162358,1,0,0:0:0:0:
448,192,162524,1,0,0:0:0:0:
192,192,162608,1,0,0:0:0:0:
320,192,162691,1,0,0:0:0:0:
320,192,162774,1,0,0:0:0:0:
192,192,162858,1,0,0:0:0:0:
192,192,162941,1,0,0:0:0:0:
448,192,163024,1,0,0:0:0:0:
64,192,163108,1,0,0:0:0:0:
320,192,163191,1,0,0:0:0:0:
320,192,163274,1,0,0:0:0:0:
64,192,163358,1,0,0:0:0:0:
448,192,163441,1,0,0:0:0:0:
64,192,163524,1,0,0:0:0:0:
64,192,163608,1,0,0:0:0:0:
320,192,163691,1,0,0:0:0:0:
448,192,163858,1,0,0:0:0:0:
320,192,163941,1,0,0:0:0:0:
64,192,164024,128,0,164524:0:0:0:0:
448,192,164024,1,0,0:0:0:0:
192,192,164191,1,0,0:0:0:0:
448,192,164274,1,0,0:0:0:0:
192,192,164358,1,0,0:0:0:0:
320,192,164524,1,0,0:0:0:0:
448,192,164524,128,0,165024:0:0:0:0:
192,192,164608,1,0,0:0:0:0:
320,192,164691,1,0,0:0:0:0:
64,192,164858,1,0,0:0:0:0:
320,192,164941,1,0,0:0:0:0:
64,192,165024,1,0,0:0:0:0:
192,192,165024,128,0,165358:0:0:0:0:
320,192,165191,1,0,0:0:0:0:
448,192,165274,1,0,0:0:0:0:
64,192,165358,1,0,0:0:0:0:
320,192,165358,1,0,0:0:0:0:
192,192,165524,1,0,0:0:0:0:
448,192,165524,1,0,0:0:0:0:
320,192,165608,1,0,0:0:0:0:
64,192,165691,1,0,0:0:0:0:
192,192,165691,1,0,0:0:0:0:
320,192,165774,1,0,0:0:0:0:
448,192,165774,1,0,0:0:0:0:
64,192,165858,1,0,0:0:0:0:
192,192,165941,1,0,0:0:0:0:
320,192,166024,1,0,0:0:0:0:
448,192,166024,1,0,0:0:0:0:
64,192,166108,1,0,0:0:0:0:
192,192,166108,1,0,0:0:0:0:
448,192,166191,1,0,0:0:0:0:
64,192,166274,1,0,0:0:0:0:
192,192,166358,1,0,0:0:0:0:
320,192,166358,1,0,0:0:0:0:
448,192,166441,1,0,0:0:0:0:
64,192,166524,1,0,0:0:0:0:
192,192,166524,1,0,0:0:0:0:
320,192,166608,1,0,0:0:0:0:
448,192,166608,1,0,0:0:0:0:
64,192,166691,1,0,0:0:0:0:
192,192,166691,1,0,0:0:0:0:
448,192,166774,1,0,0:0:0:0:
64,192,166858,1,0,0:0:0:0:
320,192,166858,1,0,0:0:0:0:
192,192,166941,1,0,0:0:0:0:
320,192,167024,1,0,0:0:0:0:
448,192,167024,1,0,0:0:0:0:
64,192,167108,1,0,0:0:0:0:
192,192,167108,1,0,0:0:0:0:
448,192,167191,1,0,0:0:0:0:
320,192,167274,1,0,0:0:0:0:
64,192,167358,1,0,0:0:0:0:
192,192,167358,1,0,0:0:0:0:
320,192,167441,1,0,0:0:0:0:
448,192,167441,1,0,0:0:0:0:
64,192,167524,1,0,0:0:0:0:
448,192,167608,1,0,0:0:0:0:
192,192,167691,1,0,0:0:0:0:
320,192,167691,1,0,0:0:0:0:
64,192,167774,1,0,0:0:0:0:
320,192,167858,1,0,0:0:0:0:
448,192,167858,1,0,0:0:0:0:
64,192,167941,1,0,0:0:0:0:
192,192,167941,1,0,0:0:0:0:
320,192,168024,1,0,0:0:0:0:
448,192,168024,1,0,0:0:0:0:
192,192,168108,1,0,0:0:0:0:
64,192,168191,1,0,0:0:0:0:
448,192,168191,1,0,0:0:0:0:
320,192,168274,1,0,0:0:0:0:
64,192,168358,1,0,0:0:0:0:
192,192,168358,1,0,0:0:0:0:
320,192,168441,1,0,0:0:0:0:
448,192,168441,1,0,0:0:0:0:
64,192,168524,1,0,0:0:0:0:
192,192,168608,1,0,0:0:0:0:
320,192,168691,1,0,0:0:0:0:
448,192,168691,1,0,0:0:0:0:
64,192,168774,1,0,0:0:0:0:
192,192,168774,1,0,0:0:0:0:
448,192,168858,1,0,0:0:0:0:
64,192,168941,1,0,0:0:0:0:
192,192,169024,1,0,0:0:0:0:
320,192,169024,1,0,0:0:0:0:
448,192,169108,1,0,0:0:0:0:
64,192,169191,1,0,0:0:0:0:
192,192,169191,1,0,0:0:0:0:
320,192,169274,1,0,0:0:0:0:
448,192,169274,1,0,0:0:0:0:
64,192,169358,1,0,0:0:0:0:
192,192,169358,1,0,0:0:0:0:
448,192,169441,1,0,0:0:0:0:
64,192,169524,1,0,0:0:0:0:
192,192,169524,1,0,0:0:0:0:
320,192,169691,128,0,169816:0:0:0:0:
448,192,169691,1,0,0:0:0:0:
64,192,169858,128,0,169899:0:0:0:0:
448,192,169941,128,0,169983:0:0:0:0:
64,192,170024,128,0,170066:0:0:0:0:
448,192,170108,128,0,170149:0:0:0:0:
320,192,170191,1,0,0:0:0:0:
320,192,170274,1,0,0:0:0:0:
64,192,170358,1,0,0:0:0:0:
192,192,170399,1,0,0:0:0:0:
320,192,170441,1,0,0:0:0:0:
448,192,170483,1,0,0:0:0:0:
64,192,170524,1,0,0:0:0:0:
192,192,170566,1,0,0:0:0:0:
448,192,170608,1,0,0:0:0:0:
320,192,170649,1,0,0:0:0:0:
64,192,170691,1,0,0:0:0:0:
192,192,170691,1,0,0:0:0:0:
448,192,170774,1,0,0:0:0:0:
192,192,170858,1,0,0:0:0:0:
192,192,170941,1,0,0:0:0:0:
320,192,170941,1,0,0:0:0:0:
64,192,171024,1,0,0:0:0:0:
320,192,171024,1,0,0:0:0:0:
448,192,171024,1,0,0:0:0:0:
64,192,171108,1,0,0:0:0:0:
192,192,171108,1,0,0:0:0:0:
448,192,171108,1,0,0:0:0:0:
320,192,171191,1,0,0:0:0:0:
192,192,171274,1,0,0:0:0:0:
320,192,171274,1,0,0:0:0:0:
64,192,171358,1,0,0:0:0:0:
192,192,171358,1,0,0:0:0:0:
448,192,171358,1,0,0:0:0:0:
64,192,171441,1,0,0:0:0:0:
320,192,171441,1,0,0:0:0:0:
448,192,171441,1,0,0:0:0:0:
192,192,171524,1,0,0:0:0:0:
320,192,171608,1,0,0:0:0:0:
448,192,171608,1,0,0:0:0:0:
64,192,171691,1,0,0:0:0:0:
192,192,171691,1,0,0:0:0:0:
448,192,171691,1,0,0:0:0:0:
320,192,171774,1,0,0:0:0:0:
64,192,171858,1,0,0:0:0:0:
192,192,171858,1,0,0:0:0:0:
320,192,171941,1,0,0:0:0:0:
448,192,171941,1,0,0:0:0:0:
64,192,172024,1,0,0:0:0:0:
320,192,172024,1,0,0:0:0:0:
448,192,172024,1,0,0:0:0:0:
64,192,172108,1,0,0:0:0:0:
320,192,172191,1,0,0:0:0:0:
192,192,172274,1,0,0:0:0:0:
320,192,172274,1,0,0:0:0:0:
64,192,172358,1,0,0:0:0:0:
192,192,172358,1,0,0:0:0:0:
448,192,172358,1,0,0:0:0:0:
64,192,172441,1,0,0:0:0:0:
320,192,172441,1,0,0:0:0:0:
448,192,172441,1,0,0:0:0:0:
192,192,172524,1,0,0:0:0:0:
192,192,172608,1,0,0:0:0:0:
320,192,172608,1,0,0:0:0:0:
64,192,172691,1,0,0:0:0:0:
320,192,172691,1,0,0:0:0:0:
448,192,172691,1,0,0:0:0:0:
64,192,172774,1,0,0:0:0:0:
192,192,172774,1,0,0:0:0:0:
448,192,172774,1,0,0:0:0:0:
320,192,172858,1,0,0:0:0:0:
64,192,172941,1,0,0:0:0:0:
192,192,172941,1,0,0:0:0:0:
64,192,173024,1,0,0:0:0:0:
320,192,173024,1,0,0:0:0:0:
448,192,173024,1,0,0:0:0:0:
192,192,173108,1,0,0:0:0:0:
320,192,173191,1,0,0:0:0:0:
448,192,173191,1,0,0:0:0:0:
64,192,173274,1,0,0:0:0:0:
192,192,173274,1,0,0:0:0:0:
64,192,173358,1,0,0:0:0:0:
192,192,173358,1,0,0:0:0:0:
448,192,173358,1,0,0:0:0:0:
448,192,173441,1,0,0:0:0:0:
192,192,173524,1,0,0:0:0:0:
192,192,173608,1,0,0:0:0:0:
320,192,173608,1,0,0:0:0:0:
64,192,173691,1,0,0:0:0:0:
320,192,173691,1,0,0:0:0:0:
448,192,173691,1,0,0:0:0:0:
64,192,173774,1,0,0:0:0:0:
192,192,173774,1,0,0:0:0:0:
448,192,173774,1,0,0:0:0:0:
320,192,173858,1,0,0:0:0:0:
192,192,173941,1,0,0:0:0:0:
320,192,173941,1,0,0:0:0:0:
64,192,174024,1,0,0:0:0:0:
192,192,174024,1,0,0:0:0:0:
448,192,174024,1,0,0:0:0:0:
64,192,174108,1,0,0:0:0:0:
320,192,174108,1,0,0:0:0:0:
448,192,174108,1,0,0:0:0:0:
192,192,174191,1,0,0:0:0:0:
320,192,174274,1,0,0:0:0:0:
448,192,174274,1,0,0:0:0:0:
64,192,174358,1,0,0:0:0:0:
192,192,174358,1,0,0:0:0:0:
320,192,174358,1,0,0:0:0:0:
448,192,174441,1,0,0:0:0:0:
64,192,174524,1,0,0:0:0:0:
192,192,174524,1,0,0:0:0:0:
320,192,174608,1,0,0:0:0:0:
448,192,174608,1,0,0:0:0:0:
64,192,174691,1,0,0:0:0:0:
192,192,174691,1,0,0:0:0:0:
320,192,174747,1,0,0:0:0:0:
64,192,174802,1,0,0:0:0:0:
448,192,174858,1,0,0:0:0:0:
192,192,174913,1,0,0:0:0:0:
64,192,174969,1,0,0:0:0:0:
320,192,175024,1,0,0:0:0:0:
448,192,175024,1,0,0:0:0:0:
192,192,175080,1,0,0:0:0:0:
320,192,175136,1,0,0:0:0:0:
64,192,175191,1,0,0:0:0:0:
448,192,175247,1,0,0:0:0:0:
320,192,175302,1,0,0:0:0:0:
64,192,175358,1,0,0:0:0:0:
192,192,175358,1,0,0:0:0:0:
448,192,175413,1,0,0:0:0:0:
192,192,175469,1,0,0:0:0:0:
320,192,175524,1,0,0:0:0:0:
64,192,175580,1,0,0:0:0:0:
448,192,175636,1,0,0:0:0:0:
192,192,175691,1,0,0:0:0:0:
320,192,175691,1,0,0:0:0:0:
64,192,175747,1,0,0:0:0:0:
320,192,175802,1,0,0:0:0:0:
192,192,175858,1,0,0:0:0:0:
448,192,175913,1,0,0:0:0:0:
64,192,175969,1,0,0:0:0:0:
192,192,176024,1,0,0:0:0:0:
320,192,176024,1,0,0:0:0:0:
448,192,176024,1,0,0:0:0:0:
64,192,176108,1,0,0:0:0:0:
320,192,176191,1,0,0:0:0:0:
192,192,176274,1,0,0:0:0:0:
320,192,176274,1,0,0:0:0:0:
64,192,176358,1,0,0:0:0:0:
192,192,176358,1,0,0:0:0:0:
448,192,176358,1,0,0:0:0:0:
64,192,176441,1,0,0:0:0:0:
320,192,176441,1,0,0:0:0:0:
448,192,176441,1,0,0:0:0:0:
192,192,176524,1,0,0:0:0:0:
192,192,176608,1,0,0:0:0:0:
320,192,176608,1,0,0:0:0:0:
64,192,176691,1,0,0:0:0:0:
320,192,176691,1,0,0:0:0:0:
448,192,176691,1,0,0:0:0:0:
64,192,176774,1,0,0:0:0:0:
192,192,176774,1,0,0:0:0:0:
448,192,176774,1,0,0:0:0:0:
320,192,176858,1,0,0:0:0:0:
64,192,176941,1,0,0:0:0:0:
192,192,176941,1,0,0:0:0:0:
64,192,177024,1,0,0:0:0:0:
320,192,177024,1,0,0:0:0:0:
448,192,177024,1,0,0:0:0:0:
192,192,177108,1,0,0:0:0:0:
320,192,177191,1,0,0:0:0:0:
448,192,177191,1,0,0:0:0:0:
64,192,177274,1,0,0:0:0:0:
192,192,177274,1,0,0:0:0:0:
64,192,177358,1,0,0:0:0:0:
192,192,177358,1,0,0:0:0:0:
448,192,177358,1,0,0:0:0:0:
448,192,177441,1,0,0:0:0:0:
192,192,177524,1,0,0:0:0:0:
192,192,177608,1,0,0:0:0:0:
320,192,177608,1,0,0:0:0:0:
64,192,177691,1,0,0:0:0:0:
320,192,177691,1,0,0:0:0:0:
448,192,177691,1,0,0:0:0:0:
64,192,177774,1,0,0:0:0:0:
192,192,177774,1,0,0:0:0:0:
448,192,177774,1,0,0:0:0:0:
320,192,177858,1,0,0:0:0:0:
192,192,177941,1,0,0:0:0:0:
320,192,177941,1,0,0:0:0:0:
64,192,178024,1,0,0:0:0:0:
192,192,178024,1,0,0:0:0:0:
448,192,178024,1,0,0:0:0:0:
64,192,178108,1,0,0:0:0:0:
320,192,178108,1,0,0:0:0:0:
448,192,178108,1,0,0:0:0:0:
192,192,178191,1,0,0:0:0:0:
320,192,178274,1,0,0:0:0:0:
448,192,178274,1,0,0:0:0:0:
64,192,178358,1,0,0:0:0:0:
192,192,178358,1,0,0:0:0:0:
448,192,178358,1,0,0:0:0:0:
320,192,178441,1,0,0:0:0:0:
64,192,178524,1,0,0:0:0:0:
192,192,178524,1,0,0:0:0:0:
320,192,178608,1,0,0:0:0:0:
448,192,178608,1,0,0:0:0:0:
64,192,178691,1,0,0:0:0:0:
320,192,178691,1,0,0:0:0:0:
448,192,178691,1,0,0:0:0:0:
64,192,178774,1,0,0:0:0:0:
320,192,178858,1,0,0:0:0:0:
192,192,178941,1,0,0:0:0:0:
320,192,178941,1,0,0:0:0:0:
64,192,179024,1,0,0:0:0:0:
192,192,179024,1,0,0:0:0:0:
448,192,179024,1,0,0:0:0:0:
64,192,179108,1,0,0:0:0:0:
320,192,179108,1,0,0:0:0:0:
448,192,179108,1,0,0:0:0:0:
192,192,179191,1,0,0:0:0:0:
192,192,179274,1,0,0:0:0:0:
320,192,179274,1,0,0:0:0:0:
64,192,179358,1,0,0:0:0:0:
320,192,179358,1,0,0:0:0:0:
448,192,179358,1,0,0:0:0:0:
64,192,179441,1,0,0:0:0:0:
192,192,179441,1,0,0:0:0:0:
448,192,179441,1,0,0:0:0:0:
320,192,179524,1,0,0:0:0:0:
64,192,179608,1,0,0:0:0:0:
192,192,179608,1,0,0:0:0:0:
192,192,179691,1,0,0:0:0:0:
320,192,179691,1,0,0:0:0:0:
448,192,179691,1,0,0:0:0:0:
64,192,179774,1,0,0:0:0:0:
320,192,179858,1,0,0:0:0:0:
448,192,179858,1,0,0:0:0:0:
64,192,179941,1,0,0:0:0:0:
192,192,179941,1,0,0:0:0:0:
320,192,180024,1,0,0:0:0:0:
448,192,180024,1,0,0:0:0:0:
448,192,180108,1,0,0:0:0:0:
64,192,180191,1,0,0:0:0:0:
192,192,180233,1,0,0:0:0:0:
320,192,180274,1,0,0:0:0:0:
448,192,180316,1,0,0:0:0:0:
64,192,180358,1,0,0:0:0:0:
192,192,180358,1,0,0:0:0:0:
320,192,180441,1,0,0:0:0:0:
64,192,180524,1,0,0:0:0:0:
192,192,180524,1,0,0:0:0:0:
64,192,180608,1,0,0:0:0:0:
192,192,180608,1,0,0:0:0:0:
320,192,180691,1,0,0:0:0:0:
448,192,180691,1,0,0:0:0:0:
64,192,180774,1,0,0:0:0:0:
192,192,180774,1,0,0:0:0:0:
448,192,180816,1,0,0:0:0:0:
320,192,180858,1,0,0:0:0:0:
192,192,180899,1,0,0:0:0:0:
64,192,180941,1,0,0:0:0:0:
448,192,180983,1,0,0:0:0:0:
192,192,181024,1,0,0:0:0:0:
320,192,181024,1,0,0:0:0:0:
64,192,181191,1,0,0:0:0:0:
448,192,181191,1,0,0:0:0:0:
64,192,181358,1,0,0:0:0:0:
192,192,181358,1,0,0:0:0:0:
320,192,181358,1,0,0:0:0:0:
448,192,181441,1,0,0:0:0:0:
192,192,181524,1,0,0:0:0:0:
192,192,181608,1,0,0:0:0:0:
320,192,181608,1,0,0:0:0:0:
64,192,181691,1,0,0:0:0:0:
320,192,181691,1,0,0:0:0:0:
448,192,181691,1,0,0:0:0:0:
64,192,181774,1,0,0:0:0:0:
192,192,181774,1,0,0:0:0:0:
448,192,181774,1,0,0:0:0:0:
320,192,181858,1,0,0:0:0:0:
192,192,181941,1,0,0:0:0:0:
320,192,181941,1,0,0:0:0:0:
64,192,182024,1,0,0:0:0:0:
192,192,182024,1,0,0:0:0:0:
448,192,182024,1,0,0:0:0:0:
64,192,182108,1,0,0:0:0:0:
320,192,182108,1,0,0:0:0:0:
448,192,182108,1,0,0:0:0:0:
192,192,182191,1,0,0:0:0:0:
320,192,182274,1,0,0:0:0:0:
448,192,182274,1,0,0:0:0:0:
64,192,182358,1,0,0:0:0:0:
192,192,182358,1,0,0:0:0:0:
448,192,182358,1,0,0:0:0:0:
320,192,182441,1,0,0:0:0:0:
64,192,182524,1,0,0:0:0:0:
192,192,182524,1,0,0:0:0:0:
320,192,182608,1,0,0:0:0:0:
448,192,182608,1,0,0:0:0:0:
64,192,182691,1,0,0:0:0:0:
320,192,182691,1,0,0:0:0:0:
448,192,182691,1,0,0:0:0:0:
64,192,182774,1,0,0:0:0:0:
320,192,182858,1,0,0:0:0:0:
192,192,182941,1,0,0:0:0:0:
320,192,182941,1,0,0:0:0:0:
64,192,183024,1,0,0:0:0:0:
192,192,183024,1,0,0:0:0:0:
448,192,183024,1,0,0:0:0:0:
64,192,183108,1,0,0:0:0:0:
320,192,183108,1,0,0:0:0:0:
448,192,183108,1,0,0:0:0:0:
192,192,183191,1,0,0:0:0:0:
192,192,183274,1,0,0:0:0:0:
320,192,183274,1,0,0:0:0:0:
64,192,183358,1,0,0:0:0:0:
320,192,183358,1,0,0:0:0:0:
448,192,183358,1,0,0:0:0:0:
64,192,183441,1,0,0:0:0:0:
192,192,183441,1,0,0:0:0:0:
448,192,183441,1,0,0:0:0:0:
320,192,183524,1,0,0:0:0:0:
64,192,183608,1,0,0:0:0:0:
192,192,183608,1,0,0:0:0:0:
64,192,183691,1,0,0:0:0:0:
320,192,183691,1,0,0:0:0:0:
448,192,183691,1,0,0:0:0:0:
192,192,183774,1,0,0:0:0:0:
320,192,183858,1,0,0:0:0:0:
448,192,183858,1,0,0:0:0:0:
64,192,183941,1,0,0:0:0:0:
192,192,183941,1,0,0:0:0:0:
64,192,184024,1,0,0:0:0:0:
192,192,184024,1,0,0:0:0:0:
448,192,184024,1,0,0:0:0:0:
448,192,184108,1,0,0:0:0:0:
192,192,184191,1,0,0:0:0:0:
192,192,184274,1,0,0:0:0:0:
320,192,184274,1,0,0:0:0:0:
64,192,184358,1,0,0:0:0:0:
320,192,184358,1,0,0:0:0:0:
448,192,184358,1,0,0:0:0:0:
64,192,184441,1,0,0:0:0:0:
192,192,184441,1,0,0:0:0:0:
448,192,184441,1,0,0:0:0:0:
320,192,184524,1,0,0:0:0:0:
192,192,184608,1,0,0:0:0:0:
320,192,184608,1,0,0:0:0:0:
64,192,184691,1,0,0:0:0:0:
192,192,184691,1,0,0:0:0:0:
448,192,184691,1,0,0:0:0:0:
64,192,184774,1,0,0:0:0:0:
320,192,184774,1,0,0:0:0:0:
448,192,184774,1,0,0:0:0:0:
192,192,184858,1,0,0:0:0:0:
320,192,184941,1,0,0:0:0:0:
448,192,184941,1,0,0:0:0:0:
64,192,185024,1,0,0:0:0:0:
192,192,185024,1,0,0:0:0:0:
320,192,185024,1,0,0:0:0:0:
448,192,185108,1,0,0:0:0:0:
64,192,185191,1,0,0:0:0:0:
192,192,185191,1,0,0:0:0:0:
320,192,185274,1,0,0:0:0:0:
448,192,185274,1,0,0:0:0:0:
64,192,185358,1,0,0:0:0:0:
192,192,185358,1,0,0:0:0:0:
448,192,185413,1,0,0:0:0:0:
192,192,185469,1,0,0:0:0:0:
320,192,185524,1,0,0:0:0:0:
448,192,185580,1,0,0:0:0:0:
64,192,185636,1,0,0:0:0:0:
320,192,185691,1,0,0:0:0:0:
448,192,185691,1,0,0:0:0:0:
192,192,185747,1,0,0:0:0:0:
320,192,185802,1,0,0:0:0:0:
192,192,185858,1,0,0:0:0:0:
64,192,185913,1,0,0:0:0:0:
320,192,185969,1,0,0:0:0:0:
64,192,186024,1,0,0:0:0:0:
192,192,186024,1,0,0:0:0:0:
448,192,186080,1,0,0:0:0:0:
192,192,186136,1,0,0:0:0:0:
320,192,186191,1,0,0:0:0:0:
448,192,186247,1,0,0:0:0:0:
64,192,186302,1,0,0:0:0:0:
320,192,186358,1,0,0:0:0:0:
448,192,186358,1,0,0:0:0:0:
192,192,186413,1,0,0:0:0:0:
320,192,186469,1,0,0:0:0:0:
192,192,186524,1,0,0:0:0:0:
64,192,186580,1,0,0:0:0:0:
320,192,186636,1,0,0:0:0:0:
64,192,186691,1,0,0:0:0:0:
192,192,186691,1,0,0:0:0:0:
448,192,186691,1,0,0:0:0:0:
448,192,186774,1,0,0:0:0:0:
192,192,186858,1,0,0:0:0:0:
192,192,186941,1,0,0:0:0:0:
320,192,186941,1,0,0:0:0:0:
64,192,187024,1,0,0:0:0:0:
320,192,187024,1,0,0:0:0:0:
448,192,187024,1,0,0:0:0:0:
64,192,187108,1,0,0:0:0:0:
192,192,187108,1,0,0:0:0:0:
448,192,187108,1,0,0:0:0:0:
320,192,187191,1,0,0:0:0:0:
192,192,187274,1,0,0:0:0:0:
320,192,187274,1,0,0:0:0:0:
64,192,187358,1,0,0:0:0:0:
192,192,187358,1,0,0:0:0:0:
448,192,187358,1,0,0:0:0:0:
64,192,187441,1,0,0:0:0:0:
320,192,187441,1,0,0:0:0:0:
448,192,187441,1,0,0:0:0:0:
192,192,187524,1,0,0:0:0:0:
320,192,187608,1,0,0:0:0:0:
448,192,187608,1,0,0:0:0:0:
64,192,187691,1,0,0:0:0:0:
192,192,187691,1,0,0:0:0:0:
320,192,187747,1,0,0:0:0:0:
192,192,187802,1,0,0:0:0:0:
448,192,187858,1,0,0:0:0:0:
320,192,187913,1,0,0:0:0:0:
64,192,187969,1,0,0:0:0:0:
192,192,188024,1,0,0:0:0:0:
320,192,188024,1,0,0:0:0:0:
448,192,188024,1,0,0:0:0:0:
64,192,188108,1,0,0:0:0:0:
320,192,188191,1,0,0:0:0:0:
192,192,188274,1,0,0:0:0:0:
320,192,188274,1,0,0:0:0:0:
64,192,188358,1,0,0:0:0:0:
192,192,188358,1,0,0:0:0:0:
448,192,188358,1,0,0:0:0:0:
64,192,188441,1,0,0:0:0:0:
320,192,188441,1,0,0:0:0:0:
448,192,188441,1,0,0:0:0:0:
192,192,188524,1,0,0:0:0:0:
320,192,188608,1,0,0:0:0:0:
448,192,188608,1,0,0:0:0:0:
64,192,188691,1,0,0:0:0:0:
192,192,188691,1,0,0:0:0:0:
448,192,188747,1,0,0:0:0:0:
192,192,188802,1,0,0:0:0:0:
320,192,188858,1,0,0:0:0:0:
64,192,188913,1,0,0:0:0:0:
192,192,188969,1,0,0:0:0:0:
320,192,189024,1,0,0:0:0:0:
448,192,189024,1,0,0:0:0:0:
64,192,189080,1,0,0:0:0:0:
320,192,189136,1,0,0:0:0:0:
192,192,189191,1,0,0:0:0:0:
448,192,189247,1,0,0:0:0:0:
320,192,189302,1,0,0:0:0:0:
64,192,189358,1,0,0:0:0:0:
192,192,189358,1,0,0:0:0:0:
448,192,189358,1,0,0:0:0:0:
64,192,189441,1,0,0:0:0:0:
320,192,189524,1,0,0:0:0:0:
192,192,189608,1,0,0:0:0:0:
320,192,189608,1,0,0:0:0:0:
64,192,189691,1,0,0:0:0:0:
448,192,189691,1,0,0:0:0:0:
320,192,189747,1,0,0:0:0:0:
64,192,189802,1,0,0:0:0:0:
192,192,189858,1,0,0:0:0:0:
320,192,189913,1,0,0:0:0:0:
448,192,189969,1,0,0:0:0:0:
64,192,190024,1,0,0:0:0:0:
192,192,190024,1,0,0:0:0:0:
320,192,190024,1,0,0:0:0:0:
64,192,190108,1,0,0:0:0:0:
448,192,190108,1,0,0:0:0:0:
320,192,190191,1,0,0:0:0:0:
192,192,190274,1,0,0:0:0:0:
320,192,190274,1,0,0:0:0:0:
64,192,190358,1,0,0:0:0:0:
448,192,190358,1,0,0:0:0:0:
192,192,190413,1,0,0:0:0:0:
448,192,190469,1,0,0:0:0:0:
64,192,190524,1,0,0:0:0:0:
192,192,190580,1,0,0:0:0:0:
448,192,190636,1,0,0:0:0:0:
64,192,190691,1,0,0:0:0:0:
192,192,190691,1,0,0:0:0:0:
64,192,190774,1,0,0:0:0:0:
192,192,190774,1,0,0:0:0:0:
320,192,190858,1,0,0:0:0:0:
448,192,190858,1,0,0:0:0:0:
64,192,190941,1,0,0:0:0:0:
192,192,190941,1,0,0:0:0:0:
448,192,191024,1,0,0:0:0:0:
320,192,191066,1,0,0:0:0:0:
192,192,191108,1,0,0:0:0:0:
64,192,191149,1,0,0:0:0:0:
320,192,191191,1,0,0:0:0:0:
448,192,191191,1,0,0:0:0:0:
320,192,191274,1,0,0:0:0:0:
448,192,191274,1,0,0:0:0:0:
64,192,191358,1,0,0:0:0:0:
192,192,191358,1,0,0:0:0:0:
320,192,191441,1,0,0:0:0:0:
448,192,191441,1,0,0:0:0:0:
64,192,191524,1,0,0:0:0:0:
192,192,191566,1,0,0:0:0:0:
448,192,191608,1,0,0:0:0:0:
320,192,191649,1,0,0:0:0:0:
64,192,191691,1,0,0:0:0:0:
192,192,191691,1,0,0:0:0:0:
192,192,191858,1,0,0:0:0:0:
320,192,191858,1,0,0:0:0:0:
64,192,192024,1,0,0:0:0:0:
320,192,192024,1,0,0:0:0:0:
448,192,192024,1,0,0:0:0:0:
192,192,192191,1,0,0:0:0:0:
448,192,192191,1,0,0:0:0:0:
64,192,192274,1,0,0:0:0:0:
64,192,192358,1,0,0:0:0:0:
192,192,192358,1,0,0:0:0:0:
320,192,192358,1,0,0:0:0:0:
448,192,192413,1,0,0:0:0:0:
320,192,192469,1,0,0:0:0:0:
192,192,192524,1,0,0:0:0:0:
320,192,192608,1,0,0:0:0:0:
448,192,192608,1,0,0:0:0:0:
64,192,192691,1,0,0:0:0:0:
320,192,192691,1,0,0:0:0:0:
448,192,192691,1,0,0:0:0:0:
64,192,192858,1,0,0:0:0:0:
320,192,192858,1,0,0:0:0:0:
448,192,192941,1,0,0:0:0:0:
192,192,193024,1,0,0:0:0:0:
320,192,193024,1,0,0:0:0:0:
448,192,193024,1,0,0:0:0:0:
64,192,193080,1,0,0:0:0:0:
192,192,193136,1,0,0:0:0:0:
320,192,193191,1,0,0:0:0:0:
64,192,193274,1,0,0:0:0:0:
192,192,193274,1,0,0:0:0:0:
64,192,193358,1,0,0:0:0:0:
192,192,193358,1,0,0:0:0:0:
448,192,193358,1,0,0:0:0:0:
192,192,193524,1,0,0:0:0:0:
448,192,193524,1,0,0:0:0:0:
64,192,193608,1,0,0:0:0:0:
64,192,193691,1,0,0:0:0:0:
192,192,193691,1,0,0:0:0:0:
320,192,193691,1,0,0:0:0:0:
448,192,193747,1,0,0:0:0:0:
320,192,193802,1,0,0:0:0:0:
192,192,193858,1,0,0:0:0:0:
320,192,193941,1,0,0:0:0:0:
448,192,193941,1,0,0:0:0:0:
64,192,194024,1,0,0:0:0:0:
320,192,194024,1,0,0:0:0:0:
448,192,194024,1,0,0:0:0:0:
64,192,194191,1,0,0:0:0:0:
320,192,194191,1,0,0:0:0:0:
448,192,194274,1,0,0:0:0:0:
192,192,194358,1,0,0:0:0:0:
320,192,194358,1,0,0:0:0:0:
448,192,194358,1,0,0:0:0:0:
64,192,194413,1,0,0:0:0:0:
192,192,194469,1,0,0:0:0:0:
320,192,194524,1,0,0:0:0:0:
64,192,194608,1,0,0:0:0:0:
192,192,194608,1,0,0:0:0:0:
64,192,194691,1,0,0:0:0:0:
192,192,194691,1,0,0:0:0:0:
448,192,194691,1,0,0:0:0:0:
192,192,194858,1,0,0:0:0:0:
448,192,194858,1,0,0:0:0:0:
64,192,194941,1,0,0:0:0:0:
64,192,195024,1,0,0:0:0:0:
192,192,195024,1,0,0:0:0:0:
320,192,195024,1,0,0:0:0:0:
448,192,195080,1,0,0:0:0:0:
320,192,195136,1,0,0:0:0:0:
192,192,195191,1,0,0:0:0:0:
320,192,195274,1,0,0:0:0:0:
448,192,195274,1,0,0:0:0:0:
64,192,195358,1,0,0:0:0:0:
320,192,195358,1,0,0:0:0:0:
448,192,195358,1,0,0:0:0:0:
64,192,195524,1,0,0:0:0:0:
320,192,195524,1,0,0:0:0:0:
448,192,195608,1,0,0:0:0:0:
192,192,195691,1,0,0:0:0:0:
320,192,195691,1,0,0:0:0:0:
448,192,195691,1,0,0:0:0:0:
64,192,195747,1,0,0:0:0:0:
192,192,195802,1,0,0:0:0:0:
320,192,195858,1,0,0:0:0:0:
64,192,195941,1,0,0:0:0:0:
192,192,195941,1,0,0:0:0:0:
320,192,196024,1,0,0:0:0:0:
448,192,196024,1,0,0:0:0:0:
64,192,196080,1,0,0:0:0:0:
320,192,196136,1,0,0:0:0:0:
192,192,196191,1,0,0:0:0:0:
64,192,196247,1,0,0:0:0:0:
448,192,196302,1,0,0:0:0:0:
64,192,196358,1,0,0:0:0:0:
192,192,196358,1,0,0:0:0:0:
320,192,196413,1,0,0:0:0:0:
192,192,196469,1,0,0:0:0:0:
320,192,196524,1,0,0:0:0:0:
448,192,196580,1,0,0:0:0:0:
192,192,196636,1,0,0:0:0:0:
320,192,196691,1,0,0:0:0:0:
448,192,196691,1,0,0:0:0:0:
64,192,196747,1,0,0:0:0:0:
320,192,196802,1,0,0:0:0:0:
192,192,196858,1,0,0:0:0:0:
64,192,196913,1,0,0:0:0:0:
448,192,196969,1,0,0:0:0:0:
64,192,197024,1,0,0:0:0:0:
192,192,197024,1,0,0:0:0:0:
320,192,197080,1,0,0:0:0:0:
192,192,197136,1,0,0:0:0:0:
320,192,197191,1,0,0:0:0:0:
448,192,197247,1,0,0:0:0:0:
192,192,197302,1,0,0:0:0:0:
64,192,197358,1,0,0:0:0:0:
320,192,197358,1,0,0:0:0:0:
448,192,197358,1,0,0:0:0:0:
320,192,197524,1,0,0:0:0:0:
448,192,197524,1,0,0:0:0:0:
64,192,197608,1,0,0:0:0:0:
64,192,197691,1,0,0:0:0:0:
192,192,197691,1,0,0:0:0:0:
320,192,197691,1,0,0:0:0:0:
448,192,197747,1,0,0:0:0:0:
320,192,197802,1,0,0:0:0:0:
64,192,197858,1,0,0:0:0:0:
192,192,197941,1,0,0:0:0:0:
448,192,197941,1,0,0:0:0:0:
64,192,198024,1,0,0:0:0:0:
192,192,198024,1,0,0:0:0:0:
320,192,198024,1,0,0:0:0:0:
64,192,198191,1,0,0:0:0:0:
192,192,198191,1,0,0:0:0:0:
448,192,198274,1,0,0:0:0:0:
192,192,198358,1,0,0:0:0:0:
320,192,198358,1,0,0:0:0:0:
448,192,198358,1,0,0:0:0:0:
64,192,198413,1,0,0:0:0:0:
192,192,198469,1,0,0:0:0:0:
448,192,198524,1,0,0:0:0:0:
64,192,198608,1,0,0:0:0:0:
320,192,198608,1,0,0:0:0:0:
192,192,198691,1,0,0:0:0:0:
320,192,198691,1,0,0:0:0:0:
448,192,198691,1,0,0:0:0:0:
320,192,198858,1,0,0:0:0:0:
448,192,198858,1,0,0:0:0:0:
64,192,198941,1,0,0:0:0:0:
64,192,199024,1,0,0:0:0:0:
192,192,199024,1,0,0:0:0:0:
320,192,199024,1,0,0:0:0:0:
448,192,199080,1,0,0:0:0:0:
320,192,199136,1,0,0:0:0:0:
64,192,199191,1,0,0:0:0:0:
192,192,199274,1,0,0:0:0:0:
448,192,199274,1,0,0:0:0:0:
64,192,199358,1,0,0:0:0:0:
192,192,199358,1,0,0:0:0:0:
320,192,199358,1,0,0:0:0:0:
64,192,199524,1,0,0:0:0:0:
192,192,199524,1,0,0:0:0:0:
448,192,199608,1,0,0:0:0:0:
192,192,199691,1,0,0:0:0:0:
320,192,199691,1,0,0:0:0:0:
448,192,199691,1,0,0:0:0:0:
64,192,199747,1,0,0:0:0:0:
192,192,199802,1,0,0:0:0:0:
448,192,199858,1,0,0:0:0:0:
64,192,199941,1,0,0:0:0:0:
320,192,199941,1,0,0:0:0:0:
192,192,200024,1,0,0:0:0:0:
320,192,200024,1,0,0:0:0:0:
448,192,200024,1,0,0:0:0:0:
320,192,200191,1,0,0:0:0:0:
448,192,200191,1,0,0:0:0:0:
64,192,200274,1,0,0:0:0:0:
64,192,200358,1,0,0:0:0:0:
192,192,200358,1,0,0:0:0:0:
320,192,200358,1,0,0:0:0:0:
448,192,200413,1,0,0:0:0:0:
320,192,200469,1,0,0:0:0:0:
64,192,200524,1,0,0:0:0:0:
192,192,200608,1,0,0:0:0:0:
448,192,200608,1,0,0:0:0:0:
64,192,200691,1,0,0:0:0:0:
192,192,200691,1,0,0:0:0:0:
320,192,200691,1,0,0:0:0:0:
64,192,200858,1,0,0:0:0:0:
192,192,200858,1,0,0:0:0:0:
448,192,200941,1,0,0:0:0:0:
192,192,201024,1,0,0:0:0:0:
320,192,201024,1,0,0:0:0:0:
448,192,201024,1,0,0:0:0:0:
64,192,201080,1,0,0:0:0:0:
192,192,201136,1,0,0:0:0:0:
448,192,201191,1,0,0:0:0:0:
64,192,201274,1,0,0:0:0:0:
320,192,201274,1,0,0:0:0:0:
192,192,201358,1,0,0:0:0:0:
320,192,201524,1,0,0:0:0:0:
448,192,201524,1,0,0:0:0:0:
320,192,201608,1,0,0:0:0:0:
448,192,201608,1,0,0:0:0:0:
192,192,201691,1,0,0:0:0:0:
320,192,201691,1,0,0:0:0:0:
448,192,201691,1,0,0:0:0:0:
64,192,201858,1,0,0:0:0:0:
192,192,201858,1,0,0:0:0:0:
320,192,201941,1,0,0:0:0:0:
448,192,201941,1,0,0:0:0:0:
64,192,202024,1,0,0:0:0:0:
192,192,202024,1,0,0:0:0:0:
64,192,202108,1,0,0:0:0:0:
192,192,202108,1,0,0:0:0:0:
320,192,202191,1,0,0:0:0:0:
448,192,202191,1,0,0:0:0:0:
320,192,202274,1,0,0:0:0:0:
448,192,202274,1,0,0:0:0:0:
64,192,202358,128,0,202441:0:0:0:0:
192,192,202358,128,0,202441:0:0:0:0:
448,192,202358,128,0,202441:0:0:0:0:
64,192,202524,128,0,202608:0:0:0:0:
320,192,202524,128,0,202608:0:0:0:0:
448,192,202524,128,0,202608:0:0:0:0:
64,192,202691,1,0,0:0:0:0:
192,192,202691,1,0,0:0:0:0:
320,192,202691,1,0,0:0:0:0:
192,192,202858,1,0,0:0:0:0:
448,192,202858,1,0,0:0:0:0:
64,192,202941,1,0,0:0:0:0:
64,192,203024,1,0,0:0:0:0:
192,192,203024,1,0,0:0:0:0:
320,192,203024,1,0,0:0:0:0:
448,192,203080,1,0,0:0:0:0:
320,192,203136,1,0,0:0:0:0:
192,192,203191,1,0,0:0:0:0:
320,192,203274,1,0,0:0:0:0:
448,192,203274,1,0,0:0:0:0:
64,192,203358,1,0,0:0:0:0:
320,192,203358,1,0,0:0:0:0:
448,192,203358,1,0,0:0:0:0:
64,192,203524,1,0,0:0:0:0:
320,192,203524,1,0,0:0:0:0:
448,192,203608,1,0,0:0:0:0:
192,192,203691,1,0,0:0:0:0:
320,192,203691,1,0,0:0:0:0:
448,192,203691,1,0,0:0:0:0:
64,192,203747,1,0,0:0:0:0:
192,192,203802,1,0,0:0:0:0:
320,192,203858,1,0,0:0:0:0:
64,192,203941,1,0,0:0:0:0:
192,192,203941,1,0,0:0:0:0:
64,192,204024,1,0,0:0:0:0:
192,192,204024,1,0,0:0:0:0:
448,192,204024,1,0,0:0:0:0:
192,192,204191,1,0,0:0:0:0:
448,192,204191,1,0,0:0:0:0:
64,192,204274,1,0,0:0:0:0:
64,192,204358,1,0,0:0:0:0:
192,192,204358,1,0,0:0:0:0:
320,192,204358,1,0,0:0:0:0:
448,192,204413,1,0,0:0:0:0:
320,192,204469,1,0,0:0:0:0:
192,192,204524,1,0,0:0:0:0:
320,192,204608,1,0,0:0:0:0:
448,192,204608,1,0,0:0:0:0:
64,192,204691,1,0,0:0:0:0:
320,192,204691,1,0,0:0:0:0:
448,192,204691,1,0,0:0:0:0:
64,192,204858,1,0,0:0:0:0:
320,192,204858,1,0,0:0:0:0:
448,192,204941,1,0,0:0:0:0:
192,192,205024,1,0,0:0:0:0:
320,192,205024,1,0,0:0:0:0:
448,192,205024,1,0,0:0:0:0:
64,192,205080,1,0,0:0:0:0:
192,192,205136,1,0,0:0:0:0:
320,192,205191,1,0,0:0:0:0:
64,192,205274,1,0,0:0:0:0:
192,192,205274,1,0,0:0:0:0:
64,192,205358,1,0,0:0:0:0:
192,192,205358,1,0,0:0:0:0:
448,192,205358,1,0,0:0:0:0:
192,192,205524,1,0,0:0:0:0:
448,192,205524,1,0,0:0:0:0:
64,192,205608,1,0,0:0:0:0:
64,192,205691,1,0,0:0:0:0:
192,192,205691,1,0,0:0:0:0:
320,192,205691,1,0,0:0:0:0:
448,192,205747,1,0,0:0:0:0:
320,192,205802,1,0,0:0:0:0:
192,192,205858,1,0,0:0:0:0:
320,192,205941,1,0,0:0:0:0:
448,192,205941,1,0,0:0:0:0:
64,192,206024,1,0,0:0:0:0:
320,192,206024,1,0,0:0:0:0:
448,192,206024,1,0,0:0:0:0:
64,192,206191,1,0,0:0:0:0:
320,192,206191,1,0,0:0:0:0:
448,192,206274,1,0,0:0:0:0:
192,192,206358,1,0,0:0:0:0:
320,192,206358,1,0,0:0:0:0:
448,192,206358,1,0,0:0:0:0:
64,192,206413,1,0,0:0:0:0:
192,192,206469,1,0,0:0:0:0:
320,192,206524,1,0,0:0:0:0:
64,192,206608,1,0,0:0:0:0:
192,192,206608,1,0,0:0:0:0:
320,192,206691,1,0,0:0:0:0:
448,192,206691,1,0,0:0:0:0:
64,192,206747,1,0,0:0:0:0:
320,192,206802,1,0,0:0:0:0:
192,192,206858,1,0,0:0:0:0:
64,192,206913,1,0,0:0:0:0:
448,192,206969,1,0,0:0:0:0:
64,192,207024,1,0,0:0:0:0:
192,192,207024,1,0,0:0:0:0:
320,192,207080,1,0,0:0:0:0:
192,192,207136,1,0,0:0:0:0:
320,192,207191,1,0,0:0:0:0:
448,192,207247,1,0,0:0:0:0:
192,192,207302,1,0,0:0:0:0:
320,192,207358,1,0,0:0:0:0:
448,192,207358,1,0,0:0:0:0:
64,192,207413,1,0,0:0:0:0:
320,192,207469,1,0,0:0:0:0:
192,192,207524,1,0,0:0:0:0:
64,192,207580,1,0,0:0:0:0:
448,192,207636,1,0,0:0:0:0:
64,192,207691,1,0,0:0:0:0:
192,192,207691,1,0,0:0:0:0:
320,192,207747,1,0,0:0:0:0:
192,192,207802,1,0,0:0:0:0:
320,192,207858,1,0,0:0:0:0:
448,192,207913,1,0,0:0:0:0:
192,192,207969,1,0,0:0:0:0:
64,192,208024,1,0,0:0:0:0:
320,192,208024,1,0,0:0:0:0:
448,192,208024,1,0,0:0:0:0:
320,192,208191,1,0,0:0:0:0:
448,192,208191,1,0,0:0:0:0:
64,192,208274,1,0,0:0:0:0:
64,192,208358,1,0,0:0:0:0:
192,192,208358,1,0,0:0:0:0:
320,192,208358,1,0,0:0:0:0:
448,192,208413,1,0,0:0:0:0:
320,192,208469,1,0,0:0:0:0:
64,192,208524,1,0,0:0:0:0:
192,192,208608,1,0,0:0:0:0:
448,192,208608,1,0,0:0:0:0:
64,192,208691,1,0,0:0:0:0:
192,192,208691,1,0,0:0:0:0:
320,192,208691,1,0,0:0:0:0:
64,192,208858,1,0,0:0:0:0:
192,192,208858,1,0,0:0:0:0:
448,192,208941,1,0,0:0:0:0:
192,192,209024,1,0,0:0:0:0:
320,192,209024,1,0,0:0:0:0:
448,192,209024,1,0,0:0:0:0:
64,192,209080,1,0,0:0:0:0:
192,192,209136,1,0,0:0:0:0:
448,192,209191,1,0,0:0:0:0:
64,192,209274,1,0,0:0:0:0:
320,192,209274,1,0,0:0:0:0:
192,192,209358,1,0,0:0:0:0:
320,192,209358,1,0,0:0:0:0:
448,192,209358,1,0,0:0:0:0:
320,192,209524,1,0,0:0:0:0:
448,192,209524,1,0,0:0:0:0:
64,192,209608,1,0,0:0:0:0:
64,192,209691,1,0,0:0:0:0:
192,192,209691,1,0,0:0:0:0:
320,192,209691,1,0,0:0:0:0:
448,192,209747,1,0,0:0:0:0:
320,192,209802,1,0,0:0:0:0:
64,192,209858,1,0,0:0:0:0:
192,192,209941,1,0,0:0:0:0:
448,192,209941,1,0,0:0:0:0:
64,192,210024,1,0,0:0:0:0:
192,192,210024,1,0,0:0:0:0:
320,192,210024,1,0,0:0:0:0:
64,192,210191,1,0,0:0:0:0:
192,192,210191,1,0,0:0:0:0:
448,192,210274,1,0,0:0:0:0:
192,192,210358,1,0,0:0:0:0:
320,192,210358,1,0,0:0:0:0:
448,192,210358,1,0,0:0:0:0:
64,192,210413,1,0,0:0:0:0:
192,192,210469,1,0,0:0:0:0:
448,192,210524,1,0,0:0:0:0:
64,192,210608,1,0,0:0:0:0:
320,192,210608,1,0,0:0:0:0:
192,192,210691,1,0,0:0:0:0:
320,192,210691,1,0,0:0:0:0:
448,192,210691,1,0,0:0:0:0:
320,192,210858,1,0,0:0:0:0:
448,192,210858,1,0,0:0:0:0:
64,192,210941,1,0,0:0:0:0:
64,192,211024,1,0,0:0:0:0:
192,192,211024,1,0,0:0:0:0:
320,192,211024,1,0,0:0:0:0:
448,192,211080,1,0,0:0:0:0:
320,192,211136,1,0,0:0:0:0:
64,192,211191,1,0,0:0:0:0:
192,192,211274,1,0,0:0:0:0:
448,192,211274,1,0,0:0:0:0:
64,192,211358,1,0,0:0:0:0:
192,192,211358,1,0,0:0:0:0:
320,192,211358,1,0,0:0:0:0:
64,192,211524,1,0,0:0:0:0:
192,192,211524,1,0,0:0:0:0:
448,192,211608,1,0,0:0:0:0:
192,192,211691,1,0,0:0:0:0:
320,192,211691,1,0,0:0:0:0:
448,192,211691,1,0,0:0:0:0:
64,192,211747,1,0,0:0:0:0:
192,192,211802,1,0,0:0:0:0:
448,192,211858,1,0,0:0:0:0:
64,192,211941,1,0,0:0:0:0:
320,192,211941,1,0,0:0:0:0:
448,192,212024,1,0,0:0:0:0:
64,192,212108,1,0,0:0:0:0:
192,192,212191,1,0,0:0:0:0:
320,192,212191,1,0,0:0:0:0:
448,192,212191,1,0,0:0:0:0:
64,192,212358,1,0,0:0:0:0:
448,192,212441,1,0,0:0:0:0:
64,192,212524,1,0,0:0:0:0:
192,192,212524,1,0,0:0:0:0:
320,192,212524,1,0,0:0:0:0:
192,192,212691,1,0,0:0:0:0:
320,192,212774,1,0,0:0:0:0:
192,192,212858,1,0,0:0:0:0:
320,192,212941,1,0,0:0:0:0:
64,192,213024,128,0,213108:0:0:0:0:
192,192,213024,128,0,213108:0:0:0:0:
448,192,213024,128,0,213108:0:0:0:0:
64,192,213191,128,0,213274:0:0:0:0:
192,192,213191,128,0,213274:0:0:0:0:
320,192,213191,128,0,213274:0:0:0:0:
64,192,213358,1,0,0:0:0:0:
320,192,213358,1,0,0:0:0:0:
448,192,213358,1,0,0:0:0:0:
320,192,213524,1,0,0:0:0:0:
448,192,213524,1,0,0:0:0:0:
64,192,213608,1,0,0:0:0:0:
64,192,213691,1,0,0:0:0:0:
192,192,213691,1,0,0:0:0:0:
448,192,213691,1,0,0:0:0:0:
320,192,213858,1,0,0:0:0:0:
320,192,213941,1,0,0:0:0:0:
64,192,214024,1,0,0:0:0:0:
192,192,214024,1,0,0:0:0:0:
448,192,214024,1,0,0:0:0:0:
64,192,214191,1,0,0:0:0:0:
192,192,214191,1,0,0:0:0:0:
448,192,214274,1,0,0:0:0:0:
64,192,214358,1,0,0:0:0:0:
320,192,214358,1,0,0:0:0:0:
448,192,214358,1,0,0:0:0:0:
192,192,214524,1,0,0:0:0:0:
192,192,214608,1,0,0:0:0:0:
64,192,214691,1,0,0:0:0:0:
320,192,214691,1,0,0:0:0:0:
448,192,214691,1,0,0:0:0:0:
320,192,214858,1,0,0:0:0:0:
448,192,214858,1,0,0:0:0:0:
64,192,214941,1,0,0:0:0:0:
64,192,215024,1,0,0:0:0:0:
192,192,215024,1,0,0:0:0:0:
448,192,215024,1,0,0:0:0:0:
320,192,215191,1,0,0:0:0:0:
320,192,215274,1,0,0:0:0:0:
64,192,215358,1,0,0:0:0:0:
192,192,215358,1,0,0:0:0:0:
448,192,215358,1,0,0:0:0:0:
64,192,215524,1,0,0:0:0:0:
192,192,215524,1,0,0:0:0:0:
448,192,215608,1,0,0:0:0:0:
64,192,215691,1,0,0:0:0:0:
320,192,215691,1,0,0:0:0:0:
448,192,215691,1,0,0:0:0:0:
192,192,215858,1,0,0:0:0:0:
192,192,215941,1,0,0:0:0:0:
64,192,216024,1,0,0:0:0:0:
320,192,216024,1,0,0:0:0:0:
448,192,216024,1,0,0:0:0:0:
320,192,216191,1,0,0:0:0:0:
448,192,216191,1,0,0:0:0:0:
64,192,216274,1,0,0:0:0:0:
64,192,216358,1,0,0:0:0:0:
192,192,216358,1,0,0:0:0:0:
448,192,216358,1,0,0:0:0:0:
320,192,216524,1,0,0:0:0:0:
320,192,216608,1,0,0:0:0:0:
64,192,216691,1,0,0:0:0:0:
192,192,216691,1,0,0:0:0:0:
448,192,216691,1,0,0:0:0:0:
64,192,216858,1,0,0:0:0:0:
192,192,216858,1,0,0:0:0:0:
448,192,216941,1,0,0:0:0:0:
64,192,217024,1,0,0:0:0:0:
320,192,217024,1,0,0:0:0:0:
448,192,217024,1,0,0:0:0:0:
192,192,217191,1,0,0:0:0:0:
192,192,217274,1,0,0:0:0:0:
320,192,217358,1,0,0:0:0:0:
448,192,217358,1,0,0:0:0:0:
64,192,217413,1,0,0:0:0:0:
320,192,217469,1,0,0:0:0:0:
192,192,217524,1,0,0:0:0:0:
64,192,217580,1,0,0:0:0:0:
448,192,217636,1,0,0:0:0:0:
64,192,217691,1,0,0:0:0:0:
192,192,217691,1,0,0:0:0:0:
320,192,217747,1,0,0:0:0:0:
192,192,217802,1,0,0:0:0:0:
320,192,217858,1,0,0:0:0:0:
448,192,217913,1,0,0:0:0:0:
192,192,217969,1,0,0:0:0:0:
320,192,218024,1,0,0:0:0:0:
448,192,218024,1,0,0:0:0:0:
64,192,218080,1,0,0:0:0:0:
320,192,218136,1,0,0:0:0:0:
192,192,218191,1,0,0:0:0:0:
64,192,218247,1,0,0:0:0:0:
448,192,218302,1,0,0:0:0:0:
64,192,218358,1,0,0:0:0:0:
192,192,218358,1,0,0:0:0:0:
320,192,218413,1,0,0:0:0:0:
192,192,218469,1,0,0:0:0:0:
320,192,218524,1,0,0:0:0:0:
448,192,218580,1,0,0:0:0:0:
64,192,218636,1,0,0:0:0:0:
192,192,218691,1,0,0:0:0:0:
320,192,218691,1,0,0:0:0:0:
448,192,218691,1,0,0:0:0:0:
320,192,218858,1,0,0:0:0:0:
448,192,218858,1,0,0:0:0:0:
64,192,218941,1,0,0:0:0:0:
64,192,219024,1,0,0:0:0:0:
192,192,219024,1,0,0:0:0:0:
448,192,219024,1,0,0:0:0:0:
320,192,219191,1,0,0:0:0:0:
320,192,219274,1,0,0:0:0:0:
64,192,219358,1,0,0:0:0:0:
192,192,219358,1,0,0:0:0:0:
448,192,219358,1,0,0:0:0:0:
64,192,219524,1,0,0:0:0:0:
192,192,219524,1,0,0:0:0:0:
448,192,219608,1,0,0:0:0:0:
64,192,219691,1,0,0:0:0:0:
320,192,219691,1,0,0:0:0:0:
448,192,219691,1,0,0:0:0:0:
192,192,219858,1,0,0:0:0:0:
192,192,219941,1,0,0:0:0:0:
64,192,220024,1,0,0:0:0:0:
320,192,220024,1,0,0:0:0:0:
448,192,220024,1,0,0:0:0:0:
320,192,220191,1,0,0:0:0:0:
448,192,220191,1,0,0:0:0:0:
64,192,220274,1,0,0:0:0:0:
64,192,220358,1,0,0:0:0:0:
192,192,220358,1,0,0:0:0:0:
448,192,220358,1,0,0:0:0:0:
320,192,220524,1,0,0:0:0:0:
320,192,220608,1,0,0:0:0:0:
64,192,220691,1,0,0:0:0:0:
192,192,220691,1,0,0:0:0:0:
448,192,220691,1,0,0:0:0:0:
64,192,220858,1,0,0:0:0:0:
192,192,220858,1,0,0:0:0:0:
448,192,220941,1,0,0:0:0:0:
64,192,221024,1,0,0:0:0:0:
320,192,221024,1,0,0:0:0:0:
448,192,221024,1,0,0:0:0:0:
192,192,221191,1,0,0:0:0:0:
192,192,221274,1,0,0:0:0:0:
64,192,221358,1,0,0:0:0:0:
320,192,221358,1,0,0:0:0:0:
448,192,221358,1,0,0:0:0:0:
320,192,221524,1,0,0:0:0:0:
448,192,221524,1,0,0:0:0:0:
64,192,221608,1,0,0:0:0:0:
64,192,221691,1,0,0:0:0:0:
192,192,221691,1,0,0:0:0:0:
448,192,221691,1,0,0:0:0:0:
320,192,221858,1,0,0:0:0:0:
320,192,221941,1,0,0:0:0:0:
64,192,222024,1,0,0:0:0:0:
192,192,222024,1,0,0:0:0:0:
448,192,222024,1,0,0:0:0:0:
64,192,222191,1,0,0:0:0:0:
192,192,222191,1,0,0:0:0:0:
448,192,222274,1,0,0:0:0:0:
64,192,222358,1,0,0:0:0:0:
320,192,222358,1,0,0:0:0:0:
448,192,222358,1,0,0:0:0:0:
192,192,222524,1,0,0:0:0:0:
192,192,222608,1,0,0:0:0:0:
320,192,222691,1,0,0:0:0:0:
448,192,222691,1,0,0:0:0:0:
320,192,222774,1,0,0:0:0:0:
448,192,222774,1,0,0:0:0:0:
64,192,222858,1,0,0:0:0:0:
192,192,222858,1,0,0:0:0:0:
64,192,222941,1,0,0:0:0:0:
192,192,222941,1,0,0:0:0:0:
64,192,223024,1,0,0:0:0:0:
192,192,223024,1,0,0:0:0:0:
448,192,223024,1,0,0:0:0:0:
320,192,223191,1,0,0:0:0:0:
448,192,223191,1,0,0:0:0:0:
64,192,223274,1,0,0:0:0:0:
192,192,223274,1,0,0:0:0:0:
320,192,223358,1,0,0:0:0:0:
448,192,223358,1,0,0:0:0:0:
320,192,223441,1,0,0:0:0:0:
448,192,223441,1,0,0:0:0:0:
64,192,223524,1,0,0:0:0:0:
192,192,223524,1,0,0:0:0:0:
64,192,223608,1,0,0:0:0:0:
192,192,223608,1,0,0:0:0:0:
64,192,223691,128,0,223774:0:0:0:0:
320,192,223691,128,0,223774:0:0:0:0:
448,192,223691,128,0,223774:0:0:0:0:
64,192,223858,128,0,223941:0:0:0:0:
192,192,223858,128,0,223941:0:0:0:0:
448,192,223858,128,0,223941:0:0:0:0:
192,192,224024,1,0,0:0:0:0:
320,192,224024,1,0,0:0:0:0:
448,192,224024,1,0,0:0:0:0:
320,192,224191,1,0,0:0:0:0:
448,192,224191,1,0,0:0:0:0:
64,192,224274,1,0,0:0:0:0:
64,192,224358,1,0,0:0:0:0:
192,192,224358,1,0,0:0:0:0:
320,192,224358,1,0,0:0:0:0:
448,192,224524,1,0,0:0:0:0:
448,192,224608,1,0,0:0:0:0:
64,192,224691,1,0,0:0:0:0:
192,192,224691,1,0,0:0:0:0:
320,192,224691,1,0,0:0:0:0:
64,192,224858,1,0,0:0:0:0:
192,192,224858,1,0,0:0:0:0:
448,192,224941,1,0,0:0:0:0:
192,192,225024,1,0,0:0:0:0:
320,192,225024,1,0,0:0:0:0:
448,192,225024,1,0,0:0:0:0:
64,192,225191,1,0,0:0:0:0:
64,192,225274,1,0,0:0:0:0:
192,192,225358,1,0,0:0:0:0:
320,192,225358,1,0,0:0:0:0:
448,192,225358,1,0,0:0:0:0:
320,192,225524,1,0,0:0:0:0:
448,192,225524,1,0,0:0:0:0:
64,192,225608,1,0,0:0:0:0:
64,192,225691,1,0,0:0:0:0:
192,192,225691,1,0,0:0:0:0:
320,192,225691,1,0,0:0:0:0:
448,192,225858,1,0,0:0:0:0:
448,192,225941,1,0,0:0:0:0:
64,192,226024,1,0,0:0:0:0:
192,192,226024,1,0,0:0:0:0:
320,192,226024,1,0,0:0:0:0:
64,192,226191,1,0,0:0:0:0:
192,192,226191,1,0,0:0:0:0:
448,192,226274,1,0,0:0:0:0:
192,192,226358,1,0,0:0:0:0:
320,192,226358,1,0,0:0:0:0:
448,192,226358,1,0,0:0:0:0:
64,192,226524,1,0,0:0:0:0:
64,192,226608,1,0,0:0:0:0:
192,192,226691,1,0,0:0:0:0:
320,192,226691,1,0,0:0:0:0:
448,192,226691,1,0,0:0:0:0:
320,192,226858,1,0,0:0:0:0:
448,192,226858,1,0,0:0:0:0:
64,192,226941,1,0,0:0:0:0:
64,192,227024,1,0,0:0:0:0:
192,192,227024,1,0,0:0:0:0:
320,192,227024,1,0,0:0:0:0:
448,192,227191,1,0,0:0:0:0:
448,192,227274,1,0,0:0:0:0:
64,192,227358,1,0,0:0:0:0:
192,192,227358,1,0,0:0:0:0:
320,192,227358,1,0,0:0:0:0:
64,192,227524,1,0,0:0:0:0:
192,192,227524,1,0,0:0:0:0:
448,192,227608,1,0,0:0:0:0:
192,192,227691,1,0,0:0:0:0:
320,192,227691,1,0,0:0:0:0:
448,192,227691,1,0,0:0:0:0:
64,192,227858,1,0,0:0:0:0:
64,192,227941,1,0,0:0:0:0:
192,192,228024,1,0,0:0:0:0:
448,192,228024,1,0,0:0:0:0:
320,192,228080,1,0,0:0:0:0:
192,192,228136,1,0,0:0:0:0:
320,192,228191,1,0,0:0:0:0:
448,192,228247,1,0,0:0:0:0:
192,192,228302,1,0,0:0:0:0:
64,192,228358,1,0,0:0:0:0:
320,192,228358,1,0,0:0:0:0:
448,192,228413,1,0,0:0:0:0:
64,192,228469,1,0,0:0:0:0:
192,192,228524,1,0,0:0:0:0:
320,192,228580,1,0,0:0:0:0:
64,192,228636,1,0,0:0:0:0:
192,192,228691,1,0,0:0:0:0:
448,192,228691,1,0,0:0:0:0:
320,192,228747,1,0,0:0:0:0:
192,192,228802,1,0,0:0:0:0:
320,192,228858,1,0,0:0:0:0:
448,192,228913,1,0,0:0:0:0:
192,192,228969,1,0,0:0:0:0:
64,192,229024,1,0,0:0:0:0:
320,192,229024,1,0,0:0:0:0:
448,192,229080,1,0,0:0:0:0:
64,192,229136,1,0,0:0:0:0:
192,192,229191,1,0,0:0:0:0:
320,192,229247,1,0,0:0:0:0:
64,192,229302,1,0,0:0:0:0:
192,192,229358,1,0,0:0:0:0:
320,192,229358,1,0,0:0:0:0:
448,192,229358,1,0,0:0:0:0:
320,192,229524,1,0,0:0:0:0:
448,192,229524,1,0,0:0:0:0:
64,192,229608,1,0,0:0:0:0:
64,192,229691,1,0,0:0:0:0:
192,192,229691,1,0,0:0:0:0:
448,192,229691,1,0,0:0:0:0:
320,192,229858,1,0,0:0:0:0:
320,192,229941,1,0,0:0:0:0:
64,192,230024,1,0,0:0:0:0:
192,192,230024,1,0,0:0:0:0:
448,192,230024,1,0,0:0:0:0:
64,192,230191,1,0,0:0:0:0:
192,192,230191,1,0,0:0:0:0:
448,192,230274,1,0,0:0:0:0:
64,192,230358,1,0,0:0:0:0:
320,192,230358,1,0,0:0:0:0:
448,192,230358,1,0,0:0:0:0:
192,192,230524,1,0,0:0:0:0:
192,192,230608,1,0,0:0:0:0:
64,192,230691,1,0,0:0:0:0:
320,192,230691,1,0,0:0:0:0:
448,192,230691,1,0,0:0:0:0:
320,192,230858,1,0,0:0:0:0:
448,192,230858,1,0,0:0:0:0:
64,192,230941,1,0,0:0:0:0:
64,192,231024,1,0,0:0:0:0:
192,192,231024,1,0,0:0:0:0:
448,192,231024,1,0,0:0:0:0:
320,192,231191,1,0,0:0:0:0:
320,192,231274,1,0,0:0:0:0:
64,192,231358,1,0,0:0:0:0:
192,192,231358,1,0,0:0:0:0:
448,192,231358,1,0,0:0:0:0:
64,192,231524,1,0,0:0:0:0:
192,192,231524,1,0,0:0:0:0:
448,192,231608,1,0,0:0:0:0:
64,192,231691,1,0,0:0:0:0:
320,192,231691,1,0,0:0:0:0:
448,192,231691,1,0,0:0:0:0:
192,192,231858,1,0,0:0:0:0:
192,192,231941,1,0,0:0:0:0:
64,192,232024,1,0,0:0:0:0:
320,192,232024,1,0,0:0:0:0:
448,192,232024,1,0,0:0:0:0:
320,192,232191,1,0,0:0:0:0:
448,192,232191,1,0,0:0:0:0:
64,192,232274,1,0,0:0:0:0:
64,192,232358,1,0,0:0:0:0:
192,192,232358,1,0,0:0:0:0:
448,192,232358,1,0,0:0:0:0:
320,192,232524,1,0,0:0:0:0:
320,192,232608,1,0,0:0:0:0:
64,192,232691,1,0,0:0:0:0:
192,192,232691,1,0,0:0:0:0:
448,192,232691,1,0,0:0:0:0:
64,192,232858,1,0,0:0:0:0:
192,192,232858,1,0,0:0:0:0:
448,192,232941,1,0,0:0:0:0:
192,192,233024,1,0,0:0:0:0:
320,192,233024,1,0,0:0:0:0:
448,192,233024,1,0,0:0:0:0:
64,192,233191,1,0,0:0:0:0:
64,192,233274,1,0,0:0:0:0:
320,192,233358,1,0,0:0:0:0:
448,192,233358,1,0,0:0:0:0:
320,192,233441,1,0,0:0:0:0:
448,192,233441,1,0,0:0:0:0:
192,192,233524,1,0,0:0:0:0:
320,192,233524,1,0,0:0:0:0:
448,192,233524,1,0,0:0:0:0:
64,192,233691,1,0,0:0:0:0:
192,192,233691,1,0,0:0:0:0:
64,192,233774,1,0,0:0:0:0:
192,192,233774,1,0,0:0:0:0:
64,192,233858,1,0,0:0:0:0:
192,192,233858,1,0,0:0:0:0:
320,192,233858,1,0,0:0:0:0:
320,192,234024,1,0,0:0:0:0:
448,192,234024,1,0,0:0:0:0:
64,192,234108,1,0,0:0:0:0:
192,192,234108,1,0,0:0:0:0:
320,192,234191,1,0,0:0:0:0:
448,192,234191,1,0,0:0:0:0:
64,192,234274,1,0,0:0:0:0:
192,192,234274,1,0,0:0:0:0:
64,192,234358,128,0,234441:0:0:0:0:
192,192,234358,128,0,234441:0:0:0:0:
448,192,234358,128,0,234441:0:0:0:0:
64,192,234524,128,0,234733:0:0:0:0:
192,192,234524,128,0,240024:0:0:0:0:
320,192,234524,128,0,234733:0:0:0:0:
448,192,234524,128,0,234733:0:0:0:0:
