osu file format v14

[General]
AudioFilename: audio.mp3
AudioLeadIn: 0
PreviewTime: 278340
Countdown: 0
SampleSet: Drum
StackLeniency: 0.3
Mode: 0
LetterboxInBreaks: 0
WidescreenStoryboard: 0

[Editor]
Bookmarks: 64478,96478,112477,128478,168478,199366,278340,338784,385454,444530,503607,533146
DistanceSpacing: 0.3
BeatDivisor: 6
GridSize: 32
TimelineZoom: 4.099999

[Metadata]
Title:Stillness is Timeless
TitleUnicode:Stillness is Timeless
Artist:Persefone
ArtistUnicode:Persefone
Creator:SinHay
Version:Time is the Sin of Eternity
Source:
Tags:aathma thundur marathon collab progressive metal english death melodic extreme andorra
BeatmapID:3194020
BeatmapSetID:1564104

[Difficulty]
HPDrainRate:5
CircleSize:4.5
OverallDifficulty:9.5
ApproachRate:9.8
SliderMultiplier:2
SliderTickRate:1

[Events]
//Background and Video events
0,0,"persefone2.jpg",0,0
//Break Periods
2,199566,203550
2,415192,444051
//Storyboard Layer 0 (Background)
//Storyboard Layer 1 (Fail)
//Storyboard Layer 2 (Pass)
//Storyboard Layer 3 (Foreground)
//Storyboard Layer 4 (Overlay)
//Storyboard Sound Samples

[TimingPoints]
80,500,4,2,3,30,1,0
2080,512.820512820513,4,2,3,30,1,0
3105,526.315789473684,4,2,3,30,1,0
4157,504.201680672269,4,2,3,30,1,0
6173,535.714285714286,4,2,3,30,1,0
6708,505.050505050505,4,2,3,30,1,0
8096,507.61421319797,4,3,1,60,1,0
8096,-83.3333333333333,4,3,1,60,0,0
8222,507.61421319797,4,3,1,5,1,0
8222,-83.3333333333333,4,3,1,5,0,0
12283,468.75,4,3,1,60,1,0
13845,-100,4,3,10,60,0,0
14001,-100,4,3,11,60,0,0
14158,-76.9230769230769,4,3,1,60,0,0
14275,-76.9230769230769,4,3,1,5,0,0
14392,-76.9230769230769,4,3,1,60,0,0
14743,-76.9230769230769,4,3,1,5,0,0
14861,-76.9230769230769,4,3,1,60,0,0
16033,-66.6666666666667,4,3,1,60,0,0
17908,-66.6666666666667,4,3,9,60,0,0
18376,-66.6666666666667,4,3,9,60,0,0
18845,-66.6666666666667,4,3,1,60,0,0
19314,-66.6666666666667,4,3,10,60,0,0
19548,-66.6666666666667,4,3,11,60,0,0
19783,-66.6666666666667,4,3,1,60,0,0
19900,-66.6666666666667,4,3,1,5,0,0
20017,-66.6666666666667,4,3,1,60,0,0
20251,-51.2820512820513,4,3,1,60,0,0
20368,-51.2820512820513,4,3,1,5,0,0
20720,-86.9565217391304,4,2,1,45,0,0
20837,-86.9565217391304,4,2,1,5,0,0
20955,-86.9565217391304,4,2,1,45,0,0
21189,-86.9565217391304,4,2,1,5,0,0
21307,-86.9565217391304,4,2,1,45,0,0
21540,-86.9565217391304,4,2,1,5,0,0
21658,-86.9565217391304,4,2,1,45,0,0
22243,-86.9565217391304,4,2,1,5,0,0
22361,-86.9565217391304,4,2,1,45,0,0
22595,-66.6666666666667,4,2,1,45,0,0
22712,-66.6666666666667,4,2,1,5,0,0
22829,-66.6666666666667,4,2,1,45,0,0
23064,-76.9230769230769,4,2,1,45,0,0
23181,-76.9230769230769,4,2,1,5,0,0
23298,-76.9230769230769,4,2,1,45,0,0
24001,-76.9230769230769,4,2,1,5,0,0
24118,-76.9230769230769,4,2,1,45,0,0
24704,-76.9230769230769,4,2,1,5,0,0
24821,-76.9230769230769,4,2,1,45,0,0
25056,-76.9230769230769,4,2,1,5,0,0
25173,-76.9230769230769,4,2,1,45,0,0
25408,-68.9655172413793,4,3,1,60,0,0
26970,-68.9655172413793,4,3,11,60,0,0
27126,-68.9655172413793,4,3,10,60,0,0
28225,468.75,3,3,1,60,1,0
28225,-69.9300699300699,3,3,1,60,0,0
28342,-69.9300699300699,3,3,1,5,0,0
28459,-69.9300699300699,3,3,1,60,0,0
29396,-69.9300699300699,3,3,3,60,0,0
29631,468.75,4,3,1,60,1,0
29631,-69.9300699300699,3,3,1,60,0,0
29865,-69.9300699300699,3,3,4,60,0,0
30099,-69.9300699300699,3,3,1,60,0,0
30568,-57.8034682080925,3,3,1,60,0,0
30685,-57.8034682080925,3,3,1,5,0,0
30802,-57.8034682080925,3,3,1,60,0,0
31037,-69.9300699300699,3,3,1,60,0,0
31506,-78.7401574803149,3,3,1,60,0,0
31740,-78.7401574803149,3,3,1,5,0,0
31857,-78.7401574803149,3,3,1,60,0,0
32091,-78.7401574803149,3,3,1,5,0,0
32208,-78.7401574803149,3,3,1,60,0,0
33263,-78.7401574803149,3,3,1,5,0,0
33381,-78.7401574803149,3,3,1,60,0,0
33498,-78.7401574803149,3,3,1,5,0,0
33615,-78.7401574803149,3,3,1,60,0,0
33849,-78.7401574803149,3,3,3,60,0,0
34201,-78.7401574803149,3,3,1,5,0,0
34318,-78.7401574803149,3,3,1,60,0,0
34396,-78.7401574803149,3,3,10,60,0,0
34865,-78.7401574803149,3,3,11,60,0,0
35256,-70.9219858156028,3,3,1,60,0,0
36193,-80,3,3,3,60,0,0
36427,-80,3,3,1,30,0,0
36545,-80,3,3,1,60,0,0
36662,-80,3,3,1,30,0,0
36896,-80,3,3,3,60,0,0
37130,-80,3,3,1,30,0,0
37599,-80,3,3,1,60,0,0
37716,-80,3,3,1,5,0,0
37834,-80,3,3,1,60,0,0
37951,-80,3,3,1,5,0,0
38068,-57.8034682080925,3,3,3,60,0,0
38302,-57.8034682080925,3,3,1,60,0,0
39006,468.75,3,3,1,60,1,0
39006,-78.7401574803149,3,3,1,60,0,0
39240,-78.7401574803149,3,3,1,5,0,0
39357,-78.7401574803149,3,3,1,60,0,0
39591,-78.7401574803149,3,3,1,5,0,0
39708,-78.7401574803149,3,3,1,60,0,0
39943,-78.7401574803149,3,3,1,30,0,0
40060,-78.7401574803149,3,3,1,60,0,0
40646,-78.7401574803149,3,3,1,5,0,0
40763,-78.7401574803149,3,3,1,60,0,0
40998,-78.7401574803149,3,3,1,5,0,0
41115,-78.7401574803149,3,3,4,60,0,0
41349,-78.7401574803149,3,3,1,5,0,0
41466,-78.7401574803149,3,3,2,60,0,0
41701,-78.7401574803149,3,3,2,5,0,0
41818,-78.7401574803149,3,3,1,60,0,0
42354,-78.7401574803149,3,3,1,5,0,0
42421,-78.7401574803149,3,3,1,60,0,0
43693,-78.7401574803149,3,3,9,60,0,0
45099,-133.333333333333,3,3,1,60,0,0
45216,-133.333333333333,3,3,1,5,0,0
45568,-102.040816326531,3,3,3,60,0,0
45685,-102.040816326531,3,3,1,5,0,0
46037,-80,3,3,1,60,0,0
46740,-80,3,3,1,5,0,0
46857,-80,3,3,4,60,0,0
47091,-80,3,3,1,5,0,0
47208,-80,3,3,1,60,0,0
47677,-80,3,3,3,60,0,0
47912,-80,3,3,1,5,0,0
48029,-80,3,3,1,60,0,0
48263,-80,3,3,1,5,0,0
48381,-80,3,3,1,30,0,0
48849,-76.9230769230769,3,3,1,60,0,0
48966,-76.9230769230769,3,3,1,5,0,0
49084,-76.9230769230769,3,3,1,60,0,0
49201,-76.9230769230769,3,3,1,5,0,0
49318,-76.9230769230769,3,3,11,60,0,0
49787,-76.9230769230769,3,3,12,60,0,0
50256,444.444444444444,4,3,1,60,1,0
50256,-74.0740740740741,3,3,1,60,0,0
50478,-74.0740740740741,3,3,3,60,0,0
50922,-74.0740740740741,3,3,2,60,0,0
51144,-74.0740740740741,3,3,3,60,0,0
51367,-74.0740740740741,3,3,2,60,0,0
51478,-74.0740740740741,3,3,3,60,0,0
51589,-74.0740740740741,3,3,2,60,0,0
51811,-74.0740740740741,3,3,3,60,0,0
52033,-74.0740740740741,3,3,2,60,0,0
52256,-74.0740740740741,3,3,3,60,0,0
52700,-74.0740740740741,3,3,2,60,0,0
52922,-74.0740740740741,3,3,3,60,0,0
53033,-74.0740740740741,3,3,4,60,0,0
53144,-74.0740740740741,3,3,2,60,0,0
53367,-74.0740740740741,3,3,3,60,0,0
53478,-74.0740740740741,3,3,4,60,0,0
53589,-74.0740740740741,3,3,2,60,0,0
53811,-74.0740740740741,3,3,1,60,0,0
54033,-74.0740740740741,3,3,3,60,0,0
54477,-74.0740740740741,3,3,2,60,0,0
54699,-74.0740740740741,3,3,3,60,0,0
54922,-74.0740740740741,3,3,2,60,0,0
55033,-74.0740740740741,3,3,3,60,0,0
55144,-74.0740740740741,3,3,2,60,0,0
55366,-74.0740740740741,3,3,3,60,0,0
55588,-74.0740740740741,3,3,2,60,0,0
55811,-74.0740740740741,3,3,1,60,0,0
56033,-74.0740740740741,3,3,2,60,0,0
56255,-74.0740740740741,3,3,2,60,0,0
56478,-74.0740740740741,3,3,9,60,0,0
56700,-74.0740740740741,3,3,10,60,0,0
56922,-74.0740740740741,3,3,11,60,0,0
57144,-74.0740740740741,3,3,12,60,0,0
57367,-74.0740740740741,3,3,1,60,0,0
57589,-74.0740740740741,3,3,3,60,0,0
58033,-74.0740740740741,3,3,2,60,0,0
58255,-74.0740740740741,3,3,3,60,0,0
58478,-74.0740740740741,3,3,2,60,0,0
58589,-74.0740740740741,3,3,3,60,0,0
58700,-74.0740740740741,3,3,2,60,0,0
58922,-74.0740740740741,3,3,3,60,0,0
59144,-74.0740740740741,3,3,2,60,0,0
59367,-74.0740740740741,3,3,3,60,0,0
59811,-74.0740740740741,3,3,2,60,0,0
60033,-74.0740740740741,3,3,3,60,0,0
60144,-74.0740740740741,3,3,4,60,0,0
60255,-74.0740740740741,3,3,2,60,0,0
60478,-74.0740740740741,3,3,3,60,0,0
60589,-74.0740740740741,3,3,4,60,0,0
60700,-74.0740740740741,3,3,2,60,0,0
60922,-74.0740740740741,3,3,2,60,0,0
61144,-74.0740740740741,3,3,3,60,0,0
61588,-74.0740740740741,3,3,2,60,0,0
61810,-74.0740740740741,3,3,3,60,0,0
62033,-74.0740740740741,3,3,2,60,0,0
62144,-74.0740740740741,3,3,3,60,0,0
62255,-74.0740740740741,3,3,2,60,0,0
62478,-74.0740740740741,3,3,3,60,0,0
62700,-74.0740740740741,3,3,2,60,0,0
62922,-74.0740740740741,3,3,1,60,0,0
63144,-74.0740740740741,3,3,9,60,0,0
63589,-74.0740740740741,3,3,10,60,0,0
63811,-74.0740740740741,3,3,11,60,0,0
64033,-74.0740740740741,3,3,12,60,0,0
65589,-74.0740740740741,3,3,10,60,0,0
65811,-90.9090909090909,3,3,1,60,0,0
65922,-90.9090909090909,3,3,1,5,0,0
66255,-90.9090909090909,3,3,1,60,0,0
66404,-90.9090909090909,3,3,2,60,0,0
68922,-90.9090909090909,3,3,4,60,0,0
69070,-90.9090909090909,3,3,2,60,0,0
69367,-90.9090909090909,3,3,1,15,0,0
69515,-90.9090909090909,3,3,2,35,0,0
69663,-90.9090909090909,3,3,3,50,0,0
69811,-90.9090909090909,3,3,1,60,0,0
69959,-90.9090909090909,3,3,2,60,0,0
73367,-90.9090909090909,3,3,1,60,0,0
73515,-90.9090909090909,3,3,2,60,0,0
75293,-90.9090909090909,3,3,4,60,0,0
75441,-90.9090909090909,3,3,2,60,0,0
75885,-90.9090909090909,3,3,4,60,0,0
76033,-90.9090909090909,3,3,2,60,0,0
76774,-90.9090909090909,3,3,9,60,0,0
76922,-90.9090909090909,3,3,1,60,0,0
77070,-90.9090909090909,3,3,2,60,0,0
78700,444.444444444444,6,3,2,60,1,0
80033,-100,6,3,9,60,0,0
80477,-100,6,3,11,60,0,0
80922,-100,6,3,10,60,0,0
81367,444.444444444444,4,3,1,60,1,0
81367,-71.4285714285714,4,3,1,60,0,0
81663,-71.4285714285714,4,3,1,5,0,0
81811,-71.4285714285714,4,3,1,60,0,0
84700,-71.4285714285714,4,3,1,5,0,0
85070,-71.4285714285714,4,3,1,60,0,0
86107,-71.4285714285714,4,3,1,5,0,0
86255,-71.4285714285714,4,3,1,60,0,0
88329,-71.4285714285714,4,3,4,60,0,0
88478,-71.4285714285714,4,3,1,60,0,0
91589,-71.4285714285714,4,3,9,60,0,0
91737,-71.4285714285714,4,3,10,60,0,0
91811,-71.4285714285714,4,3,1,5,0,0
92181,-71.4285714285714,4,3,1,60,0,0
93811,444.444444444444,6,3,1,60,1,0
93811,-71.4285714285714,6,3,1,60,0,0
95588,-100,6,3,11,60,0,0
96033,-100,6,3,10,60,0,0
96478,444.444444444444,4,3,1,70,1,1
96478,-62.5,4,3,1,70,0,1
112181,-62.5,4,3,12,70,0,1
112329,-62.5,4,3,11,70,0,1
112477,-66.6666666666667,4,3,1,60,0,0
112626,-66.6666666666667,4,3,4,60,0,0
114255,444.444444444444,5,3,4,60,1,0
114255,-66.6666666666667,5,3,4,60,0,0
115588,-66.6666666666667,4,3,1,60,0,0
115737,-66.6666666666667,4,3,4,60,0,0
116478,444.444444444444,4,3,1,60,1,0
116478,-66.6666666666667,4,3,1,60,0,0
116626,-66.6666666666667,4,3,4,60,0,0
116922,-66.6666666666667,4,3,1,60,0,0
117070,-66.6666666666667,4,3,4,60,0,0
118255,444.444444444444,5,3,1,60,1,0
118255,-66.6666666666667,5,3,1,60,0,0
118403,-66.6666666666667,4,3,4,60,0,0
120478,444.444444444444,4,3,1,60,1,0
120478,-66.6666666666667,4,3,1,60,0,0
120626,-66.6666666666667,4,3,4,60,0,0
122255,444.444444444444,5,3,4,60,1,0
122255,-66.6666666666667,4,3,4,60,0,0
124478,444.444444444444,4,3,1,60,1,0
124478,-66.6666666666667,4,3,1,60,0,0
124626,-66.6666666666667,4,3,4,60,0,0
126255,444.444444444444,5,3,4,60,1,0
126255,-66.6666666666667,4,3,4,60,0,0
126699,-66.6666666666667,4,3,1,60,0,0
126847,-66.6666666666667,4,3,4,60,0,0
128032,-66.6666666666667,4,3,2,60,0,0
128478,444.444444444444,4,3,1,60,1,0
128478,-64.5161290322581,4,3,1,60,0,0
129144,-64.5161290322581,4,3,3,60,0,0
129366,-64.5161290322581,4,3,1,60,0,0
129589,-64.5161290322581,4,3,3,60,0,0
129700,-64.5161290322581,4,3,1,60,0,0
129811,-64.5161290322581,4,3,3,60,0,0
129922,-64.5161290322581,4,3,1,60,0,0
130700,-64.5161290322581,4,3,11,60,0,0
131255,-64.5161290322581,4,3,1,60,0,0
131589,-64.5161290322581,4,3,10,60,0,0
132033,-86.9565217391304,4,3,1,60,0,0
139144,-80,4,3,1,60,0,0
145366,-80,4,3,12,60,0,0
145811,-80,4,3,11,60,0,0
146255,-80,4,3,10,60,0,0
146700,444.444444444444,4,3,1,60,1,0
146700,-76.9230769230769,4,3,1,60,0,0
146922,-76.9230769230769,4,3,1,5,0,0
147033,-76.9230769230769,4,3,1,60,0,0
147255,-76.9230769230769,4,3,1,5,0,0
147366,-76.9230769230769,4,3,1,60,0,0
147477,-76.9230769230769,4,3,1,5,0,0
147588,-76.9230769230769,4,3,1,60,0,0
148366,-76.9230769230769,4,3,1,5,0,0
148477,-76.9230769230769,4,3,1,60,0,0
148700,-76.9230769230769,4,3,1,5,0,0
148811,-76.9230769230769,4,3,1,60,0,0
149033,-76.9230769230769,4,3,1,5,0,0
149144,-76.9230769230769,4,3,1,60,0,0
149477,-76.9230769230769,4,3,11,60,0,0
149588,-76.9230769230769,4,3,1,60,0,0
149700,-76.9230769230769,4,3,10,60,0,0
149811,-76.9230769230769,4,3,1,60,0,0
149922,-66.6666666666667,4,3,1,60,0,0
150143,-66.6666666666667,4,3,1,5,0,0
150255,444.444444444444,5,3,1,60,1,0
150255,-76.9230769230769,4,3,1,60,0,0
150477,-76.9230769230769,4,3,1,5,0,0
150588,-76.9230769230769,4,3,1,60,0,0
150810,-76.9230769230769,4,3,1,5,0,0
150921,-76.9230769230769,4,3,1,60,0,0
151032,-76.9230769230769,4,3,1,5,0,0
151143,-76.9230769230769,4,3,1,60,0,0
151921,-76.9230769230769,4,3,1,5,0,0
152032,-76.9230769230769,4,3,1,60,0,0
152366,-76.9230769230769,4,3,1,5,0,0
152478,444.444444444444,4,3,1,60,1,0
152478,-76.9230769230769,4,3,1,60,0,0
152700,-76.9230769230769,4,3,1,5,0,0
152811,-76.9230769230769,4,3,1,60,0,0
153033,-76.9230769230769,4,3,1,5,0,0
153144,-76.9230769230769,4,3,1,60,0,0
153255,-76.9230769230769,4,3,1,5,0,0
153366,-76.9230769230769,4,3,1,60,0,0
154144,-76.9230769230769,4,3,1,5,0,0
154255,-76.9230769230769,4,3,1,60,0,0
154478,-76.9230769230769,4,3,1,5,0,0
154589,-76.9230769230769,4,3,1,60,0,0
156033,444.444444444444,5,3,1,60,1,0
156033,-76.9230769230769,4,3,1,60,0,0
156255,-76.9230769230769,4,3,1,5,0,0
156366,-76.9230769230769,4,3,1,60,0,0
156588,-76.9230769230769,4,3,1,5,0,0
156699,-76.9230769230769,4,3,1,60,0,0
156810,-76.9230769230769,4,3,1,5,0,0
156921,-76.9230769230769,4,3,1,60,0,0
157699,-76.9230769230769,4,3,1,5,0,0
157810,-76.9230769230769,4,3,1,60,0,0
158144,-76.9230769230769,4,3,1,5,0,0
158255,444.444444444444,4,3,1,60,1,0
158255,-76.9230769230769,4,3,1,60,0,0
158477,-76.9230769230769,4,3,1,5,0,0
158588,-76.9230769230769,4,3,1,60,0,0
158810,-76.9230769230769,4,3,1,5,0,0
158921,-76.9230769230769,4,3,1,60,0,0
159032,-76.9230769230769,4,3,1,5,0,0
159143,-76.9230769230769,4,3,1,60,0,0
159921,-76.9230769230769,4,3,1,5,0,0
160032,-76.9230769230769,4,3,1,60,0,0
160255,-76.9230769230769,4,3,1,5,0,0
160366,-76.9230769230769,4,3,1,60,0,0
160588,-76.9230769230769,4,3,1,5,0,0
160699,-76.9230769230769,4,3,1,60,0,0
161366,-76.9230769230769,4,3,10,60,0,0
161811,444.444444444444,5,3,1,60,1,0
161811,-76.9230769230769,4,3,1,60,0,0
162033,-76.9230769230769,4,3,1,5,0,0
162144,-76.9230769230769,4,3,1,60,0,0
162366,-76.9230769230769,4,3,1,5,0,0
162477,-76.9230769230769,4,3,1,60,0,0
162588,-76.9230769230769,4,3,1,5,0,0
162699,-76.9230769230769,4,3,1,60,0,0
163477,-76.9230769230769,4,3,1,5,0,0
163588,-76.9230769230769,4,3,1,60,0,0
163922,-76.9230769230769,4,3,1,5,0,0
164033,444.444444444444,4,3,1,60,1,0
164033,-76.9230769230769,4,3,1,60,0,0
164255,-76.9230769230769,4,3,1,5,0,0
164366,-76.9230769230769,4,3,1,60,0,0
164588,-76.9230769230769,4,3,1,5,0,0
164699,-76.9230769230769,4,3,1,60,0,0
164810,-76.9230769230769,4,3,1,5,0,0
164921,-76.9230769230769,4,3,1,60,0,0
165699,-76.9230769230769,4,3,1,5,0,0
165810,-76.9230769230769,4,3,1,60,0,0
166033,-76.9230769230769,4,3,1,5,0,0
166144,-76.9230769230769,4,3,1,60,0,0
166700,444.444444444444,3,3,1,60,1,0
166700,-66.6666666666667,3,3,1,60,0,0
167478,444.444444444444,3,3,1,60,1,0
167478,-66.6666666666667,3,3,1,60,0,0
168478,444.444444444444,4,3,1,60,1,0
168478,-58.8235294117647,4,3,1,60,0,0
168922,-58.8235294117647,4,3,3,60,0,0
171922,-58.8235294117647,4,3,4,60,0,0
172033,444.444444444444,3,3,1,60,1,0
172033,-58.8235294117647,3,3,1,60,0,0
172477,-58.8235294117647,3,3,3,60,0,0
174700,444.444444444444,4,3,1,60,1,0
174700,-58.8235294117647,4,3,1,60,0,0
175144,-58.8235294117647,4,3,3,60,0,0
177366,-58.8235294117647,4,3,1,60,0,0
177811,-58.8235294117647,4,3,3,60,0,0
178255,444.444444444444,3,3,1,60,1,0
178255,-58.8235294117647,3,3,1,60,0,0
178699,-58.8235294117647,4,3,3,60,0,0
180477,-58.8235294117647,4,3,1,60,0,0
180922,444.444444444444,4,3,1,60,1,0
180922,-55.5555555555556,4,3,1,60,0,0
181070,-55.5555555555556,4,3,9,60,0,0
181218,-55.5555555555556,4,3,1,60,0,0
181366,-55.5555555555556,4,3,12,60,0,0
181514,-55.5555555555556,4,3,11,60,0,0
181662,-55.5555555555556,4,3,1,60,0,0
181810,-55.5555555555556,4,3,11,60,0,0
181959,-55.5555555555556,4,3,10,60,0,0
182107,-55.5555555555556,4,3,1,60,0,0
182255,-55.5555555555556,4,3,11,60,0,0
182403,-55.5555555555556,4,3,10,60,0,0
182551,-55.5555555555556,4,3,1,60,0,0
182699,-55.5555555555556,4,3,1,60,0,1
184477,-55.5555555555556,4,3,4,60,0,1
184922,-55.5555555555556,4,3,2,60,0,1
185366,-55.5555555555556,4,3,4,60,0,1
185810,-58.8235294117647,4,3,1,60,0,1
186477,-52.6315789473684,4,3,1,5,0,1
186588,-52.6315789473684,4,3,1,60,0,1
186810,-52.6315789473684,4,3,1,5,0,1
186922,-52.6315789473684,4,3,1,60,0,1
187588,-52.6315789473684,4,3,1,60,0,1
187810,-52.6315789473684,4,3,1,5,0,1
187922,-52.6315789473684,4,3,1,60,0,1
188144,-52.6315789473684,4,3,1,5,0,1
188255,-52.6315789473684,4,3,1,60,0,1
188310,-52.6315789473684,4,3,1,5,0,1
188366,-52.6315789473684,4,3,1,60,0,1
188588,-52.6315789473684,4,3,1,5,0,1
188699,-52.6315789473684,4,3,1,60,0,1
188922,-50,4,3,1,60,0,1
189033,-50,4,3,1,5,0,1
189144,-50,4,3,1,60,0,1
189255,-50,4,3,1,5,0,1
189366,-50,4,3,1,60,0,1
189588,-50,4,3,11,60,0,1
189699,-50,4,3,1,60,0,1
189811,444.444444444444,3,3,1,60,1,1
189811,-66.6666666666667,3,3,1,60,0,1
189922,-66.6666666666667,3,3,1,5,0,1
190144,-66.6666666666667,3,3,1,60,0,1
190255,-50,3,3,1,60,0,1
190366,-50,3,3,1,5,0,1
190699,-50,3,3,1,60,0,1
191144,-50,3,3,2,60,0,1
191255,-50,3,3,2,5,0,1
192478,444.444444444444,4,3,4,60,1,1
192478,-100,4,3,4,60,0,1
193366,-55.5555555555556,4,3,3,60,0,1
194255,-55.5555555555556,4,3,4,60,0,1
194700,-50,4,3,1,60,0,1
194811,-50,4,3,1,5,0,1
195144,-58.8235294117647,4,3,1,60,0,1
196922,-58.8235294117647,4,3,10,60,0,1
197366,-58.8235294117647,4,3,4,60,0,1
197811,-58.8235294117647,4,3,11,60,0,1
198033,-58.8235294117647,4,3,1,60,0,1
198107,-58.8235294117647,4,3,11,60,0,1
198181,-58.8235294117647,4,3,1,60,0,1
198255,-58.8235294117647,4,3,10,60,0,1
198478,-58.8235294117647,4,3,1,60,0,1
198552,-58.8235294117647,4,3,10,60,0,1
198626,-58.8235294117647,4,3,1,60,0,1
198700,-58.8235294117647,4,3,1,60,0,1
198755,-58.8235294117647,4,3,1,60,0,0
199033,-58.8235294117647,4,3,1,60,0,1
199089,-58.8235294117647,4,3,1,60,0,0
199366,-58.8235294117647,4,3,1,60,0,1
199422,-58.8235294117647,4,3,1,60,0,0
199589,444.444444444444,5,3,1,60,1,0
204029,444.444444444444,4,2,30,35,1,0
204029,-100,4,2,30,35,0,0
205584,-100,4,2,31,35,0,0
206917,-100,4,2,32,35,0,0
207584,-100,4,2,33,35,0,0
208251,-100,4,2,34,35,0,0
208917,-100,4,2,35,35,0,0
209806,-100,4,2,36,35,0,0
210695,-100,4,2,37,35,0,0
211140,-100,4,2,38,35,0,0
213809,444.444444444444,4,2,39,35,1,0
213809,-133.333333333333,4,2,39,35,0,0
214031,-133.333333333333,4,2,40,35,0,0
214253,-133.333333333333,4,2,41,35,0,0
214697,-133.333333333333,4,2,42,35,0,0
215142,-133.333333333333,4,2,43,35,0,0
217364,-133.333333333333,4,2,39,35,0,0
217586,-133.333333333333,4,2,40,35,0,0
217809,-133.333333333333,4,2,44,35,0,0
218031,-117.647058823529,4,2,45,35,0,0
218364,-117.647058823529,4,2,45,5,0,0
218697,-133.333333333333,4,2,46,35,0,0
219364,-133.333333333333,4,2,47,35,0,0
221364,-133.333333333333,4,2,48,35,0,0
221813,444.444444444444,4,2,49,35,1,0
221813,-133.333333333333,4,2,49,35,0,0
222257,-133.333333333333,4,2,49,5,0,0
222479,-133.333333333333,4,2,50,35,0,0
223146,-133.333333333333,4,2,51,35,0,0
223813,-133.333333333333,4,2,52,35,0,0
227146,400,4,3,1,45,1,0
227146,-111.111111111111,4,3,1,45,0,0
239946,-80,4,3,2,45,0,0
240146,-80,4,3,2,45,0,0
240746,-80,4,3,2,45,0,0
240946,-80,4,3,2,45,0,0
241546,-80,4,3,2,45,0,0
241746,-80,4,3,2,45,0,0
241946,-80,4,3,2,45,0,0
242246,-80,4,3,2,5,0,0
242346,-80,4,3,2,45,0,0
242446,-80,4,3,2,5,0,0
242546,-80,4,3,2,45,0,0
242746,-80,4,3,2,45,0,0
243946,-80,4,3,2,45,0,0
244146,-80,4,3,2,45,0,0
246246,-80,4,3,2,5,0,0
246346,-80,4,3,2,45,0,0
246546,-80,4,3,2,45,0,0
247146,-80,4,3,2,45,0,0
247346,-80,4,3,2,45,0,0
247946,-80,4,3,3,45,0,0
248046,-80,4,3,2,5,0,0
248146,-80,4,3,2,45,0,0
248746,-80,4,3,2,45,0,0
248946,-80,4,3,2,45,0,0
249546,-80,4,3,3,45,0,0
249946,-80,4,3,2,45,0,0
250146,-80,4,3,2,45,0,0
250346,-80,4,3,2,45,0,0
250746,-80,4,3,2,45,0,0
251046,-80,4,3,3,5,0,0
251146,-80,4,3,3,45,0,0
251246,-80,4,3,3,5,0,0
251346,-80,4,3,3,45,0,0
251546,-80,4,3,3,45,0,0
251946,-80,4,3,1,45,0,0
252346,-80,4,3,10,45,0,0
252746,-80,4,3,2,45,0,0
252846,-80,4,3,2,5,0,0
253546,-80,4,3,2,45,0,0
253746,-80,4,3,2,45,0,0
254846,-80,4,3,2,5,0,0
255146,-80,4,3,2,45,0,0
255346,-80,4,3,2,45,0,0
256746,-80,4,3,3,45,0,0
256946,-80,4,3,2,45,0,0
258346,-80,4,3,2,45,0,0
258746,-80,4,3,3,45,0,0
258846,-80,4,3,3,5,0,0
258946,-80,4,3,3,45,0,0
259046,-80,4,3,3,45,0,0
259146,-80,4,3,2,45,0,0
259246,-80,4,3,2,5,0,0
259346,-80,4,3,2,45,0,0
259946,-80,4,3,2,45,0,0
260146,-80,4,3,2,45,0,0
261246,-80,4,3,2,5,0,0
261546,-80,4,3,2,45,0,0
261946,-166.666666666667,4,3,4,45,0,0
262046,-166.666666666667,4,3,4,5,0,0
262346,-80,4,3,3,45,0,0
262446,-80,4,3,3,5,0,0
262946,-80,4,3,3,45,0,0
263046,-80,4,3,3,5,0,0
263146,-80,4,3,3,45,0,0
263246,-80,4,3,3,5,0,0
263546,-80,4,3,2,45,0,0
263646,-80,4,3,2,5,0,0
264146,-80,4,3,3,45,0,0
264246,-80,4,3,3,5,0,0
264346,-74.0740740740741,4,3,2,45,0,0
264446,-74.0740740740741,4,3,2,5,0,0
264546,-74.0740740740741,4,3,2,45,0,0
264646,-74.0740740740741,4,3,2,5,0,0
264746,-74.0740740740741,4,3,1,45,0,0
265146,-74.0740740740741,4,3,4,45,0,0
265246,-74.0740740740741,4,3,4,5,0,0
265346,-74.0740740740741,4,3,4,45,0,0
265546,-80,4,3,2,45,0,0
265946,-80,4,3,2,45,0,0
266346,-80,4,3,2,45,0,0
266546,-80,4,3,2,45,0,0
267946,-80,4,3,2,45,0,0
268146,-80,4,3,2,45,0,0
269546,-80,4,3,2,45,0,0
269746,-80,4,3,2,45,0,0
269946,-80,4,3,3,45,0,0
270346,-80,4,3,2,45,0,0
270546,-80,4,3,2,45,0,0
271046,-80,4,3,2,5,0,0
271146,-80,4,3,2,45,0,0
271346,-80,4,3,2,5,0,0
271446,-80,4,3,12,45,0,0
271946,-80,4,3,11,45,0,0
272212,-80,4,3,10,45,0,0
272479,-80,4,3,2,45,0,0
272946,-80,4,3,2,45,0,0
273412,-80,4,3,2,65,0,0
273746,-80,4,3,2,45,0,0
274346,-80,4,3,2,45,0,0
274546,-80,4,3,2,45,0,0
275146,-80,4,3,3,45,0,0
275346,-80,4,3,2,45,0,0
275746,-80,4,3,2,45,0,0
276146,-80,4,3,2,45,0,0
276746,-80,4,3,3,45,0,0
276946,-80,4,3,3,45,0,0
277146,-80,4,3,2,45,0,0
277546,-80,4,3,11,45,0,0
277896,-80,4,3,10,45,0,0
277996,-80,4,3,2,5,0,0
278196,-80,4,3,2,45,0,0
278340,444.444444444444,4,3,1,45,1,0
278340,-333.333333333333,4,3,1,45,0,0
278451,-333.333333333333,4,3,1,5,0,0
284562,-142.857142857143,4,3,1,70,0,0
284673,-142.857142857143,4,3,1,5,0,0
285451,-90.909090909091,4,3,2,60,0,0
289006,-90.909090909091,4,3,3,60,0,0
289154,-90.909090909091,4,3,2,60,0,0
298784,-90.909090909091,4,3,3,60,0,0
298932,-90.909090909091,4,3,2,60,0,0
302340,-90.909090909091,4,3,3,60,0,0
302488,-90.909090909091,4,3,2,60,0,0
309451,-90.909090909091,4,3,3,60,0,0
309599,-90.909090909091,4,3,2,60,0,0
309747,-90.909090909091,4,3,12,60,0,0
309895,-90.909090909091,4,3,11,60,0,0
310043,-90.909090909091,4,3,10,60,0,0
310340,-66.6666666666667,4,3,1,60,0,0
313006,-66.6666666666667,4,3,12,60,0,0
313451,-66.6666666666667,4,3,11,60,0,0
313895,-66.6666666666667,4,3,1,60,0,0
316562,-66.6666666666667,4,3,12,60,0,0
316858,-66.6666666666667,4,3,11,60,0,0
317154,-66.6666666666667,4,3,10,60,0,0
317451,-66.6666666666667,4,3,4,60,0,0
317599,-66.6666666666667,4,3,1,60,0,0
318043,-66.6666666666667,4,3,3,60,0,0
318339,-66.6666666666667,4,3,1,60,0,0
320117,-66.6666666666667,4,3,12,60,0,0
320562,-66.6666666666667,4,3,11,60,0,0
321006,-66.6666666666667,4,3,1,60,0,0
323673,-66.6666666666667,4,3,12,60,0,0
323969,-66.6666666666667,4,3,11,60,0,0
324265,-66.6666666666667,4,3,10,60,0,0
324562,-66.6666666666667,4,3,3,60,0,0
324710,-66.6666666666667,4,3,1,60,0,0
325154,-66.6666666666667,4,3,3,60,0,0
327228,-66.6666666666667,4,3,4,60,0,0
327525,-66.6666666666667,4,3,3,60,0,0
327821,-66.6666666666667,4,3,1,60,0,0
328117,-66.6666666666667,4,3,3,60,0,0
328414,-66.6666666666667,4,3,2,60,0,0
329006,-66.6666666666667,4,3,4,60,0,0
329302,-66.6666666666667,4,3,2,60,0,0
330191,-66.6666666666667,4,3,4,60,0,0
330339,-66.6666666666667,4,3,2,60,0,0
330784,-66.6666666666667,4,3,4,60,0,0
330932,-66.6666666666667,4,3,2,60,0,0
331377,-66.6666666666667,4,3,11,60,0,0
331673,-66.6666666666667,4,3,1,60,0,0
332265,-66.6666666666667,4,3,2,60,0,0
332562,-66.6666666666667,4,3,1,60,0,0
332858,-66.6666666666667,4,3,2,60,0,0
333451,-66.6666666666667,4,3,3,60,0,0
333747,-66.6666666666667,4,3,2,60,0,0
334636,-66.6666666666667,4,3,3,60,0,0
334932,-66.6666666666667,4,3,2,60,0,0
335228,-66.6666666666667,4,3,1,60,0,0
335525,-66.6666666666667,4,3,2,60,0,0
336710,-66.6666666666667,4,3,3,60,0,0
337006,-66.6666666666667,4,3,2,60,0,0
337895,-66.6666666666667,4,3,12,60,0,0
338191,-66.6666666666667,4,3,11,60,0,0
338488,-66.6666666666667,4,3,10,60,0,0
338784,444.444444444444,7,3,2,60,1,0
338784,-54.054054054054,7,3,2,60,0,0
338895,-54.054054054054,7,3,2,5,0,0
339117,-50,7,3,4,60,0,0
339228,-50,7,3,4,5,0,0
340117,-50,7,3,2,60,0,0
340228,-50,7,3,2,5,0,0
340450,-50,7,3,4,60,0,0
340561,-50,7,3,2,5,0,0
340784,-50,7,3,2,60,0,0
340895,-50,7,3,4,5,0,0
341117,-50,7,3,4,60,0,0
341228,-50,7,3,4,5,0,0
341450,-50,7,3,12,60,0,0
341672,-50,7,3,11,60,0,0
341895,-58.8235294117647,7,3,1,60,0,0
342006,-58.8235294117647,7,3,1,5,0,0
342228,-58.8235294117647,7,3,1,60,0,0
342339,-58.8235294117647,7,3,1,5,0,0
342561,-58.8235294117647,7,3,1,60,0,0
343821,-58.8235294117647,7,3,12,60,0,0
343969,-58.8235294117647,7,3,11,60,0,0
344117,444.444444444444,4,3,1,60,1,0
344117,-58.8235294117647,7,3,1,60,0,0
344339,-76.9230769230769,7,3,10,60,0,0
344561,-76.9230769230769,7,3,1,5,0,0
344672,-76.9230769230769,7,3,1,60,0,0
344783,-58.8235294117647,7,3,1,60,0,0
344894,-58.8235294117647,7,3,1,5,0,0
345005,-58.8235294117647,7,3,1,60,0,0
345117,-58.8235294117647,7,3,1,5,0,0
345450,-58.8235294117647,7,3,11,60,0,0
345672,-58.8235294117647,7,3,10,60,0,0
345894,-54.054054054054,7,3,4,60,0,1
351672,-54.054054054054,7,3,12,60,0,1
352117,-54.054054054054,7,3,11,60,0,1
352561,-54.054054054054,7,3,10,60,0,1
353005,-54.054054054054,7,3,4,60,0,1
356339,-54.054054054054,7,3,10,60,0,1
356561,-54.054054054054,7,3,4,60,0,1
358339,-76.9230769230769,7,3,1,60,0,1
358394,-76.9230769230769,7,3,1,60,0,0
358672,-76.9230769230769,7,3,11,60,0,1
358728,-76.9230769230769,7,3,11,60,0,0
359005,-76.9230769230769,7,3,1,60,0,1
359061,-76.9230769230769,7,3,1,60,0,0
359339,-76.9230769230769,7,3,10,60,0,1
359394,-76.9230769230769,7,3,10,60,0,0
359672,-90.9090909090909,7,3,10,60,0,1
359728,-90.9090909090909,7,3,1,5,0,0
360117,-66.6666666666667,7,3,2,60,0,1
360339,-66.6666666666667,7,3,4,60,0,1
363672,-66.6666666666667,7,3,3,60,0,1
363894,-66.6666666666667,7,3,2,60,0,1
364117,-66.6666666666667,7,3,3,60,0,1
364228,-66.6666666666667,7,3,2,60,0,1
364339,-66.6666666666667,7,3,3,60,0,1
364450,-66.6666666666667,7,3,2,60,0,1
364672,-66.6666666666667,7,3,3,60,0,1
364783,-66.6666666666667,7,3,2,60,0,1
365005,-66.6666666666667,7,3,3,60,0,1
365116,-66.6666666666667,7,3,2,60,0,1
365339,-66.6666666666667,7,3,3,60,0,1
365450,-66.6666666666667,7,3,2,60,0,1
365672,-66.6666666666667,7,3,3,60,0,1
365783,-66.6666666666667,7,3,2,60,0,1
366005,-66.6666666666667,7,3,3,60,0,1
366116,-66.6666666666667,7,3,2,60,0,1
366339,-66.6666666666667,7,3,3,60,0,1
366450,-66.6666666666667,7,3,2,60,0,1
366672,-66.6666666666667,7,3,3,60,0,1
366783,-66.6666666666667,7,3,2,60,0,1
367228,-66.6666666666667,7,3,1,60,0,1
367450,-66.6666666666667,7,3,11,60,0,1
367783,-66.6666666666667,7,3,3,60,0,1
368117,-66.6666666666667,7,3,4,60,0,1
370783,-66.6666666666667,7,3,2,60,0,1
371005,-66.6666666666667,7,3,3,60,0,1
371339,-66.6666666666667,7,3,2,60,0,1
371449,-66.6666666666667,7,3,3,60,0,1
371560,-66.6666666666667,7,3,2,60,0,1
371782,-66.6666666666667,7,3,3,60,0,1
371893,-66.6666666666667,7,3,2,60,0,1
372116,-66.6666666666667,7,3,3,60,0,1
372227,-66.6666666666667,7,3,2,60,0,1
372449,-66.6666666666667,7,3,3,60,0,1
372560,-66.6666666666667,7,3,2,60,0,1
372782,-66.6666666666667,7,3,3,60,0,1
372893,-66.6666666666667,7,3,2,60,0,1
373116,-66.6666666666667,7,3,3,60,0,1
373227,-66.6666666666667,7,3,2,60,0,1
373894,-66.6666666666667,7,3,11,60,0,1
374339,-58.8235294117647,7,3,1,60,0,1
374394,-58.8235294117647,7,3,1,60,0,0
374672,-58.8235294117647,7,3,1,60,0,1
374783,-58.8235294117647,7,3,2,60,0,1
379672,333.333333333333,6,3,12,60,1,1
379672,-58.8235294117647,6,3,12,60,0,1
380338,-58.8235294117647,6,3,11,60,0,1
381005,-58.8235294117647,6,3,10,60,0,1
381672,-58.8235294117647,6,3,2,60,0,1
383672,444.444444444444,4,3,12,60,1,0
383672,-125,4,3,12,60,0,0
383783,-125,4,3,1,30,0,0
384042,-125,4,3,11,60,0,0
384228,-125,4,3,1,5,0,0
384339,-125,4,3,10,60,0,0
384487,-125,4,3,1,5,0,0
384561,-125,4,3,4,60,0,0
385005,-125,4,3,10,60,0,0
385079,-125,4,3,11,60,0,0
385454,461.538461538462,4,3,3,50,1,0
385454,-71.4285714285714,4,3,3,50,0,0
385915,-71.4285714285714,4,3,1,50,0,0
386377,-71.4285714285714,4,3,1,50,0,0
386838,-71.4285714285714,4,3,1,50,0,0
387300,-71.4285714285714,4,3,1,50,0,0
387761,-71.4285714285714,4,3,1,50,0,0
388223,-71.4285714285714,4,3,1,50,0,0
388684,-71.4285714285714,4,3,1,50,0,0
389146,-71.4285714285714,4,3,3,50,0,0
389607,-71.4285714285714,4,3,1,50,0,0
390069,-71.4285714285714,4,3,1,50,0,0
390530,-71.4285714285714,4,3,1,50,0,0
390992,-71.4285714285714,4,3,1,50,0,0
391454,-71.4285714285714,4,3,1,50,0,0
391915,-71.4285714285714,4,3,1,50,0,0
392376,-71.4285714285714,4,3,1,50,0,0
392838,-71.4285714285714,4,3,3,50,0,0
393299,-71.4285714285714,4,3,1,50,0,0
393761,-71.4285714285714,4,3,1,50,0,0
394222,-71.4285714285714,4,3,1,50,0,0
394684,-71.4285714285714,4,3,1,50,0,0
395145,-71.4285714285714,4,3,1,50,0,0
395607,-71.4285714285714,4,3,1,50,0,0
396068,-71.4285714285714,4,3,1,50,0,0
396530,-71.4285714285714,4,3,3,50,0,0
396991,-71.4285714285714,4,3,1,50,0,0
397454,-71.4285714285714,4,3,1,50,0,0
397915,-71.4285714285714,4,3,1,50,0,0
398377,-71.4285714285714,4,3,1,50,0,0
398838,-71.4285714285714,4,3,3,50,0,0
399300,-66.6666666666667,4,3,1,60,0,0
399761,-66.6666666666667,4,3,3,60,0,0
399877,-66.6666666666667,4,3,2,60,0,0
399992,-66.6666666666667,4,3,3,60,0,0
400107,-66.6666666666667,4,3,4,60,0,0
400223,-66.6666666666667,4,3,1,60,0,0
402992,-66.6666666666667,4,3,12,60,0,0
403454,-66.6666666666667,4,3,11,60,0,0
403915,-66.6666666666667,4,3,1,60,0,0
407723,-66.6666666666667,4,3,3,60,0,0
407954,-66.6666666666667,4,3,1,60,0,0
408069,-66.6666666666667,4,3,3,60,0,0
408300,-66.6666666666667,4,3,1,60,0,0
408646,-66.6666666666667,4,3,3,60,0,0
408992,-66.6666666666667,4,3,1,60,0,0
409107,-66.6666666666667,4,3,3,60,0,0
409338,-66.6666666666667,4,3,1,60,0,0
409684,-66.6666666666667,4,3,3,60,0,0
410377,-66.6666666666667,4,3,12,60,0,0
410838,-66.6666666666667,4,3,11,60,0,0
411300,-66.6666666666667,4,3,1,60,0,0
414992,-100,4,3,10,60,0,0
444530,-111.111111111111,4,3,1,60,0,0
447223,-111.111111111111,4,3,1,5,0,0
447300,-111.111111111111,4,3,1,60,0,0
451838,-111.111111111111,4,3,1,5,0,0
451915,-111.111111111111,4,3,1,60,0,0
454607,-111.111111111111,4,3,1,5,0,0
454684,-111.111111111111,4,3,1,60,0,0
458377,-111.111111111111,4,3,3,60,0,0
458530,-111.111111111111,4,3,2,60,0,0
458684,-111.111111111111,4,3,3,60,0,0
458838,-111.111111111111,4,3,4,60,0,0
458992,-111.111111111111,4,3,4,60,0,0
459223,-111.111111111111,4,3,1,5,0,0
459300,-111.111111111111,4,3,1,60,0,0
461992,-111.111111111111,4,3,1,5,0,0
462069,-111.111111111111,4,3,1,60,0,0
466607,-111.111111111111,4,3,1,5,0,0
466684,-111.111111111111,4,3,1,60,0,0
469377,-111.111111111111,4,3,1,5,0,0
469454,-111.111111111111,4,3,1,60,0,0
470377,-111.111111111111,4,3,1,60,0,0
471300,-111.111111111111,4,3,1,60,0,0
473992,-111.111111111111,4,3,1,5,0,0
474069,-90.9090909090908,4,3,1,60,0,0
474300,-90.9090909090908,4,3,1,5,0,0
474377,-90.9090909090908,4,3,1,60,0,0
475223,-90.9090909090908,4,3,1,5,0,0
475300,-90.9090909090908,4,3,1,60,0,0
476146,-90.9090909090908,4,3,1,5,0,0
476377,-90.9090909090908,4,3,1,60,0,0
476454,-90.9090909090908,4,3,1,5,0,0
476684,-90.9090909090908,4,3,1,60,0,0
477069,-90.9090909090908,4,3,1,5,0,0
477146,-90.9090909090908,4,3,1,60,0,0
478454,-90.9090909090908,4,3,1,5,0,0
478531,-90.9090909090908,4,3,1,60,0,0
478761,-90.9090909090908,4,3,1,5,0,0
479300,-90.9090909090908,4,3,1,60,0,0
479607,-90.9090909090908,4,3,1,60,0,0
480838,-90.9090909090908,4,3,1,60,0,0
480992,-90.9090909090908,4,3,1,60,0,0
481146,-90.9090909090908,4,3,1,60,0,0
481300,-90.9090909090908,4,3,1,60,0,0
481530,-90.9090909090908,4,3,1,5,0,0
481761,-90.9090909090908,4,3,1,60,0,0
482607,-90.9090909090908,4,3,1,5,0,0
482684,-90.9090909090908,4,3,1,60,0,0
484607,-90.9090909090908,4,3,1,5,0,0
484684,-90.9090909090908,4,3,1,60,0,0
484915,-90.9090909090908,4,3,1,5,0,0
484992,-90.9090909090908,4,3,1,60,0,0
485146,-90.9090909090908,4,3,1,60,0,0
486377,-90.9090909090908,4,3,1,60,0,0
486530,-90.9090909090908,4,3,1,60,0,0
486684,-90.9090909090908,4,3,1,60,0,0
486838,-90.9090909090908,4,3,1,60,0,0
488223,-90.9090909090908,4,3,2,60,0,0
488377,-90.9090909090908,4,3,4,60,0,0
488530,-90.9090909090908,4,3,3,60,0,0
488684,-90.9090909090908,4,3,4,60,0,0
488838,-90.9090909090908,4,3,1,60,0,0
489069,-90.9090909090908,4,3,1,5,0,0
489146,-90.9090909090908,4,3,1,60,0,0
489992,-90.9090909090908,4,3,1,5,0,0
490069,-90.9090909090908,4,3,1,60,0,0
491069,-90.9090909090908,4,3,1,5,0,0
491146,-90.9090909090908,4,3,1,60,0,0
491377,-90.9090909090908,4,3,1,5,0,0
491454,-90.9090909090908,4,3,1,60,0,0
491838,-90.9090909090908,4,3,1,5,0,0
491915,-90.9090909090908,4,3,1,60,0,0
492761,-90.9090909090908,4,3,1,5,0,0
492838,-90.9090909090908,4,3,1,60,0,0
493684,-90.9090909090908,4,3,1,5,0,0
493761,-90.9090909090908,4,3,1,60,0,0
494377,-90.9090909090908,4,3,1,60,0,0
496454,-90.9090909090908,4,3,1,5,0,0
496531,-90.9090909090908,4,3,1,60,0,0
497377,-90.9090909090908,4,3,1,5,0,0
497454,-90.9090909090908,4,3,1,60,0,0
497838,-90.9090909090908,4,3,1,60,0,0
498069,-90.9090909090908,4,3,12,60,0,0
498300,-90.9090909090908,4,3,1,5,0,0
498377,-90.9090909090908,4,3,11,60,0,0
498607,-90.9090909090908,4,3,1,5,0,0
498684,-90.9090909090908,4,3,10,60,0,0
498915,-90.9090909090908,4,3,1,60,0,0
498992,-90.9090909090908,4,3,1,60,0,0
499146,-90.9090909090908,4,3,4,60,0,0
499761,-90.9090909090908,4,3,1,60,0,0
499915,-90.9090909090908,4,3,12,60,0,0
500069,-90.9090909090908,4,3,1,60,0,0
500223,-90.9090909090908,4,3,11,60,0,0
500530,-90.9090909090908,4,3,10,60,0,0
500838,-90.9090909090908,4,3,1,60,0,0
500992,-90.9090909090908,4,3,4,60,0,0
501607,-90.9090909090908,4,3,1,60,0,0
502684,-90.9090909090908,4,3,12,60,0,0
502992,-90.9090909090908,4,3,11,60,0,0
503300,-90.9090909090908,4,3,10,60,0,0
503607,-83.3333333333333,4,3,1,60,0,0
504530,-90.9090909090909,4,3,1,60,0,0
517761,-90.9090909090909,4,3,2,60,0,0
517915,-90.9090909090909,4,3,4,60,0,0
518069,-90.9090909090909,4,3,3,60,0,0
518223,-90.9090909090909,4,3,4,60,0,0
518377,-90.9090909090909,4,3,1,60,0,0
527607,-90.9090909090909,4,3,12,60,0,0
527684,-90.9090909090909,4,3,1,5,0,0
527915,-90.9090909090909,4,3,11,60,0,0
527992,-90.9090909090909,4,3,1,5,0,0
528223,-90.9090909090909,4,3,10,60,0,0
528300,-90.9090909090909,4,3,1,5,0,0
528530,-90.9090909090909,4,3,1,60,0,0
528684,-90.9090909090909,4,3,4,60,0,0
529300,-90.9090909090909,4,3,1,60,0,0
529761,-90.9090909090909,4,3,11,60,0,0
530069,-90.9090909090909,4,3,10,60,0,0
530377,-90.9090909090909,4,3,1,60,0,0
530530,-90.9090909090909,4,3,4,60,0,0
531146,-90.9090909090909,4,3,1,60,0,0
531300,-90.9090909090909,4,3,12,60,0,0
531607,-90.9090909090909,4,3,11,60,0,0
531915,-90.9090909090909,4,3,10,60,0,0
532223,-90.9090909090909,4,3,12,60,0,0
532530,-90.9090909090909,4,3,11,60,0,0
532838,-90.9090909090909,4,3,10,60,0,0
533146,-90.9090909090909,4,3,2,45,0,0

[Colours]
Combo1 : 61,201,248
Combo2 : 255,92,15
Combo3 : 90,105,243
Combo4 : 0,249,124

[HitObjects]
386,164,8096,6,0,B|323:134|282:182|282:182|285:186|285:186|239:231|133:212|140:134|140:134|135:128|135:128|141:130|141:130|208:92|278:180|232:276|232:276|225:272|225:272|214:352|124:386|124:386|106:338|106:338|97:337|97:337|82:294|36:282|36:282|45:285|45:285|98:216|51:166|51:166|59:169|59:169|-17:124|3:48|3:48|64:33|92:67|92:67|93:74|93:74|103:25|178:26|178:26|174:32|174:32|222:71|283:40|267:31|320:4|378:38|378:38|292:27|264:84|264:84|316:52|379:72|379:72|378:66|378:66|397:104|444:113,1,1919.99994140625,6|0,0:0|2:0,0:0:0:0:
512,65,12283,5,10,0:0:0:0:
434,225,12400,1,0,0:0:0:0:
434,225,12517,1,0,0:0:0:0:
512,65,12634,5,10,0:0:0:0:
330,161,12751,1,0,0:0:0:0:
510,153,12868,5,10,0:0:0:0:
328,73,12986,1,0,0:0:0:0:
506,243,13103,5,10,0:0:0:0:
421,95,13220,1,0,0:0:0:0:
421,95,13337,1,0,0:0:0:0:
334,251,13454,5,10,0:0:0:0:
188,150,13572,1,0,0:0:0:0:
40,301,13689,5,10,0:0:0:0:
85,289,13767,1,8,0:0:0:0:
126,278,13845,1,8,0:0:0:0:
164,268,13923,1,8,0:0:0:0:
199,259,14001,1,8,0:0:0:0:
231,251,14079,1,8,0:0:0:0:
252,245,14158,6,0,L|266:145,1,64.9999970245363,4|0,0:0|2:0,0:0:0:0:
270,109,14392,1,0,0:0:0:0:
75,212,14509,6,0,P|121:183|137:96,1,129.999994049073,8|0,0:0|2:0,0:0:0:0:
97,55,14861,1,0,0:0:0:0:
97,55,15095,1,4,0:0:0:0:
179,10,15212,5,8,0:0:0:0:
270,109,15329,1,0,0:0:0:0:
270,109,15447,1,0,0:0:0:0:
362,65,15564,5,8,0:0:0:0:
279,8,15681,1,8,0:0:0:0:
270,109,15798,1,0,0:0:0:0:
270,109,15915,1,0,0:0:0:0:
386,239,16033,5,4,0:0:0:0:
415,147,16150,1,0,0:0:0:0:
365,258,16267,5,10,0:0:0:0:
286,128,16384,1,0,0:0:0:0:
448,298,16501,6,0,B|402:288|402:288|364:301|364:301|276:284,1,150.000005722046,10|0,0:0|0:0,0:0:0:0:
186,207,16853,1,0,0:0:0:0:
212,192,16970,6,0,B|230:217|230:217|217:307,1,75.0000028610231,2|0,0:0|0:0,0:0:0:0:
148,343,17204,1,0,0:0:0:0:
95,282,17322,5,8,0:0:0:0:
173,306,17439,1,0,0:0:0:0:
188,371,17556,1,0,0:0:0:0:
18,363,17673,6,0,L|-2:274,1,75.0000028610231,10|0,0:0|0:0,0:0:0:0:
0,123,17908,5,2,0:0:0:0:
55,84,18025,1,0,0:0:0:0:
114,92,18142,1,8,0:0:0:0:
62,29,18259,1,0,0:0:0:0:
189,163,18376,5,10,0:0:0:0:
240,175,18493,1,8,0:0:0:0:
286,157,18611,1,8,0:0:0:0:
221,207,18728,1,0,0:0:0:0:
129,89,18845,5,8,0:0:0:0:
211,190,18962,5,8,0:0:0:0:
148,115,19079,1,0,0:0:0:0:
106,220,19197,1,0,0:0:0:0:
254,282,19314,5,8,0:0:0:0:
260,257,19392,1,8,0:0:0:0:
274,237,19470,1,8,0:0:0:0:
295,223,19548,1,8,0:0:0:0:
319,218,19626,1,8,0:0:0:0:
343,221,19704,1,8,0:0:0:0:
365,233,19783,6,0,L|350:342,1,100.000003814697,4|0,0:0|2:0,0:0:0:0:
449,301,20017,1,8,0:0:0:0:
444,292,20095,1,8,0:0:0:0:
439,283,20173,1,8,0:0:0:0:
434,274,20251,6,0,B|406:246|376:249|376:249|375:304|322:339|282:325|282:325|287:331|287:331|233:299|160:334,1,292.500001115799,12|0,0:0|2:0,0:0:0:0:
130,384,20720,6,0,L|119:314,1,57.5000010967255,0|0,0:0|2:0,0:0:0:0:
160,378,20954,1,0,0:0:0:0:
214,247,21072,6,0,L|144:236,1,57.5000010967255,0|0,0:0|2:0,0:0:0:0:
217,209,21306,1,0,0:0:0:0:
19,148,21423,6,0,L|32:223,1,57.5000010967255,0|0,0:0|2:0,0:0:0:0:
52,142,21658,1,0,0:0:0:0:
52,142,21775,1,0,0:0:0:0:
52,142,21892,1,0,0:0:0:0:
122,63,22009,1,0,0:0:0:0:
73,68,22126,6,0,L|143:79,1,57.5000010967255,0|0,0:0|2:0,0:0:0:0:
55,36,22361,1,0,0:0:0:0:
55,36,22478,1,0,0:0:0:0:
208,4,22595,6,0,B|221:29|221:29|205:120,1,75.0000028610231,0|0,0:0|2:0,0:0:0:0:
131,168,22829,1,0,0:0:0:0:
131,168,22947,1,0,0:0:0:0:
4,294,23064,6,0,L|73:285,1,64.9999970245363,0|0,0:0|2:0,0:0:0:0:
147,316,23298,1,0,0:0:0:0:
74,294,23415,1,0,0:0:0:0:
135,327,23533,1,0,0:0:0:0:
183,307,23650,1,0,0:0:0:0:
125,247,23767,5,0,0:0:0:0:
221,328,23884,2,0,P|177:300|175:237,1,97.4999955368044,0|0,0:0|2:0,0:0:0:0:
214,201,24118,1,0,0:0:0:0:
214,201,24236,1,0,0:0:0:0:
214,201,24353,1,0,0:0:0:0:
214,201,24470,1,0,0:0:0:0:
166,112,24587,6,0,L|84:99,1,64.9999970245363,0|0,0:0|2:0,0:0:0:0:
166,81,24822,1,0,0:0:0:0:
15,183,24939,6,0,L|97:170,1,64.9999970245363,0|0,0:0|2:0,0:0:0:0:
15,152,25174,1,0,0:0:0:0:
15,152,25290,1,0,0:0:0:0:
199,313,25408,5,12,0:0:0:0:
254,203,25525,1,0,0:0:0:0:
254,203,25642,1,0,0:0:0:0:
277,351,25759,5,10,0:0:0:0:
179,232,25876,1,0,0:0:0:0:
136,373,25993,5,10,0:0:0:0:
279,277,26111,1,0,0:0:0:0:
94,261,26228,5,10,0:0:0:0:
212,384,26345,1,0,0:0:0:0:
276,288,26462,6,0,B|250:279|250:279|182:302,1,72.5000022125245,0|10,0:0|0:0,0:0:0:0:
354,384,26697,1,0,0:0:0:0:
451,333,26814,5,10,0:0:0:0:
441,271,26892,1,8,0:0:0:0:
432,218,26970,1,8,0:0:0:0:
424,170,27048,1,8,0:0:0:0:
417,126,27126,1,8,0:0:0:0:
411,87,27204,1,8,0:0:0:0:
407,53,27283,5,12,0:0:0:0:
407,53,28225,6,0,P|362:88|286:78,1,107.250001472855,12|0,0:0|2:0,0:0:0:0:
298,67,28459,1,2,0:0:0:0:
298,67,28576,1,0,2:0:0:0:
168,10,28693,6,0,L|149:110,1,71.5000009819031,2|0,0:0|2:0,0:0:0:0:
193,156,28928,1,0,2:0:0:0:
75,129,29045,2,0,L|56:29,1,71.5000009819031,8|2,0:0|2:3,0:0:0:0:
19,230,29279,1,0,2:0:0:0:
189,242,29396,2,0,P|218:286|214:349,1,71.5000009819031,2|0,0:0|2:0,0:0:0:0:
81,282,29631,2,0,L|-23:254,1,71.5000009819031,0|0,2:0|2:0,0:0:0:0:
254,181,29865,2,0,L|358:153,1,71.5000009819031,2|0,2:3|2:0,0:0:0:0:
452,268,30099,5,12,0:0:0:0:
360,310,30216,1,0,0:0:0:0:
360,310,30334,2,0,P|376:275|371:224,1,71.5000009819031,0|0,0:0|2:0,0:0:0:0:
320,79,30568,6,0,B|264:73|264:73|252:80|252:80|156:71,1,129.750003167725,6|0,0:0|2:0,0:0:0:0:
180,90,30802,1,0,0:0:0:0:
180,90,30920,1,0,0:0:0:0:
298,3,31037,5,12,0:0:0:0:
251,116,31154,1,0,0:0:0:0:
170,0,31271,1,8,0:0:0:0:
335,88,31388,1,8,0:0:0:0:
249,213,31506,6,0,L|264:345,1,126.999999031067,6|0,0:0|2:0,0:0:0:0:
343,384,31857,2,0,P|291:358|211:373,1,126.999999031067,0|0,0:0|2:0,0:0:0:0:
345,288,32209,2,0,L|360:156,1,126.999999031067,8|2,0:0|2:3,0:0:0:0:
359,161,32560,1,0,2:0:0:0:
242,52,32677,6,0,B|210:75|210:75|78:59,1,126.999999031067,0|2,0:0|2:3,0:0:0:0:
56,9,33029,2,0,P|102:40|116:136,1,126.999999031067,0|0,0:0|2:0,0:0:0:0:
79,213,33381,2,0,L|-20:228,1,63.4999995155334,10|0,0:0|2:0,0:0:0:0:
34,128,33615,1,0,0:0:0:0:
34,128,33849,5,2,0:0:0:0:
96,277,33966,2,0,P|123:212|188:191,1,126.999999031067,8|0,0:0|2:0,0:0:0:0:
311,270,34318,5,8,0:0:0:0:
266,320,34396,1,8,0:0:0:0:
202,321,34474,1,8,0:0:0:0:
159,279,34552,1,8,0:0:0:0:
165,223,34631,1,0,0:0:0:0:
208,196,34709,1,0,0:0:0:0:
275,225,34787,5,8,0:0:0:0:
247,262,34865,1,8,0:0:0:0:
205,270,34943,1,8,0:0:0:0:
170,254,35021,1,8,0:0:0:0:
160,221,35099,1,0,0:0:0:0:
168,192,35177,1,0,0:0:0:0:
232,167,35256,5,4,0:0:0:0:
268,107,35373,1,0,0:0:0:0:
253,38,35490,1,0,0:0:0:0:
186,16,35607,1,0,0:0:0:0:
56,54,35724,6,0,B|79:68|79:68|97:150,1,70.4999963962557,12|0,0:0|0:0,0:0:0:0:
24,240,35959,1,0,0:0:0:0:
24,240,36193,5,2,0:0:0:0:
82,193,36310,1,0,0:0:0:0:
24,240,36427,1,2,0:0:0:0:
132,373,36545,5,8,0:0:0:0:
139,298,36662,1,2,0:0:0:0:
132,373,36779,1,0,0:0:0:0:
303,380,36896,5,2,0:0:0:0:
254,322,37013,1,0,0:0:0:0:
303,380,37130,1,2,0:0:0:0:
254,322,37248,1,0,0:0:0:0:
303,380,37365,1,2,0:0:0:0:
254,322,37482,1,0,0:0:0:0:
338,254,37599,6,0,L|401:262,1,62.5,10|0,0:0|2:0,0:0:0:0:
194,186,37834,2,0,L|285:175,1,62.5,2|0,0:0|2:0,0:0:0:0:
326,12,38068,6,0,B|338:67|338:67|317:124|317:124|334:195,1,173.000004223633,2|2,0:0|2:3,0:0:0:0:
433,235,38420,1,0,0:0:0:0:
487,175,38537,5,8,0:0:0:0:
393,160,38654,1,8,0:0:0:0:
418,313,38771,1,8,0:0:0:0:
501,268,38888,1,8,0:0:0:0:
350,244,39006,6,0,L|193:227,1,126.999999031067,4|0,0:0|2:0,0:0:0:0:
140,289,39357,2,0,L|-17:306,1,126.999999031067,0|0,0:0|2:0,0:0:0:0:
190,219,39709,2,0,P|221:264|203:345,1,126.999999031067,8|2,0:0|2:3,0:0:0:0:
114,372,40060,1,0,2:0:0:0:
140,289,40177,1,0,0:0:0:0:
140,289,40295,1,0,2:0:0:0:
114,372,40412,6,0,L|95:211,1,126.999999031067,2|0,0:0|2:0,0:0:0:0:
49,190,40763,2,0,B|94:212|94:212|221:187,1,126.999999031067,2|0,0:0|2:0,0:0:0:0:
295,80,41115,2,0,L|154:108,1,126.999999031067,2|0,0:0|2:0,0:0:0:0:
334,157,41466,2,0,P|369:120|368:38,1,126.999999031067,2|0,0:0|2:0,0:0:0:0:
152,61,41818,5,12,0:0:0:0:
111,109,41896,1,8,0:0:0:0:
116,167,41974,1,8,0:0:0:0:
160,199,42052,1,8,0:0:0:0:
177,251,42131,2,8,P|166:299|146:324,1,42.3333330103556,0|0,0:0|0:0,0:0:0:0:
10,303,42287,6,0,P|33:293|59:297,1,36.2857140088763,4|0,0:0|2:0,0:0:0:0:
147,378,42421,1,8,0:0:0:0:
158,372,42488,1,0,0:0:0:0:
169,367,42555,1,0,0:0:0:0:
180,361,42622,1,0,0:0:0:0:
191,355,42689,1,0,0:0:0:0:
202,349,42756,5,14,0:0:0:0:
250,224,42873,1,0,0:0:0:0:
336,321,42990,1,0,0:0:0:0:
236,242,43107,1,0,0:0:0:0:
464,218,43224,5,4,0:0:0:0:
321,305,43341,1,0,0:0:0:0:
489,246,43459,1,0,0:0:0:0:
358,174,43576,1,0,0:0:0:0:
311,384,43693,5,12,0:0:0:0:
240,310,43810,1,0,0:0:0:0:
243,227,43927,1,0,0:0:0:0:
338,177,44045,5,2,0:0:0:0:
257,214,44162,1,2,0:0:0:0:
180,182,44279,1,2,0:0:0:0:
64,231,44396,5,14,0:0:0:0:
64,231,45099,6,0,B|65:218|60:210|60:210|62:207|62:207|54:193|54:193|56:189|56:189|61:178|61:178|57:179|57:179|59:159|45:145|45:145|52:135|52:135|51:121,1,112.500004291535,6|0,0:0|2:0,0:0:0:0:
20,70,45568,2,0,P|30:110|25:65,1,146.999998654175,2|0,0:0|2:0,0:0:0:0:
174,148,46037,5,2,0:0:0:0:
208,65,46154,1,0,0:0:0:0:
174,148,46271,1,2,0:0:0:0:
208,65,46388,1,0,0:0:0:0:
360,173,46506,6,0,B|337:205|337:205|354:322,1,125,2|0,0:0|2:0,0:0:0:0:
474,221,46857,2,0,L|455:81,1,125,2|0,0:0|2:0,0:0:0:0:
390,10,47209,2,0,P|378:55|277:89,1,125,2|0,0:0|2:0,0:0:0:0:
211,32,47560,1,0,0:0:0:0:
306,9,47677,6,0,B|329:41|329:41|312:158,1,125,2|0,0:0|2:0,0:0:0:0:
145,277,48029,2,0,L|126:137,1,125,4|0,0:0|2:0,0:0:0:0:
84,98,48381,2,0,L|100:221,1,125,0|0,2:0|2:0,0:0:0:0:
313,365,48849,6,0,P|340:337|348:290,1,64.9999970245363,2|0,0:0|2:0,0:0:0:0:
237,199,49084,2,0,P|248:226|290:245,1,64.9999970245363,0|0,2:0|2:0,0:0:0:0:
460,243,49318,5,8,0:0:0:0:
465,220,49396,1,8,0:0:0:0:
470,197,49474,1,8,0:0:0:0:
475,174,49552,1,8,0:0:0:0:
187,60,49787,5,8,0:0:0:0:
191,79,49865,1,8,0:0:0:0:
195,99,49943,1,8,0:0:0:0:
199,118,50021,1,8,0:0:0:0:
380,206,50256,5,6,0:0:0:0:
298,146,50367,1,0,0:0:0:0:
379,220,50478,6,0,L|282:248,1,67.5000002574921,10|0,0:0|0:0,0:0:0:0:
130,292,50700,2,0,L|225:318,1,67.5000002574921,2|8,0:0|0:0,0:0:0:0:
308,349,50922,1,2,0:0:0:0:
396,300,51033,1,0,0:0:0:0:
297,382,51144,6,0,L|271:288,1,67.5000002574921,10|0,0:0|0:0,0:0:0:0:
245,195,51367,1,2,0:0:0:0:
88,334,51478,6,0,L|114:240,1,67.5000002574921,10|2,0:0|0:0,0:0:0:0:
69,137,51700,1,0,0:0:0:0:
134,13,51811,6,0,B|152:78|152:78|270:109,1,135.000000514984,10|2,0:0|0:0,0:0:0:0:
306,37,52144,1,0,0:0:0:0:
219,110,52256,6,0,L|245:204,1,67.5000002574921,10|0,0:0|0:0,0:0:0:0:
369,301,52478,2,0,L|395:207,1,67.5000002574921,10|0,0:0|0:0,0:0:0:0:
365,108,52700,1,2,0:0:0:0:
365,108,52811,1,0,0:0:0:0:
254,186,52922,5,2,0:0:0:0:
357,250,53033,1,10,0:0:0:0:
271,298,53144,1,2,0:0:0:0:
319,335,53256,1,0,0:0:0:0:
273,266,53367,5,2,0:0:0:0:
332,172,53478,1,10,0:0:0:0:
284,254,53589,1,2,0:0:0:0:
245,177,53700,1,0,0:0:0:0:
395,298,53811,5,2,0:0:0:0:
395,298,53922,1,0,0:0:0:0:
295,373,54033,6,0,L|201:347,1,67.5000002574921,10|0,0:0|0:0,0:0:0:0:
26,320,54255,2,0,L|91:302,1,67.5000002574921,2|8,0:0|0:0,0:0:0:0:
195,251,54478,1,2,0:0:0:0:
228,346,54589,1,0,0:0:0:0:
108,322,54700,6,0,L|82:228,1,67.5000002574921,10|0,0:0|0:0,0:0:0:0:
57,140,54922,1,2,0:0:0:0:
219,275,55033,6,0,L|245:181,1,67.5000002574921,10|0,0:0|0:0,0:0:0:0:
180,75,55255,1,0,0:0:0:0:
38,167,55367,6,0,L|131:193,1,67.5000002574921,10|0,0:0|0:0,0:0:0:0:
233,286,55589,1,2,0:0:0:0:
297,226,55700,1,0,0:0:0:0:
134,252,55811,5,14,0:0:0:0:
215,360,55922,1,0,0:0:0:0:
283,191,56033,5,10,0:0:0:0:
126,336,56144,1,8,0:0:0:0:
179,155,56255,1,10,0:0:0:0:
321,336,56367,1,8,0:0:0:0:
149,250,56478,5,8,0:0:0:0:
69,285,56589,1,8,0:0:0:0:
11,228,56700,1,8,0:0:0:0:
91,193,56811,1,10,3:2:0:0:
158,254,56922,5,8,0:0:0:0:
222,282,57033,1,8,0:0:0:0:
272,237,57144,1,8,0:0:0:0:
208,209,57255,1,8,0:0:0:0:
153,261,57367,5,6,0:0:0:0:
185,356,57478,1,0,0:0:0:0:
158,274,57589,6,0,L|199:204,1,67.5000002574921,10|0,0:0|0:0,0:0:0:0:
165,54,57811,2,0,L|124:124,1,67.5000002574921,2|8,0:0|0:0,0:0:0:0:
48,141,58033,1,2,0:0:0:0:
48,141,58144,1,0,0:0:0:0:
194,224,58255,6,0,L|272:244,1,67.5000002574921,10|0,0:0|0:0,0:0:0:0:
365,191,58478,1,0,0:0:0:0:
246,282,58589,6,0,L|324:261,1,67.5000002574921,10|2,0:0|0:0,0:0:0:0:
371,172,58811,1,0,0:0:0:0:
491,312,58922,6,0,B|459:256|459:256|374:292,1,135.000000514984,10|2,0:0|0:0,0:0:0:0:
318,357,59255,1,0,0:0:0:0:
176,281,59367,6,0,L|155:202,1,67.5000002574921,10|0,0:0|0:0,0:0:0:0:
275,90,59589,2,0,L|254:168,1,67.5000002574921,10|0,0:0|0:0,0:0:0:0:
132,90,59811,1,2,0:0:0:0:
132,90,59922,1,0,0:0:0:0:
27,181,60033,5,2,0:0:0:0:
120,98,60144,1,10,0:0:0:0:
149,175,60255,1,2,0:0:0:0:
124,242,60367,1,0,0:0:0:0:
34,190,60478,5,2,0:0:0:0:
2,280,60589,1,10,0:0:0:0:
11,319,60700,1,2,0:0:0:0:
31,337,60811,1,0,0:0:0:0:
132,331,60922,5,2,0:0:0:0:
132,331,61033,1,0,0:0:0:0:
71,190,61144,6,0,L|-21:174,1,67.5000002574921,10|0,0:0|0:0,0:0:0:0:
202,259,61367,2,0,L|294:243,1,67.5000002574921,2|8,0:0|0:0,0:0:0:0:
328,156,61589,1,2,0:0:0:0:
272,240,61700,1,0,0:0:0:0:
172,100,61811,6,0,L|264:116,1,67.5000002574921,10|0,0:0|0:0,0:0:0:0:
330,55,62033,1,2,0:0:0:0:
437,157,62144,6,0,L|345:173,1,67.5000002574921,10|2,0:0|0:0,0:0:0:0:
254,103,62367,1,0,0:0:0:0:
357,21,62478,6,0,P|363:74|349:124,1,67.5000002574921,10|0,0:0|0:0,0:0:0:0:
251,228,62700,1,2,0:0:0:0:
203,163,62811,1,0,0:0:0:0:
386,194,62922,5,14,0:0:0:0:
294,295,63033,1,0,0:0:0:0:
209,174,63144,5,10,3:2:0:0:
277,265,63255,1,8,0:0:0:0:
289,184,63367,1,8,0:0:0:0:
198,254,63478,1,8,0:0:0:0:
412,134,63589,5,10,3:2:0:0:
357,206,63700,1,8,0:0:0:0:
348,142,63811,1,8,0:0:0:0:
420,198,63922,1,8,0:0:0:0:
225,182,64033,5,8,0:0:0:0:
208,247,64144,1,8,0:0:0:0:
256,293,64255,5,8,0:0:0:0:
280,299,64330,1,0,0:0:0:0:
304,305,64404,1,0,0:0:0:0:
328,311,64478,5,0,0:0:0:0:
351,205,64626,5,0,0:0:0:0:
328,311,64774,5,0,0:0:0:0:
376,128,64922,5,0,0:0:0:0:
409,292,65070,5,0,0:0:0:0:
376,128,65218,5,0,0:0:0:0:
211,267,65367,5,0,0:0:0:0:
137,241,65478,1,0,0:0:0:0:
128,239,65533,1,0,0:0:0:0:
119,237,65589,6,0,L|106:282,2,45.0000001716614
133,165,65811,6,0,B|192:162|192:162|192:159|192:159|190:160|190:160|225:121|225:121|224:119|224:119|222:120|222:120|300:115,1,183.333338928223,12|0,0:0|2:0,0:0:0:0:
360,113,66255,5,6,0:0:0:0:
393,178,66404,1,2,2:0:0:0:
366,246,66552,1,2,2:0:0:0:
294,263,66700,1,2,2:0:0:0:
242,315,66848,1,2,2:0:0:0:
266,384,66996,1,2,2:0:0:0:
271,189,67144,6,0,P|225:162|189:162,1,73.3333355712891,10|2,2:3|2:0,2:0:0:0:
14,222,67441,1,2,2:0:0:0:
83,245,67589,1,2,2:0:0:0:
142,202,67737,1,2,2:0:0:0:
142,128,67885,1,2,2:0:0:0:
241,22,68033,5,2,3:3:0:0:
274,7,68107,1,0,3:0:0:0:
310,13,68181,1,2,3:3:0:0:
361,65,68330,1,2,2:0:0:0:
353,137,68478,1,2,2:0:0:0:
297,184,68626,1,2,2:0:0:0:
387,230,68774,1,2,0:0:0:0:
235,285,68922,5,10,0:0:0:0:
171,249,69070,1,2,2:0:0:0:
104,279,69218,1,2,2:0:0:0:
27,185,69367,5,4,0:0:0:0:
85,347,69515,1,4,0:0:0:0:
142,128,69663,1,6,0:0:0:0:
276,347,69811,5,6,0:0:0:0:
309,281,69959,1,2,2:0:0:0:
271,218,70107,1,2,2:0:0:0:
224,161,70255,1,2,2:0:0:0:
186,98,70403,1,2,2:0:0:0:
219,32,70551,1,2,2:0:0:0:
298,150,70700,5,10,2:3:0:0:
271,218,70848,1,2,2:0:0:0:
198,230,70996,1,2,2:0:0:0:
152,172,71144,1,2,2:0:0:0:
78,174,71293,1,2,2:0:0:0:
36,234,71441,1,2,2:0:0:0:
104,309,71589,5,2,3:3:0:0:
140,313,71663,1,0,3:0:0:0:
173,298,71737,1,2,3:3:0:0:
198,230,71885,1,2,2:0:0:0:
293,361,72033,5,2,3:3:0:0:
257,365,72107,1,0,3:0:0:0:
224,350,72181,1,2,3:3:0:0:
173,298,72330,1,2,2:0:0:0:
265,209,72478,5,10,2:3:0:0:
305,76,72626,1,8,2:3:0:0:
243,16,72774,1,0,0:0:0:0:
167,57,72922,5,0,0:0:0:0:
219,154,73070,1,8,0:0:0:0:
379,106,73218,1,0,0:0:0:0:
426,322,73367,5,6,0:0:0:0:
356,346,73515,1,2,2:0:0:0:
286,322,73663,1,2,2:0:0:0:
252,257,73811,1,2,2:0:0:0:
270,186,73959,1,2,2:0:0:0:
232,123,74107,1,2,2:0:0:0:
40,119,74255,5,10,2:3:0:0:
149,159,74404,1,2,2:3:0:0:
110,98,74552,1,2,2:0:0:0:
143,33,74700,1,2,2:0:0:0:
215,25,74848,1,2,2:0:0:0:
257,85,74996,1,2,2:0:0:0:
153,232,75144,5,2,2:3:0:0:
199,353,75293,1,2,2:0:0:0:
145,305,75441,1,2,2:0:0:0:
81,341,75589,1,2,2:0:0:0:
263,157,75737,5,2,2:3:0:0:
217,278,75886,1,2,2:0:0:0:
271,230,76034,1,2,2:0:0:0:
335,266,76182,1,2,2:0:0:0:
389,218,76330,1,2,2:0:0:0:
479,322,76478,5,8,0:0:0:0:
353,351,76626,1,8,0:0:0:0:
217,278,76774,1,8,0:0:0:0:
46,353,76922,5,6,0:0:0:0:
118,341,77070,1,2,2:0:0:0:
143,272,77218,1,2,2:0:0:0:
105,208,77367,1,2,2:0:0:0:
130,139,77515,1,2,2:0:0:0:
202,127,77663,1,2,2:0:0:0:
320,195,77811,6,0,P|352:214|388:217,1,73.3333355712891,10|2,2:3|2:0,0:0:0:0:
496,72,78107,1,2,2:0:0:0:
442,21,78255,1,2,2:0:0:0:
368,17,78404,1,2,2:0:0:0:
314,66,78552,1,2,2:0:0:0:
248,198,78700,5,2,2:3:0:0:
301,308,78848,1,2,2:3:0:0:
171,215,78996,2,0,L|81:205,1,66.6666666666667,10|2,2:3|2:0,0:0:0:0:
333,185,79292,5,2,2:3:0:0:
280,295,79440,1,2,2:3:0:0:
410,202,79588,5,10,0:0:0:0:
207,285,79737,1,8,0:0:0:0:
410,202,79885,1,8,0:0:0:0:
250,109,80033,5,8,0:0:0:0:
339,253,80181,1,8,0:0:0:0:
250,109,80329,1,8,0:0:0:0:
476,191,80477,5,8,3:0:0:0:
443,196,80551,1,8,3:0:0:0:
410,202,80625,1,8,3:0:0:0:
220,247,80774,1,8,0:0:0:0:
470,339,80922,5,8,3:0:0:0:
443,318,80996,1,8,3:0:0:0:
416,297,81070,1,8,3:0:0:0:
289,190,81218,1,8,0:0:0:0:
107,331,81367,6,0,B|93:322|93:322|121:176|121:176|104:161,1,186.666660970052,6|0,0:0|2:0,0:0:0:0:
34,267,81811,2,0,B|45:259|45:259|142:264,1,93.3333304850261,2|0,2:3|2:3,2:3:0:0:
236,353,82107,1,0,0:0:0:0:
255,117,82255,6,0,L|274:215,1,93.3333304850261,10|0,0:0|2:0,0:0:0:0:
104,161,82552,2,0,L|121:69,1,93.3333304850261,8|2,0:0|2:3,0:0:0:0:
317,68,82848,1,0,0:0:0:0:
328,139,82996,1,2,2:3:0:0:
181,225,83144,6,0,B|164:238|164:238|159:328,1,93.3333304850261,8|2,0:0|2:3,0:0:0:0:
289,371,83441,1,0,0:0:0:0:
300,300,83589,1,2,0:0:0:0:
174,215,83737,2,0,B|163:205|163:205|161:115,1,93.3333304850261,8|2,0:0|2:3,0:0:0:0:
329,60,84033,1,0,0:0:0:0:
340,131,84181,1,0,0:0:0:0:
291,296,84329,5,8,0:0:0:0:
411,168,84478,1,8,0:0:0:0:
502,317,84626,2,0,B|491:336|491:336|278:368,1,233.333326212565,8|2,0:0|2:3,0:0:0:0:
266,369,85070,1,0,0:0:0:0:
108,270,85218,1,2,2:3:0:0:
177,294,85367,1,0,0:0:0:0:
262,170,85515,1,2,2:3:0:0:
193,194,85664,1,0,0:0:0:0:
105,41,85811,5,10,0:0:0:0:
238,91,85959,2,0,B|265:73|265:73|386:95,1,139.999995727539,0|0,0:0|2:0,0:0:0:0:
398,110,86255,2,0,L|288:86,1,93.3333304850261,0|2,0:0|2:3,0:0:0:0:
420,186,86552,2,0,L|310:162,1,93.3333304850261,0|2,0:0|2:3,0:0:0:0:
221,299,86848,1,0,0:0:0:0:
236,226,86996,1,2,2:3:0:0:
466,321,87144,6,0,L|356:345,1,93.3333304850261,8|2,0:0|2:3,0:0:0:0:
303,362,87441,1,0,0:0:0:0:
469,247,87589,2,0,L|359:271,1,93.3333304850261,2|8,2:3|0:0,0:0:0:0:
306,288,87885,1,0,0:0:0:0:
420,186,88033,5,8,0:0:0:0:
306,90,88181,1,8,0:0:0:0:
142,127,88329,1,2,2:3:0:0:
0,0,88478,5,4,0:0:0:0:
12,73,88626,1,2,2:3:0:0:
154,54,88774,1,0,0:0:0:0:
142,127,88922,1,2,2:3:0:0:
0,100,89070,1,0,0:0:0:0:
12,173,89218,1,2,2:3:0:0:
211,97,89367,5,8,0:0:0:0:
253,266,89515,2,0,B|227:277|227:277|143:247,1,93.3333304850261,2|0,2:3|0:0,0:0:0:0:
142,127,89811,1,2,0:0:0:0:
68,289,89959,1,8,0:0:0:0:
12,173,90107,1,2,2:3:0:0:
147,250,90255,5,0,0:0:0:0:
216,158,90404,1,2,0:0:0:0:
304,317,90552,1,8,0:0:0:0:
336,183,90700,1,2,0:0:0:0:
235,84,90848,1,0,0:0:0:0:
202,149,90996,1,0,0:0:0:0:
239,304,91144,5,8,0:0:0:0:
124,167,91292,1,8,0:0:0:0:
159,24,91441,1,8,0:0:0:0:
283,211,91589,5,8,0:0:0:0:
86,189,91737,2,0,B|127:199|146:224|136:267|136:267|132:264|132:264|137:262|137:262|121:304|124:339|172:370|207:339,1,233.333326212565,8|0,0:0|2:0,0:0:0:0:
192,346,92181,1,0,0:0:0:0:
385,316,92329,1,2,2:3:0:0:
344,377,92478,1,0,0:0:0:0:
272,238,92626,1,2,2:3:0:0:
345,243,92775,1,0,0:0:0:0:
459,363,92922,5,8,0:0:0:0:
482,143,93070,2,0,L|470:243,1,93.3333304850261,0|2,0:0|2:3,0:0:0:0:
411,95,93366,2,0,L|399:195,1,93.3333304850261,0|2,0:0|2:3,0:0:0:0:
340,47,93663,2,0,L|328:147,1,93.3333304850261,0|2,0:0|2:3,0:0:0:0:
282,324,93959,5,0,0:0:0:0:
265,252,94107,1,0,2:3:0:0:
492,290,94255,2,0,L|385:265,1,93.3333304850261,8|0,0:0|2:3,0:0:0:0:
334,258,94551,1,0,0:0:0:0:
196,359,94699,2,0,L|303:334,1,93.3333304850261,8|0,0:0|0:0,0:0:0:0:
354,327,94995,1,0,0:0:0:0:
49,208,95144,5,8,0:0:0:0:
196,359,95292,1,8,0:0:0:0:
334,258,95440,1,8,0:0:0:0:
209,108,95588,5,8,0:0:0:0:
175,91,95662,1,8,0:0:0:0:
137,94,95736,1,8,0:0:0:0:
49,208,95885,1,8,0:0:0:0:
209,217,96033,5,8,0:0:0:0:
177,196,96107,1,8,0:0:0:0:
160,161,96181,1,8,0:0:0:0:
201,21,96329,1,8,0:0:0:0:
333,168,96478,5,6,0:0:0:0:
480,66,96626,1,0,0:0:0:0:
373,19,96774,1,0,0:0:0:0:
402,233,96922,5,2,0:0:0:0:
298,81,97070,1,0,0:0:0:0:
197,122,97218,1,0,0:0:0:0:
410,215,97366,5,2,0:0:0:0:
282,70,97515,1,0,0:0:0:0:
408,192,97663,5,0,0:0:0:0:
265,67,97811,1,2,0:0:0:0:
397,180,97959,1,0,0:0:0:0:
179,124,98107,5,0,0:0:0:0:
74,305,98255,1,2,0:0:0:0:
169,292,98403,1,0,0:0:0:0:
211,206,98551,1,0,0:0:0:0:
83,311,98700,1,2,0:0:0:0:
156,249,98848,1,0,0:0:0:0:
152,153,98996,1,0,0:0:0:0:
10,50,99144,1,2,0:0:0:0:
92,98,99292,1,0,0:0:0:0:
183,67,99440,1,0,0:0:0:0:
329,151,99589,1,2,0:0:0:0:
277,84,99737,1,0,0:0:0:0:
345,236,99885,5,0,0:0:0:0:
316,222,100033,1,2,0:0:0:0:
284,224,100181,1,0,0:0:0:0:
259,244,100329,1,0,0:0:0:0:
354,231,100478,5,2,3:0:0:0:
309,317,100626,1,0,3:0:0:0:
202,190,100774,1,0,3:0:0:0:
363,221,100922,5,2,0:0:0:0:
314,330,101070,1,0,0:0:0:0:
371,213,101218,5,0,0:0:0:0:
318,336,101366,1,2,0:0:0:0:
379,204,101514,1,0,0:0:0:0:
189,185,101662,5,0,0:0:0:0:
136,368,101811,1,2,0:0:0:0:
217,318,101959,1,0,0:0:0:0:
261,233,102107,1,0,0:0:0:0:
123,290,102255,1,2,0:0:0:0:
218,298,102403,1,0,0:0:0:0:
283,369,102552,1,0,0:0:0:0:
442,310,102700,1,2,0:0:0:0:
347,295,102848,1,0,0:0:0:0:
359,199,102996,1,0,0:0:0:0:
452,320,103144,1,2,0:0:0:0:
466,225,103292,1,0,0:0:0:0:
371,206,103440,1,0,0:0:0:0:
257,326,103589,5,2,0:0:0:0:
248,295,103737,1,0,0:0:0:0:
222,275,103885,1,0,0:0:0:0:
190,276,104033,1,2,0:0:0:0:
115,229,104181,1,0,0:0:0:0:
187,195,104329,1,0,0:0:0:0:
91,349,104478,5,2,0:0:0:0:
31,273,104626,1,0,0:0:0:0:
49,178,104774,1,0,0:0:0:0:
84,358,104922,5,2,0:0:0:0:
23,283,105070,1,0,0:0:0:0:
78,367,105218,5,0,0:0:0:0:
161,320,105366,1,2,0:0:0:0:
299,366,105515,5,0,0:0:0:0:
258,278,105663,1,0,0:0:0:0:
405,159,105811,5,2,0:0:0:0:
365,246,105959,1,0,0:0:0:0:
431,314,106107,1,0,0:0:0:0:
475,228,106255,1,2,0:0:0:0:
405,159,106403,1,0,0:0:0:0:
258,202,106552,5,0,0:0:0:0:
178,147,106700,1,2,0:0:0:0:
120,223,106848,1,0,0:0:0:0:
197,280,106996,1,0,0:0:0:0:
270,72,107144,5,2,0:0:0:0:
176,49,107292,1,0,0:0:0:0:
81,30,107440,1,0,0:0:0:0:
253,144,107589,1,2,0:0:0:0:
347,129,107737,1,0,0:0:0:0:
440,108,107885,1,0,0:0:0:0:
339,139,108033,1,2,0:0:0:0:
245,154,108181,1,0,0:0:0:0:
152,175,108329,1,0,0:0:0:0:
78,293,108477,5,2,0:0:0:0:
208,253,108626,1,0,0:0:0:0:
283,314,108774,1,0,0:0:0:0:
90,300,108922,5,2,0:0:0:0:
212,265,109071,1,0,0:0:0:0:
101,309,109218,5,0,0:0:0:0:
220,275,109366,1,2,0:0:0:0:
123,175,109515,5,0,0:0:0:0:
39,249,109663,1,0,0:0:0:0:
109,319,109811,1,2,0:0:0:0:
257,354,109959,5,0,0:0:0:0:
303,273,110107,1,0,0:0:0:0:
200,177,110255,5,2,0:0:0:0:
220,275,110403,1,0,0:0:0:0:
275,136,110552,5,0,0:0:0:0:
182,72,110700,1,2,0:0:0:0:
116,190,110848,1,0,0:0:0:0:
194,271,110996,1,0,0:0:0:0:
345,174,111144,1,2,0:0:0:0:
414,240,111292,1,0,0:0:0:0:
409,335,111440,1,0,0:0:0:0:
328,186,111589,5,2,0:0:0:0:
205,58,111737,1,0,0:0:0:0:
293,14,111885,1,0,0:0:0:0:
228,234,112033,6,0,B|264:247|264:247|340:222,1,106.666666666667,14|8,0:0|0:0,0:0:0:0:
378,130,112329,1,8,0:0:0:0:
215,243,112477,5,6,0:0:0:0:
129,142,112626,1,0,0:0:0:0:
168,81,112774,1,0,0:0:0:0:
108,300,112922,6,0,B|154:322|154:322|221:312,1,100.000003814697,2|0,0:0|0:0,0:0:0:0:
287,263,113218,1,0,0:0:0:0:
497,344,113366,5,10,0:0:0:0:
360,296,113515,1,0,0:0:0:0:
299,345,113663,1,0,0:0:0:0:
282,152,113811,6,0,B|277:202|277:202|297:268,1,100.000003814697,2|0,0:0|0:0,0:0:0:0:
384,287,114107,1,0,0:0:0:0:
442,98,114255,6,0,B|414:112|414:112|336:88,1,100.000003814697,2|0,0:0|0:0,0:0:0:0:
165,7,114551,1,8,0:0:0:0:
95,193,114699,5,2,0:0:0:0:
57,122,114847,1,0,0:0:0:0:
220,79,114995,1,0,0:0:0:0:
380,194,115143,6,0,B|401:239|401:239|380:295,1,100.000003814697,2|0,0:0|0:0,0:0:0:0:
308,352,115440,1,0,0:0:0:0:
241,93,115588,5,6,0:0:0:0:
373,122,115736,1,0,0:0:0:0:
435,85,115884,1,0,0:0:0:0:
277,5,116032,6,0,L|178:19,1,100.000003814697,2|0,0:0|0:0,0:0:0:0:
122,103,116329,1,0,0:0:0:0:
283,228,116478,5,6,0:0:0:0:
146,373,116626,2,0,B|126:327|126:327|134:267,1,100.000003814697
350,151,116922,5,6,0:0:0:0:
303,301,117070,1,0,0:0:0:0:
366,264,117218,1,0,0:0:0:0:
165,52,117366,6,0,L|146:152,1,100.000003814697,2|0,0:0|0:0,0:0:0:0:
207,229,117662,1,0,0:0:0:0:
291,67,117811,5,8,0:0:0:0:
369,250,117959,1,8,0:0:0:0:
219,380,118107,1,8,0:0:0:0:
50,272,118255,6,0,B|36:253|36:253|57:164,1,100.000003814697,6|0,0:0|0:0,0:0:0:0:
93,85,118551,1,0,0:0:0:0:
292,253,118699,6,0,B|248:228|248:228|187:239,1,100.000003814697,2|0,0:0|0:0,0:0:0:0:
127,305,118995,1,0,0:0:0:0:
215,76,119143,5,10,0:0:0:0:
395,93,119292,1,0,0:0:0:0:
445,35,119440,1,0,0:0:0:0:
493,175,119588,6,0,L|509:282,1,100.000003814697,2|0,0:0|0:0,0:0:0:0:
454,358,119884,1,0,0:0:0:0:
292,253,120032,5,2,0:0:0:0:
135,286,120180,1,0,0:0:0:0:
198,324,120329,1,0,0:0:0:0:
51,114,120478,6,0,B|68:105|68:105|154:124,1,100.000003814697,6|0,0:0|0:0,0:0:0:0:
243,146,120774,1,0,0:0:0:0:
401,44,120922,6,0,B|384:35|384:35|298:54,1,100.000003814697,2|0,0:0|0:0,0:0:0:0:
209,76,121218,1,0,0:0:0:0:
307,215,121366,5,10,0:0:0:0:
216,280,121515,1,0,0:0:0:0:
253,347,121663,1,0,0:0:0:0:
57,263,121811,6,0,B|66:247|66:247|157:220,1,100.000003814697,2|0,0:0|0:0,0:0:0:0:
231,272,122107,1,0,0:0:0:0:
410,184,122255,6,0,B|401:168|401:168|310:141,1,100.000003814697,2|0,0:0|0:0,0:0:0:0:
253,347,122551,1,8,0:0:0:0:
144,223,122699,5,2,0:0:0:0:
322,144,122847,1,0,0:0:0:0:
291,76,122995,1,0,0:0:0:0:
302,222,123143,6,0,B|257:244|257:244|198:225,1,100.000003814697,2|0,0:0|0:0,0:0:0:0:
98,164,123440,1,0,0:0:0:0:
5,341,123588,5,10,0:0:0:0:
151,358,123736,1,0,0:0:0:0:
196,301,123885,1,0,0:0:0:0:
368,356,124032,6,0,B|360:360|360:360|317:301|317:301|293:291,1,100.000003814697,2|0,0:0|0:0,0:0:0:0:
237,372,124329,1,0,0:0:0:0:
110,166,124478,5,4,0:0:0:0:
284,85,124626,1,0,0:0:0:0:
325,146,124774,1,0,0:0:0:0:
465,60,124922,6,0,B|433:54|433:54|389:78|389:78|343:65,1,100.000003814697,2|0,0:0|0:0,0:0:0:0:
275,12,125218,1,0,0:0:0:0:
200,193,125366,6,0,L|179:302,1,100.000003814697,2|0,0:0|0:0,0:0:0:0:
246,367,125663,1,0,0:0:0:0:
461,222,125811,5,10,0:0:0:0:
266,240,125959,1,0,0:0:0:0:
218,187,126107,1,0,0:0:0:0:
90,292,126255,6,0,L|205:303,1,100.000003814697,2|0,0:0|0:0,0:0:0:0:
289,169,126551,1,0,0:0:0:0:
391,357,126699,5,14,0:0:0:0:
472,214,126847,1,0,0:0:0:0:
440,150,126995,1,0,0:0:0:0:
286,261,127143,6,0,L|396:272,1,100.000003814697,2|0,0:0|0:0,0:0:0:0:
477,312,127440,1,0,0:0:0:0:
376,117,127588,5,8,0:0:0:0:
228,189,127736,1,0,0:0:0:0:
221,184,127884,1,0,0:0:0:0:
239,24,128032,5,12,0:0:0:0:
145,189,128180,2,0,B|162:265|162:265|200:284,1,100.000003814697
333,168,128478,5,4,0:0:0:0:
276,274,128589,1,0,0:0:0:0:
253,97,128700,2,0,L|109:79,1,77.5000005912781,10|0,0:0|0:0,0:0:0:0:
3,183,128922,2,0,L|147:165,1,77.5000005912781,10|0,0:0|0:0,0:0:0:0:
262,85,129144,5,2,0:0:0:0:
265,77,129255,1,0,0:0:0:0:
185,123,129366,2,0,L|329:105,1,77.5000005912781,10|0,0:0|0:0,0:0:0:0:
446,198,129589,1,2,0:0:0:0:
391,51,129700,2,0,P|358:99|359:185,1,77.5000005912781,10|2,0:0|0:0,0:0:0:0:
427,236,129922,1,0,0:0:0:0:
510,107,130033,2,0,P|452:117|392:179,1,77.5000005912781,10|0,0:0|0:0,0:0:0:0:
337,290,130255,5,10,0:0:0:0:
263,380,130366,1,8,0:0:0:0:
167,346,130478,1,8,0:0:0:0:
148,262,130589,1,8,0:0:0:0:
86,228,130700,1,8,0:0:0:0:
34,244,130811,1,8,0:0:0:0:
20,288,130922,1,8,0:0:0:0:
34,323,131033,1,8,0:0:0:0:
62,335,131144,1,8,0:0:0:0:
84,330,131255,1,8,0:0:0:0:
112,292,131366,1,8,0:0:0:0:
86,238,131478,1,8,0:0:0:0:
105,190,131589,1,8,0:0:0:0:
145,174,131700,1,8,0:0:0:0:
179,187,131811,1,8,0:0:0:0:
189,209,131922,1,8,0:0:0:0:
186,224,132033,6,0,B|143:216|143:216|132:220|132:220|50:206,1,115.000002193451,4|0,2:3|2:0,2:0:0:0:
52,193,132366,2,0,B|95:201|95:201|106:197|106:197|188:211,1,115.000002193451,0|0,2:0|2:0,2:0:0:0:
263,282,132700,2,0,B|270:309|270:309|269:338|246:364,1,57.5000010967255,0|0,2:0|2:0,2:0:0:0:
169,370,132922,5,0,2:0:0:0:
169,370,133033,1,0,2:0:0:0:
219,307,133144,6,0,B|284:336|284:336|365:300,1,115.000002193451,0|0,2:0|2:0,2:0:0:0:
354,253,133478,2,0,B|394:235|394:235|459:264,1,115.000002193451,0|0,2:0|2:0,2:0:0:0:
486,340,133811,2,0,B|475:348|475:348|436:298|458:233,1,115.000002193451,0|0,2:0|2:0,2:0:0:0:
478,172,134144,2,0,B|489:180|489:180|528:130|506:65,1,115.000002193451,0|0,2:0|2:0,2:0:0:0:
459,17,134478,5,0,2:0:0:0:
459,17,134589,1,0,2:0:0:0:
361,125,134700,6,0,P|376:98|377:62,3,57.5000010967255,0|0|0|0,2:0|2:0|2:0|2:0,2:0:0:0:
221,0,135144,2,0,P|250:8|293:38,1,57.5000010967255,0|0,2:0|2:0,2:0:0:0:
347,136,135366,2,0,P|332:109|329:76,2,38.3333340644837,0|0|0,2:0|2:0|2:0,2:0:0:0:
237,110,135589,6,0,P|228:91|222:136,1,115.000002193451,0|0,2:0|2:0,2:0:0:0:
255,189,135922,2,0,B|259:249|259:249|262:254|262:254|267:320,1,115.000002193451,0|0,2:0|2:0,2:0:0:0:
181,287,136255,2,0,B|152:278|152:278|87:300,1,57.5000010967255,0|0,2:0|2:0,2:0:0:0:
82,372,136478,5,0,2:0:0:0:
82,372,136589,1,0,2:0:0:0:
211,357,136700,6,0,B|240:348|240:348|323:379,1,115.000002193451,0|0,2:0|2:0,2:0:0:0:
389,384,137033,2,0,B|306:352|306:352|331:339,1,115.000002193451,0|0,2:0|2:0,2:0:0:0:
471,287,137366,2,0,P|466:323|461:283,1,115.000002193451,0|0,2:0|2:0,2:0:0:0:
362,266,137700,2,0,B|341:232|341:232|365:133,1,115.000002193451,0|0,2:0|2:0,2:0:0:0:
472,113,138033,5,0,2:0:0:0:
472,113,138144,1,0,2:0:0:0:
393,28,138255,6,0,L|317:18,3,57.5000010967255,0|0|0|0,2:0|2:0|2:0|2:0,2:0:0:0:
184,38,138700,2,0,L|260:28,1,57.5000010967255,0|0,2:0|2:0,2:0:0:0:
326,96,138922,2,0,L|256:85,2,38.3333340644837,0|0|0,2:0|2:0|2:0,2:0:0:0:
141,113,139144,5,8,2:3:0:0:
141,113,139255,2,0,L|157:180,1,62.5,0|0,2:0|2:0,2:0:0:0:
28,64,139478,1,8,2:3:0:0:
28,64,139589,2,0,L|44:-3,1,62.5,0|0,2:0|2:0,2:0:0:0:
10,172,139811,1,8,2:3:0:0:
10,172,139922,2,0,L|26:239,2,62.5,0|0|0,2:0|2:0|2:0,2:0:0:0:
156,249,140255,5,8,2:3:0:0:
156,249,140366,2,0,L|140:316,1,62.5,0|0,2:0|2:0,2:0:0:0:
60,357,140589,1,8,2:3:0:0:
60,357,140700,2,0,L|-7:341,1,62.5,0|0,2:0|2:0,2:0:0:0:
164,152,140922,1,8,2:3:0:0:
164,152,141033,2,0,L|231:168,2,62.5,0|0|0,2:0|2:0|2:0,2:0:0:0:
361,261,141366,5,8,2:3:0:0:
361,261,141478,2,0,L|294:277,2,62.5,0|0|0,2:0|2:0|2:0,2:0:0:0:
293,201,141811,5,8,2:3:0:0:
222,305,141922,1,8,2:3:0:0:
222,305,142033,2,0,L|189:222,1,62.5,0|0,2:0|2:0,2:0:0:0:
317,143,142255,1,8,2:3:0:0:
317,143,142366,2,0,L|284:226,2,62.5,0|0|0,2:0|2:0|2:0,2:0:0:0:
179,9,142700,5,8,0:0:0:0:
189,76,142811,2,0,B|208:98|208:98|297:116,1,62.5,0|0,2:0|2:0,2:0:0:0:
405,10,143033,1,8,0:0:0:0:
336,6,143144,2,0,P|312:25|289:69,1,62.5,0|0,2:0|2:0,2:0:0:0:
416,193,143366,1,8,0:0:0:0:
462,128,143478,2,0,L|389:118,2,62.5,0|0|0,2:0|2:0|2:0,2:0:0:0:
380,322,143811,5,8,0:0:0:0:
442,293,143922,2,0,P|464:271|470:232,1,62.5,0|0,2:0|2:0,2:0:0:0:
234,189,144144,1,8,0:0:0:0:
245,256,144255,2,0,P|260:282|296:298,1,62.5,0|0,2:0|2:0,2:0:0:0:
349,139,144477,1,8,0:0:0:0:
311,80,144589,2,0,L|231:68,2,62.5,0|0|0,2:0|2:0|2:0,2:0:0:0:
161,223,144922,5,8,0:0:0:0:
114,273,145033,2,0,L|35:285,2,62.5,0|0|0,2:0|2:0|2:0,2:0:0:0:
328,360,145366,5,8,0:0:0:0:
311,349,145440,1,8,0:0:0:0:
303,324,145515,1,8,0:0:0:0:
308,291,145589,1,8,0:0:0:0:
341,266,145663,1,8,0:0:0:0:
386,271,145737,1,8,0:0:0:0:
431,251,145811,1,8,0:0:0:0:
450,196,145885,1,8,0:0:0:0:
438,134,145959,1,8,0:0:0:0:
380,110,146033,1,8,0:0:0:0:
327,135,146107,1,8,0:0:0:0:
273,126,146181,1,8,0:0:0:0:
261,94,146255,1,12,0:0:0:0:
261,94,146700,6,0,B|292:127|292:127|278:243,1,129.999994049073,4|0,0:0|2:0,0:0:0:0:
195,288,147033,2,0,B|190:235|190:235|184:224|184:224|178:152,1,129.999994049073,0|0,0:0|2:0,0:0:0:0:
132,101,147366,2,0,L|141:187,1,64.9999970245363,8|0,0:0|2:0,0:0:0:0:
84,258,147588,5,4,2:3:0:0:
84,258,147700,1,0,2:3:0:0:
196,339,147811,2,0,B|156:332|156:332|122:346|122:346|60:335,1,129.999994049073,2|4,0:0|2:3,0:0:0:0:
168,241,148144,2,0,B|208:234|208:234|242:248|242:248|304:237,1,129.999994049073,0|0,0:0|2:0,0:0:0:0:
359,109,148477,2,0,P|331:151|325:246,1,129.999994049073,4|0,0:0|2:0,0:0:0:0:
382,305,148811,2,0,B|455:286|455:286|464:288|464:288|518:275,1,129.999994049073,8|0,0:0|2:0,0:0:0:0:
403,197,149144,5,0,0:0:0:0:
327,237,149255,1,0,0:0:0:0:
496,267,149366,5,12,0:0:0:0:
437,116,149477,1,8,0:0:0:0:
327,237,149588,1,8,0:0:0:0:
496,267,149700,1,8,0:0:0:0:
442,102,149811,1,8,0:0:0:0:
265,164,149922,6,0,B|230:177|230:177|283:147|290:77,1,150.000005722046,4|0,0:0|2:0,0:0:0:0:
238,11,150255,2,0,B|174:24|174:24|171:29|171:29|84:50,1,129.999994049073,4|0,0:0|2:0,0:0:0:0:
13,106,150588,2,0,B|52:100|52:100|73:194,1,129.999994049073,0|0,0:0|2:0,0:0:0:0:
0,296,150921,2,0,L|18:211,1,64.9999970245363,8|0,0:0|2:0,0:0:0:0:
103,323,151143,5,4,2:3:0:0:
103,323,151255,1,0,2:0:0:0:
240,275,151366,2,0,B|210:266|210:266|200:273|200:273|107:248,1,129.999994049073,2|4,0:0|2:3,0:0:0:0:
195,168,151699,2,0,B|226:188|226:188|251:292,1,129.999994049073,0|0,0:0|2:0,0:0:0:0:
313,379,152032,2,0,B|347:359|347:359|360:293|360:293|356:290|356:290|377:179,1,194.999991073609,6|0,0:0|2:0,0:0:0:0:
367,96,152478,6,0,B|383:121|383:121|282:100,1,129.999994049073,4|0,0:0|2:0,0:0:0:0:
219,34,152811,2,0,B|160:47|160:47|154:44|154:44|88:58,1,129.999994049073,0|0,0:0|2:0,0:0:0:0:
0,149,153144,2,0,B|20:132|20:132|29:64,1,64.9999970245363,8|0,0:0|2:0,0:0:0:0:
0,0,153366,5,4,2:3:0:0:
0,0,153478,1,0,2:0:0:0:
115,130,153589,2,0,B|101:238|101:238|121:271,1,129.999994049073,2|4,0:0|2:3,0:0:0:0:
40,327,153922,2,0,B|30:311|30:311|162:350,1,129.999994049073,0|0,0:0|2:0,0:0:0:0:
251,312,154255,2,0,B|228:334|228:334|192:295|204:239,1,129.999994049073,4|0,0:0|2:0,0:0:0:0:
295,177,154589,2,0,B|283:207|283:207|233:225|233:225|225:223|225:223|166:241,1,129.999994049073,8|0,0:0|2:0,0:0:0:0:
107,189,154922,5,0,0:0:0:0:
107,189,155033,1,0,0:0:0:0:
217,128,155144,5,10,0:0:0:0:
104,278,155255,1,10,0:0:0:0:
59,81,155366,5,10,0:0:0:0:
190,233,155478,1,10,0:0:0:0:
151,71,155589,5,10,0:0:0:0:
24,230,155700,1,10,0:0:0:0:
260,198,155811,5,10,0:0:0:0:
97,16,155922,1,10,0:0:0:0:
179,359,156033,6,0,B|220:377|220:377|326:342,1,129.999994049073,4|0,0:0|2:0,0:0:0:0:
312,260,156366,2,0,B|353:242|353:242|459:277,1,129.999994049073,0|0,0:0|2:0,0:0:0:0:
442,384,156699,2,0,L|357:357,1,64.9999970245363,8|0,0:0|2:0,0:0:0:0:
512,298,156921,5,4,2:3:0:0:
512,298,157033,1,0,2:0:0:0:
370,369,157144,2,0,B|362:319|362:319|366:306|366:306|353:223,1,129.999994049073,2|4,0:0|2:3,0:0:0:0:
300,147,157477,2,0,B|313:181|313:181|218:159,1,129.999994049073,0|0,0:0|2:0,0:0:0:0:
131,67,157810,2,0,B|118:101|118:101|205:82|205:82|211:85|211:85|284:70,1,194.999991073609,6|0,0:0|2:0,0:0:0:0:
381,9,158255,6,0,B|402:42|402:42|383:138,1,129.999994049073,4|0,0:0|2:0,0:0:0:0:
445,218,158588,2,0,B|460:143|460:143|487:199,1,129.999994049073,0|0,0:0|2:0,0:0:0:0:
361,213,158921,2,0,B|337:202|337:202|289:221,1,64.9999970245363,8|0,0:0|2:0,0:0:0:0:
275,365,159143,5,4,2:3:0:0:
275,365,159255,1,0,2:0:0:0:
386,318,159366,2,0,B|428:314|428:314|460:335|460:335|528:333,1,129.999994049073,2|4,0:0|2:3,0:0:0:0:
315,290,159699,2,0,B|262:285|262:285|190:209,1,129.999994049073,0|0,0:0|2:0,0:0:0:0:
176,131,160032,2,0,B|165:195|165:195|168:200|168:200|154:280,1,129.999994049073,4|0,0:0|2:0,0:0:0:0:
40,344,160366,2,0,B|69:360|69:360|181:334,1,129.999994049073,8|0,0:0|2:0,0:0:0:0:
240,238,160699,5,0,0:0:0:0:
172,325,160810,1,0,0:0:0:0:
62,223,160921,5,0,0:0:0:0:
96,189,160995,1,0,0:0:0:0:
129,216,161069,1,0,0:0:0:0:
161,195,161143,1,0,0:0:0:0:
170,161,161217,1,0,0:0:0:0:
200,159,161292,1,0,0:0:0:0:
200,133,161366,1,12,0:0:0:0:
200,133,161588,5,0,0:0:0:0:
186,150,161662,1,0,0:0:0:0:
182,166,161736,1,0,0:0:0:0:
183,178,161811,6,0,B|216:198|216:198|314:176,1,129.999994049073,4|0,0:0|2:0,0:0:0:0:
364,109,162144,2,0,B|390:100|390:100|373:247,1,129.999994049073,0|0,0:0|2:0,0:0:0:0:
409,271,162477,2,0,L|418:187,1,64.9999970245363,8|0,0:0|2:0,0:0:0:0:
495,137,162699,5,4,2:3:0:0:
495,137,162811,1,0,2:0:0:0:
385,12,162922,2,0,B|315:24|315:24|311:29|311:29|230:46,1,129.999994049073,2|4,0:0|2:3,0:0:0:0:
183,113,163255,2,0,B|204:88|204:88|86:75,1,129.999994049073,0|0,0:0|2:0,0:0:0:0:
4,169,163588,2,0,B|10:235|10:235|13:235|13:235|21:308|21:308|40:237,1,194.999991073609,6|0,0:0|2:0,0:0:0:0:
129,202,164033,6,0,B|170:215|170:215|185:241|185:241|263:264,1,129.999994049073,4|0,0:0|2:0,0:0:0:0:
334,263,164366,2,0,B|266:286|266:286|286:356,1,129.999994049073,0|0,0:0|2:0,0:0:0:0:
411,384,164699,2,0,L|440:273,1,64.9999970245363,8|0,0:0|2:0,0:0:0:0:
512,242,164921,5,4,2:3:0:0:
512,242,165033,1,0,2:0:0:0:
368,164,165144,2,0,B|336:151|336:151|443:129,1,129.999994049073,2|4,0:0|2:3,0:0:0:0:
510,172,165477,2,0,B|454:185|454:185|477:97,1,129.999994049073,0|0,0:0|2:0,0:0:0:0:
510,18,165810,2,0,B|459:25|459:25|440:38|440:38|344:53,1,129.999994049073,4|0,0:0|2:0,0:0:0:0:
264,18,166144,2,0,B|286:57|286:57|252:162,1,129.999994049073,8|0,0:0|2:0,0:0:0:0:
174,201,166477,1,0,0:0:0:0:
253,130,166588,1,0,0:0:0:0:
91,77,166700,5,8,0:0:0:0:
169,189,166811,1,8,0:0:0:0:
246,121,166922,1,0,0:0:0:0:
49,155,167033,2,0,B|38:192|38:192|41:197|41:197|26:251,1,75.0000028610231,12|0,0:0|2:0,0:0:0:0:
134,286,167255,2,0,B|144:323|144:323|142:328|142:328|157:382,1,75.0000028610231,12|0,0:0|2:0,0:0:0:0:
164,177,167478,5,8,0:0:0:0:
287,252,167589,1,8,0:0:0:0:
238,350,167700,1,0,0:0:0:0:
96,222,167811,2,0,B|58:211|58:211|54:214|54:214|0:198,1,75.0000028610231,12|0,0:0|2:0,0:0:0:0:
172,161,168033,2,0,B|209:150|209:150|214:153|214:153|268:137,1,75.0000028610231,12|0,0:0|2:0,0:0:0:0:
333,118,168255,1,8,0:0:0:0:
189,7,168366,1,8,0:0:0:0:
164,177,168478,5,4,0:0:0:0:
371,46,168589,1,0,2:0:0:0:
437,175,168700,1,0,2:0:0:0:
318,120,168811,2,0,B|300:124|300:124|249:111|249:111|228:118,1,85.0000016212464,0|2,0:0|2:3,0:0:0:0:
31,275,169033,1,0,2:0:0:0:
128,225,169144,5,0,0:0:0:0:
220,370,169255,1,0,2:0:0:0:
306,268,169366,2,0,B|320:272|320:272|397:256,1,85.0000016212464,2|0,2:3|2:0,0:0:0:0:
504,127,169589,1,8,0:0:0:0:
504,127,169700,1,0,2:0:0:0:
468,321,169811,2,0,B|454:317|454:317|377:333,1,85.0000016212464,2|0,2:3|2:0,0:0:0:0:
230,232,170033,5,0,0:0:0:0:
191,223,170107,1,0,2:0:0:0:
160,237,170181,1,0,2:0:0:0:
131,234,170255,5,2,2:3:0:0:
66,89,170366,1,0,0:0:0:0:
243,142,170478,1,0,2:0:0:0:
243,142,170589,1,0,2:0:0:0:
46,217,170700,5,2,0:0:0:0:
116,31,170811,1,0,2:0:0:0:
170,240,170922,5,0,2:0:0:0:
137,100,171033,1,0,2:0:0:0:
95,301,171144,5,10,0:0:0:0:
110,324,171218,1,0,2:0:0:0:
129,335,171292,1,0,2:0:0:0:
162,338,171366,2,0,P|209:328|221:316,2,56.6666677474976,0|0|0,0:0|2:0|2:0,0:0:0:0:
33,208,171589,5,2,0:0:0:0:
39,187,171644,1,0,2:0:0:0:
43,170,171700,1,0,2:0:0:0:
45,157,171755,1,0,2:0:0:0:
47,148,171811,1,2,0:0:0:0:
116,31,171922,1,2,2:3:0:0:
164,246,172033,5,6,0:0:0:0:
135,228,172107,1,0,2:0:0:0:
97,241,172181,1,0,2:0:0:0:
84,284,172255,5,0,2:0:0:0:
106,329,172329,1,0,2:0:0:0:
160,343,172403,1,0,2:0:0:0:
218,322,172477,5,2,2:3:0:0:
252,277,172551,1,0,2:0:0:0:
254,226,172625,1,0,2:0:0:0:
235,185,172699,5,0,0:0:0:0:
203,162,172773,1,0,2:0:0:0:
170,155,172847,1,0,2:0:0:0:
131,163,172921,5,2,2:3:0:0:
162,203,172995,1,0,2:0:0:0:
212,211,173070,1,0,2:0:0:0:
257,177,173144,5,8,0:0:0:0:
281,119,173218,1,0,2:0:0:0:
333,75,173292,1,0,2:0:0:0:
391,63,173366,5,2,2:3:0:0:
442,87,173440,1,0,2:0:0:0:
465,133,173514,1,0,2:0:0:0:
455,189,173588,5,0,0:0:0:0:
406,228,173662,1,0,2:0:0:0:
339,220,173736,1,0,2:0:0:0:
286,169,173810,5,2,2:3:0:0:
185,46,173921,1,0,0:0:0:0:
121,189,174033,1,0,2:0:0:0:
121,189,174144,1,0,2:0:0:0:
307,364,174255,5,6,0:0:0:0:
126,311,174366,1,0,2:0:0:0:
278,245,174477,1,0,2:0:0:0:
187,139,174588,1,0,2:0:0:0:
289,41,174700,5,6,0:0:0:0:
106,175,174811,1,0,2:0:0:0:
16,61,174922,1,0,2:0:0:0:
145,83,175033,2,0,B|166:87|166:87|214:78|214:78|236:85,1,85.0000016212464,2|2,0:0|2:3,0:0:0:0:
404,177,175255,1,0,2:0:0:0:
506,137,175366,5,0,0:0:0:0:
401,295,175477,1,0,2:0:0:0:
300,193,175588,2,0,B|284:205|284:205|204:199,1,85.0000016212464,2|0,2:3|2:0,2:0:0:0:
13,144,175811,1,8,0:0:0:0:
13,144,175922,1,0,2:0:0:0:
130,275,176033,2,0,B|146:263|146:263|226:269,1,85.0000016212464,2|0,2:3|2:0,2:0:0:0:
336,340,176255,5,0,0:0:0:0:
148,191,176366,2,0,B|138:186|138:186|159:81,1,85.0000016212464,0|2,2:0|2:3,0:0:0:0:
202,17,176588,1,0,0:0:0:0:
67,146,176700,1,0,2:0:0:0:
217,182,176811,1,0,2:0:0:0:
113,292,176922,5,6,2:3:0:0:
220,190,177033,1,0,2:0:0:0:
57,138,177144,1,0,2:0:0:0:
125,297,177255,1,0,2:0:0:0:
306,160,177366,5,10,0:0:0:0:
351,163,177440,1,0,2:0:0:0:
383,186,177514,1,0,2:0:0:0:
401,227,177588,5,8,0:0:0:0:
393,277,177662,1,0,2:0:0:0:
354,319,177737,1,0,2:0:0:0:
292,327,177811,5,10,0:0:0:0:
238,307,177885,1,0,2:0:0:0:
202,270,177959,1,0,2:0:0:0:
187,227,178033,5,10,0:0:0:0:
193,176,178107,1,0,2:0:0:0:
224,128,178181,1,0,2:0:0:0:
283,109,178255,5,6,0:0:0:0:
228,248,178366,1,0,2:0:0:0:
150,96,178477,5,0,2:0:0:0:
162,122,178551,1,0,2:0:0:0:
174,141,178625,1,0,2:0:0:0:
193,176,178699,5,2,0:0:0:0:
207,207,178773,1,0,2:0:0:0:
221,232,178847,1,0,2:0:0:0:
228,248,178921,5,0,0:0:0:0:
279,131,179032,1,0,2:0:0:0:
375,332,179143,5,2,2:3:0:0:
363,306,179217,1,0,2:0:0:0:
351,287,179292,1,0,2:0:0:0:
332,252,179366,5,8,0:0:0:0:
318,221,179440,1,0,2:0:0:0:
304,196,179514,1,0,2:0:0:0:
297,180,179587,5,2,2:3:0:0:
404,225,179699,1,0,2:0:0:0:
470,136,179810,5,0,0:0:0:0:
446,152,179884,1,0,2:0:0:0:
423,154,179958,1,0,2:0:0:0:
395,147,180032,5,2,2:3:0:0:
375,118,180106,1,0,2:0:0:0:
335,97,180180,1,0,2:0:0:0:
284,103,180255,5,0,2:0:0:0:
245,144,180329,1,0,2:0:0:0:
243,206,180403,1,0,2:0:0:0:
293,250,180477,5,6,0:0:0:0:
297,317,180551,1,0,2:0:0:0:
256,364,180625,1,0,2:0:0:0:
199,368,180699,5,0,2:0:0:0:
157,338,180773,1,0,2:0:0:0:
141,295,180847,1,0,2:0:0:0:
164,231,180921,5,8,0:0:0:0:
224,237,180996,1,8,0:0:0:0:
277,244,181070,1,8,0:0:0:0:
324,249,181144,5,8,0:0:0:0:
365,253,181218,1,0,0:0:0:0:
400,255,181292,1,0,0:0:0:0:
460,281,181366,5,8,0:0:0:0:
430,333,181440,1,8,0:0:0:0:
383,361,181514,1,8,0:0:0:0:
335,357,181588,5,8,0:0:0:0:
299,335,181662,1,0,0:0:0:0:
278,306,181736,1,0,0:0:0:0:
277,244,181810,5,8,0:0:0:0:
262,192,181884,1,8,0:0:0:0:
221,166,181959,1,8,0:0:0:0:
180,174,182033,5,8,0:0:0:0:
155,200,182107,1,0,0:0:0:0:
149,229,182181,1,0,0:0:0:0:
173,277,182255,5,8,0:0:0:0:
179,229,182329,1,8,0:0:0:0:
185,187,182403,1,8,0:0:0:0:
190,151,182477,5,8,0:0:0:0:
194,121,182551,1,0,0:0:0:0:
197,97,182625,1,0,0:0:0:0:
201,49,182699,5,6,0:0:0:0:
0,32,182810,1,0,2:0:0:0:
121,126,182922,1,0,2:0:0:0:
144,0,183033,1,0,0:0:0:0:
57,175,183144,5,12,0:0:0:0:
124,264,183255,1,0,2:0:0:0:
14,325,183366,1,0,0:0:0:0:
157,363,183477,1,0,2:0:0:0:
49,248,183588,5,4,0:0:0:0:
79,373,183699,1,0,0:0:0:0:
136,257,183810,1,0,0:0:0:0:
70,384,183922,1,0,0:0:0:0:
41,232,184033,5,10,0:0:0:0:
142,175,184144,1,0,2:0:0:0:
212,252,184255,1,0,2:0:0:0:
302,161,184366,1,0,2:0:0:0:
403,255,184477,5,2,2:3:0:0:
291,274,184588,1,0,2:0:0:0:
421,328,184699,1,0,0:0:0:0:
351,309,184810,1,0,0:0:0:0:
470,275,184922,5,14,0:0:0:0:
340,222,185033,1,0,2:0:0:0:
369,381,185144,1,0,2:0:0:0:
403,255,185255,1,0,2:0:0:0:
258,344,185366,5,2,0:0:0:0:
198,348,185440,1,0,2:0:0:0:
151,321,185514,1,0,2:0:0:0:
128,281,185588,5,0,0:0:0:0:
126,239,185662,1,0,2:0:0:0:
141,206,185736,1,0,2:0:0:0:
204,182,185810,5,10,0:0:0:0:
221,242,185884,1,0,2:0:0:0:
204,297,185959,1,0,2:0:0:0:
169,334,186033,5,8,0:0:0:0:
125,347,186107,1,0,2:0:0:0:
85,342,186181,1,0,2:0:0:0:
55,325,186255,6,0,B|68:293|58:255|48:266|27:222|47:180|47:180|61:187|64:209,1,170.000003242493,6|0,0:0|2:0,0:0:0:0:
305,327,186588,2,0,B|298:315|298:315|292:305|276:301|265:308|265:308|237:324|237:324|237:329|237:329|234:326|234:326|207:342|207:342|193:351|179:350|170:336|170:336|137:291,1,189.999994926453,0|0,0:0|2:0,0:0:0:0:
74,102,186922,2,0,P|59:144|61:199,1,94.9999974632264,0|0,0:0|2:0,0:0:0:0:
168,333,187144,5,4,0:0:0:0:
210,274,187255,1,0,0:0:0:0:
278,253,187366,1,0,0:0:0:0:
345,278,187477,1,0,0:0:0:0:
388,339,187588,6,0,B|364:306|373:275|386:259|386:259|390:258|390:258|388:255|388:255|408:223|405:188|383:157,1,189.999994926453,14|0,0:0|2:0,0:0:0:0:
186,120,187922,2,0,B|161:113|148:124|148:124|160:140|216:136|205:125|248:107|294:133,1,189.999994926453,0|0,2:0|2:0,0:0:0:0:
453,185,188255,6,0,P|457:161|450:138,1,47.4999987316132,0|0,0:0|2:0,0:0:0:0:
396,96,188366,1,0,0:0:0:0:
263,201,188477,2,0,P|250:225|245:298,1,94.9999974632264,12|0,0:0|2:0,0:0:0:0:
417,340,188699,1,0,0:0:0:0:
417,340,188810,1,0,0:0:0:0:
268,369,188922,6,0,B|254:373|254:373|155:355,1,100,12|0,0:0|2:0,0:0:0:0:
341,262,189144,2,0,B|425:246|425:246|439:250,1,100,12|0,0:0|2:0,0:0:0:0:
292,132,189366,1,10,2:3:0:0:
208,182,189477,1,8,0:0:0:0:
115,108,189588,1,8,0:0:0:0:
45,218,189699,1,8,0:0:0:0:
193,102,189811,6,0,B|221:91|221:91|321:99|321:99|359:86,1,150.000005722046,6|0,0:0|2:0,0:0:0:0:
461,27,190144,1,0,0:0:0:0:
461,27,190199,1,0,2:0:0:0:
461,27,190255,6,0,B|438:51|426:110|426:110|423:108|423:108|427:106|427:106|416:135|434:198|453:211|453:211|450:216|450:216|448:212|448:212|461:208|502:193|520:156|514:146,1,300,12|0,0:0|2:0,0:0:0:0:
277,12,190699,5,6,0:0:0:0:
357,169,190811,1,0,0:0:0:0:
461,27,190922,5,0,0:0:0:0:
461,27,190977,1,0,2:0:0:0:
461,27,191033,1,0,0:0:0:0:
461,27,191088,1,0,2:0:0:0:
461,27,191144,6,0,B|438:51|426:110|426:110|423:108|423:108|427:106|427:106|416:135|434:198|453:211|453:211|450:216|450:216|448:212|448:212|461:208|502:193|523:157|530:117|530:117|533:119|533:119|530:122|530:122|527:91|518:85|518:85|448:131|380:121|411:83|360:80|331:80|331:80|333:82|333:82|336:81|336:81|320:53|282:37|256:48|256:48|265:71|266:117|237:136|237:136|227:137|227:137|193:160|175:183|176:238|176:238|212:210|246:203|276:210|276:210|275:206|275:206|271:208|271:208|298:214|317:225|333:255,1,1100,14|0,0:0|2:0,0:0:0:0:
436,333,192477,5,8,0:0:0:0:
230,313,192589,1,8,0:0:0:0:
437,249,192700,5,8,0:0:0:0:
292,363,192811,1,8,0:0:0:0:
506,375,192922,5,10,0:0:0:0:
334,237,193033,1,10,0:0:0:0:
509,177,193144,5,10,0:0:0:0:
422,340,193255,1,8,0:0:0:0:
319,150,193366,6,0,B|307:147|307:147|211:165,2,89.9999972534181,4|0|0,0:0|2:0|2:0,0:0:0:0:
424,264,193700,2,0,B|436:267|436:267|532:249,2,89.9999972534181,4|0|0,0:0|2:0|2:0,0:0:0:0:
312,136,194033,2,0,B|300:133|300:133|204:151,1,89.9999972534181,4|0,0:0|2:0,0:0:0:0:
176,359,194255,5,2,0:0:0:0:
290,209,194366,1,0,0:0:0:0:
321,384,194478,1,0,0:0:0:0:
189,217,194589,1,0,0:0:0:0:
21,359,194700,6,0,B|42:357|60:368|60:368|49:353|28:321|42:272|42:272|35:273|35:273|41:277|41:277|49:224|68:195|68:195|64:195|64:195|66:199|66:199|95:198|118:243,1,300,14|0,0:0|2:0,0:0:0:0:
186,344,195144,5,0,2:0:0:0:
236,337,195218,1,0,2:0:0:0:
265,302,195292,1,0,2:0:0:0:
249,247,195366,5,8,0:0:0:0:
260,188,195440,1,0,2:0:0:0:
303,160,195515,1,0,2:0:0:0:
348,163,195589,5,0,2:0:0:0:
380,186,195663,1,0,2:0:0:0:
395,216,195737,1,0,2:0:0:0:
375,263,195811,5,0,2:0:0:0:
377,291,195885,1,0,2:0:0:0:
380,313,195959,1,0,2:0:0:0:
432,355,196033,5,0,0:0:0:0:
483,255,196144,1,0,0:0:0:0:
391,161,196255,1,0,0:0:0:0:
464,75,196366,1,0,0:0:0:0:
296,17,196478,5,8,0:0:0:0:
474,161,196589,1,8,0:0:0:0:
377,21,196700,1,8,0:0:0:0:
265,153,196811,1,8,0:0:0:0:
157,30,196922,5,8,0:0:0:0:
102,112,197033,1,8,0:0:0:0:
198,171,197144,1,8,0:0:0:0:
125,268,197255,1,8,0:0:0:0:
229,367,197366,5,10,0:0:0:0:
95,193,197478,1,10,0:0:0:0:
270,285,197589,1,10,0:0:0:0:
67,349,197700,1,10,0:0:0:0:
213,181,197811,5,8,0:0:0:0:
242,154,197885,1,8,0:0:0:0:
286,143,197959,1,8,0:0:0:0:
337,151,198033,5,0,2:0:0:0:
382,186,198107,1,8,0:0:0:0:
405,244,198181,1,0,2:0:0:0:
391,311,198255,5,8,0:0:0:0:
349,293,198329,1,8,0:0:0:0:
329,245,198403,1,8,0:0:0:0:
342,189,198478,5,0,2:0:0:0:
392,152,198552,1,8,0:0:0:0:
459,149,198626,1,0,2:0:0:0:
505,206,198700,6,0,B|508:229|508:229|503:260,5,42.5000008106232,14|0|0|0|0|0,0:0|2:0|2:0|2:0|2:0|2:0,2:0:0:0:
389,275,199033,2,0,B|386:298|386:298|391:329,5,42.5000008106232,14|0|0|0|0|0,0:0|2:0|2:0|2:0|2:0|2:0,2:0:0:0:
507,380,199366,5,14,0:0:0:0:
357,197,204029,5,2,0:0:0:0:
269,108,205584,5,2,0:0:0:0:
169,268,206917,5,2,0:0:0:0:
399,49,207584,5,2,0:0:0:0:
165,131,208251,5,2,0:0:0:0:
407,209,208917,5,2,0:0:0:0:
381,145,209806,5,2,0:0:0:0:
381,145,210695,5,2,0:0:0:0:
266,332,211140,5,2,0:0:0:0:
152,154,213809,6,0,P|132:213|131:249,1,75.0000028610231,2|2,0:0|0:0,0:0:0:0:
200,301,214253,1,2,0:0:0:0:
200,301,214475,1,2,0:0:0:0:
300,217,214697,1,2,0:0:0:0:
300,217,214920,1,2,0:0:0:0:
423,347,215142,1,2,0:0:0:0:
423,347,217364,5,2,0:0:0:0:
423,347,217586,1,2,0:0:0:0:
474,287,217809,1,2,0:0:0:0:
344,226,218031,2,0,B|304:203|238:231|273:261|196:290|131:245,1,212.500004053116,2|0,0:0|2:0,0:0:0:0:
128,180,218697,1,2,0:0:0:0:
128,180,219364,1,2,0:0:0:0:
140,168,221364,5,2,0:0:0:0:
140,168,221813,2,0,P|171:178|248:80,1,150.000005722046,2|0,0:0|2:0,0:0:0:0:
232,80,222479,1,2,0:0:0:0:
156,58,223146,1,2,0:0:0:0:
242,0,223813,1,2,0:0:0:0:
225,308,227146,5,2,2:0:0:0:
339,281,227346,1,0,2:0:0:0:
339,281,227546,1,0,2:0:0:0:
339,281,227746,1,0,2:0:0:0:
399,380,227946,5,2,2:0:0:0:
225,308,228146,1,2,2:0:0:0:
259,196,228346,1,0,2:0:0:0:
259,196,228546,1,0,2:0:0:0:
259,196,228746,1,0,2:0:0:0:
225,308,228946,5,2,2:0:0:0:
347,205,229146,1,2,2:0:0:0:
225,308,229346,1,2,2:0:0:0:
182,220,229546,1,2,2:0:0:0:
327,304,229746,1,0,2:0:0:0:
327,304,229946,1,0,2:0:0:0:
225,308,230146,5,2,2:0:0:0:
347,205,230346,1,2,2:0:0:0:
268,137,230546,1,0,2:0:0:0:
305,45,230746,1,0,2:0:0:0:
305,45,230946,1,0,2:0:0:0:
379,117,231146,5,2,2:0:0:0:
222,60,231346,1,2,2:0:0:0:
161,149,231546,1,0,2:0:0:0:
161,149,231746,1,0,2:0:0:0:
161,149,231946,1,0,2:0:0:0:
267,167,232146,5,2,2:0:0:0:
156,69,232346,1,2,2:0:0:0:
267,167,232546,1,2,2:0:0:0:
170,81,232746,1,2,2:0:0:0:
96,172,232946,1,0,2:0:0:0:
41,109,233146,1,0,2:0:0:0:
2,247,233346,5,2,2:0:0:0:
152,324,233546,1,2,2:0:0:0:
188,229,233746,1,0,2:0:0:0:
66,317,233946,1,0,2:0:0:0:
66,317,234146,1,0,2:0:0:0:
188,229,234346,5,2,2:0:0:0:
258,307,234546,1,2,2:0:0:0:
339,242,234746,1,0,2:0:0:0:
339,242,234946,1,0,2:0:0:0:
339,242,235146,1,0,2:0:0:0:
286,138,235346,5,2,2:0:0:0:
403,101,235546,1,2,2:0:0:0:
286,138,235746,1,2,2:0:0:0:
322,52,235946,1,2,2:0:0:0:
367,180,236146,1,0,2:0:0:0:
367,180,236346,1,0,2:0:0:0:
403,101,236546,5,2,2:0:0:0:
286,138,236746,1,2,2:0:0:0:
284,254,236946,1,0,2:0:0:0:
284,254,237146,1,0,2:0:0:0:
284,254,237346,1,0,2:0:0:0:
369,285,237546,5,2,2:0:0:0:
231,190,237746,1,2,2:0:0:0:
165,266,237946,1,0,2:0:0:0:
165,266,238146,1,0,2:0:0:0:
165,266,238346,1,0,2:0:0:0:
242,327,238546,5,2,2:0:0:0:
158,188,238746,1,2,2:0:0:0:
242,327,238946,1,2,2:0:0:0:
326,377,239146,1,2,2:0:0:0:
323,216,239346,1,0,2:0:0:0:
226,250,239546,1,0,2:0:0:0:
404,360,239746,1,0,2:0:0:0:
404,360,239846,1,0,2:0:0:0:
404,360,239946,5,6,0:0:0:0:
323,216,240146,2,0,P|360:250|432:277,1,125,0|2,2:0|2:3,0:0:0:0:
429,276,240546,1,0,2:0:0:0:
306,102,240746,5,8,0:0:0:0:
222,211,240946,1,0,2:0:0:0:
306,102,241146,2,0,P|273:131|182:133,1,125,2|8,2:3|2:3,0:0:0:0:
175,119,241446,1,8,2:3:0:0:
175,119,241546,2,0,P|187:159|177:253,1,125,0|8,0:0|2:3,0:0:0:0:
160,263,241846,1,8,2:3:0:0:
160,263,241946,6,0,B|223:250|223:250|241:257|241:257|353:236,1,187.5,6|0,0:0|2:0,0:0:0:0:
421,259,242346,2,0,L|406:184,1,62.5,8|0,0:0|2:0,0:0:0:0:
242,106,242546,2,0,B|305:119|305:119|323:112|323:112|406:126,1,125,6|2,0:0|2:3,0:0:0:0:
266,17,242946,5,0,2:0:0:0:
148,154,243146,2,0,P|163:97|148:16,1,125,2|8,0:0|2:3,0:0:0:0:
154,32,243546,1,2,2:3:0:0:
266,17,243746,1,0,0:0:0:0:
68,170,243946,5,10,0:0:0:0:
154,231,244146,1,0,2:0:0:0:
54,269,244346,2,0,P|32:215|34:144,1,125,2|8,2:3|2:3,0:0:0:0:
54,127,244646,1,8,2:3:0:0:
54,127,244746,1,2,0:0:0:0:
171,74,244946,1,8,2:3:0:0:
71,8,245146,1,2,2:3:0:0:
54,127,245346,1,0,0:0:0:0:
263,27,245546,5,10,0:0:0:0:
83,16,245746,1,8,0:0:0:0:
130,139,245946,1,2,2:3:0:0:
130,139,246146,2,0,P|174:153|221:149,1,62.5,0|0,2:0|2:0,0:0:0:0:
260,100,246346,5,6,0:0:0:0:
366,135,246546,2,0,P|331:184|312:261,1,125,0|2,2:0|2:3,0:0:0:0:
269,116,246946,1,0,0:0:0:0:
392,308,247146,5,10,0:0:0:0:
318,254,247346,2,0,P|258:256|183:291,1,125,0|2,2:0|2:3,0:0:0:0:
149,384,247746,1,8,2:3:0:0:
149,384,247846,1,8,2:3:0:0:
149,384,247946,2,0,L|157:305,1,62.5,2|0,0:0|2:0,0:0:0:0:
101,224,248146,1,8,2:3:0:0:
245,330,248346,1,2,0:0:0:0:
122,241,248546,1,0,2:0:0:0:
336,206,248746,5,10,0:0:0:0:
213,257,248946,1,0,0:0:0:0:
213,257,249146,1,2,0:0:0:0:
374,295,249346,1,0,2:0:0:0:
236,170,249546,2,0,P|271:143|306:60,1,125,2|0,0:0|2:0,0:0:0:0:
304,71,249946,1,2,2:3:0:0:
289,247,250146,5,8,0:0:0:0:
169,131,250346,1,2,2:3:0:0:
285,81,250546,1,0,2:0:0:0:
161,256,250746,6,0,B|118:275|36:243|26:160|85:98,1,187.5,2|0,0:0|2:0,0:0:0:0:
126,74,251146,2,0,L|132:160,1,62.5,2|0,2:3|2:0,0:0:0:0:
32,298,251346,1,8,0:0:0:0:
132,156,251546,1,2,2:3:0:0:
168,262,251746,1,0,0:0:0:0:
7,125,251946,5,10,0:0:0:0:
186,272,252146,1,8,0:0:0:0:
93,92,252346,1,8,0:0:0:0:
38,284,252546,1,8,0:0:0:0:
222,114,252746,6,0,B|279:85|348:124|355:176|294:187|335:249|472:249|513:184|465:90|384:58|308:176,1,437.5,6|0,0:0|2:0,0:0:0:0:
288,221,253546,5,10,0:0:0:0:
370,92,253746,1,0,2:0:0:0:
492,253,253946,2,0,P|447:245|363:263,1,125,2|8,2:3|2:3,0:0:0:0:
335,319,254246,1,8,2:3:0:0:
335,319,254346,2,0,P|274:333|212:325,1,125,2|8,0:0|2:3,0:0:0:0:
159,282,254646,1,8,2:3:0:0:
159,282,254746,2,0,P|197:305|194:209,1,187.5,2|0,0:0|2:0,0:0:0:0:
129,197,255146,5,10,0:0:0:0:
35,291,255346,1,0,0:0:0:0:
66,142,255546,1,2,2:3:0:0:
246,293,255746,1,8,2:3:0:0:
246,293,255846,1,8,2:3:0:0:
246,293,255946,2,0,P|304:281|355:227,1,125,2|8,0:0|2:3,0:0:0:0:
350,236,256346,1,2,2:3:0:0:
192,225,256546,1,0,0:0:0:0:
426,346,256746,5,10,0:0:0:0:
278,215,256946,1,0,2:0:0:0:
449,362,257146,2,0,P|476:305|475:238,1,125,2|8,2:3|2:3,0:0:0:0:
452,217,257446,1,8,2:3:0:0:
452,217,257546,1,2,0:0:0:0:
317,342,257746,5,8,0:0:0:0:
371,242,257946,1,2,2:3:0:0:
343,93,258146,1,0,0:0:0:0:
307,352,258346,1,2,2:3:0:0:
300,354,258446,1,2,2:3:0:0:
293,356,258546,1,2,2:3:0:0:
293,356,258746,6,0,P|307:328|310:297,1,62.5,10|0,2:3|2:0,0:0:0:0:
376,231,258946,6,0,P|366:201|346:177,1,62.5,10|0,2:3|2:0,0:0:0:0:
346,82,259146,6,0,P|318:67|287:64,1,62.5,2|0,2:3|2:0,0:0:0:0:
194,119,259346,2,0,L|206:42,2,62.5,0|0|2,2:0|2:0|2:3,0:0:0:0:
263,213,259746,1,0,0:0:0:0:
93,93,259946,5,10,0:0:0:0:
37,195,260146,1,0,2:0:0:0:
182,123,260346,1,2,2:3:0:0:
354,262,260546,1,8,2:3:0:0:
354,262,260646,1,8,2:3:0:0:
354,262,260746,2,0,P|275:253|200:305,1,125,2|8,0:0|2:3,0:0:0:0:
201,331,261046,1,8,2:3:0:0:
201,331,261146,2,0,B|234:302|240:235|191:201|154:197|121:222,1,187.5,2|0,0:0|2:0,0:0:0:0:
114,286,261546,5,10,0:0:0:0:
236,157,261746,1,0,0:0:0:0:
118,31,261946,6,0,P|123:69|114:124,1,89.9999972534181,2|0,0:0|2:0,0:0:0:0:
78,162,262346,6,0,B|41:169|12:122|38:46|103:41|159:55|192:96|161:112|182:136|259:143|309:114,1,312.5,2|0,0:0|2:0,0:0:0:0:
326,33,262946,2,0,L|313:135,1,62.5,8|0,0:0|2:0,0:0:0:0:
380,131,263146,2,0,B|391:122|413:144|404:184|352:185|318:145|342:137|291:105|233:137,1,187.5,2|0,0:0|2:0,0:0:0:0:
211,213,263546,2,0,B|257:201|260:122|172:107|147:170|174:202|174:202|174:202|174:202|205:242|198:299|162:331,1,312.765207347969,2|0,0:0|2:0,0:0:0:0:
95,340,264146,2,0,L|84:260,1,62.5,8|0,0:0|2:0,0:0:0:0:
0,231,264346,2,0,P|58:208|75:170,1,67.5000002574921,2|0,0:0|2:0,0:0:0:0:
49,99,264546,2,0,P|111:127|150:125,1,67.5000002574921,0|0,0:0|2:0,0:0:0:0:
177,73,264746,2,0,P|242:56|315:82,1,135.000000514984,2|2,2:3|2:3,0:0:0:0:
310,226,265146,6,0,P|266:239|226:279,1,67.5000002574921,2|0,2:3|2:0,0:0:0:0:
289,365,265346,2,0,P|321:357|350:340,1,67.5000002574921,2|0,2:3|2:0,0:0:0:0:
444,192,265546,6,0,B|462:213|460:251|425:283|386:250|366:198|379:160|418:135|420:183|465:114|445:52,1,250,6|2,0:0|2:3,0:0:0:0:
448,94,266146,1,0,2:0:0:0:
281,1,266346,5,10,0:0:0:0:
383,16,266546,1,0,2:0:0:0:
314,161,266746,1,2,0:0:0:0:
172,51,266946,1,8,2:3:0:0:
172,51,267046,1,8,2:3:0:0:
172,51,267146,2,0,P|193:96|193:184,1,125,2|8,0:0|2:3,0:0:0:0:
147,219,267446,1,8,2:3:0:0:
147,219,267546,2,0,P|121:281|124:342,1,125,2|0,0:0|0:0,0:0:0:0:
52,138,267946,5,10,0:0:0:0:
176,84,268146,1,0,0:0:0:0:
76,56,268346,1,2,2:3:0:0:
179,8,268546,1,8,2:3:0:0:
179,8,268646,1,8,2:3:0:0:
179,8,268746,2,0,P|204:50|270:96,1,125,2|8,0:0|2:3,0:0:0:0:
422,6,269146,2,0,P|395:39|370:120,1,125,2|0,2:3|0:0,0:0:0:0:
501,242,269546,5,10,0:0:0:0:
408,316,269746,1,0,2:0:0:0:
308,222,269946,2,0,P|336:257|419:286,1,125,2|0,0:0|0:0,0:0:0:0:
501,168,270346,1,2,0:0:0:0:
325,44,270546,6,0,B|269:52|269:52|258:48|258:48|170:59,1,125,8|2,0:0|2:3,0:0:0:0:
133,19,270846,2,0,B|156:29|156:29|182:67|175:137,1,125,0|0,2:0|2:0,0:0:0:0:
91,209,271146,5,8,0:0:0:0:
91,209,271196,2,0,B|138:204|138:204|144:206|144:206|203:200,1,93.75,8|0,0:0|2:0,0:0:0:0:
263,226,271446,5,8,0:0:0:0:
161,336,271679,1,8,0:0:0:0:
255,49,271946,5,12,0:0:0:0:
378,310,272212,5,8,0:0:0:0:
164,232,272479,1,0,0:0:0:0:
402,26,272746,5,14,0:0:0:0:
481,123,272946,2,0,P|419:100|344:108,1,125,0|2,0:0|2:3,0:0:0:0:
231,250,273412,5,0,2:0:0:0:
240,231,273479,1,0,2:0:0:0:
242,210,273546,1,2,2:3:0:0:
158,143,273746,1,0,2:0:0:0:
42,263,273946,2,0,P|76:203|85:127,1,125,2|0,0:0|2:0,0:0:0:0:
0,0,274346,5,10,0:0:0:0:
68,129,274546,1,0,0:0:0:0:
133,56,274746,1,2,2:3:0:0:
279,84,274946,1,8,2:3:0:0:
279,84,275046,1,8,2:3:0:0:
279,84,275146,2,0,P|248:137|239:240,1,125,2|0,0:0|2:0,0:0:0:0:
315,296,275546,1,2,2:3:0:0:
505,164,275746,5,8,0:0:0:0:
395,76,275946,1,6,0:0:0:0:
395,76,276146,1,0,2:0:0:0:
422,175,276346,2,0,P|397:137|315:102,1,125,2|0,0:0|2:0,0:0:0:0:
178,219,276746,1,2,0:0:0:0:
328,23,276946,5,8,0:0:0:0:
228,95,277146,1,2,2:3:0:0:
409,175,277346,1,0,0:0:0:0:
338,264,277546,5,8,0:0:0:0:
338,264,277596,2,0,L|318:149,1,93.75,8|0,0:0|0:0,0:0:0:0:
481,161,277896,1,8,0:0:0:0:
481,161,277946,2,0,L|501:47,1,93.75,8|0,0:0|1:0,0:0:0:0:
386,46,278196,2,0,L|394:95,2,31.25,0|0|0,2:0|2:0|2:0,0:0:0:0:
371,67,278340,6,0,B|357:84|304:105|260:80|283:56|254:40|205:43|160:57|125:87|109:132|114:179|131:211|167:222|207:212|279:233|231:282|247:370|194:374|135:410|112:401|60:373|33:257|62:207|152:179|220:182|267:215,1,829.999974670411,0|0,2:0|2:0,0:0:0:0:
325,249,284562,6,0,B|339:250|339:250|342:254|342:254|397:256|397:256|394:259|394:259|407:204|407:204|404:206|404:206|439:207|439:207|445:203|445:203|490:203|490:203|484:232,1,244.999992523194,0|0,2:0|2:0,1:0:0:0:
460,286,285451,5,6,0:0:0:0:
463,306,285525,1,0,0:0:0:0:
466,326,285599,1,2,0:0:0:0:
413,376,285747,1,2,2:3:0:0:
343,355,285895,1,2,2:3:0:0:
326,283,286043,1,2,2:3:0:0:
256,262,286191,1,2,2:3:0:0:
55,301,286340,5,10,0:0:0:0:
120,334,286488,1,2,2:3:0:0:
172,283,286636,1,2,2:3:0:0:
139,217,286784,1,2,2:3:0:0:
106,151,286932,1,2,2:3:0:0:
158,100,287080,1,2,2:3:0:0:
331,213,287228,5,2,0:0:0:0:
294,212,287303,1,0,0:0:0:0:
263,194,287377,1,2,0:0:0:0:
223,133,287525,1,2,2:3:0:0:
158,100,287673,1,2,2:3:0:0:
85,104,287821,1,2,2:3:0:0:
24,144,287969,1,2,2:3:0:0:
3,323,288117,5,10,0:0:0:0:
75,315,288265,1,2,2:3:0:0:
147,307,288414,1,2,2:3:0:0:
219,299,288562,1,2,2:3:0:0:
291,291,288711,1,2,2:3:0:0:
363,283,288858,1,2,2:3:0:0:
491,350,289006,5,2,0:0:0:0:
455,340,289080,1,0,0:0:0:0:
431,312,289154,1,2,0:0:0:0:
432,238,289302,1,2,2:3:0:0:
469,106,289451,5,2,0:0:0:0:
437,125,289525,1,0,0:0:0:0:
422,159,289599,1,2,0:0:0:0:
443,230,289747,1,2,2:3:0:0:
333,349,289895,5,10,0:0:0:0:
291,291,290043,1,2,2:3:0:0:
333,233,290191,1,2,2:3:0:0:
291,175,290340,1,2,2:3:0:0:
333,117,290488,1,2,2:3:0:0:
291,59,290636,1,2,2:3:0:0:
334,1,290784,5,2,2:3:0:0:
402,23,290932,1,2,2:3:0:0:
402,94,291080,1,2,2:3:0:0:
333,117,291228,1,2,2:3:0:0:
264,140,291377,1,2,2:3:0:0:
264,211,291525,1,2,2:3:0:0:
381,302,291673,5,10,0:0:0:0:
318,263,291821,1,2,2:3:0:0:
247,284,291969,1,2,2:3:0:0:
193,333,292117,1,2,2:3:0:0:
122,354,292265,1,2,2:3:0:0:
59,315,292413,1,2,2:3:0:0:
8,169,292562,5,2,0:0:0:0:
35,145,292636,1,0,0:0:0:0:
70,137,292710,1,2,0:0:0:0:
134,171,292858,1,2,2:3:0:0:
144,242,293006,1,2,2:3:0:0:
207,275,293154,1,2,2:3:0:0:
270,243,293302,1,2,2:3:0:0:
297,22,293451,5,10,0:0:0:0:
226,41,293599,1,2,2:3:0:0:
207,112,293747,1,2,2:3:0:0:
259,164,293895,1,2,2:3:0:0:
330,145,294043,1,2,2:3:0:0:
381,196,294191,1,2,2:3:0:0:
362,267,294340,5,2,2:3:0:0:
291,286,294488,1,2,2:3:0:0:
239,234,294636,1,2,2:3:0:0:
259,164,294784,1,2,2:3:0:0:
207,112,294932,1,2,2:3:0:0:
136,131,295080,1,2,2:3:0:0:
99,280,295228,5,10,0:0:0:0:
169,257,295377,1,2,2:3:0:0:
239,234,295525,1,2,2:3:0:0:
400,329,295673,5,2,0:0:0:0:
372,304,295747,1,0,0:0:0:0:
362,267,295821,1,2,0:0:0:0:
381,196,295969,1,2,2:3:0:0:
489,137,296117,5,6,0:0:0:0:
481,173,296191,1,0,0:0:0:0:
454,200,296265,1,2,0:0:0:0:
381,196,296414,1,2,2:3:0:0:
353,128,296562,1,2,2:3:0:0:
280,124,296710,1,2,2:3:0:0:
245,187,296857,1,2,2:3:0:0:
326,322,297006,5,10,0:0:0:0:
375,268,297154,1,2,2:3:0:0:
441,297,297302,1,2,2:3:0:0:
488,243,297451,1,2,2:3:0:0:
451,180,297599,1,2,2:3:0:0:
381,196,297747,1,2,2:3:0:0:
375,268,297895,5,2,2:3:0:0:
305,284,298044,1,2,2:3:0:0:
268,222,298191,1,2,2:3:0:0:
197,238,298340,1,2,2:3:0:0:
191,310,298488,1,2,2:3:0:0:
120,326,298636,1,2,2:3:0:0:
20,176,298784,5,10,0:0:0:0:
92,165,298932,1,2,2:3:0:0:
164,154,299080,1,2,2:3:0:0:
236,143,299228,1,2,2:3:0:0:
308,132,299377,1,2,2:3:0:0:
380,121,299525,1,2,2:3:0:0:
496,266,299673,5,2,0:0:0:0:
462,281,299747,1,0,0:0:0:0:
427,267,299821,1,2,0:0:0:0:
390,204,299969,1,2,2:3:0:0:
316,204,300117,1,2,2:3:0:0:
279,267,300265,1,2,2:3:0:0:
316,331,300413,1,2,2:3:0:0:
463,203,300562,5,10,0:0:0:0:
494,136,300710,1,2,2:3:0:0:
440,85,300858,1,2,2:3:0:0:
375,121,301006,1,2,2:3:0:0:
320,70,301154,1,2,2:3:0:0:
255,106,301302,1,2,2:3:0:0:
303,254,301451,5,2,0:0:0:0:
324,288,301525,1,0,0:0:0:0:
312,326,301599,1,2,0:0:0:0:
254,369,301747,1,2,2:3:0:0:
187,340,301895,1,2,2:3:0:0:
178,267,302043,1,2,2:3:0:0:
236,222,302191,1,2,2:3:0:0:
437,284,302340,5,10,0:0:0:0:
494,239,302488,1,2,2:3:0:0:
468,170,302636,1,2,2:3:0:0:
395,174,302784,1,2,2:3:0:0:
368,105,302932,1,2,2:3:0:0:
425,57,303080,1,2,2:3:0:0:
376,244,303228,5,2,0:0:0:0:
339,243,303302,1,0,0:0:0:0:
306,224,303377,1,2,0:0:0:0:
268,161,303525,1,2,2:3:0:0:
144,260,303673,5,2,0:0:0:0:
181,259,303747,1,0,0:0:0:0:
214,240,303822,1,2,0:0:0:0:
242,173,303969,1,2,2:3:0:0:
448,359,304117,5,10,0:0:0:0:
375,351,304265,1,2,2:3:0:0:
302,343,304414,1,2,2:3:0:0:
229,335,304561,1,2,2:3:0:0:
156,327,304710,1,2,2:3:0:0:
83,319,304858,1,2,2:3:0:0:
10,311,305006,5,2,2:3:0:0:
0,239,305154,1,2,2:3:0:0:
43,181,305302,1,2,2:3:0:0:
115,171,305451,1,2,2:3:0:0:
173,214,305599,1,2,2:3:0:0:
183,285,305747,1,2,2:3:0:0:
283,356,305895,5,10,0:0:0:0:
350,384,306043,1,2,2:3:0:0:
422,374,306191,1,2,2:3:0:0:
479,329,306340,1,2,2:3:0:0:
505,261,306488,1,2,2:3:0:0:
493,189,306636,1,2,2:3:0:0:
317,102,306784,5,2,0:0:0:0:
295,131,306858,1,0,0:0:0:0:
262,148,306932,1,2,0:0:0:0:
190,141,307080,1,2,2:3:0:0:
134,186,307228,1,2,2:3:0:0:
126,257,307377,1,2,2:3:0:0:
170,312,307525,1,2,2:3:0:0:
457,262,307673,5,10,0:0:0:0:
411,204,307821,1,2,2:3:0:0:
342,177,307969,1,2,2:3:0:0:
268,187,308117,1,2,2:3:0:0:
210,234,308265,1,2,2:3:0:0:
183,303,308414,1,2,2:3:0:0:
194,376,308562,5,2,2:3:0:0:
252,330,308710,1,2,2:3:0:0:
260,256,308858,1,2,2:3:0:0:
213,198,309006,1,2,2:3:0:0:
166,140,309154,1,2,2:3:0:0:
174,66,309302,1,8,0:0:0:0:
200,39,309377,1,8,0:0:0:0:
232,20,309450,5,14,0:0:0:0:
376,125,309599,1,8,0:0:0:0:
213,198,309747,1,8,0:0:0:0:
318,52,309895,5,8,0:0:0:0:
304,183,310043,1,8,0:0:0:0:
197,105,310191,1,8,0:0:0:0:
261,302,310340,6,0,P|313:301|383:256,1,100.000003814697,6|0,0:0|0:0,0:0:0:0:
416,202,310636,1,0,0:0:0:0:
505,361,310784,6,0,P|453:360|383:315,1,100.000003814697,2|0,0:0|0:0,0:0:0:0:
350,261,311080,1,0,0:0:0:0:
194,370,311228,6,0,B|144:374|144:374|92:334,1,100.000003814697,10|0,0:0|0:0,0:0:0:0:
83,245,311525,1,0,0:0:0:0:
321,152,311673,6,0,L|338:259,1,100.000003814697,2|0,0:0|0:0,0:0:0:0:
293,340,311969,1,0,0:0:0:0:
122,275,312117,6,0,L|231:251,1,100.000003814697,2|0,0:0|0:0,0:0:0:0:
281,332,312414,1,0,0:0:0:0:
358,220,312562,6,0,L|342:121,1,100.000003814697,2|0,0:0|0:0,0:0:0:0:
268,53,312858,1,0,0:0:0:0:
210,173,313006,5,8,0:0:0:0:
18,78,313154,1,8,0:0:0:0:
202,96,313302,5,8,0:0:0:0:
45,157,313451,1,8,0:0:0:0:
88,31,313599,5,8,0:0:0:0:
125,170,313747,1,8,0:0:0:0:
165,12,313895,6,0,P|204:22|259:70,1,100.000003814697,2|0,0:0|0:0,0:0:0:0:
293,148,314191,1,0,0:0:0:0:
460,63,314339,6,0,P|419:59|351:85,1,100.000003814697,2|0,0:0|0:0,0:0:0:0:
303,157,314636,1,0,0:0:0:0:
465,319,314784,6,0,L|359:301,1,100.000003814697,10|0,0:0|0:0,0:0:0:0:
279,351,315080,1,0,0:0:0:0:
163,247,315228,6,0,L|269:265,1,100.000003814697,2|0,0:0|0:0,0:0:0:0:
349,215,315524,1,0,0:0:0:0:
199,336,315673,6,0,L|100:319,1,100.000003814697,2|0,0:0|0:0,0:0:0:0:
18,375,315969,1,0,0:0:0:0:
0,162,316117,6,0,L|11:268,1,100.000003814697,2|0,0:0|0:0,0:0:0:0:
98,309,316414,1,0,0:0:0:0:
266,139,316562,6,0,B|275:118|275:118|266:30,1,100.000003814697,8|8,0:0|0:0,0:0:0:0:
179,214,316858,2,0,B|192:232|192:232|273:268,1,100.000003814697,8|8,0:0|0:0,0:0:0:0:
157,101,317154,2,0,B|134:103|134:103|62:155,1,100.000003814697,8|8,0:0|0:0,0:0:0:0:
404,186,317451,6,0,P|392:143|396:74,1,100.000003814697,2|2,0:0|0:0,0:0:0:0:
470,18,317747,1,2,0:0:0:0:
511,262,317895,5,2,0:0:0:0:
425,210,318043,2,0,L|306:237,1,100.000003814697,2|0,0:0|0:0,0:0:0:0:
166,307,318339,6,0,P|198:332|268:320,1,100.000003814697,10|0,0:0|0:0,0:0:0:0:
311,245,318636,1,0,0:0:0:0:
477,384,318784,6,0,L|452:269,1,100.000003814697,2|0,0:0|0:0,0:0:0:0:
404,200,319080,1,0,0:0:0:0:
506,49,319228,6,0,L|396:33,1,100.000003814697,2|0,0:0|0:0,0:0:0:0:
328,96,319525,1,0,0:0:0:0:
140,62,319673,6,0,L|250:46,1,100.000003814697,2|0,0:0|0:0,0:0:0:0:
318,109,319969,1,0,0:0:0:0:
175,246,320117,5,8,0:0:0:0:
394,304,320265,1,8,0:0:0:0:
190,325,320413,5,8,0:0:0:0:
351,239,320562,1,8,0:0:0:0:
369,372,320710,5,8,0:0:0:0:
275,212,320858,1,8,0:0:0:0:
268,335,321006,6,0,P|327:369|374:368,1,100.000003814697,2|0,0:0|0:0,0:0:0:0:
448,330,321302,1,0,0:0:0:0:
286,254,321451,6,0,P|236:261|196:289,1,100.000003814697,2|0,0:0|0:0,0:0:0:0:
155,381,321747,1,0,0:0:0:0:
447,247,321895,6,0,B|458:236|458:236|434:131,1,100.000003814697,14|0,0:0|0:0,0:0:0:0:
364,88,322191,1,0,0:0:0:0:
189,222,322339,6,0,L|303:240,1,100.000003814697,2|0,0:0|0:0,0:0:0:0:
375,288,322636,1,0,0:0:0:0:
298,125,322784,6,0,L|184:143,1,100.000003814697,2|0,0:0|0:0,0:0:0:0:
112,191,323081,1,0,0:0:0:0:
288,345,323228,6,0,L|274:235,1,100.000003814697,2|0,0:0|0:0,0:0:0:0:
360,191,323525,1,0,0:0:0:0:
186,311,323673,6,0,B|137:322|137:322|85:290,1,100.000003814697,8|8,0:0|0:0,0:0:0:0:
246,76,323969,2,0,B|280:112|280:112|278:173,1,100.000003814697,8|8,0:0|0:0,0:0:0:0:
13,142,324265,2,0,B|27:94|27:94|81:65,1,100.000003814697,8|8,0:0|0:0,0:0:0:0:
360,191,324562,5,2,0:0:0:0:
264,162,324710,1,2,0:0:0:0:
266,326,324858,1,2,0:0:0:0:
295,230,325006,1,2,0:0:0:0:
444,295,325154,6,0,B|426:305|426:305|329:291,1,100.000003814697,2|0,0:0|0:0,0:0:0:0:
172,155,325451,2,0,B|190:145|190:145|287:159,1,100.000003814697,12|0,0:0|0:0,0:0:0:0:
463,305,325747,6,0,B|442:316|442:316|332:300,1,100.000003814697
152,144,326044,2,0,B|173:133|173:133|283:149,1,100.000003814697
195,373,326339,6,0,B|183:352|183:352|199:241,1,100.000003814697,2|0,0:0|0:0,0:0:0:0:
355,61,326636,2,0,B|366:81|366:81|350:192,1,100.000003814697
205,368,326932,2,0,B|193:347|193:347|209:236,1,100.000003814697,2|0,0:0|0:0,0:0:0:0:
469,205,327228,6,0,P|419:230|369:226,1,100.000003814697,10|0,0:0|0:0,0:0:0:0:
155,121,327525,2,0,P|204:120|247:144,1,100.000003814697,2|0,0:0|0:0,0:0:0:0:
289,320,327821,2,0,L|299:208,1,100.000003814697,2|0,0:0|0:0,0:0:0:0:
486,27,328117,6,0,L|380:41,1,100.000003814697,2|0,0:0|0:0,0:0:0:0:
339,128,328414,1,2,0:0:0:0:
90,2,328562,6,0,L|196:16,1,100.000003814697,0|2,0:0|0:0,0:0:0:0:
237,103,328859,1,0,0:0:0:0:
119,273,329006,6,0,L|103:155,1,100.000003814697,10|0,0:0|0:0,0:0:0:0:
135,78,329302,1,2,0:0:0:0:
266,212,329451,6,0,L|252:311,1,100.000003814697,0|2,0:0|0:0,0:0:0:0:
180,380,329747,1,0,0:0:0:0:
94,183,329895,6,0,L|192:164,1,100.000003814697,10|0,0:0|0:0,0:0:0:0:
350,329,330191,2,0,L|251:310,1,100.000003814697,10|0,0:0|0:0,0:0:0:0:
156,101,330487,1,10,0:0:0:0:
332,174,330636,1,0,0:0:0:0:
215,2,330784,6,0,L|241:112,1,100.000003814697,10|0,0:0|0:0,0:0:0:0:
341,275,331080,1,8,0:0:0:0:
128,200,331228,1,10,0:0:0:0:
111,341,331377,1,8,0:0:0:0:
215,233,331525,1,8,0:0:0:0:
266,315,331673,6,0,P|306:345|359:353,1,100.000003814697,6|0,0:0|0:0,0:0:0:0:
432,291,331969,1,0,0:0:0:0:
215,233,332117,6,0,L|187:335,1,100.000003814697,0|2,0:0|0:0,0:0:0:0:
98,373,332414,1,0,0:0:0:0:
282,191,332562,6,0,P|352:152|401:158,1,100.000003814697,10|0,0:0|0:0,0:0:0:0:
456,200,332858,1,2,0:0:0:0:
442,375,333006,6,0,L|328:351,1,100.000003814697,0|2,0:0|0:0,0:0:0:0:
289,271,333302,1,0,0:0:0:0:
118,364,333451,6,0,B|109:350|109:350|138:250,1,100.000003814697,2|0,0:0|0:0,0:0:0:0:
209,206,333747,1,2,0:0:0:0:
57,23,333895,6,0,L|38:127,1,100.000003814697,0|2,0:0|0:0,0:0:0:0:
86,209,334191,1,0,0:0:0:0:
242,27,334339,6,0,L|349:14,1,100.000003814697,10|0,0:0|0:0,0:0:0:0:
429,62,334636,1,2,0:0:0:0:
387,232,334784,6,0,L|360:122,1,100.000003814697,0|2,0:0|0:0,0:0:0:0:
440,71,335080,1,0,0:0:0:0:
499,289,335228,6,0,P|456:323|399:325,1,100.000003814697,6|0,0:0|0:0,0:0:0:0:
323,280,335525,1,2,0:0:0:0:
155,359,335673,5,0,0:0:0:0:
78,294,335821,2,0,B|65:281|65:281|52:182,1,100.000003814697,2|0,0:0|0:0,0:0:0:0:
300,102,336117,6,0,L|287:216,1,100.000003814697,10|0,0:0|0:0,0:0:0:0:
87,132,336414,2,0,L|98:32,1,100.000003814697,2|0,0:0|0:0,0:0:0:0:
283,95,336710,2,0,L|270:209,1,100.000003814697,2|0,0:0|0:0,0:0:0:0:
61,318,337006,5,10,0:0:0:0:
211,68,337154,1,8,0:0:0:0:
314,359,337302,1,8,0:0:0:0:
70,137,337451,1,8,0:0:0:0:
406,166,337599,1,8,0:0:0:0:
221,303,337747,1,8,0:0:0:0:
283,119,337895,5,8,0:0:0:0:
352,297,338043,1,8,0:0:0:0:
171,191,338191,1,8,0:0:0:0:
388,167,338339,1,8,0:0:0:0:
235,315,338488,1,8,0:0:0:0:
208,125,338636,1,8,0:0:0:0:
418,255,338784,6,0,B|445:275|485:251|485:202|485:202|504:243|484:302,1,184.999999294281,4|0,0:0|2:0,0:0:0:0:
317,358,339117,2,0,B|240:351|240:351|232:356|232:356|158:350|158:350|206:346,1,200,6|0,0:0|2:0,0:0:0:0:
351,110,340117,6,0,B|381:142|381:142|336:184|336:184|237:144,1,200,4|0,0:0|2:0,0:0:0:0:
132,67,340450,2,0,B|197:53|197:53|206:55|206:55|273:39|273:39|206:68,1,200,6|0,0:0|2:0,0:0:0:0:
60,140,340784,2,0,B|41:171|41:171|25:101|25:101|29:95|29:95|10:13|34:12,1,200,4|0,0:0|2:0,0:0:0:0:
246,162,341117,2,0,B|267:169|275:194|275:194|263:255|263:255|269:248|269:248|247:360,1,200,6|0,0:0|2:0,0:0:0:0:
168,376,341450,5,8,0:0:0:0:
174,363,341524,1,8,0:0:0:0:
194,349,341598,1,8,0:0:0:0:
227,350,341672,1,8,0:0:0:0:
256,374,341746,1,8,0:0:0:0:
300,374,341821,1,8,0:0:0:0:
334,339,341895,6,0,B|342:306|342:306|270:319|270:319|262:316|262:316|179:329,1,170.000003242493,8|0,0:0|2:0,0:0:0:0:
63,256,342228,2,0,B|55:223|55:223|127:236|127:236|135:233|135:233|218:246,1,170.000003242493,8|0,0:0|2:0,0:0:0:0:
293,259,342561,1,0,2:0:0:0:
293,259,342672,1,0,2:0:0:0:
142,127,342784,5,0,2:0:0:0:
229,176,342895,1,0,2:0:0:0:
151,105,343006,1,0,2:0:0:0:
227,194,343117,1,0,2:0:0:0:
326,110,343228,5,0,2:0:0:0:
373,209,343339,1,0,2:0:0:0:
426,125,343450,1,0,2:0:0:0:
328,200,343561,1,0,2:0:0:0:
505,154,343672,5,8,0:0:0:0:
456,192,343746,1,8,0:0:0:0:
444,236,343821,1,8,0:0:0:0:
453,274,343895,1,8,0:0:0:0:
474,292,343969,1,8,0:0:0:0:
496,294,344043,1,8,0:0:0:0:
507,287,344117,6,0,B|474:275|474:275|433:288|433:288|395:274,1,113.333335494995,12|0,0:0|2:0,0:0:0:0:
317,203,344339,1,8,0:0:0:0:
361,271,344450,2,0,P|354:331|323:374,1,64.9999970245363,8|0,0:0|2:0,0:0:0:0:
243,371,344672,1,0,0:0:0:0:
59,255,344783,6,0,B|122:249|122:249|161:218,1,85.0000016212464,14|0,0:0|2:0,0:0:0:0:
199,77,345005,6,0,B|197:49|197:49|172:22|172:22|149:115|149:115|154:138|154:138|124:261,1,255.000004863739,14|0,0:0|2:0,0:0:0:0:
223,312,345450,5,8,0:0:0:0:
198,288,345524,1,8,0:0:0:0:
158,285,345598,1,8,0:0:0:0:
119,308,345672,1,8,0:0:0:0:
100,355,345746,1,8,0:0:0:0:
53,375,345820,1,8,0:0:0:0:
10,353,345894,6,0,L|-9:201,1,92.4999996471405,6|8,0:0|0:0,0:0:0:0:
244,228,346117,2,0,L|225:380,1,92.4999996471405,2|8,0:0|0:0,0:0:0:0:
68,152,346339,2,0,B|114:143|114:143|121:145|121:145|181:132,1,92.4999996471405,2|8,0:0|0:0,0:0:0:0:
331,49,346561,2,0,B|285:40|285:40|278:42|278:42|218:29,1,92.4999996471405,2|8,0:0|0:0,0:0:0:0:
347,153,346783,6,0,P|402:127|429:75,1,92.4999996471405,2|8,0:0|0:0,0:0:0:0:
218,216,347005,2,0,P|185:248|173:292,1,92.4999996471405,2|8,3:0|3:0,3:0:0:0:
318,231,347228,2,0,P|340:270|341:316,1,92.4999996471405,2|8,3:0|3:0,3:0:0:0:
223,128,347450,2,0,P|176:88|163:31,1,92.4999996471405,2|8,0:0|0:0,0:0:0:0:
386,30,347672,5,2,0:0:0:0:
278,174,347783,1,8,0:0:0:0:
241,26,347894,1,2,0:0:0:0:
414,160,348005,2,0,L|427:284,1,92.4999996471405,8|2,0:0|0:0,0:0:0:0:
431,324,348228,1,8,0:0:0:0:
205,213,348339,6,0,B|222:234|222:234|216:265|216:265|217:271|217:271|209:312,1,92.4999996471405,2|8,0:0|0:0,0:0:0:0:
79,91,348561,2,0,B|103:74|119:71|119:71|121:68|121:68|146:66|176:83,1,92.4999996471405,2|8,0:0|0:0,0:0:0:0:
402,223,348783,2,0,B|365:217|365:217|359:219|359:219|263:205,1,92.4999996471405,2|8,0:0|0:0,0:0:0:0:
119,200,349005,5,10,0:0:0:0:
310,63,349117,1,8,0:0:0:0:
286,298,349228,5,10,0:0:0:0:
91,105,349339,1,8,0:0:0:0:
332,231,349450,5,6,0:0:0:0:
378,162,349561,2,0,P|311:154|257:180,1,92.4999996471405,8|2,0:0|0:0,0:0:0:0:
214,100,349783,1,8,0:0:0:0:
152,217,349894,5,2,0:0:0:0:
174,295,350005,2,0,P|222:248|237:190,1,92.4999996471405,8|2,0:0|0:0,0:0:0:0:
118,199,350227,1,8,0:0:0:0:
14,273,350339,5,2,0:0:0:0:
55,342,350450,2,0,L|40:225,1,92.4999996471405,8|2,0:0|0:0,0:0:0:0:
27,152,350672,1,8,0:0:0:0:
252,244,350783,5,2,0:0:0:0:
293,175,350894,2,0,L|278:292,1,92.4999996471405,8|2,0:0|0:0,0:0:0:0:
265,365,351116,1,8,0:0:0:0:
454,242,351228,5,12,0:0:0:0:
402,197,351302,1,8,0:0:0:0:
340,193,351376,1,8,0:0:0:0:
296,227,351450,1,8,0:0:0:0:
281,274,351524,1,8,0:0:0:0:
241,302,351598,1,8,0:0:0:0:
197,300,351672,5,8,0:0:0:0:
196,256,351746,1,8,0:0:0:0:
223,222,351820,1,8,0:0:0:0:
259,214,351894,1,8,0:0:0:0:
296,227,351968,1,8,0:0:0:0:
320,254,352042,1,8,0:0:0:0:
356,260,352117,5,8,0:0:0:0:
344,232,352191,1,8,0:0:0:0:
317,218,352265,1,8,0:0:0:0:
288,225,352339,1,8,0:0:0:0:
270,250,352413,1,8,0:0:0:0:
273,280,352487,1,8,0:0:0:0:
295,301,352561,5,8,0:0:0:0:
308,280,352635,1,8,0:0:0:0:
317,257,352709,1,8,0:0:0:0:
323,233,352783,1,8,0:0:0:0:
323,208,352857,1,8,0:0:0:0:
320,184,352931,1,8,0:0:0:0:
313,160,353005,6,0,L|191:144,1,92.4999996471405,6|8,0:0|0:0,0:0:0:0:
71,241,353228,6,0,P|105:207|121:131,1,92.4999996471405,2|8,0:0|0:0,0:0:0:0:
15,23,353450,2,0,P|15:71|63:132,1,92.4999996471405,2|8,0:0|0:0,0:0:0:0:
150,186,353672,1,2,0:0:0:0:
311,17,353783,2,0,P|311:62|293:105,1,92.4999996471405,8|2,0:0|0:0,0:0:0:0:
185,107,354005,1,8,0:0:0:0:
332,0,354117,6,0,P|364:32|381:74,1,92.4999996471405,2|8,0:0|0:0,0:0:0:0:
299,252,354339,2,0,P|322:194|375:164,1,92.4999996471405,2|8,0:0|0:0,0:0:0:0:
502,165,354561,1,2,0:0:0:0:
321,342,354672,2,0,B|261:321|261:321|210:330|210:330|127:304,1,184.999999294281,8|8,0:0|0:0,0:0:0:0:
69,242,355005,6,0,P|99:284|101:361,1,92.4999996471405,2|8,0:0|0:0,0:0:0:0:
3,166,355228,2,0,P|13:121|40:84,1,92.4999996471405,2|8,0:0|0:0,0:0:0:0:
214,21,355450,2,0,P|213:61|262:122,1,92.4999996471405,2|8,0:0|0:0,0:0:0:0:
474,157,355672,2,0,P|446:128|368:119,1,92.4999996471405,2|8,0:0|0:0,0:0:0:0:
262,273,355894,2,0,P|297:244|313:201,1,92.4999996471405,2|8,0:0|0:0,0:0:0:0:
290,67,356117,5,10,0:0:0:0:
183,277,356228,1,8,0:0:0:0:
341,10,356339,5,10,0:0:0:0:
75,132,356450,1,8,0:0:0:0:
364,85,356561,6,0,B|393:115|393:115|381:178|381:178|410:304,1,184.999999294281,6|2,0:0|0:0,0:0:0:0:
494,337,356894,1,8,0:0:0:0:
408,285,357005,5,2,0:0:0:0:
308,363,357117,2,0,L|422:372,1,92.4999996471405,8|2,0:0|0:0,0:0:0:0:
400,299,357339,1,8,0:0:0:0:
218,359,357450,5,2,0:0:0:0:
164,245,357561,2,0,P|190:288|238:320,1,92.4999996471405,8|2,0:0|0:0,0:0:0:0:
304,264,357783,1,8,0:0:0:0:
234,98,357894,5,2,0:0:0:0:
134,117,358005,2,0,P|97:170|85:240,1,92.4999996471405,8|2,0:0|0:0,0:0:0:0:
61,67,358228,1,8,0:0:0:0:
233,194,358339,5,12,0:0:0:0:
291,198,358450,1,8,0:0:0:0:
326,170,358561,1,8,0:0:0:0:
331,58,358672,5,12,0:0:0:0:
265,93,358783,1,8,0:0:0:0:
261,105,358894,1,8,0:0:0:0:
376,197,359005,5,12,0:0:0:0:
366,179,359117,1,8,0:0:0:0:
336,165,359228,1,8,0:0:0:0:
351,125,359339,5,12,0:0:0:0:
335,137,359450,1,8,0:0:0:0:
330,150,359561,1,8,0:0:0:0:
269,230,359672,6,0,B|252:236|253:263|262:258|262:274|248:302|248:302|293:281|262:213,1,165.000005035401,12|0,0:0|2:0,0:0:0:0:
65,176,360117,5,4,0:0:0:0:
64,183,360228,1,2,0:0:0:0:
3,132,360339,6,0,B|41:138|41:138|44:136|44:136|112:146,1,75.0000028610231,10|0,0:0|0:0,0:0:0:0:
199,199,360561,1,0,0:0:0:0:
188,186,360672,5,8,0:0:0:0:
191,126,360783,1,0,0:0:0:0:
234,84,360894,1,0,0:0:0:0:
354,126,361005,5,10,0:0:0:0:
286,135,361117,1,0,0:0:0:0:
238,100,361228,1,0,0:0:0:0:
150,0,361339,5,8,0:0:0:0:
213,22,361450,1,0,0:0:0:0:
241,77,361561,1,0,0:0:0:0:
142,175,361672,5,10,0:0:0:0:
175,116,361783,1,0,0:0:0:0:
230,93,361894,1,0,0:0:0:0:
359,50,362005,5,8,0:0:0:0:
307,94,362116,1,0,0:0:0:0:
247,93,362227,1,0,0:0:0:0:
116,53,362339,5,10,0:0:0:0:
183,46,362450,1,0,0:0:0:0:
231,80,362561,1,0,0:0:0:0:
354,124,362672,5,8,0:0:0:0:
287,131,362783,1,0,0:0:0:0:
239,97,362894,1,0,0:0:0:0:
317,0,363005,5,10,0:0:0:0:
297,65,363117,1,0,0:0:0:0:
243,91,363228,1,0,0:0:0:0:
141,18,363339,5,8,0:0:0:0:
205,37,363450,1,0,0:0:0:0:
242,83,363561,1,0,0:0:0:0:
142,232,363672,5,2,0:0:0:0:
140,224,363783,1,0,0:0:0:0:
67,267,363894,6,0,B|105:261|105:261|108:263|108:263|176:253,1,75.0000028610231,10|2,0:0|0:0,0:0:0:0:
344,332,364117,1,2,0:0:0:0:
320,337,364228,5,8,0:0:0:0:
254,321,364339,1,2,0:0:0:0:
195,307,364450,1,2,0:0:0:0:
344,332,364561,5,8,0:0:0:0:
278,316,364672,1,2,0:0:0:0:
219,302,364783,1,2,0:0:0:0:
368,327,364894,5,8,0:0:0:0:
302,311,365005,1,2,0:0:0:0:
243,297,365116,1,2,0:0:0:0:
392,322,365228,5,8,0:0:0:0:
326,306,365339,1,2,0:0:0:0:
267,292,365450,1,2,0:0:0:0:
416,317,365561,5,8,0:0:0:0:
350,301,365672,1,2,0:0:0:0:
291,287,365783,1,2,0:0:0:0:
440,312,365894,5,8,0:0:0:0:
374,296,366005,1,2,0:0:0:0:
315,282,366116,1,2,0:0:0:0:
464,307,366228,5,8,0:0:0:0:
398,291,366339,1,2,0:0:0:0:
339,277,366450,1,2,0:0:0:0:
488,302,366561,5,8,0:0:0:0:
422,286,366672,1,2,0:0:0:0:
363,272,366783,1,2,0:0:0:0:
512,297,366894,6,0,L|411:272,2,75.0000028610231,8|0|0,0:0|0:0|0:0,0:0:0:0:
276,131,367228,5,10,0:0:0:0:
288,138,367339,1,8,0:0:0:0:
303,163,367450,1,8,0:0:0:0:
303,192,367561,2,0,B|265:186|265:186|262:188|262:188|194:178,1,75.0000028610231,8|8,0:0|0:0,0:0:0:0:
90,73,367783,5,12,0:0:0:0:
132,125,367894,1,0,0:0:0:0:
132,184,368005,1,0,0:0:0:0:
73,300,368117,5,10,0:0:0:0:
80,233,368228,1,0,0:0:0:0:
121,191,368339,1,0,0:0:0:0:
251,232,368450,5,2,0:0:0:0:
198,189,368561,1,0,0:0:0:0:
139,188,368672,1,0,0:0:0:0:
91,306,368783,5,10,0:0:0:0:
134,253,368894,1,0,0:0:0:0:
135,194,369005,1,0,0:0:0:0:
32,113,369117,5,2,0:0:0:0:
66,169,369228,1,0,0:0:0:0:
121,191,369339,1,0,0:0:0:0:
263,177,369450,5,10,0:0:0:0:
199,161,369561,1,0,0:0:0:0:
144,184,369672,1,0,0:0:0:0:
139,317,369783,5,2,0:0:0:0:
155,253,369894,1,0,0:0:0:0:
132,198,370005,1,0,0:0:0:0:
11,193,370117,5,10,0:0:0:0:
73,209,370228,1,0,0:0:0:0:
129,185,370339,1,0,0:0:0:0:
212,87,370450,5,2,0:0:0:0:
156,119,370561,1,0,0:0:0:0:
134,176,370672,1,0,0:0:0:0:
153,232,370783,2,0,B|191:226|191:226|194:228|194:228|262:218,1,75.0000028610231,6|0,0:0|0:0,0:0:0:0:
327,104,371005,5,10,0:0:0:0:
312,170,371117,1,2,0:0:0:0:
298,228,371228,1,2,0:0:0:0:
342,97,371339,5,8,0:0:0:0:
327,163,371450,1,2,0:0:0:0:
313,221,371561,1,2,0:0:0:0:
357,90,371672,5,8,0:0:0:0:
342,156,371783,1,2,0:0:0:0:
328,214,371894,1,2,0:0:0:0:
372,83,372005,5,8,0:0:0:0:
357,149,372117,1,2,0:0:0:0:
343,207,372228,1,2,0:0:0:0:
387,76,372339,5,8,0:0:0:0:
372,142,372450,1,2,0:0:0:0:
358,200,372561,1,2,0:0:0:0:
244,276,372672,5,8,0:0:0:0:
301,239,372783,1,2,0:0:0:0:
352,208,372894,1,2,0:0:0:0:
429,317,373005,5,8,0:0:0:0:
392,259,373117,1,2,0:0:0:0:
359,209,373228,1,2,0:0:0:0:
270,84,373339,5,10,0:0:0:0:
311,146,373450,1,8,0:0:0:0:
352,208,373561,1,8,0:0:0:0:
393,270,373672,1,8,0:0:0:0:
434,332,373783,1,8,0:0:0:0:
313,320,373894,5,8,0:0:0:0:
321,268,374005,1,8,0:0:0:0:
357,230,374117,1,8,0:0:0:0:
409,232,374228,1,8,0:0:0:0:
449,275,374339,6,0,B|409:302|409:302|365:286|365:286|360:288|360:288|263:251,1,170.000003242493,6|0,0:0|2:0,0:0:0:0:
199,143,374672,6,0,P|216:181|212:246,1,85.0000016212464,10|0,0:0|0:0,0:0:0:0:
134,303,374894,1,8,0:0:0:0:
54,287,375005,1,2,0:0:0:0:
134,303,375117,1,8,0:0:0:0:
54,287,375228,1,2,0:0:0:0:
134,303,375339,1,8,0:0:0:0:
54,287,375450,1,2,0:0:0:0:
134,303,375561,1,8,0:0:0:0:
54,287,375672,1,2,0:0:0:0:
134,303,375783,1,8,0:0:0:0:
54,287,375894,1,2,0:0:0:0:
134,303,376005,1,8,0:0:0:0:
54,287,376116,6,0,P|37:249|41:184,1,85.0000016212464,2|8,0:0|0:0,0:0:0:0:
144,93,376339,1,2,0:0:0:0:
8,210,376450,6,0,P|30:181|91:167,1,85.0000016212464,8|2,0:0|0:0,0:0:0:0:
206,263,376672,1,8,0:0:0:0:
157,85,376783,6,0,P|195:102|260:98,1,85.0000016212464,2|8,0:0|0:0,0:0:0:0:
310,19,377005,1,2,0:0:0:0:
223,113,377116,6,0,P|201:142|195:223,1,85.0000016212464,8|2,0:0|0:0,0:0:0:0:
298,312,377339,1,8,0:0:0:0:
408,172,377450,5,10,0:0:0:0:
418,372,377561,1,0,0:0:0:0:
285,179,377672,1,10,0:0:0:0:
512,293,377783,1,8,0:0:0:0:
243,375,377894,6,0,P|221:332|228:263,1,85.0000016212464,2|8,0:0|0:0,0:0:0:0:
296,170,378116,1,2,0:0:0:0:
121,259,378228,6,0,P|158:224|233:222,1,85.0000016212464,8|2,0:0|0:0,0:0:0:0:
322,309,378450,1,8,0:0:0:0:
405,279,378561,1,2,0:0:0:0:
322,309,378672,1,8,0:0:0:0:
405,279,378783,1,2,0:0:0:0:
322,309,378894,1,8,0:0:0:0:
405,279,379005,1,2,0:0:0:0:
322,309,379116,1,8,0:0:0:0:
405,279,379228,1,2,0:0:0:0:
322,309,379339,1,8,0:0:0:0:
405,279,379450,1,2,0:0:0:0:
322,309,379561,1,8,0:0:0:0:
405,279,379672,5,8,0:0:0:0:
380,206,379783,1,0,0:0:0:0:
319,175,379894,1,0,0:0:0:0:
215,248,380005,5,8,0:0:0:0:
259,196,380116,1,0,0:0:0:0:
318,195,380227,1,0,0:0:0:0:
351,281,380338,5,8,0:0:0:0:
376,237,380449,1,0,0:0:0:0:
398,200,380560,1,0,0:0:0:0:
264,105,380672,5,8,0:0:0:0:
271,146,380783,1,0,0:0:0:0:
277,179,380894,1,0,0:0:0:0:
246,292,381005,5,8,0:0:0:0:
222,267,381116,1,0,0:0:0:0:
196,262,381227,1,0,0:0:0:0:
96,325,381338,5,8,0:0:0:0:
120,316,381449,1,0,0:0:0:0:
131,303,381560,1,0,0:0:0:0:
116,217,381672,5,6,0:0:0:0:
99,214,381783,1,0,0:0:0:0:
82,211,381894,1,0,0:0:0:0:
213,120,382005,5,6,0:0:0:0:
230,117,382116,1,0,0:0:0:0:
247,114,382227,1,0,0:0:0:0:
235,237,382338,5,6,0:0:0:0:
232,254,382449,1,0,0:0:0:0:
229,270,382560,1,0,0:0:0:0:
115,122,382672,5,6,0:0:0:0:
112,105,382783,1,0,0:0:0:0:
109,89,382894,1,0,0:0:0:0:
238,19,383005,5,6,0:0:0:0:
255,22,383116,1,0,0:0:0:0:
271,25,383227,1,0,0:0:0:0:
444,113,383338,5,6,0:0:0:0:
427,116,383449,1,0,0:0:0:0:
411,119,383560,1,0,0:0:0:0:
399,122,383672,6,0,L|413:62,2,40,8|8|8,0:0|0:0|0:0,0:0:0:0:
366,5,384042,6,0,P|334:37|325:65,1,66.6666666666667,8|8,0:0|2:0,0:0:0:0:
316,144,384339,2,0,P|292:115|257:103,1,53.3333333333333,8|0,0:0|2:0,0:0:0:0:
211,136,384561,5,2,2:3:0:0:
211,136,384783,5,2,2:3:0:0:
344,238,385005,5,8,0:0:0:0:
325,236,385079,1,8,0:0:0:0:
306,234,385154,1,8,0:0:0:0:
288,245,385228,1,0,0:0:0:0:
288,245,385454,6,0,B|269:255|269:255|207:252,1,69.9999978637696,6|0,0:0|2:0,0:0:0:0:
161,216,385684,1,0,2:0:0:0:
153,356,385800,6,0,B|163:337|163:337|160:275,1,69.9999978637696,0|4,2:0|2:3,2:0:0:0:
147,220,386030,1,0,2:0:0:0:
25,277,386146,6,0,B|44:267|44:267|106:270,1,69.9999978637696,0|0,2:0|2:0,2:0:0:0:
239,315,386377,5,10,0:0:0:0:
179,277,386492,1,0,2:0:0:0:
157,210,386607,1,0,2:0:0:0:
165,198,386723,1,0,2:0:0:0:
247,183,386838,6,0,B|261:174|261:174|301:179|301:179|325:165,1,69.9999978637696,4|0,2:3|2:0,2:0:0:0:
375,203,387069,1,0,2:0:0:0:
325,102,387184,6,0,B|317:93|317:93|329:23,1,69.9999978637696,0|4,2:0|0:0,0:0:0:0:
390,130,387415,1,0,2:0:0:0:
366,220,387530,6,0,B|361:234|361:234|378:296,1,69.9999978637696,0|0,2:0|2:0,2:0:0:0:
425,336,387761,5,4,2:3:0:0:
326,374,387877,1,0,2:0:0:0:
265,338,387992,1,0,2:0:0:0:
246,347,388107,1,0,2:0:0:0:
177,330,388223,6,0,B|166:324|166:324|81:336,1,69.9999978637696,10|0,0:0|2:0,0:0:0:0:
47,365,388454,1,0,2:0:0:0:
57,221,388569,6,0,B|63:232|63:232|51:317,1,69.9999978637696,0|4,2:0|2:3,1:0:0:0:
38,368,388800,1,0,2:0:0:0:
177,334,388915,6,0,B|166:340|166:340|81:328,1,69.9999978637696,0|0,2:0|2:0,2:0:0:0:
2,162,389146,5,6,0:0:0:0:
61,207,389261,2,0,B|98:207|98:207|127:190,1,69.9999978637696,0|0,2:0|2:0,2:0:0:0:
142,121,389492,5,0,2:0:0:0:
186,249,389607,2,0,B|172:247|172:247|136:184,1,69.9999978637696,4|0,2:3|2:0,2:0:0:0:
152,128,389838,5,0,2:0:0:0:
230,158,389954,1,0,2:0:0:0:
283,112,390069,1,10,0:0:0:0:
295,118,390184,1,0,2:0:0:0:
362,99,390300,6,0,B|371:105|371:105|384:171,1,69.9999978637696,0|0,2:0|2:0,2:0:0:0:
351,225,390530,5,4,2:3:0:0:
346,245,390646,1,0,2:0:0:0:
295,268,390761,1,0,2:0:0:0:
285,277,390877,1,0,2:0:0:0:
324,341,390992,6,0,B|341:348|341:348|412:342,1,69.9999978637696,6|0,0:0|2:0,0:0:0:0:
437,289,391223,1,0,2:0:0:0:
484,165,391338,6,0,B|491:182|491:182|485:253,1,69.9999978637696,0|4,2:0|2:3,2:0:0:0:
433,280,391569,1,0,2:0:0:0:
351,225,391684,6,0,B|341:219|341:219|266:229,1,69.9999978637696,0|0,2:0|2:0,2:0:0:0:
123,353,391915,5,10,0:0:0:0:
85,294,392030,2,0,B|67:247|67:247|67:210,1,69.9999978637696,0|0,2:0|2:0,2:0:0:0:
197,346,392261,5,0,2:0:0:0:
159,287,392377,2,0,B|141:240|141:240|141:203,1,69.9999978637696,4|0,2:3|2:0,2:0:0:0:
271,339,392607,5,0,2:0:0:0:
233,280,392723,1,0,2:0:0:0:
216,146,392838,6,0,B|221:171|221:171|211:205|211:205|215:213,1,69.9999978637696,6|0,2:3|2:0,2:0:0:0:
365,276,393069,5,0,2:0:0:0:
431,255,393184,1,0,2:0:0:0:
406,268,393300,1,4,2:3:0:0:
381,281,393415,1,0,2:0:0:0:
302,250,393530,6,0,B|293:245|293:245|298:173,1,69.9999978637696,0|0,2:0|2:0,2:0:0:0:
393,141,393761,5,10,0:0:0:0:
387,113,393877,1,0,2:0:0:0:
381,85,393992,1,0,2:0:0:0:
331,36,394107,1,0,2:0:0:0:
246,72,394223,6,0,B|233:82|233:82|135:68,1,69.9999978637696,4|0,2:3|2:0,2:0:0:0:
130,24,394454,1,0,2:0:0:0:
112,153,394569,6,0,B|122:140|122:140|108:42,1,69.9999978637696,0|4,2:0|2:3,2:0:0:0:
117,16,394800,1,0,2:0:0:0:
188,158,394915,6,0,B|201:148|201:148|299:162,1,69.9999978637696,0|0,2:0|2:0,2:0:0:0:
314,191,395146,5,4,2:3:0:0:
272,263,395261,1,0,2:0:0:0:
313,319,395377,1,0,2:0:0:0:
319,338,395492,1,0,2:0:0:0:
240,382,395607,6,0,B|231:374|231:374|161:368,1,69.9999978637696,10|0,0:0|2:0,0:0:0:0:
101,379,395838,1,0,2:0:0:0:
31,260,395954,6,0,B|28:271|28:271|58:335,1,69.9999978637696,0|4,2:0|2:3,2:0:0:0:
105,370,396184,1,0,2:0:0:0:
184,247,396300,6,0,B|190:231|190:231|172:160,1,69.9999978637696,0|0,2:0|2:0,2:0:0:0:
51,131,396530,5,6,0:0:0:0:
116,157,396646,2,0,B|125:163|125:163|196:161,1,69.9999978637696,0|0,2:0|2:0,2:0:0:0:
330,104,396877,5,0,2:0:0:0:
265,78,396992,2,0,B|256:72|256:72|185:74,1,69.9999978637696,4|0,2:3|2:0,2:0:0:0:
259,168,397223,5,0,2:0:0:0:
297,226,397338,1,0,2:0:0:0:
251,305,397454,1,10,0:0:0:0:
247,284,397569,1,0,2:0:0:0:
333,331,397684,6,0,B|348:336|348:336|446:325,1,69.9999978637696,0|0,2:0|2:0,2:0:0:0:
478,217,397915,5,4,2:3:0:0:
459,284,398030,1,0,2:0:0:0:
466,209,398146,1,0,2:0:0:0:
447,276,398261,1,0,2:0:0:0:
430,170,398377,6,0,B|423:162|423:162|363:152,1,69.9999978637696,6|0,0:0|2:0,0:0:0:0:
269,170,398607,1,0,2:0:0:0:
325,216,398723,1,0,2:0:0:0:
315,81,398838,5,6,2:3:0:0:
241,103,398954,1,0,2:0:0:0:
169,75,399069,2,0,B|161:70|161:70|95:67,1,69.9999978637696,0|0,2:0|2:0,2:0:0:0:
20,183,399300,5,8,0:0:0:0:
92,163,399415,1,8,0:0:0:0:
148,199,399530,1,8,0:0:0:0:
214,214,399646,1,8,0:0:0:0:
278,194,399761,5,2,0:0:0:0:
305,219,399877,1,2,0:0:0:0:
313,255,399992,1,2,0:0:0:0:
303,291,400107,1,2,0:0:0:0:
198,375,400223,5,12,0:0:0:0:
131,382,400338,1,0,0:0:0:0:
79,350,400454,1,0,0:0:0:0:
113,275,400569,5,8,0:0:0:0:
156,270,400684,1,0,0:0:0:0:
191,291,400800,1,0,0:0:0:0:
71,328,400915,5,10,0:0:0:0:
18,285,401030,1,0,0:0:0:0:
4,226,401146,1,0,0:0:0:0:
81,197,401261,5,8,0:0:0:0:
115,224,401376,1,0,0:0:0:0:
125,263,401492,1,0,0:0:0:0:
14,204,401607,5,10,0:0:0:0:
7,137,401723,1,0,0:0:0:0:
39,85,401838,1,0,0:0:0:0:
114,119,401954,5,8,0:0:0:0:
119,162,402069,1,0,0:0:0:0:
98,197,402184,1,0,0:0:0:0:
61,76,402300,5,10,0:0:0:0:
103,23,402415,1,0,0:0:0:0:
163,9,402530,1,0,0:0:0:0:
192,86,402646,5,8,0:0:0:0:
165,120,402761,1,0,0:0:0:0:
125,130,402877,1,0,0:0:0:0:
184,19,402992,5,8,0:0:0:0:
264,36,403107,1,8,0:0:0:0:
310,104,403223,1,8,0:0:0:0:
292,184,403338,1,8,0:0:0:0:
224,232,403454,5,8,0:0:0:0:
180,273,403569,1,8,0:0:0:0:
171,317,403684,1,8,0:0:0:0:
183,344,403800,1,8,0:0:0:0:
330,384,403915,5,14,0:0:0:0:
392,358,404030,1,0,0:0:0:0:
419,304,404146,1,0,0:0:0:0:
352,260,404261,5,8,0:0:0:0:
313,276,404377,1,0,0:0:0:0:
296,309,404492,1,0,0:0:0:0:
183,344,404607,5,10,0:0:0:0:
121,318,404723,1,0,0:0:0:0:
94,264,404838,1,0,0:0:0:0:
161,220,404954,5,8,0:0:0:0:
200,236,405069,1,0,0:0:0:0:
217,269,405184,1,0,0:0:0:0:
330,304,405300,5,10,0:0:0:0:
392,278,405415,1,0,0:0:0:0:
419,224,405530,1,0,0:0:0:0:
352,180,405646,5,8,0:0:0:0:
313,196,405761,1,0,0:0:0:0:
296,229,405877,1,0,0:0:0:0:
183,264,405992,5,10,0:0:0:0:
121,238,406107,1,0,0:0:0:0:
94,184,406223,1,0,0:0:0:0:
161,140,406338,5,8,0:0:0:0:
200,156,406453,1,0,0:0:0:0:
217,189,406569,1,0,0:0:0:0:
234,328,406684,5,10,0:0:0:0:
318,361,406800,1,8,0:0:0:0:
398,322,406915,1,8,0:0:0:0:
413,233,407030,1,8,0:0:0:0:
355,162,407146,5,10,0:0:0:0:
274,200,407261,1,8,0:0:0:0:
191,162,407377,1,8,0:0:0:0:
121,188,407492,1,0,0:0:0:0:
35,290,407607,5,14,0:0:0:0:
100,308,407723,1,0,0:0:0:0:
158,324,407838,1,2,0:0:0:0:
256,341,407954,5,8,0:0:0:0:
212,328,408069,1,2,0:0:0:0:
173,318,408184,1,0,0:0:0:0:
100,178,408300,5,10,0:0:0:0:
147,226,408415,1,0,0:0:0:0:
189,268,408530,1,2,0:0:0:0:
265,332,408646,5,8,0:0:0:0:
234,299,408761,1,2,0:0:0:0:
205,271,408877,1,0,0:0:0:0:
212,113,408992,5,10,0:0:0:0:
228,178,409107,1,0,0:0:0:0:
244,235,409223,1,2,0:0:0:0:
278,329,409338,5,8,0:0:0:0:
267,285,409454,1,2,0:0:0:0:
256,246,409569,1,0,0:0:0:0:
341,112,409684,5,10,0:0:0:0:
322,177,409800,1,0,0:0:0:0:
308,234,409915,1,2,0:0:0:0:
290,332,410030,5,8,0:0:0:0:
303,289,410146,1,2,0:0:0:0:
313,249,410261,1,0,0:0:0:0:
464,45,410377,5,8,0:0:0:0:
505,115,410492,1,8,0:0:0:0:
464,185,410607,1,8,0:0:0:0:
382,184,410723,1,8,0:0:0:0:
341,112,410838,5,8,0:0:0:0:
285,88,410954,1,8,0:0:0:0:
241,99,411069,1,8,0:0:0:0:
221,121,411184,1,8,0:0:0:0:
177,309,411300,5,14,0:0:0:0:
165,242,411415,1,0,0:0:0:0:
155,182,411530,1,0,0:0:0:0:
126,90,411646,5,8,0:0:0:0:
133,133,411761,1,0,0:0:0:0:
140,173,411876,1,0,0:0:0:0:
251,281,411992,5,10,0:0:0:0:
263,214,412107,1,0,0:0:0:0:
273,154,412223,1,0,0:0:0:0:
302,62,412338,5,8,0:0:0:0:
295,105,412454,1,0,0:0:0:0:
288,145,412569,1,0,0:0:0:0:
177,253,412684,5,10,0:0:0:0:
165,186,412800,1,0,0:0:0:0:
155,126,412915,1,0,0:0:0:0:
126,34,413030,5,8,0:0:0:0:
133,77,413146,1,0,0:0:0:0:
140,117,413261,1,0,0:0:0:0:
251,225,413377,5,10,0:0:0:0:
263,158,413492,1,0,0:0:0:0:
273,98,413607,1,0,0:0:0:0:
302,6,413723,5,8,0:0:0:0:
295,49,413838,1,0,0:0:0:0:
288,89,413954,1,0,0:0:0:0:
250,293,414069,5,14,0:0:0:0:
315,327,414184,1,0,0:0:0:0:
375,325,414300,1,0,0:0:0:0:
405,291,414415,1,0,0:0:0:0:
418,156,414530,5,14,0:0:0:0:
353,122,414646,1,0,0:0:0:0:
293,124,414761,1,0,0:0:0:0:
263,158,414877,1,0,0:0:0:0:
212,361,414992,5,12,0:0:0:0:
47,242,444530,6,0,L|134:252,1,59.9999981689454,4|0,0:0|2:0,0:0:0:0:
184,261,444838,1,0,2:0:0:0:
184,261,444992,1,0,2:0:0:0:
184,261,445146,1,0,2:0:0:0:
184,261,445300,1,0,2:0:0:0:
301,158,445454,6,0,B|284:182|284:182|297:253,1,59.9999981689454,10|0,0:0|2:0,0:0:0:0:
370,274,445761,2,0,L|358:199,1,59.9999981689454,2|0,2:3|2:0,2:0:0:0:
416,159,446069,1,0,2:0:0:0:
416,159,446223,1,0,2:0:0:0:
289,212,446377,1,0,0:0:0:0:
289,212,446530,1,0,2:0:0:0:
289,212,446684,1,0,2:0:0:0:
370,274,446838,6,0,L|379:333,1,59.9999981689454,2|0,2:3|2:0,2:0:0:0:
189,379,447146,2,0,L|197:331,1,29.9999990844727,2|0,2:3|2:0,2:0:0:0:
133,219,447300,1,8,0:0:0:0:
133,219,447454,1,0,2:0:0:0:
133,219,447607,1,0,2:0:0:0:
133,219,447761,2,0,L|140:264,2,29.9999990844727,2|2|2,2:3|2:3|2:3,2:3:0:0:
69,172,448069,1,0,2:0:0:0:
224,82,448223,6,0,L|323:96,1,59.9999981689454,6|0,0:0|2:0,0:0:0:0:
360,104,448530,1,0,2:0:0:0:
360,104,448684,1,0,2:0:0:0:
360,104,448838,1,0,2:0:0:0:
360,104,448992,1,0,2:0:0:0:
433,268,449146,6,0,B|409:260|409:260|336:275,1,59.9999981689454,10|0,0:0|2:0,0:0:0:0:
322,325,449454,1,0,2:0:0:0:
322,325,449607,1,0,2:0:0:0:
322,325,449761,1,0,2:0:0:0:
322,325,449915,1,0,2:0:0:0:
213,244,450069,1,0,0:0:0:0:
213,244,450223,1,0,2:0:0:0:
213,244,450377,1,0,2:0:0:0:
102,320,450530,6,0,P|120:279|118:219,1,59.9999981689454,2|0,2:3|2:0,2:0:0:0:
83,195,450838,1,0,2:0:0:0:
179,367,450992,6,0,B|206:376|206:376|265:350,1,59.9999981689454,10|0,0:0|2:0,0:0:0:0:
281,300,451300,1,0,2:0:0:0:
281,300,451454,1,0,2:0:0:0:
281,300,451607,1,0,2:0:0:0:
281,300,451761,2,0,L|298:244,1,29.9999990844727,2|0,2:3|2:0,0:0:0:0:
369,168,451915,6,0,L|380:254,1,59.9999981689454,6|0,0:0|2:0,0:0:0:0:
420,292,452223,1,0,2:0:0:0:
420,292,452377,1,0,2:0:0:0:
420,292,452530,1,0,2:0:0:0:
420,292,452684,1,0,2:0:0:0:
502,128,452838,6,0,B|478:118|478:118|424:132,1,59.9999981689454,10|0,0:0|2:0,0:0:0:0:
314,222,453146,2,0,L|240:210,1,59.9999981689454,2|0,2:3|2:0,2:0:0:0:
177,199,453454,1,0,2:0:0:0:
177,199,453607,1,0,2:0:0:0:
282,117,453761,1,0,0:0:0:0:
282,117,453915,1,0,2:0:0:0:
282,117,454069,1,0,2:0:0:0:
282,117,454223,6,0,L|217:108,1,59.9999981689454,2|0,2:3|2:0,2:0:0:0:
70,44,454530,2,0,L|120:37,1,29.9999990844727,2|0,2:3|2:0,2:0:0:0:
241,5,454684,1,8,0:0:0:0:
241,5,454838,1,0,2:0:0:0:
241,5,454992,1,0,2:0:0:0:
349,72,455146,2,0,L|399:79,2,29.9999990844727,2|2|2,2:3|2:3|2:3,2:3:0:0:
293,127,455454,1,0,2:0:0:0:
352,221,455607,6,0,L|421:215,1,59.9999981689454,6|0,0:0|2:0,0:0:0:0:
477,258,455915,1,0,2:0:0:0:
477,258,456069,1,0,2:0:0:0:
477,258,456223,1,0,2:0:0:0:
477,258,456377,1,0,2:0:0:0:
286,333,456530,6,0,B|261:343|261:343|218:333,1,59.9999981689454,10|0,0:0|2:0,0:0:0:0:
169,284,456838,1,0,2:0:0:0:
169,284,456992,1,0,2:0:0:0:
169,284,457146,1,0,2:0:0:0:
169,284,457300,1,0,2:0:0:0:
62,348,457454,1,0,0:0:0:0:
62,348,457607,1,0,2:0:0:0:
62,348,457761,1,0,2:0:0:0:
0,168,457915,6,0,L|11:239,1,59.9999981689454,2|0,2:3|2:0,2:0:0:0:
80,261,458223,1,0,2:0:0:0:
188,173,458377,5,2,0:0:0:0:
188,173,458530,1,2,0:0:0:0:
86,100,458684,1,2,0:0:0:0:
188,281,458838,1,2,0:0:0:0:
188,281,458992,1,6,0:0:0:0:
332,187,459146,2,0,L|327:138,1,29.9999990844727,2|0,2:3|2:0,2:0:0:0:
333,39,459300,6,0,P|342:64|375:94,1,59.9999981689454,6|0,0:0|2:0,0:0:0:0:
442,84,459607,1,0,2:0:0:0:
442,84,459761,1,0,2:0:0:0:
442,84,459915,1,0,2:0:0:0:
442,84,460069,1,0,2:0:0:0:
419,247,460223,6,0,B|427:271|427:271|414:319,1,59.9999981689454,10|0,0:0|2:0,0:0:0:0:
309,360,460530,2,0,L|238:347,1,59.9999981689454,2|0,2:3|2:0,2:0:0:0:
172,334,460838,1,0,2:0:0:0:
172,334,460992,1,0,2:0:0:0:
274,265,461146,1,0,0:0:0:0:
274,265,461300,1,0,2:0:0:0:
274,265,461454,1,0,2:0:0:0:
134,183,461607,6,0,P|110:222|105:255,1,59.9999981689454,2|0,2:3|2:0,2:0:0:0:
255,165,461915,2,0,P|235:142|231:117,1,29.9999990844727,2|0,2:3|2:0,2:0:0:0:
253,19,462069,1,10,0:0:0:0:
253,19,462223,1,0,2:0:0:0:
253,19,462377,1,0,2:0:0:0:
338,89,462530,2,0,L|385:96,2,29.9999990844727,2|2|2,2:3|2:3|2:3,2:3:0:0:
274,42,462838,1,0,2:0:0:0:
378,180,462992,6,0,L|365:257,1,59.9999981689454,6|0,2:3|2:0,2:0:0:0:
350,315,463300,1,0,2:0:0:0:
350,315,463454,1,0,2:0:0:0:
350,315,463607,1,0,2:0:0:0:
350,315,463761,1,0,2:0:0:0:
498,147,463915,6,0,B|480:129|480:129|421:122,1,59.9999981689454,10|0,0:0|2:0,0:0:0:0:
383,77,464223,1,0,2:0:0:0:
383,77,464377,1,0,2:0:0:0:
383,77,464530,1,0,2:0:0:0:
383,77,464684,1,0,2:0:0:0:
286,148,464838,1,0,0:0:0:0:
286,148,464992,1,0,2:0:0:0:
286,148,465146,1,0,2:0:0:0:
187,66,465300,6,0,P|202:97|206:145,1,59.9999981689454,2|0,2:3|2:0,2:0:0:0:
167,189,465607,1,0,2:0:0:0:
40,115,465761,2,0,L|33:77,2,29.9999990844727,10|0|0,0:0|2:0|2:0,0:0:0:0:
0,183,466069,1,0,2:0:0:0:
0,183,466223,1,0,2:0:0:0:
0,183,466377,1,0,2:0:0:0:
146,201,466530,2,0,L|140:230,1,29.9999990844727,2|0,2:3|2:0,2:0:0:0:
93,339,466684,6,0,P|127:312|169:312,1,59.9999981689454,6|0,0:0|2:0,0:0:0:0:
212,344,466992,1,0,2:0:0:0:
212,344,467146,1,0,2:0:0:0:
212,344,467300,1,0,2:0:0:0:
212,344,467454,1,0,2:0:0:0:
337,240,467607,6,0,L|326:309,1,59.9999981689454,10|0,0:0|2:0,0:0:0:0:
461,361,467915,2,0,L|450:292,1,59.9999981689454,2|0,2:3|2:0,2:0:0:0:
439,224,468223,1,0,2:0:0:0:
439,224,468377,1,0,2:0:0:0:
508,125,468530,1,0,0:0:0:0:
508,125,468684,1,0,2:0:0:0:
508,125,468838,1,0,2:0:0:0:
423,40,468992,6,0,L|359:34,1,59.9999981689454,2|0,2:3|2:0,2:0:0:0:
207,109,469300,2,0,L|250:99,1,29.9999990844727,2|0,2:3|2:0,2:0:0:0:
346,41,469454,1,10,0:0:0:0:
346,41,469607,1,0,2:0:0:0:
346,41,469761,1,0,2:0:0:0:
371,158,469915,2,0,L|363:201,2,29.9999990844727,2|2|2,2:3|2:3|2:3,2:3:0:0:
310,108,470223,1,0,2:0:0:0:
184,263,470377,6,0,L|271:253,1,59.9999981689454,6|0,0:0|2:0,0:0:0:0:
315,287,470684,1,0,2:0:0:0:
315,287,470838,1,0,2:0:0:0:
315,287,470992,1,0,2:0:0:0:
315,287,471146,1,0,2:0:0:0:
153,364,471300,6,0,B|132:355|132:355|120:300,1,59.9999981689454,10|0,0:0|2:0,0:0:0:0:
132,241,471607,1,0,2:0:0:0:
132,241,471761,1,0,2:0:0:0:
132,241,471915,1,0,2:0:0:0:
132,241,472069,1,0,2:0:0:0:
240,337,472223,1,0,0:0:0:0:
240,337,472377,1,0,2:0:0:0:
240,337,472530,1,0,2:0:0:0:
333,193,472684,6,0,L|268:181,1,59.9999981689454,2|0,2:3|2:0,2:0:0:0:
197,162,472992,1,0,2:0:0:0:
347,41,473146,2,0,L|354:88,2,29.9999990844727,10|0|0,0:0|2:0|2:0,0:0:0:0:
275,7,473454,1,0,2:0:0:0:
275,7,473607,1,0,2:0:0:0:
275,7,473761,1,0,2:0:0:0:
222,115,473915,2,0,L|174:105,1,29.9999990844727,2|0,2:3|2:0,2:0:0:0:
104,43,474069,6,0,B|126:37|126:37|168:75|146:144,1,110.000003356934,2|0,2:3|2:0,2:0:0:0:
132,139,474377,1,0,2:0:0:0:
40,162,474530,2,0,P|58:201|97:227,1,73.3333355712891,2|0,2:3|2:0,2:0:0:0:
147,220,474838,1,0,2:0:0:0:
47,327,474992,6,0,B|108:318|108:318|111:320|111:320|177:311,1,110.000003356934,10|0,0:0|2:0,0:0:0:0:
177,293,475300,1,0,2:0:0:0:
255,347,475454,1,2,2:3:0:0:
339,322,475607,1,0,2:0:0:0:
190,300,475761,1,0,2:0:0:0:
279,224,475915,1,2,2:3:0:0:
403,272,476069,6,0,B|394:223|394:223|398:215|398:215|390:161,1,110.000003356934,0|0,0:0|2:0,2:0:0:0:
366,140,476377,2,0,B|374:91|374:91|371:83|371:83|379:29,1,110.000003356934,2|0,2:3|2:0,2:0:0:0:
401,9,476684,1,0,2:0:0:0:
305,12,476838,2,0,P|254:27|242:78,1,110.000003356934,2|0,2:3|2:0,2:0:0:0:
278,110,477146,5,0,0:0:0:0:
158,199,477300,1,10,2:3:0:0:
221,269,477454,1,0,2:0:0:0:
305,225,477607,1,0,2:0:0:0:
383,348,477761,6,0,B|402:363|402:363|390:289|437:227,1,146.666671142578,2|0,2:3|2:0,2:0:0:0:
504,192,478223,2,0,P|455:167|423:117,1,110.000003356934,2|0,2:3|2:0,2:0:0:0:
433,90,478530,1,0,2:0:0:0:
295,39,478684,6,0,B|311:21|311:21|250:-12|168:42|228:59|165:132|70:106,1,293.333342285157,10|0,2:3|2:0,2:0:0:0:
26,28,479454,1,0,2:0:0:0:
9,172,479607,5,2,0:0:0:0:
41,259,479761,1,0,0:0:0:0:
127,227,479915,1,0,0:0:0:0:
95,141,480069,1,2,0:0:0:0:
2,189,480223,1,0,0:0:0:0:
55,264,480377,1,0,0:0:0:0:
101,124,480531,5,10,0:0:0:0:
226,199,480685,1,4,0:0:0:0:
226,199,480838,1,0,2:0:0:0:
152,326,480992,1,6,0:0:0:0:
152,326,481146,1,0,2:0:0:0:
235,189,481300,1,12,0:0:0:0:
350,279,481454,6,0,B|372:292|372:292|411:271|424:213,1,110.000003356934,2|0,2:3|2:0,2:0:0:0:
408,195,481761,1,0,2:0:0:0:
486,140,481915,2,0,P|447:107|394:102,1,73.3333355712891,2|0,2:3|2:0,2:0:0:0:
364,124,482223,1,0,2:0:0:0:
278,34,482377,6,0,B|216:42|216:42|214:41|214:41|148:50,1,110.000003356934,10|0,2:3|2:0,2:0:0:0:
146,70,482684,1,0,2:0:0:0:
98,152,482838,1,2,2:3:0:0:
156,227,482992,1,0,2:0:0:0:
207,146,483146,1,0,2:0:0:0:
83,225,483300,6,0,L|-10:238,1,73.3333355712891,2|0,0:0|2:0,2:0:0:0:
114,338,483607,2,0,L|207:351,1,73.3333355712891,0|2,0:0|2:3,2:0:0:0:
291,243,483915,2,0,L|198:256,1,73.3333355712891,0|0,0:0|2:0,2:0:0:0:
322,357,484223,5,10,2:3:0:0:
456,298,484377,2,0,L|437:169,1,110.000003356934,0|0,0:0|2:0,2:0:0:0:
366,189,484684,2,0,L|383:298,1,110.000003356934,2|0,0:0|2:0,2:0:0:0:
399,370,484992,1,10,2:3:0:0:
288,273,485146,5,2,0:0:0:0:
172,182,485300,1,0,0:0:0:0:
288,273,485454,1,0,0:0:0:0:
153,330,485607,1,2,0:0:0:0:
243,214,485761,1,0,0:0:0:0:
153,330,485915,1,0,0:0:0:0:
291,154,486069,5,10,0:0:0:0:
163,80,486223,1,0,0:0:0:0:
163,80,486377,1,0,2:0:0:0:
43,164,486530,1,2,0:0:0:0:
43,164,486684,1,0,2:0:0:0:
247,79,486838,5,8,0:0:0:0:
146,237,486992,1,2,0:0:0:0:
260,368,487146,1,0,0:0:0:0:
245,197,487300,1,0,0:0:0:0:
156,343,487454,1,2,0:0:0:0:
315,277,487607,1,0,0:0:0:0:
152,229,487761,1,0,0:0:0:0:
353,364,487915,5,10,0:0:0:0:
278,108,488069,1,8,0:0:0:0:
364,146,488223,1,2,0:0:0:0:
278,108,488377,1,2,0:0:0:0:
229,15,488530,1,2,0:0:0:0:
143,53,488684,1,2,0:0:0:0:
229,15,488838,6,0,B|267:5|267:5|348:37,1,110.000003356934,6|0,2:3|2:0,2:0:0:0:
345,61,489146,1,0,2:0:0:0:
432,21,489300,2,0,P|451:41|475:102,1,73.3333355712891,2|0,2:3|2:0,2:0:0:0:
444,142,489607,1,0,2:0:0:0:
510,227,489761,6,0,B|501:288|501:288|503:291|503:291|494:357,1,110.000003356934,10|0,2:3|2:0,0:0:0:0:
473,359,490069,1,0,2:0:0:0:
413,284,490223,1,2,2:3:0:0:
318,297,490377,1,0,2:0:0:0:
462,355,490530,1,0,2:0:0:0:
345,212,490684,1,2,2:3:0:0:
241,315,490838,6,0,B|192:304|192:304|182:306|182:306|116:293,1,110.000003356934,0|0,0:0|2:0,0:0:0:0:
109,320,491146,2,0,B|98:271|98:271|100:261|100:261|87:195,1,110.000003356934,2|0,0:0|2:0,0:0:0:0:
66,188,491454,1,0,2:0:0:0:
129,117,491607,2,0,P|151:150|227:139,1,110.000003356934,2|0,2:3|2:0,2:0:0:0:
230,103,491915,5,0,0:0:0:0:
105,32,492069,1,10,2:3:0:0:
37,99,492223,1,0,2:0:0:0:
66,188,492377,1,0,2:0:0:0:
178,280,492530,6,0,B|231:274|231:274|241:277|241:277|321:268,1,110.000003356934,2|0,0:0|2:0,2:0:0:0:
315,289,492838,1,0,2:0:0:0:
398,335,492992,2,0,P|431:296|413:181,1,146.666671142578,2|0,2:3|2:0,2:0:0:0:
329,95,493454,6,0,B|318:89|318:89|262:92|226:136,1,110.000003356934,10|0,2:3|2:0,0:0:0:0:
227,161,493761,1,0,2:3:0:0:
145,111,493915,1,2,2:3:0:0:
195,29,494069,1,0,2:0:0:0:
97,191,494223,1,0,2:0:0:0:
153,326,494377,5,2,0:0:0:0:
226,265,494530,1,0,0:0:0:0:
299,204,494684,1,0,0:0:0:0:
391,227,494838,1,2,0:0:0:0:
318,288,494991,1,0,0:0:0:0:
245,349,495145,1,0,0:0:0:0:
225,190,495300,5,10,0:0:0:0:
365,147,495454,1,4,0:0:0:0:
365,147,495607,1,0,0:0:0:0:
479,239,495761,1,6,0:0:0:0:
479,239,495915,1,0,0:0:0:0:
362,328,496069,1,4,0:0:0:0:
217,356,496223,6,0,B|199:338|199:338|206:284|256:259,1,110.000003356934,6|0,2:3|2:0,2:0:0:0:
273,273,496530,1,0,2:0:0:0:
337,202,496684,2,0,P|293:180|246:181,1,73.3333355712891,2|0,2:3|2:0,2:0:0:0:
207,201,496992,1,0,2:0:0:0:
103,97,497146,6,0,B|111:158|111:158|110:161|110:161|119:227,1,110.000003356934,10|0,2:3|2:0,2:0:0:0:
121,238,497454,1,0,2:0:0:0:
66,315,497607,2,0,L|152:326,1,73.3333355712891,2|0,2:3|2:0,2:0:0:0:
173,358,497838,1,0,0:0:0:0:
196,369,497915,1,0,0:0:0:0:
221,371,497992,1,0,0:0:0:0:
245,364,498069,6,0,B|253:310|253:310|250:307|250:307|259:242,1,110.000003356934,10|0,0:0|2:0,2:0:0:0:
235,226,498377,2,0,B|227:172|227:172|230:169|230:169|221:104,1,110.000003356934,8|0,0:0|2:0,2:0:0:0:
246,94,498684,6,0,B|260:124|290:132|290:132|296:129|296:129|320:143|359:133,1,110.000003356934,8|0,0:0|2:0,2:0:0:0:
384,79,498992,5,10,2:3:0:0:
474,49,499146,2,0,P|501:90|501:118,1,73.3333355712891,2|0,2:3|2:0,2:0:0:0:
512,80,499454,2,0,P|503:129|483:148,1,73.3333355712891,2|0,2:3|2:0,2:0:0:0:
363,66,499761,5,8,2:3:0:0:
413,146,499915,1,10,0:0:0:0:
413,146,500069,1,0,2:0:0:0:
353,220,500223,1,8,0:0:0:0:
311,134,500377,1,10,0:0:0:0:
216,132,500530,1,8,0:0:0:0:
179,220,500684,1,8,0:0:0:0:
262,340,500838,5,10,2:3:0:0:
353,311,500992,2,0,L|341:395,1,73.3333355712891,2|0,2:3|2:0,2:0:0:0:
379,294,501300,2,0,L|367:378,1,73.3333355712891,6|0,2:3|2:0,2:0:0:0:
472,262,501607,1,8,2:3:0:0:
354,174,501761,5,2,0:0:0:0:
465,108,501915,1,0,0:0:0:0:
442,197,502069,1,0,0:0:0:0:
377,84,502223,1,2,0:0:0:0:
336,186,502377,1,0,0:0:0:0:
482,101,502531,1,0,0:0:0:0:
451,217,502685,5,12,0:0:0:0:
193,356,502992,5,12,0:0:0:0:
215,63,503300,5,12,0:0:0:0:
511,66,503607,6,0,B|495:70|457:66|442:27|442:27|426:65|360:85|366:58|334:64|274:94|246:177|280:249|335:255,1,399.999987792969,6|0,2:3|2:3,2:3:0:0:
374,275,504530,1,10,2:3:0:0:
453,293,505607,5,0,0:0:0:0:
459,278,505915,1,2,0:0:0:0:
453,293,506684,5,0,0:0:0:0:
408,117,506838,1,10,2:3:0:0:
298,323,507300,5,2,2:3:0:0:
496,198,508223,5,10,2:3:0:0:
88,258,509146,5,2,0:0:0:0:
144,335,509300,1,0,0:0:0:0:
238,325,509454,1,0,0:0:0:0:
276,238,509607,1,2,0:0:0:0:
221,161,509761,1,0,0:0:0:0:
126,170,509915,1,0,0:0:0:0:
88,258,510069,5,10,0:0:0:0:
206,248,510223,2,0,B|208:226|208:226|200:169,1,73.3333355712891,4|0,0:3|2:3,2:3:0:0:
216,250,510530,2,0,B|212:228|212:228|189:175,1,73.3333355712891,6|0,0:3|2:3,2:3:0:0:
105,100,510838,1,12,0:0:0:0:
281,281,510992,6,0,B|324:303|297:374|237:391|174:352|204:310|169:279|126:258|67:267|16:329,1,366.666677856446,6|0,2:3|2:3,2:3:0:0:
0,384,511915,1,10,2:3:0:0:
39,201,512838,5,2,0:0:0:0:
39,201,513146,1,0,0:0:0:0:
39,201,513454,1,0,0:0:0:0:
197,73,513761,5,10,2:3:0:0:
49,226,513915,1,0,0:0:0:0:
44,23,514223,5,2,0:0:0:0:
233,254,514530,1,10,2:3:0:0:
0,149,514684,5,2,0:0:0:0:
108,103,514838,1,0,0:0:0:0:
201,173,514992,1,0,0:0:0:0:
306,223,515146,1,2,0:0:0:0:
397,149,515300,1,0,0:0:0:0:
440,289,515454,1,0,0:0:0:0:
309,136,515607,5,10,0:0:0:0:
227,339,515761,2,0,B|249:352|249:352|316:340,1,73.3333355712891,0|0,0:3|2:3,2:3:0:0:
235,355,516069,2,0,B|258:363|258:363|322:340,1,73.3333355712891,2|0,0:3|2:3,2:3:0:0:
190,169,516377,1,10,2:3:0:0:
393,292,516530,5,2,0:0:0:0:
283,249,516684,1,0,0:0:0:0:
207,338,516838,1,0,0:0:0:0:
145,237,516992,1,2,0:0:0:0:
132,353,517146,1,0,0:0:0:0:
215,215,517300,1,0,0:0:0:0:
60,299,517454,5,10,0:0:0:0:
262,269,517607,1,8,0:0:0:0:
317,372,517761,1,2,0:0:0:0:
262,269,517915,1,2,0:0:0:0:
145,237,518069,1,2,0:0:0:0:
90,134,518223,1,2,0:0:0:0:
145,237,518377,6,0,B|179:264|218:268|286:253|296:215|270:222|286:155|399:154|428:200|447:249|432:296,1,366.666677856446,6|0,2:3|2:3,2:3:0:0:
416,342,519300,1,10,2:3:0:0:
240,373,520377,5,0,0:0:0:0:
231,357,520684,1,2,0:0:0:0:
240,373,521454,5,0,0:0:0:0:
286,224,521607,1,10,2:3:0:0:
392,381,522069,5,2,0:0:0:0:
149,267,522992,5,10,2:3:0:0:
486,200,523915,5,2,0:0:0:0:
411,260,524069,1,0,0:0:0:0:
334,203,524223,1,0,0:0:0:0:
257,146,524377,1,2,0:0:0:0:
182,206,524530,1,0,0:0:0:0:
107,266,524684,1,0,0:0:0:0:
277,296,524838,5,10,0:0:0:0:
257,146,524992,2,0,B|240:134|240:134|167:139,1,73.3333355712891,4|0,0:3|2:3,2:3:0:0:
262,135,525300,2,0,B|242:127|242:127|173:151,1,73.3333355712891,6|0,0:3|2:3,2:3:0:0:
107,266,525607,1,12,0:0:0:0:
341,260,525761,6,0,B|326:224|344:182|387:157|457:176|475:194|492:319|416:367|330:346,1,366.666677856446,6|0,2:3|2:3,2:3:0:0:
286,327,526684,1,10,2:3:0:0:
138,227,527377,5,0,0:0:0:0:
109,218,527454,1,0,0:0:0:0:
80,222,527530,1,0,0:0:0:0:
55,237,527607,6,0,B|44:250|44:250|61:358,1,110.000003356934,10|0,0:0|2:3,2:3:0:0:
83,358,527915,2,0,B|78:340|78:340|184:319,1,110.000003356934,8|0,0:3|2:3,2:3:0:0:
196,330,528223,2,0,B|213:326|213:326|279:361|279:361|314:353,1,110.000003356934,8|0,0:3|2:3,2:3:0:0:
318,338,528530,5,10,2:3:0:0:
398,139,528684,1,2,2:3:0:0:
467,374,528992,5,2,0:0:0:0:
222,150,529300,5,8,2:3:0:0:
425,218,529454,1,2,0:0:0:0:
362,180,529607,1,0,0:0:0:0:
290,197,529761,1,8,0:0:0:0:
252,260,529915,1,10,0:0:0:0:
268,332,530069,1,8,0:0:0:0:
403,287,530223,1,8,0:0:0:0:
173,217,530377,5,10,2:3:0:0:
364,355,530530,1,2,2:3:0:0:
334,113,530838,5,6,2:3:0:0:
170,363,531146,5,8,2:3:0:0:
254,233,531300,1,10,0:0:0:0:
194,276,531454,1,8,0:0:0:0:
100,262,531607,1,8,0:0:0:0:
29,167,531761,1,10,0:0:0:0:
70,33,531915,1,8,0:0:0:0:
227,154,532069,1,8,0:0:0:0:
19,269,532223,5,10,0:0:0:0:
164,100,532530,5,8,0:0:0:0:
339,296,532838,5,12,0:0:0:0:
346,289,533146,5,2,2:3:0:0:
