osu file format v14

[General]
AudioFilename: audio.mp3
AudioLeadIn: 0
PreviewTime: 487756
Countdown: 0
SampleSet: Normal
StackLeniency: 0.2
Mode: 1
LetterboxInBreaks: 0
WidescreenStoryboard: 1

[Editor]
Bookmarks: 43534,63815,70155,95506,103534,105647,106175,106809,107231,121492,130489,165492,181489,261116,280386,367103,405640,424913,432795,476153,483594,530689,541200
DistanceSpacing: 0.7
BeatDivisor: 4
GridSize: 32
TimelineZoom: 1.6

[Metadata]
Title:Spiritual Migration
TitleUnicode:Spiritual Migration
Artist:Persefone
ArtistUnicode:Persefone
Creator:GoldenWolf
Version:Ascending to the Source
Source:
Tags:Progressive Symphonic Death Metal
BeatmapID:1977010
BeatmapSetID:935589

[Difficulty]
HPDrainRate:6
CircleSize:2
OverallDifficulty:7
ApproachRate:10
SliderMultiplier:1.4
SliderTickRate:1

[Events]
//Background and Video events
0,0,"orz228b.jpg",0,0
//Break Periods
//Storyboard Layer 0 (Background)
//Storyboard Layer 1 (Fail)
//Storyboard Layer 2 (Pass)
//Storyboard Layer 3 (Foreground)
//Storyboard Sound Samples

[TimingPoints]
23252,422.535211267606,6,1,0,70,1,0
25787,422.535211267606,4,1,0,70,1,0
27477,422.535211267606,6,1,0,70,1,0
30012,422.535211267606,4,1,0,70,1,0
31702,422.535211267606,5,1,0,70,1,8
31703,422.535211267606,5,1,0,70,1,0
31703,-84.7457627118644,5,1,0,70,0,0
31773,-86.2068965517241,5,1,0,70,0,0
31843,-87.719298245614,5,1,0,70,0,0
31914,-89.2857142857143,5,1,0,70,0,0
31984,-90.9090909090909,5,1,0,70,0,0
32055,-92.5925925925926,5,1,0,70,0,0
32125,-94.3396226415094,5,1,0,70,0,0
32231,-95.2380952380952,5,1,0,70,0,0
32336,-96.1538461538461,5,1,0,70,0,0
32442,-97.0873786407767,5,1,0,70,0,0
32548,-98.0392156862745,5,1,0,70,0,0
32653,-99.009900990099,5,1,0,70,0,0
32759,-66.6666666666667,5,1,0,70,0,0
33815,422.535211267606,6,1,0,70,1,8
33816,422.535211267606,6,1,0,70,1,0
36351,422.535211267606,4,1,0,70,1,0
38041,422.535211267606,3,1,0,70,1,0
39308,422.535211267606,4,1,0,70,1,0
40998,422.535211267606,6,1,0,70,1,8
40999,422.535211267606,6,1,0,70,1,0
40999,-84.7457627118644,5,1,0,70,0,0
41069,-86.2068965517241,5,1,0,70,0,0
41139,-87.719298245614,5,1,0,70,0,0
41210,-89.2857142857143,5,1,0,70,0,0
41280,-90.9090909090909,5,1,0,70,0,0
41351,-92.5925925925926,5,1,0,70,0,0
41421,-94.3396226415094,5,1,0,70,0,0
41527,-95.2380952380952,5,1,0,70,0,0
41632,-96.1538461538461,5,1,0,70,0,0
41738,-97.0873786407767,5,1,0,70,0,0
41844,-98.0392156862745,5,1,0,70,0,0
41949,-99.009900990099,5,1,0,70,0,0
42055,-66.6666666666667,5,1,0,70,0,0
43006,-100,5,1,0,70,0,0
43534,422.535211267606,6,1,0,70,1,8
43535,422.535211267606,6,1,0,70,1,0
46070,422.535211267606,4,1,0,70,1,0
47760,422.535211267606,6,1,0,70,1,0
50295,422.535211267606,4,1,0,70,1,0
51985,422.535211267606,5,1,0,70,1,8
51986,422.535211267606,5,1,0,70,1,0
51986,-84.7457627118644,5,1,0,70,0,0
52197,-89.2857142857143,5,1,0,70,0,0
52267,-90.9090909090909,5,1,0,70,0,0
52338,-92.5925925925926,5,1,0,70,0,0
52408,-94.3396226415094,5,1,0,70,0,0
52514,-95.2380952380952,5,1,0,70,0,0
52619,-96.1538461538461,5,1,0,70,0,0
52725,-97.0873786407767,5,1,0,70,0,0
52831,-98.0392156862745,5,1,0,70,0,0
52936,-99.009900990099,5,1,0,70,0,0
53042,-66.6666666666667,5,1,0,70,0,0
54098,422.535211267606,5,1,0,70,1,8
54099,422.535211267606,6,1,0,70,1,0
56634,422.535211267606,4,1,0,70,1,0
58324,422.535211267606,3,1,0,70,1,0
59591,422.535211267606,4,1,0,70,1,0
61281,422.535211267606,6,1,0,70,1,0
61281,-84.7457627118644,5,1,0,70,0,0
61492,-89.2857142857143,5,1,0,70,0,0
61562,-90.9090909090909,5,1,0,70,0,0
61633,-92.5925925925926,5,1,0,70,0,0
61703,-94.3396226415094,5,1,0,70,0,0
61809,-95.2380952380952,5,1,0,70,0,0
61914,-96.1538461538461,5,1,0,70,0,0
62020,-97.0873786407767,5,1,0,70,0,0
62126,-98.0392156862745,5,1,0,70,0,0
62231,-99.009900990099,5,1,0,70,0,0
62337,-66.6666666666667,5,1,0,70,0,0
63815,422.535211267606,5,1,0,70,1,0
63815,-66.6666666666667,5,1,0,70,0,0
70153,-100,5,1,0,70,0,0
78603,422.535211267606,2,1,0,70,1,8
79448,422.535211267606,5,1,0,70,1,0
85786,422.535211267606,4,1,0,70,1,0
87476,422.535211267606,5,1,0,70,1,0
89377,422.535211267606,5,1,0,70,1,0
93391,422.535211267606,5,1,0,70,1,0
97405,422.535211267606,5,1,0,70,1,0
101419,422.535211267606,5,1,0,70,1,0
103531,-87.719298245614,5,1,0,70,0,0
104799,-89.2857142857143,5,1,0,70,0,0
104904,-90.9090909090909,5,1,0,70,0,0
105010,-92.5925925925926,5,1,0,70,0,0
105116,-94.3396226415094,5,1,0,70,0,0
105221,-96.1538461538461,5,1,0,70,0,0
105327,-98.0392156862745,5,1,0,70,0,0
105433,422.535211267606,5,1,0,70,1,0
109447,422.535211267606,5,1,0,70,1,0
113461,422.535211267606,5,1,0,70,1,0
117475,422.535211267606,5,1,0,70,1,0
121489,250,4,1,0,70,1,0
121489,-169.491525423729,4,1,0,70,0,0
121739,-100,4,1,0,70,0,0
123489,250,3,1,0,70,1,0
124989,250,4,1,0,70,1,0
126989,250,3,1,0,70,1,0
128489,250,4,1,0,70,1,0
131489,250,3,1,0,70,1,0
132989,250,4,1,0,70,1,0
134989,250,3,1,0,70,1,0
136489,250,4,1,0,70,1,0
138489,250,2,1,0,70,1,8
138989,250,6,1,0,70,1,0
141989,250,5,1,0,70,1,0
143239,250,7,1,0,70,1,0
146739,250,4,1,0,70,1,0
147739,250,5,1,0,70,1,0
148989,250,4,1,0,70,1,0
149989,250,3,1,0,70,1,0
151489,250,4,1,0,70,1,0
153489,250,3,1,0,70,1,0
154989,250,4,1,0,70,1,0
156989,250,2,1,0,70,1,8
157489,250,4,1,0,70,1,0
181489,250,8,1,0,70,1,0
185489,250,9,1,0,70,1,0
194489,250,8,1,0,70,1,0
198489,437.956204379562,8,1,0,70,1,0
198489,-66.6666666666667,8,1,0,70,0,0
201773,437.956204379562,8,1,0,70,1,0
201773,-66.6666666666667,8,1,0,70,0,0
208561,437.956204379562,8,1,0,70,1,0
208561,-66.6666666666667,8,1,0,70,0,0
212064,437.956204379562,5,1,0,70,1,8
212065,437.956204379562,5,1,0,70,1,1
212065,-66.6666666666667,5,1,0,70,0,1
214036,437.956204379562,5,1,0,70,1,1
214036,-66.6666666666667,5,1,0,70,0,1
218197,437.956204379562,5,1,0,70,1,1
218197,-66.6666666666667,5,1,0,70,0,1
222358,437.956204379562,5,1,0,70,1,1
222358,-66.6666666666667,5,1,0,70,0,1
226519,437.956204379562,3,1,0,70,1,0
226519,-66.6666666666667,5,1,0,70,0,0
227833,437.956204379562,5,1,0,70,1,1
227833,-66.6666666666667,5,1,0,70,0,1
229804,437.956204379562,5,1,0,70,1,1
229804,-66.6666666666667,5,1,0,70,0,1
233965,437.956204379562,5,1,0,70,1,1
233965,-66.6666666666667,5,1,0,70,0,1
238126,437.956204379562,5,1,0,70,1,1
238126,-66.6666666666667,5,1,0,70,0,1
242287,437.956204379562,6,1,0,70,1,1
242287,-66.6666666666667,5,1,0,70,0,1
244914,-66.6666666666667,5,1,0,70,0,0
247542,437.956204379562,4,1,0,70,1,0
247542,-68.9655172413793,4,1,0,70,0,0
249293,437.956204379562,6,1,0,70,1,0
249293,-71.4285714285714,6,1,0,70,0,0
251920,437.956204379562,4,1,0,70,1,0
251920,-74.0740740740741,4,1,0,70,0,0
253671,437.956204379562,6,1,0,70,1,0
253671,-76.9230769230769,6,1,0,70,0,0
256298,437.956204379562,4,1,0,70,1,0
256298,-80,4,1,0,70,0,0
258049,437.956204379562,3,1,0,70,1,0
258049,-83.3333333333333,3,1,0,70,0,0
259362,437.956204379562,4,1,0,70,1,0
259362,-86.9565217391304,4,1,0,70,0,0
261113,437.956204379562,8,1,0,70,1,0
261113,-90.9090909090909,8,1,0,70,0,0
264137,437.956204379562,8,1,0,30,1,8
264574,437.956204379562,8,1,0,50,1,0
268077,437.956204379562,8,1,0,50,1,8
268141,437.956204379562,6,1,0,50,1,0
269418,437.956204379562,6,1,0,30,1,8
270056,437.956204379562,6,1,0,30,1,8
270748,437.956204379562,8,1,0,50,1,0
273375,-100,8,1,0,30,0,0
277754,437.956204379562,6,1,0,50,1,0
278170,437.956204379562,6,1,0,50,1,8
279943,437.956204379562,6,1,0,30,1,8
280326,-100,6,1,0,70,0,0
280383,437.956204379562,8,1,0,70,1,0
283393,-100,8,1,0,50,0,0
283612,-100,8,1,0,30,0,0
283831,-100,8,1,0,70,0,0
286897,-100,8,1,0,50,0,0
287116,-100,8,1,0,30,0,0
287335,-100,8,1,0,70,0,0
287390,437.956204379562,6,1,0,70,1,0
289524,-100,6,1,0,50,0,0
289743,-100,6,1,0,50,0,0
289963,-100,6,1,0,70,0,0
290018,437.956204379562,8,1,0,70,1,8
290181,-100,8,1,0,53,0,0
290400,-100,8,1,0,70,0,0
292152,-100,8,1,0,50,0,0
292590,-100,8,1,0,70,0,0
293028,-100,8,1,0,50,0,0
293247,-100,8,1,0,30,0,0
293466,-100,8,1,0,70,0,0
294123,-100,8,1,0,30,0,0
294342,-100,8,1,0,70,0,0
295218,-100,8,1,0,30,0,0
295984,-100,8,1,0,70,0,0
296532,-100,8,1,0,50,0,0
296751,-100,8,1,0,30,0,0
296970,-100,8,1,0,70,0,0
297025,437.956204379562,6,1,0,70,1,0
299378,-100,8,1,0,30,0,0
299598,-100,8,1,0,70,0,0
299653,437.956204379562,8,1,0,70,1,8
305510,-100,8,1,0,30,0,0
305619,-100,8,1,0,70,0,0
306386,-100,8,1,0,30,0,0
306605,-100,8,1,0,70,0,0
306660,437.956204379562,6,1,0,70,1,0
308575,-100,8,1,0,30,0,0
308685,-100,6,1,0,70,0,0
309288,437.956204379562,8,1,0,70,1,8
309451,-100,8,1,0,50,0,0
309670,-100,8,1,0,70,0,0
311641,-100,8,1,0,50,0,0
311751,-100,8,1,0,70,0,0
312517,-100,8,1,0,30,0,0
312627,-100,8,1,0,70,0,0
312955,-100,8,1,0,30,0,0
313174,-100,8,1,0,70,0,0
313393,-100,8,1,0,30,0,0
313612,-100,8,1,0,70,0,0
314269,-100,8,1,0,30,0,0
314488,-100,8,1,0,50,0,0
314707,-100,8,1,0,70,0,0
315035,-100,8,1,0,30,0,0
315145,-100,8,1,0,70,0,0
316021,-100,8,1,0,50,0,0
316240,-100,8,1,0,70,0,0
316295,437.956204379562,6,1,0,70,1,0
316458,-100,8,1,0,30,0,0
316677,-100,6,1,0,70,0,0
318923,437.956204379562,8,1,0,70,1,8
319962,-100,8,1,0,50,0,0
320181,-100,8,1,0,70,0,0
322152,-100,8,1,0,50,0,0
322371,-100,8,1,0,70,0,0
322590,-100,8,1,0,30,0,0
322809,-100,8,1,0,70,0,0
323028,-100,8,1,0,30,0,0
323247,-100,8,1,0,70,0,0
325656,-100,8,1,0,50,0,0
325875,-100,8,1,0,70,0,0
325930,437.956204379562,6,1,0,70,1,0
326093,-100,8,1,0,30,0,0
326312,-100,6,1,0,70,0,0
326531,-100,8,1,0,30,0,0
326750,-100,6,1,0,70,0,0
328174,-100,8,1,0,30,0,0
328283,-100,6,1,0,70,0,0
328558,437.956204379562,8,1,0,70,1,8
329159,-100,8,1,0,30,0,0
329378,-100,8,1,0,70,0,0
330035,-100,8,1,0,30,0,0
330254,-100,8,1,0,70,0,0
332663,-100,8,1,0,30,0,0
332882,-100,8,1,0,70,0,0
335181,-100,8,1,0,30,0,0
335291,-100,8,1,0,50,0,0
335510,-100,8,1,0,70,0,0
335565,437.956204379562,6,1,0,70,1,0
335728,-100,6,1,0,30,0,0
335947,-100,6,1,0,70,0,0
336166,-100,6,1,0,30,0,0
336385,-100,6,1,0,70,0,0
337042,-100,8,1,0,30,0,0
337261,-100,6,1,0,70,0,0
337480,-100,8,1,0,30,0,0
337699,-100,6,1,0,70,0,0
337809,-100,6,1,0,50,0,0
337918,-100,6,1,0,70,0,0
338193,437.956204379562,8,1,0,70,1,8
339232,-100,6,1,0,50,0,0
339451,-100,8,1,0,70,0,0
340108,-100,8,1,0,30,0,0
340327,-100,8,1,0,70,0,0
342298,-100,8,1,0,30,0,0
342517,-100,8,1,0,70,0,0
342736,-100,8,1,0,30,0,0
342955,-100,8,1,0,70,0,0
345201,437.956204379562,6,1,0,70,1,8
345802,-100,8,1,0,30,0,0
346021,-100,6,1,0,70,0,0
346240,-100,6,1,0,50,0,0
346459,-100,6,1,0,70,0,0
347445,-100,6,1,0,30,0,0
347554,-100,6,1,0,70,0,0
347830,437.956204379562,8,1,0,70,1,8
349307,-100,8,1,0,30,0,0
349417,-100,8,1,0,70,0,0
351607,-100,8,1,0,30,0,0
351716,-100,8,1,0,70,0,0
351826,-100,8,1,0,30,0,0
352045,-100,8,1,0,70,0,0
352702,-100,6,1,0,50,0,0
352920,-100,8,1,0,70,0,0
354837,437.956204379562,6,1,0,70,1,0
355110,-100,6,1,0,50,0,0
355219,-100,6,1,0,70,0,0
355438,-100,6,1,0,50,0,0
355548,-100,6,1,0,70,0,0
356314,-100,8,1,0,30,0,0
356424,-100,6,1,0,70,0,0
356862,-100,8,1,0,30,0,0
356971,-100,6,1,0,70,0,0
357465,437.956204379562,8,1,0,70,1,8
357628,-100,8,1,0,30,0,0
357738,-100,8,1,0,70,0,0
358942,-100,8,1,0,30,0,0
359161,-100,8,1,0,70,0,0
359709,-100,8,1,0,30,0,0
359818,-100,8,1,0,70,0,0
362008,-100,8,1,0,30,0,0
362118,-100,8,1,0,70,0,0
363103,-100,8,1,0,70,0,0
363212,-100,8,1,0,30,0,0
363322,-100,8,1,0,70,0,0
364473,437.956204379562,6,1,0,70,1,8
367100,437.956204379562,8,1,0,70,1,0
367100,-80,8,1,0,70,0,0
374106,437.956204379562,6,1,0,70,1,0
374106,-80,8,1,0,70,0,0
375857,-66.6666666666667,8,1,0,70,0,0
376733,437.956204379562,8,1,0,70,1,8
376735,437.956204379562,8,1,0,70,1,0
376735,-80,8,1,0,70,0,0
383741,437.956204379562,6,1,0,70,1,0
383741,-80,8,1,0,70,0,0
386368,437.956204379562,8,1,0,70,1,8
386370,437.956204379562,8,1,0,70,1,0
386370,-66.6666666666667,8,1,0,70,0,0
393376,437.956204379562,6,1,0,70,1,0
393376,-66.6666666666667,8,1,0,70,0,0
395127,-57.1428571428571,8,1,0,70,0,0
396003,437.956204379562,8,1,0,70,1,8
396005,437.956204379562,8,1,0,70,1,0
396005,-66.6666666666667,8,1,0,70,0,0
403011,437.956204379562,6,1,0,70,1,0
403011,-66.6666666666667,8,1,0,70,0,0
404762,-57.1428571428571,8,1,0,70,0,0
405638,437.956204379562,8,1,0,70,1,8
405639,437.956204379562,8,1,0,70,1,0
405639,-66.6666666666667,8,1,0,70,0,0
412646,437.956204379562,6,1,0,70,1,0
412646,-66.6666666666667,8,1,0,70,0,0
414397,-57.1428571428571,8,1,0,70,0,0
415273,437.956204379562,8,1,0,70,1,8
415275,437.956204379562,8,1,0,70,1,0
415275,-66.6666666666667,8,1,0,70,0,0
422281,437.956204379562,6,1,0,70,1,0
422281,-66.6666666666667,8,1,0,70,0,0
424032,-57.1428571428571,8,1,0,70,0,0
424908,437.956204379562,8,1,0,70,1,8
424910,437.956204379562,4,1,0,70,1,0
424910,-66.6666666666667,8,1,0,70,0,0
426661,437.956204379562,5,1,0,70,1,0
426661,-66.6666666666667,8,1,0,70,0,0
428851,437.956204379562,4,1,0,70,1,8
428851,-66.6666666666667,8,1,0,70,0,0
430603,437.956204379562,5,1,0,70,1,0
430603,-66.6666666666667,8,1,0,70,0,0
432792,-66.6666666666667,8,1,0,70,0,0
439143,437.956204379562,5,1,0,70,1,0
439143,-66.6666666666667,8,1,0,70,0,0
447683,437.956204379562,5,1,0,70,1,0
447683,-66.6666666666667,8,1,0,70,0,0
456223,437.956204379562,5,1,0,70,1,0
456223,-66.6666666666667,8,1,0,70,0,0
464763,437.956204379562,5,1,0,70,1,0
464763,-66.6666666666667,8,1,0,70,0,0
469142,437.956204379562,8,1,0,70,1,8
469143,437.956204379562,4,1,0,70,1,0
469143,-100,8,1,0,70,0,0
476150,-66.6666666666667,8,1,0,70,0,0
481405,437.956204379562,5,1,0,70,1,0
481405,-66.6666666666667,8,1,0,70,0,0
481477,-67.5675675675676,8,1,0,70,0,0
481550,-68.4931506849315,8,1,0,70,0,0
481623,-69.4444444444444,8,1,0,70,0,0
481696,-70.4225352112676,8,1,0,70,0,0
481769,-71.4285714285714,8,1,0,70,0,0
481842,-72.463768115942,8,1,0,70,0,0
481915,-73.5294117647059,8,1,0,70,0,0
481988,-74.6268656716418,8,1,0,70,0,0
482061,-75.7575757575758,8,1,0,70,0,0
482134,-76.9230769230769,8,1,0,70,0,0
482207,-78.125,8,1,0,70,0,0
482280,-79.3650793650794,8,1,0,70,0,0
482609,-80.6451612903226,8,1,0,70,0,0
482718,-81.9672131147541,8,1,0,70,0,0
482937,-83.3333333333333,8,1,0,70,0,0
483156,-84.7457627118644,8,1,0,70,0,0
483229,-86.2068965517241,8,1,0,70,0,0
483302,-87.719298245614,8,1,0,70,0,0
483375,-89.2857142857143,8,1,0,70,0,0
483448,-90.9090909090909,8,1,0,70,0,0
483521,-92.5925925925926,8,1,0,70,0,0
483594,-94.3396226415094,8,1,0,70,0,0
484361,-84.7457627118644,8,1,0,70,0,0
485565,-76.9230769230769,8,1,0,70,0,0
486550,-70.4225352112676,8,1,0,70,0,0
487756,437.956204379562,5,1,0,70,1,1
487756,-66.6666666666667,8,1,0,70,0,1
489726,437.956204379562,5,1,0,70,1,1
489726,-66.6666666666667,8,1,0,70,0,1
493887,437.956204379562,5,1,0,70,1,1
493887,-66.6666666666667,8,1,0,70,0,1
498047,437.956204379562,5,1,0,70,1,1
498047,-66.6666666666667,8,1,0,70,0,1
502208,437.956204379562,5,1,0,70,1,1
502208,-66.6666666666667,8,1,0,70,0,1
506369,437.956204379562,5,1,0,70,1,1
506369,-66.6666666666667,8,1,0,70,0,1
510529,437.956204379562,5,1,0,70,1,1
510529,-66.6666666666667,8,1,0,70,0,1
514690,437.956204379562,5,1,0,70,1,1
514690,-66.6666666666667,8,1,0,70,0,1
518850,437.956204379562,6,1,0,70,1,1
518850,-66.6666666666667,8,1,0,70,0,1
520163,441.176470588235,6,1,0,70,1,1
520163,-66.6666666666667,8,1,0,70,0,1
521485,437.956204379562,6,1,0,70,1,0
521485,-66.6666666666667,8,1,0,70,0,0
524112,437.956204379562,4,1,0,70,1,0
524112,-71.4285714285714,4,1,0,70,0,0
525863,437.956204379562,4,1,0,70,1,8
525864,437.956204379562,6,1,0,70,1,0
525864,-76.9230769230769,6,1,0,70,0,0
528491,437.956204379562,5,1,0,70,1,0
528491,-83.3333333333333,5,1,0,70,0,0

[Colours]
Combo1 : 226,114,184
Combo2 : 226,114,114
Combo3 : 114,114,226
Combo4 : 226,184,114
Combo5 : 184,114,226
Combo6 : 199,226,114

[HitObjects]
253,194,23252,5,0,0:0:0:0:
256,192,23322,1,0,0:0:0:0:
256,192,23392,1,0,0:0:0:0:
256,192,23463,1,0,0:0:0:0:
256,192,23674,1,0,0:0:0:0:
256,192,23744,1,0,0:0:0:0:
256,192,23815,1,0,0:0:0:0:
256,192,23885,1,8,0:0:0:0:
256,192,24308,1,0,0:0:0:0:
256,192,24660,1,0,0:0:0:0:
256,192,24942,1,0,0:0:0:0:
256,192,25047,1,8,0:0:0:0:
256,192,25364,1,0,0:0:0:0:
256,192,25787,1,0,0:0:0:0:
256,192,25857,1,0,0:0:0:0:
256,192,25927,1,0,0:0:0:0:
256,192,25998,1,0,0:0:0:0:
256,192,26209,1,0,0:0:0:0:
256,192,26279,1,0,0:0:0:0:
256,192,26350,1,0,0:0:0:0:
256,192,26420,1,8,0:0:0:0:
256,192,26843,1,0,0:0:0:0:
256,192,27195,1,0,0:0:0:0:
256,192,27477,1,0,0:0:0:0:
256,192,27547,1,0,0:0:0:0:
256,192,27617,1,0,0:0:0:0:
256,192,27688,1,0,0:0:0:0:
256,192,27899,1,0,0:0:0:0:
256,192,27969,1,0,0:0:0:0:
256,192,28040,1,0,0:0:0:0:
256,192,28110,1,8,0:0:0:0:
256,192,28533,1,0,0:0:0:0:
256,192,28885,1,0,0:0:0:0:
256,192,29167,1,0,0:0:0:0:
256,192,29272,1,8,0:0:0:0:
256,192,29589,1,0,0:0:0:0:
256,192,30012,1,0,0:0:0:0:
256,192,30082,1,0,0:0:0:0:
256,192,30152,1,0,0:0:0:0:
256,192,30223,1,0,0:0:0:0:
256,192,30434,1,0,0:0:0:0:
256,192,30504,1,0,0:0:0:0:
256,192,30575,1,0,0:0:0:0:
256,192,30645,1,8,0:0:0:0:
256,192,31068,1,0,0:0:0:0:
256,192,31420,1,0,0:0:0:0:
256,192,31703,1,8,0:0:0:0:
256,192,31773,1,8,0:0:0:0:
256,192,31843,1,8,0:0:0:0:
256,192,31914,1,0,0:0:0:0:
256,192,31984,1,0,0:0:0:0:
256,192,32055,1,0,0:0:0:0:
256,192,32125,1,8,0:0:0:0:
256,192,32231,1,0,0:0:0:0:
256,192,32336,1,8,0:0:0:0:
256,192,32442,1,8,0:0:0:0:
256,192,32548,1,0,0:0:0:0:
256,192,32653,1,0,0:0:0:0:
256,192,32759,1,12,0:0:0:0:
256,192,33076,1,4,0:0:0:0:
256,192,33393,1,12,0:0:0:0:
256,192,33816,1,0,0:0:0:0:
256,192,33886,1,0,0:0:0:0:
256,192,33956,1,0,0:0:0:0:
256,192,34027,1,0,0:0:0:0:
256,192,34238,1,0,0:0:0:0:
256,192,34308,1,0,0:0:0:0:
256,192,34379,1,0,0:0:0:0:
256,192,34449,1,8,0:0:0:0:
256,192,34872,1,0,0:0:0:0:
256,192,35224,1,0,0:0:0:0:
256,192,35506,1,0,0:0:0:0:
256,192,35611,1,8,0:0:0:0:
256,192,35928,1,0,0:0:0:0:
256,192,36351,1,0,0:0:0:0:
256,192,36421,1,0,0:0:0:0:
256,192,36491,1,0,0:0:0:0:
256,192,36562,1,0,0:0:0:0:
256,192,36773,1,0,0:0:0:0:
256,192,36843,1,0,0:0:0:0:
256,192,36914,1,0,0:0:0:0:
256,192,36984,1,8,0:0:0:0:
256,192,37407,1,0,0:0:0:0:
256,192,37759,1,0,0:0:0:0:
256,192,38041,1,0,0:0:0:0:
256,192,38111,1,0,0:0:0:0:
256,192,38181,1,0,0:0:0:0:
256,192,38252,1,0,0:0:0:0:
256,192,38463,1,0,0:0:0:0:
256,192,38533,1,0,0:0:0:0:
256,192,38604,1,0,0:0:0:0:
256,192,38674,1,8,0:0:0:0:
256,192,39026,1,0,0:0:0:0:
256,192,39308,1,8,0:0:0:0:
256,192,39378,1,0,0:0:0:0:
256,192,39448,1,0,0:0:0:0:
256,192,39519,1,0,0:0:0:0:
256,192,39730,1,0,0:0:0:0:
256,192,39800,1,0,0:0:0:0:
256,192,39871,1,0,0:0:0:0:
256,192,39941,1,8,0:0:0:0:
256,192,40364,1,0,0:0:0:0:
256,192,40716,1,0,0:0:0:0:
256,192,40999,1,8,0:0:0:0:
256,192,41069,1,0,0:0:0:0:
256,192,41139,1,0,0:0:0:0:
256,192,41210,1,0,0:0:0:0:
256,192,41280,1,0,0:0:0:0:
256,192,41351,1,0,0:0:0:0:
256,192,41421,1,8,0:0:0:0:
256,192,41527,1,8,0:0:0:0:
256,192,41632,1,8,0:0:0:0:
256,192,41738,1,0,0:0:0:0:
256,192,41844,1,0,0:0:0:0:
256,192,41949,1,0,0:0:0:0:
256,192,42055,1,12,0:0:0:0:
256,192,42372,1,4,0:0:0:0:
256,192,42689,1,12,0:0:0:0:
256,192,43006,1,0,0:0:0:0:
256,192,43111,1,4,0:0:0:0:
256,192,43322,1,8,0:0:0:0:
256,192,43428,1,8,0:0:0:0:
256,192,43535,1,0,0:0:0:0:
256,192,43605,1,0,0:0:0:0:
256,192,43675,1,0,0:0:0:0:
256,192,43746,1,0,0:0:0:0:
256,192,43957,1,0,0:0:0:0:
256,192,44027,1,0,0:0:0:0:
256,192,44098,1,0,0:0:0:0:
256,192,44168,1,8,0:0:0:0:
256,192,44591,1,8,0:0:0:0:
256,192,44696,1,0,0:0:0:0:
256,192,44943,1,8,0:0:0:0:
256,192,45048,1,8,0:0:0:0:
256,192,45225,1,0,0:0:0:0:
256,192,45330,1,8,0:0:0:0:
256,192,45647,1,0,0:0:0:0:
256,192,46070,1,0,0:0:0:0:
256,192,46140,1,0,0:0:0:0:
256,192,46210,1,0,0:0:0:0:
256,192,46281,1,0,0:0:0:0:
256,192,46492,1,0,0:0:0:0:
256,192,46562,1,0,0:0:0:0:
256,192,46633,1,0,0:0:0:0:
256,192,46703,1,8,0:0:0:0:
256,192,47126,1,0,0:0:0:0:
256,192,47478,1,0,0:0:0:0:
256,192,47760,1,0,0:0:0:0:
256,192,47830,1,0,0:0:0:0:
256,192,47900,1,0,0:0:0:0:
256,192,47971,1,0,0:0:0:0:
256,192,48182,1,0,0:0:0:0:
256,192,48252,1,0,0:0:0:0:
256,192,48323,1,0,0:0:0:0:
256,192,48393,1,8,0:0:0:0:
256,192,48816,1,8,0:0:0:0:
256,192,48921,1,0,0:0:0:0:
256,192,49168,1,8,0:0:0:0:
256,192,49273,1,8,0:0:0:0:
256,192,49450,1,0,0:0:0:0:
256,192,49555,1,8,0:0:0:0:
256,192,49872,1,0,0:0:0:0:
256,192,50295,1,0,0:0:0:0:
256,192,50365,1,0,0:0:0:0:
256,192,50435,1,0,0:0:0:0:
256,192,50506,1,0,0:0:0:0:
256,192,50717,1,0,0:0:0:0:
256,192,50787,1,0,0:0:0:0:
256,192,50858,1,0,0:0:0:0:
256,192,50928,1,8,0:0:0:0:
256,192,51351,1,0,0:0:0:0:
256,192,51703,1,0,0:0:0:0:
256,192,51986,1,12,0:0:0:0:
256,192,52197,1,0,0:0:0:0:
256,192,52267,1,0,0:0:0:0:
256,192,52338,1,0,0:0:0:0:
256,192,52408,1,8,0:0:0:0:
256,192,52514,1,8,0:0:0:0:
256,192,52619,1,8,0:0:0:0:
256,192,52725,1,8,0:0:0:0:
256,192,52831,1,0,0:0:0:0:
256,192,52936,1,0,0:0:0:0:
256,192,53042,1,12,0:0:0:0:
256,192,53359,1,4,0:0:0:0:
256,192,53676,1,12,0:0:0:0:
256,192,54099,1,0,0:0:0:0:
256,192,54169,1,0,0:0:0:0:
256,192,54239,1,0,0:0:0:0:
256,192,54310,1,0,0:0:0:0:
256,192,54521,1,0,0:0:0:0:
256,192,54591,1,0,0:0:0:0:
256,192,54662,1,0,0:0:0:0:
256,192,54732,1,8,0:0:0:0:
256,192,55155,1,8,0:0:0:0:
256,192,55260,1,0,0:0:0:0:
256,192,55507,1,8,0:0:0:0:
256,192,55612,1,8,0:0:0:0:
256,192,55789,1,0,0:0:0:0:
256,192,55894,1,8,0:0:0:0:
256,192,56211,1,0,0:0:0:0:
256,192,56634,1,0,0:0:0:0:
256,192,56704,1,0,0:0:0:0:
256,192,56774,1,0,0:0:0:0:
256,192,56845,1,0,0:0:0:0:
256,192,57056,1,0,0:0:0:0:
256,192,57126,1,0,0:0:0:0:
256,192,57197,1,0,0:0:0:0:
256,192,57267,1,8,0:0:0:0:
256,192,57690,1,0,0:0:0:0:
256,192,58042,1,0,0:0:0:0:
256,192,58324,1,0,0:0:0:0:
256,192,58394,1,0,0:0:0:0:
256,192,58464,1,0,0:0:0:0:
256,192,58535,1,0,0:0:0:0:
256,192,58746,1,0,0:0:0:0:
256,192,58816,1,0,0:0:0:0:
256,192,58887,1,0,0:0:0:0:
256,192,58957,1,8,0:0:0:0:
256,192,59309,1,0,0:0:0:0:
256,192,59591,1,8,0:0:0:0:
256,192,59661,1,0,0:0:0:0:
256,192,59731,1,0,0:0:0:0:
256,192,59802,1,0,0:0:0:0:
256,192,60013,1,0,0:0:0:0:
256,192,60083,1,0,0:0:0:0:
256,192,60154,1,0,0:0:0:0:
256,192,60224,1,8,0:0:0:0:
256,192,60647,1,8,0:0:0:0:
256,192,60752,1,0,0:0:0:0:
256,192,60999,1,8,0:0:0:0:
256,192,61104,1,8,0:0:0:0:
256,192,61281,1,12,0:0:0:0:
256,192,61492,1,0,0:0:0:0:
256,192,61562,1,0,0:0:0:0:
256,192,61633,1,0,0:0:0:0:
256,192,61703,1,8,0:0:0:0:
256,192,61809,1,0,0:0:0:0:
256,192,61914,1,8,0:0:0:0:
256,192,62020,1,8,0:0:0:0:
256,192,62126,1,0,0:0:0:0:
256,192,62231,1,0,0:0:0:0:
256,192,62337,1,12,0:0:0:0:
256,192,62654,1,4,0:0:0:0:
256,192,62971,1,12,0:0:0:0:
256,192,63393,1,8,0:0:0:0:
256,192,63499,1,12,0:0:0:0:
256,192,63815,1,8,0:0:0:0:
256,192,63920,1,0,0:0:0:0:
256,192,64026,1,8,0:0:0:0:
256,192,64131,1,0,0:0:0:0:
256,192,64237,1,8,0:0:0:0:
256,192,64343,1,0,0:0:0:0:
256,192,64448,1,8,0:0:0:0:
256,192,64554,1,8,0:0:0:0:
256,192,64660,1,8,0:0:0:0:
256,192,64765,1,8,0:0:0:0:
256,192,64871,1,0,0:0:0:0:
256,192,64976,1,8,0:0:0:0:
256,192,65082,1,0,0:0:0:0:
256,192,65188,1,8,0:0:0:0:
256,192,65293,1,0,0:0:0:0:
256,192,65399,1,8,0:0:0:0:
256,192,65505,1,0,0:0:0:0:
256,192,65610,1,8,0:0:0:0:
256,192,65716,1,8,0:0:0:0:
256,192,65822,1,0,0:0:0:0:
256,192,65927,1,8,0:0:0:0:
256,192,65998,1,8,0:0:0:0:
256,192,66068,1,8,0:0:0:0:
256,192,66138,1,0,0:0:0:0:
256,192,66209,1,0,0:0:0:0:
256,192,66279,1,0,0:0:0:0:
256,192,66350,1,8,0:0:0:0:
256,192,66420,1,8,0:0:0:0:
256,192,66491,1,0,0:0:0:0:
256,192,66561,1,0,0:0:0:0:
256,192,66631,1,8,0:0:0:0:
256,192,66772,1,0,0:0:0:0:
256,192,66843,1,8,0:0:0:0:
256,192,66913,1,8,0:0:0:0:
256,192,66984,1,8,0:0:0:0:
256,192,67195,1,8,0:0:0:0:
256,192,67265,1,0,0:0:0:0:
256,192,67336,1,0,0:0:0:0:
256,192,67406,1,8,0:0:0:0:
256,192,67617,1,4,0:0:0:0:
256,192,67723,1,12,0:0:0:0:
256,192,68040,1,4,0:0:0:0:
256,192,68991,1,8,0:0:0:0:
256,192,69202,1,8,0:0:0:0:
256,192,69413,1,8,0:0:0:0:
256,192,69624,1,8,0:0:0:0:
256,192,69836,1,8,0:0:0:0:
256,192,69941,1,8,0:0:0:0:
256,192,70153,1,4,0:0:0:0:
256,192,70364,1,0,0:0:0:0:
256,192,70575,1,0,0:0:0:0:
256,192,70786,1,0,0:0:0:0:
256,192,70892,1,8,0:0:0:0:
256,192,70998,1,8,0:0:0:0:
256,192,71103,1,0,0:0:0:0:
256,192,71315,1,0,0:0:0:0:
256,192,71526,1,0,0:0:0:0:
256,192,71737,1,0,0:0:0:0:
256,192,71948,1,0,0:0:0:0:
256,192,72054,1,8,0:0:0:0:
256,192,72265,1,0,0:0:0:0:
256,192,72476,1,0,0:0:0:0:
256,192,72687,1,0,0:0:0:0:
256,192,72898,1,0,0:0:0:0:
256,192,73004,1,8,0:0:0:0:
256,192,73110,1,8,0:0:0:0:
256,192,73215,1,0,0:0:0:0:
256,192,73427,1,0,0:0:0:0:
256,192,73638,1,0,0:0:0:0:
256,192,73849,1,0,0:0:0:0:
256,192,74060,1,0,0:0:0:0:
256,192,74166,1,8,0:0:0:0:
256,192,74378,1,0,0:0:0:0:
256,192,74589,1,0,0:0:0:0:
256,192,74800,1,8,0:0:0:0:
256,192,75011,1,0,0:0:0:0:
256,192,75117,1,8,0:0:0:0:
256,192,75223,1,8,0:0:0:0:
256,192,75328,1,0,0:0:0:0:
256,192,75540,1,0,0:0:0:0:
256,192,75751,1,0,0:0:0:0:
256,192,75962,1,0,0:0:0:0:
256,192,76173,1,0,0:0:0:0:
256,192,76279,1,8,0:0:0:0:
256,192,76491,1,8,0:0:0:0:
256,192,76702,1,8,0:0:0:0:
256,192,76913,1,8,0:0:0:0:
256,192,77124,1,0,0:0:0:0:
256,192,77230,1,8,0:0:0:0:
256,192,77336,1,8,0:0:0:0:
256,192,77441,1,8,0:0:0:0:
256,192,77653,1,8,0:0:0:0:
256,192,77864,1,8,0:0:0:0:
256,192,78075,1,8,0:0:0:0:
256,192,78286,1,0,0:0:0:0:
256,192,78392,1,8,0:0:0:0:
256,192,78603,1,8,0:0:0:0:
256,192,78673,1,8,0:0:0:0:
256,192,78743,1,8,0:0:0:0:
256,192,78814,1,8,0:0:0:0:
256,192,79025,1,8,0:0:0:0:
256,192,79095,1,8,0:0:0:0:
256,192,79166,1,8,0:0:0:0:
256,192,79236,1,8,0:0:0:0:
256,192,79448,1,12,0:0:0:0:
256,192,79659,1,0,0:0:0:0:
256,192,79870,1,0,0:0:0:0:
256,192,80081,1,0,0:0:0:0:
256,192,80187,1,8,0:0:0:0:
256,192,80293,1,8,0:0:0:0:
256,192,80398,1,0,0:0:0:0:
256,192,80610,1,0,0:0:0:0:
256,192,80821,1,0,0:0:0:0:
256,192,81032,1,0,0:0:0:0:
256,192,81243,1,0,0:0:0:0:
256,192,81349,1,8,0:0:0:0:
256,192,81560,1,0,0:0:0:0:
256,192,81771,1,0,0:0:0:0:
256,192,81982,1,8,0:0:0:0:
256,192,82193,1,0,0:0:0:0:
256,192,82299,1,8,0:0:0:0:
256,192,82405,1,8,0:0:0:0:
256,192,82510,1,0,0:0:0:0:
256,192,82722,1,0,0:0:0:0:
256,192,82933,1,0,0:0:0:0:
256,192,83144,1,0,0:0:0:0:
256,192,83355,1,0,0:0:0:0:
256,192,83461,1,8,0:0:0:0:
256,192,83673,1,4,0:0:0:0:
256,192,83884,1,0,0:0:0:0:
256,192,84095,1,0,0:0:0:0:
256,192,84306,1,0,0:0:0:0:
256,192,84412,1,8,0:0:0:0:
256,192,84518,1,8,0:0:0:0:
256,192,84623,1,0,0:0:0:0:
256,192,84835,1,0,0:0:0:0:
256,192,85046,1,0,0:0:0:0:
256,192,85257,1,0,0:0:0:0:
256,192,85468,1,8,0:0:0:0:
256,192,85574,1,0,0:0:0:0:
256,192,85786,1,8,0:0:0:0:
256,192,85856,1,8,0:0:0:0:
256,192,85926,1,8,0:0:0:0:
256,192,85997,1,8,0:0:0:0:
256,192,86208,1,8,0:0:0:0:
256,192,86278,1,0,0:0:0:0:
256,192,86349,1,0,0:0:0:0:
256,192,86419,1,8,0:0:0:0:
256,192,86631,1,0,0:0:0:0:
256,192,86736,1,12,0:0:0:0:
256,192,87053,1,8,0:0:0:0:
256,192,87124,1,8,0:0:0:0:
256,192,87194,1,8,0:0:0:0:
256,192,87264,1,8,0:0:0:0:
256,192,87335,1,0,0:0:0:0:
256,192,87405,1,0,0:0:0:0:
256,192,87476,1,8,0:0:0:0:
256,192,87687,1,4,0:0:0:0:
256,192,87898,1,4,0:0:0:0:
256,192,88109,1,4,0:0:0:0:
256,192,88215,1,12,0:0:0:0:
256,192,88426,1,4,0:0:0:0:
256,192,88637,1,4,0:0:0:0:
256,192,88849,1,4,0:0:0:0:
256,192,89060,1,4,0:0:0:0:
256,192,89271,1,4,0:0:0:0:
256,192,89377,1,12,0:0:0:0:
256,192,89588,1,0,0:0:0:0:
256,192,89799,1,0,0:0:0:0:
256,192,90010,1,0,0:0:0:0:
256,192,90116,1,0,0:0:0:0:
256,192,90222,1,8,0:0:0:0:
256,192,90327,1,0,0:0:0:0:
256,192,90538,1,0,0:0:0:0:
256,192,90750,1,0,0:0:0:0:
256,192,90961,1,0,0:0:0:0:
256,192,91067,1,8,0:0:0:0:
256,192,91172,1,8,0:0:0:0:
256,192,91278,1,0,0:0:0:0:
256,192,91489,1,12,0:0:0:0:
256,192,91700,1,0,0:0:0:0:
256,192,91912,1,0,0:0:0:0:
256,192,92123,1,0,0:0:0:0:
256,192,92229,1,8,0:0:0:0:
256,192,92334,1,8,0:0:0:0:
256,192,92440,1,0,0:0:0:0:
256,192,92651,1,0,0:0:0:0:
256,192,92862,1,0,0:0:0:0:
256,192,93074,1,0,0:0:0:0:
256,192,93179,1,8,0:0:0:0:
256,192,93285,1,0,0:0:0:0:
256,192,93391,1,8,0:0:0:0:
256,192,93602,1,0,0:0:0:0:
256,192,93813,1,0,0:0:0:0:
256,192,94024,1,0,0:0:0:0:
256,192,94130,1,0,0:0:0:0:
256,192,94236,1,8,0:0:0:0:
256,192,94341,1,0,0:0:0:0:
256,192,94552,1,0,0:0:0:0:
256,192,94764,1,0,0:0:0:0:
256,192,94975,1,0,0:0:0:0:
256,192,95081,1,8,0:0:0:0:
256,192,95186,1,8,0:0:0:0:
256,192,95292,1,0,0:0:0:0:
256,192,95503,1,12,0:0:0:0:
256,192,95714,1,0,0:0:0:0:
256,192,95925,1,0,0:0:0:0:
256,192,96136,1,0,0:0:0:0:
256,192,96242,1,0,0:0:0:0:
256,192,96348,1,8,0:0:0:0:
256,192,96453,1,0,0:0:0:0:
256,192,96664,1,0,0:0:0:0:
256,192,96876,1,0,0:0:0:0:
256,192,97087,1,0,0:0:0:0:
256,192,97193,1,8,0:0:0:0:
256,192,97298,1,0,0:0:0:0:
256,192,97405,1,8,0:0:0:0:
256,192,97616,1,0,0:0:0:0:
256,192,97827,1,0,0:0:0:0:
256,192,98038,1,0,0:0:0:0:
256,192,98144,1,0,0:0:0:0:
256,192,98249,1,8,0:0:0:0:
256,192,98355,1,0,0:0:0:0:
256,192,98566,1,0,0:0:0:0:
256,192,98777,1,0,0:0:0:0:
256,192,98989,1,0,0:0:0:0:
256,192,99094,1,8,0:0:0:0:
256,192,99200,1,8,0:0:0:0:
256,192,99306,1,0,0:0:0:0:
256,192,99517,1,12,0:0:0:0:
256,192,99728,1,0,0:0:0:0:
256,192,99939,1,0,0:0:0:0:
256,192,100151,1,0,0:0:0:0:
256,192,100257,1,8,0:0:0:0:
256,192,100362,1,8,0:0:0:0:
256,192,100467,1,0,0:0:0:0:
256,192,100679,1,0,0:0:0:0:
256,192,100890,1,0,0:0:0:0:
256,192,101102,1,0,0:0:0:0:
256,192,101207,1,8,0:0:0:0:
256,192,101313,1,0,0:0:0:0:
256,192,101419,1,8,0:0:0:0:
256,192,101630,1,0,0:0:0:0:
256,192,101841,1,0,0:0:0:0:
256,192,102052,1,0,0:0:0:0:
256,192,102158,1,0,0:0:0:0:
256,192,102264,1,8,0:0:0:0:
256,192,102369,1,0,0:0:0:0:
256,192,102580,1,0,0:0:0:0:
256,192,102792,1,0,0:0:0:0:
256,192,103003,1,0,0:0:0:0:
256,192,103214,1,8,0:0:0:0:
256,192,103320,1,0,0:0:0:0:
256,192,103531,1,8,0:0:0:0:
256,192,103742,1,8,0:0:0:0:
256,192,103954,1,8,0:0:0:0:
256,192,104165,1,8,0:0:0:0:
256,192,104271,1,0,0:0:0:0:
256,192,104376,1,0,0:0:0:0:
256,192,104482,1,8,0:0:0:0:
256,192,104693,1,8,0:0:0:0:
256,192,104799,1,8,0:0:0:0:
256,192,104904,1,8,0:0:0:0:
256,192,105010,1,0,0:0:0:0:
256,192,105116,1,0,0:0:0:0:
256,192,105221,1,0,0:0:0:0:
256,192,105327,1,0,0:0:0:0:
256,192,105433,1,12,0:0:0:0:
256,192,105644,1,8,0:0:0:0:
256,192,105855,1,0,0:0:0:0:
256,192,106066,1,0,0:0:0:0:
256,192,106172,1,8,0:0:0:0:
256,192,106383,1,0,0:0:0:0:
256,192,106594,1,0,0:0:0:0:
256,192,106806,1,8,0:0:0:0:
256,192,106911,1,0,0:0:0:0:
256,192,107123,1,0,0:0:0:0:
256,192,107229,1,8,0:0:0:0:
256,192,107334,1,0,0:0:0:0:
256,192,107545,1,12,0:0:0:0:
256,192,107756,1,0,0:0:0:0:
256,192,107968,1,0,0:0:0:0:
256,192,108179,1,0,0:0:0:0:
256,192,108285,1,0,0:0:0:0:
256,192,108390,1,8,0:0:0:0:
256,192,108496,1,0,0:0:0:0:
256,192,108707,1,0,0:0:0:0:
256,192,108918,1,0,0:0:0:0:
256,192,109130,1,0,0:0:0:0:
256,192,109341,1,0,0:0:0:0:
256,192,109447,1,12,0:0:0:0:
256,192,109658,1,0,0:0:0:0:
256,192,109869,1,0,0:0:0:0:
256,192,110080,1,0,0:0:0:0:
256,192,110186,1,8,0:0:0:0:
256,192,110292,1,8,0:0:0:0:
256,192,110397,1,0,0:0:0:0:
256,192,110608,1,0,0:0:0:0:
256,192,110820,1,0,0:0:0:0:
256,192,111031,1,0,0:0:0:0:
256,192,111242,1,8,0:0:0:0:
256,192,111348,1,0,0:0:0:0:
256,192,111559,1,12,0:0:0:0:
256,192,111770,1,0,0:0:0:0:
256,192,111982,1,0,0:0:0:0:
256,192,112193,1,0,0:0:0:0:
256,192,112299,1,8,0:0:0:0:
256,192,112404,1,8,0:0:0:0:
256,192,112510,1,0,0:0:0:0:
256,192,112721,1,0,0:0:0:0:
256,192,112932,1,0,0:0:0:0:
256,192,113144,1,0,0:0:0:0:
256,192,113355,1,0,0:0:0:0:
256,192,113461,1,12,0:0:0:0:
256,192,113672,1,0,0:0:0:0:
256,192,113883,1,0,0:0:0:0:
256,192,114094,1,0,0:0:0:0:
256,192,114200,1,0,0:0:0:0:
256,192,114306,1,8,0:0:0:0:
256,192,114411,1,0,0:0:0:0:
256,192,114622,1,0,0:0:0:0:
256,192,114834,1,8,0:0:0:0:
256,192,115151,1,8,0:0:0:0:
256,192,115256,1,8,0:0:0:0:
256,192,115362,1,0,0:0:0:0:
256,192,115573,1,12,0:0:0:0:
256,192,115784,1,0,0:0:0:0:
256,192,115996,1,0,0:0:0:0:
256,192,116207,1,0,0:0:0:0:
256,192,116313,1,0,0:0:0:0:
256,192,116418,1,8,0:0:0:0:
256,192,116524,1,0,0:0:0:0:
256,192,116735,1,0,0:0:0:0:
256,192,116946,1,0,0:0:0:0:
256,192,117158,1,0,0:0:0:0:
256,192,117369,1,0,0:0:0:0:
256,192,117475,1,12,0:0:0:0:
256,192,117686,1,0,0:0:0:0:
256,192,117897,1,0,0:0:0:0:
256,192,118108,1,0,0:0:0:0:
256,192,118214,1,8,0:0:0:0:
256,192,118320,1,8,0:0:0:0:
256,192,118425,1,0,0:0:0:0:
256,192,118636,1,0,0:0:0:0:
256,192,118848,1,0,0:0:0:0:
256,192,119059,1,0,0:0:0:0:
256,192,119270,1,8,0:0:0:0:
256,192,119376,1,4,0:0:0:0:
256,192,119587,1,12,0:0:0:0:
256,192,119798,1,0,0:0:0:0:
256,192,120010,1,0,0:0:0:0:
256,192,120221,1,0,0:0:0:0:
256,192,120327,1,8,0:0:0:0:
256,192,120432,1,8,0:0:0:0:
256,192,120538,1,0,0:0:0:0:
256,192,120749,1,0,0:0:0:0:
256,192,120960,1,0,0:0:0:0:
256,192,121172,1,0,0:0:0:0:
256,192,121383,1,0,0:0:0:0:
256,192,121489,1,12,0:0:0:0:
256,192,123489,1,4,0:0:0:0:
256,192,124739,1,8,0:0:0:0:
256,192,124801,1,0,0:0:0:0:
256,192,124864,1,0,0:0:0:0:
256,192,124926,1,0,0:0:0:0:
256,192,124989,1,12,0:0:0:0:
256,192,125989,1,8,0:0:0:0:
256,192,126051,1,8,0:0:0:0:
256,192,126114,1,8,0:0:0:0:
256,192,126176,1,8,0:0:0:0:
256,192,126239,1,0,0:0:0:0:
256,192,126489,1,8,0:0:0:0:
256,192,126551,1,8,0:0:0:0:
256,192,126614,1,0,0:0:0:0:
256,192,126676,1,0,0:0:0:0:
256,192,126739,1,8,0:0:0:0:
256,192,126989,1,4,0:0:0:0:
256,192,127489,1,8,0:0:0:0:
256,192,127989,1,0,0:0:0:0:
256,192,128051,1,0,0:0:0:0:
256,192,128114,1,0,0:0:0:0:
256,192,128176,1,0,0:0:0:0:
256,192,128239,1,12,0:0:0:0:
256,192,128489,1,4,0:0:0:0:
256,192,128989,1,8,0:0:0:0:
256,192,129489,1,8,0:0:0:0:
256,192,129614,1,0,0:0:0:0:
256,192,129739,1,8,0:0:0:0:
256,192,129864,1,8,0:0:0:0:
256,192,129989,1,0,0:0:0:0:
256,192,130114,1,0,0:0:0:0:
256,192,130239,1,8,0:0:0:0:
256,192,130364,1,8,0:0:0:0:
256,192,130489,1,4,0:0:0:0:
256,192,130614,1,4,0:0:0:0:
256,192,130739,1,4,0:0:0:0:
256,192,130864,1,4,0:0:0:0:
256,192,131489,1,4,0:0:0:0:
256,192,131614,1,8,0:0:0:0:
256,192,131739,1,0,0:0:0:0:
256,192,131864,1,8,0:0:0:0:
256,192,131989,1,8,0:0:0:0:
256,192,132114,1,0,0:0:0:0:
256,192,132239,1,0,0:0:0:0:
256,192,132364,1,8,0:0:0:0:
256,192,132489,1,0,0:0:0:0:
256,192,132551,1,8,0:0:0:0:
256,192,132614,1,0,0:0:0:0:
256,192,132676,1,8,0:0:0:0:
256,192,132739,1,0,0:0:0:0:
256,192,132801,1,8,0:0:0:0:
256,192,132864,1,0,0:0:0:0:
256,192,132926,1,8,0:0:0:0:
256,192,132989,1,0,0:0:0:0:
256,192,133114,1,8,0:0:0:0:
256,192,133239,1,0,0:0:0:0:
256,192,133364,1,8,0:0:0:0:
256,192,133489,1,8,0:0:0:0:
256,192,133614,1,0,0:0:0:0:
256,192,133739,1,0,0:0:0:0:
256,192,133864,1,0,0:0:0:0:
256,192,133989,1,8,0:0:0:0:
256,192,134114,1,0,0:0:0:0:
256,192,134239,1,8,0:0:0:0:
256,192,134364,1,8,0:0:0:0:
256,192,134489,1,8,0:0:0:0:
256,192,134614,1,0,0:0:0:0:
256,192,134739,1,8,0:0:0:0:
256,192,134864,1,8,0:0:0:0:
256,192,134989,1,4,0:0:0:0:
256,192,135114,1,8,0:0:0:0:
256,192,135239,1,0,0:0:0:0:
256,192,135364,1,8,0:0:0:0:
256,192,135489,1,8,0:0:0:0:
256,192,135614,1,0,0:0:0:0:
256,192,135739,1,0,0:0:0:0:
256,192,135864,1,8,0:0:0:0:
256,192,135989,1,0,0:0:0:0:
256,192,136051,1,8,0:0:0:0:
256,192,136114,1,0,0:0:0:0:
256,192,136176,1,8,0:0:0:0:
256,192,136239,1,0,0:0:0:0:
256,192,136301,1,8,0:0:0:0:
256,192,136364,1,0,0:0:0:0:
256,192,136426,1,8,0:0:0:0:
256,192,136489,1,0,0:0:0:0:
256,192,136614,1,8,0:0:0:0:
256,192,136739,1,0,0:0:0:0:
256,192,136864,1,8,0:0:0:0:
256,192,136989,1,8,0:0:0:0:
256,192,137114,1,0,0:0:0:0:
256,192,137239,1,0,0:0:0:0:
256,192,137364,1,0,0:0:0:0:
256,192,137489,1,8,0:0:0:0:
256,192,137551,1,0,0:0:0:0:
256,192,137614,1,8,0:0:0:0:
256,192,137676,1,8,0:0:0:0:
256,192,137739,1,0,0:0:0:0:
256,192,137801,1,0,0:0:0:0:
256,192,137864,1,8,0:0:0:0:
256,192,137926,1,0,0:0:0:0:
256,192,137989,1,0,0:0:0:0:
256,192,138051,1,0,0:0:0:0:
256,192,138114,1,8,0:0:0:0:
256,192,138176,1,0,0:0:0:0:
256,192,138239,1,8,0:0:0:0:
256,192,138301,1,8,0:0:0:0:
256,192,138364,1,0,0:0:0:0:
256,192,138426,1,0,0:0:0:0:
256,192,138489,1,8,0:0:0:0:
256,192,138551,1,8,0:0:0:0:
256,192,138614,1,0,0:0:0:0:
256,192,138676,1,0,0:0:0:0:
256,192,138739,1,8,0:0:0:0:
256,192,138801,1,8,0:0:0:0:
256,192,138864,1,0,0:0:0:0:
256,192,138926,1,0,0:0:0:0:
256,192,138989,1,12,0:0:0:0:
256,192,139989,1,12,0:0:0:0:
256,192,140114,1,0,0:0:0:0:
256,192,140489,1,8,0:0:0:0:
256,192,140614,1,4,0:0:0:0:
256,192,141489,1,12,0:0:0:0:
256,192,141614,1,0,0:0:0:0:
256,192,141989,1,0,0:0:0:0:
256,192,142114,1,8,0:0:0:0:
256,192,142739,1,8,0:0:0:0:
256,192,142864,1,0,0:0:0:0:
256,192,143239,1,4,0:0:0:0:
256,192,143739,1,12,0:0:0:0:
256,192,143864,1,0,0:0:0:0:
256,192,144239,1,12,0:0:0:0:
256,192,144989,1,4,0:0:0:0:
256,192,145114,1,4,0:0:0:0:
256,192,145489,1,4,0:0:0:0:
256,192,145614,1,4,0:0:0:0:
256,192,145989,1,8,0:0:0:0:
256,192,146239,1,8,0:0:0:0:
256,192,146364,1,0,0:0:0:0:
256,192,146489,1,8,0:0:0:0:
256,192,146739,1,4,0:0:0:0:
256,192,146989,1,4,0:0:0:0:
256,192,147239,1,8,0:0:0:0:
256,192,147364,1,0,0:0:0:0:
256,192,147489,1,8,0:0:0:0:
256,192,147739,1,4,0:0:0:0:
256,192,147989,1,4,0:0:0:0:
256,192,148239,1,8,0:0:0:0:
256,192,148364,1,8,0:0:0:0:
256,192,148489,1,4,0:0:0:0:
256,192,148739,1,8,0:0:0:0:
256,192,148989,1,8,0:0:0:0:
256,192,149114,1,8,0:0:0:0:
256,192,149239,1,0,0:0:0:0:
256,192,149364,1,0,0:0:0:0:
256,192,149489,1,8,0:0:0:0:
256,192,149572,1,8,0:0:0:0:
256,192,149655,1,8,0:0:0:0:
256,192,149739,1,0,0:0:0:0:
256,192,149822,1,0,0:0:0:0:
256,192,149905,1,0,0:0:0:0:
256,192,149989,1,8,0:0:0:0:
256,192,150114,1,8,0:0:0:0:
256,192,150239,1,0,0:0:0:0:
256,192,150364,1,8,0:0:0:0:
256,192,150489,1,8,0:0:0:0:
256,192,150614,1,0,0:0:0:0:
256,192,150739,1,0,0:0:0:0:
256,192,150864,1,0,0:0:0:0:
256,192,150989,1,8,0:0:0:0:
256,192,151051,1,0,0:0:0:0:
256,192,151114,1,0,0:0:0:0:
256,192,151176,1,0,0:0:0:0:
256,192,151239,1,8,0:0:0:0:
256,192,151301,1,8,0:0:0:0:
256,192,151364,1,8,0:0:0:0:
256,192,151426,1,8,0:0:0:0:
256,192,151489,1,0,0:0:0:0:
256,192,151614,1,8,0:0:0:0:
256,192,151739,1,0,0:0:0:0:
256,192,151864,1,8,0:0:0:0:
256,192,151989,1,8,0:0:0:0:
256,192,152114,1,0,0:0:0:0:
256,192,152239,1,0,0:0:0:0:
256,192,152364,1,0,0:0:0:0:
256,192,152489,1,8,0:0:0:0:
256,192,152551,1,8,0:0:0:0:
256,192,152614,1,8,0:0:0:0:
256,192,152676,1,0,0:0:0:0:
256,192,152739,1,8,0:0:0:0:
256,192,152801,1,8,0:0:0:0:
256,192,152864,1,0,0:0:0:0:
256,192,152926,1,8,0:0:0:0:
256,192,152989,1,0,0:0:0:0:
256,192,153051,1,8,0:0:0:0:
256,192,153114,1,0,0:0:0:0:
256,192,153176,1,8,0:0:0:0:
256,192,153239,1,0,0:0:0:0:
256,192,153301,1,8,0:0:0:0:
256,192,153364,1,0,0:0:0:0:
256,192,153426,1,8,0:0:0:0:
256,192,153489,1,0,0:0:0:0:
256,192,153614,1,8,0:0:0:0:
256,192,153739,1,0,0:0:0:0:
256,192,153864,1,8,0:0:0:0:
256,192,153989,1,8,0:0:0:0:
256,192,154114,1,0,0:0:0:0:
256,192,154239,1,0,0:0:0:0:
256,192,154364,1,0,0:0:0:0:
256,192,154489,1,8,0:0:0:0:
256,192,154551,1,0,0:0:0:0:
256,192,154614,1,0,0:0:0:0:
256,192,154676,1,0,0:0:0:0:
256,192,154739,1,8,0:0:0:0:
256,192,154801,1,8,0:0:0:0:
256,192,154864,1,8,0:0:0:0:
256,192,154926,1,8,0:0:0:0:
256,192,154989,1,0,0:0:0:0:
256,192,155114,1,8,0:0:0:0:
256,192,155239,1,0,0:0:0:0:
256,192,155364,1,8,0:0:0:0:
256,192,155489,1,8,0:0:0:0:
256,192,155614,1,0,0:0:0:0:
256,192,155739,1,0,0:0:0:0:
256,192,155864,1,0,0:0:0:0:
256,192,155989,1,12,0:0:0:0:
256,192,156114,1,0,0:0:0:0:
256,192,156239,1,8,0:0:0:0:
256,192,156364,1,8,0:0:0:0:
256,192,156489,1,4,0:0:0:0:
256,192,156614,1,0,0:0:0:0:
256,192,156739,1,8,0:0:0:0:
256,192,156864,1,8,0:0:0:0:
256,192,156989,1,8,0:0:0:0:
256,192,157051,1,8,0:0:0:0:
256,192,157114,1,0,0:0:0:0:
256,192,157176,1,0,0:0:0:0:
256,192,157239,1,8,0:0:0:0:
256,192,157301,1,8,0:0:0:0:
256,192,157364,1,8,0:0:0:0:
256,192,157426,1,8,0:0:0:0:
256,192,157489,1,4,0:0:0:0:
256,192,157614,1,8,0:0:0:0:
256,192,157739,1,0,0:0:0:0:
256,192,157864,1,8,0:0:0:0:
256,192,157989,1,8,0:0:0:0:
256,192,158114,1,0,0:0:0:0:
256,192,158239,1,0,0:0:0:0:
256,192,158364,1,0,0:0:0:0:
256,192,158489,1,8,0:0:0:0:
256,192,158614,1,0,0:0:0:0:
256,192,158739,1,8,0:0:0:0:
256,192,158864,1,8,0:0:0:0:
256,192,158989,1,0,0:0:0:0:
256,192,159114,1,0,0:0:0:0:
256,192,159239,1,0,0:0:0:0:
256,192,159364,1,0,0:0:0:0:
256,192,159489,1,8,0:0:0:0:
256,192,159614,1,8,0:0:0:0:
256,192,159739,1,0,0:0:0:0:
256,192,159864,1,8,0:0:0:0:
256,192,159989,1,8,0:0:0:0:
256,192,160114,1,0,0:0:0:0:
256,192,160239,1,0,0:0:0:0:
256,192,160364,1,0,0:0:0:0:
256,192,160489,1,8,0:0:0:0:
256,192,160614,1,0,0:0:0:0:
256,192,160739,1,8,0:0:0:0:
256,192,160864,1,8,0:0:0:0:
256,192,160989,1,0,0:0:0:0:
256,192,161114,1,8,0:0:0:0:
256,192,161239,1,8,0:0:0:0:
256,192,161364,1,8,0:0:0:0:
256,192,161489,1,4,0:0:0:0:
256,192,161614,1,8,0:0:0:0:
256,192,161739,1,0,0:0:0:0:
256,192,161864,1,8,0:0:0:0:
256,192,161989,1,8,0:0:0:0:
256,192,162114,1,0,0:0:0:0:
256,192,162239,1,0,0:0:0:0:
256,192,162364,1,0,0:0:0:0:
256,192,162489,1,8,0:0:0:0:
256,192,162614,1,0,0:0:0:0:
256,192,162739,1,8,0:0:0:0:
256,192,162864,1,8,0:0:0:0:
256,192,162989,1,0,0:0:0:0:
256,192,163114,1,0,0:0:0:0:
256,192,163239,1,0,0:0:0:0:
256,192,163364,1,0,0:0:0:0:
256,192,163489,1,8,0:0:0:0:
256,192,163614,1,8,0:0:0:0:
256,192,163739,1,0,0:0:0:0:
256,192,163864,1,8,0:0:0:0:
256,192,163989,1,8,0:0:0:0:
256,192,164114,1,0,0:0:0:0:
256,192,164239,1,0,0:0:0:0:
256,192,164364,1,0,0:0:0:0:
256,192,164489,1,8,0:0:0:0:
256,192,164614,1,0,0:0:0:0:
256,192,164739,1,8,0:0:0:0:
256,192,164864,1,8,0:0:0:0:
256,192,164989,1,0,0:0:0:0:
256,192,165114,1,8,0:0:0:0:
256,192,165239,1,8,0:0:0:0:
256,192,165364,1,8,0:0:0:0:
256,192,165489,1,4,0:0:0:0:
256,192,165739,1,0,0:0:0:0:
256,192,165989,1,8,0:0:0:0:
256,192,166051,1,8,0:0:0:0:
256,192,166114,1,0,0:0:0:0:
256,192,166176,1,0,0:0:0:0:
256,192,166239,1,8,0:0:0:0:
256,192,166489,1,0,0:0:0:0:
256,192,166739,1,8,0:0:0:0:
256,192,166801,1,8,0:0:0:0:
256,192,166864,1,8,0:0:0:0:
256,192,166926,1,8,0:0:0:0:
256,192,166989,1,8,0:0:0:0:
256,192,167051,1,8,0:0:0:0:
256,192,167114,1,8,0:0:0:0:
256,192,167176,1,8,0:0:0:0:
256,192,167239,1,4,0:0:0:0:
256,192,167489,1,4,0:0:0:0:
256,192,167739,1,4,0:0:0:0:
256,192,167989,1,8,0:0:0:0:
256,192,168051,1,0,0:0:0:0:
256,192,168114,1,8,0:0:0:0:
256,192,168176,1,8,0:0:0:0:
256,192,168239,1,0,0:0:0:0:
256,192,168301,1,0,0:0:0:0:
256,192,168364,1,8,0:0:0:0:
256,192,168426,1,0,0:0:0:0:
256,192,168489,1,8,0:0:0:0:
256,192,168551,1,8,0:0:0:0:
256,192,168614,1,0,0:0:0:0:
256,192,168676,1,0,0:0:0:0:
256,192,168739,1,8,0:0:0:0:
256,192,168801,1,0,0:0:0:0:
256,192,168864,1,8,0:0:0:0:
256,192,168926,1,8,0:0:0:0:
256,192,168989,1,8,0:0:0:0:
256,192,169051,1,8,0:0:0:0:
256,192,169114,1,0,0:0:0:0:
256,192,169239,1,12,0:0:0:0:
256,192,169489,1,4,0:0:0:0:
256,192,169739,1,0,0:0:0:0:
256,192,169989,1,8,0:0:0:0:
256,192,170051,1,0,0:0:0:0:
256,192,170114,1,0,0:0:0:0:
256,192,170176,1,0,0:0:0:0:
256,192,170239,1,8,0:0:0:0:
256,192,170489,1,0,0:0:0:0:
256,192,170739,1,8,0:0:0:0:
256,192,170801,1,8,0:0:0:0:
256,192,170864,1,8,0:0:0:0:
256,192,170926,1,8,0:0:0:0:
256,192,170989,1,8,0:0:0:0:
256,192,171051,1,8,0:0:0:0:
256,192,171114,1,8,0:0:0:0:
256,192,171176,1,8,0:0:0:0:
256,192,171239,1,4,0:0:0:0:
256,192,171489,1,4,0:0:0:0:
256,192,171739,1,4,0:0:0:0:
256,192,171989,1,8,0:0:0:0:
256,192,172051,1,0,0:0:0:0:
256,192,172114,1,8,0:0:0:0:
256,192,172176,1,8,0:0:0:0:
256,192,172239,1,0,0:0:0:0:
256,192,172301,1,0,0:0:0:0:
256,192,172364,1,8,0:0:0:0:
256,192,172426,1,0,0:0:0:0:
256,192,172489,1,8,0:0:0:0:
256,192,172551,1,8,0:0:0:0:
256,192,172614,1,0,0:0:0:0:
256,192,172676,1,0,0:0:0:0:
256,192,172739,1,8,0:0:0:0:
256,192,172801,1,0,0:0:0:0:
256,192,172864,1,8,0:0:0:0:
256,192,172926,1,8,0:0:0:0:
256,192,172989,1,8,0:0:0:0:
256,192,173051,1,8,0:0:0:0:
256,192,173114,1,0,0:0:0:0:
256,192,173239,1,12,0:0:0:0:
256,192,173489,1,4,0:0:0:0:
256,192,173739,1,0,0:0:0:0:
256,192,173989,1,8,0:0:0:0:
256,192,174051,1,8,0:0:0:0:
256,192,174114,1,0,0:0:0:0:
256,192,174176,1,0,0:0:0:0:
256,192,174239,1,8,0:0:0:0:
256,192,174489,1,0,0:0:0:0:
256,192,174739,1,8,0:0:0:0:
256,192,174801,1,8,0:0:0:0:
256,192,174864,1,8,0:0:0:0:
256,192,174926,1,8,0:0:0:0:
256,192,174989,1,8,0:0:0:0:
256,192,175051,1,8,0:0:0:0:
256,192,175114,1,8,0:0:0:0:
256,192,175176,1,8,0:0:0:0:
256,192,175239,1,4,0:0:0:0:
256,192,175489,1,4,0:0:0:0:
256,192,175739,1,4,0:0:0:0:
256,192,175989,1,8,0:0:0:0:
256,192,176051,1,0,0:0:0:0:
256,192,176114,1,8,0:0:0:0:
256,192,176176,1,8,0:0:0:0:
256,192,176239,1,0,0:0:0:0:
256,192,176301,1,0,0:0:0:0:
256,192,176364,1,8,0:0:0:0:
256,192,176426,1,0,0:0:0:0:
256,192,176489,1,8,0:0:0:0:
256,192,176551,1,8,0:0:0:0:
256,192,176614,1,0,0:0:0:0:
256,192,176676,1,0,0:0:0:0:
256,192,176739,1,8,0:0:0:0:
256,192,176801,1,0,0:0:0:0:
256,192,176864,1,8,0:0:0:0:
256,192,176926,1,8,0:0:0:0:
256,192,176989,1,8,0:0:0:0:
256,192,177051,1,8,0:0:0:0:
256,192,177114,1,0,0:0:0:0:
256,192,177239,1,12,0:0:0:0:
256,192,177489,1,4,0:0:0:0:
256,192,178739,1,8,0:0:0:0:
256,192,178801,1,8,0:0:0:0:
256,192,178864,1,8,0:0:0:0:
256,192,178926,1,8,0:0:0:0:
256,192,178989,1,8,0:0:0:0:
256,192,179051,1,8,0:0:0:0:
256,192,179114,1,8,0:0:0:0:
256,192,179176,1,8,0:0:0:0:
256,192,179239,1,4,0:0:0:0:
256,192,179489,1,4,0:0:0:0:
256,192,179739,1,4,0:0:0:0:
256,192,179989,1,8,0:0:0:0:
256,192,180114,1,8,0:0:0:0:
256,192,180239,1,0,0:0:0:0:
256,192,180364,1,8,0:0:0:0:
256,192,180489,1,8,0:0:0:0:
256,192,180614,1,0,0:0:0:0:
256,192,180739,1,8,0:0:0:0:
256,192,180864,1,8,0:0:0:0:
256,192,180989,1,0,0:0:0:0:
256,192,181114,1,12,0:0:0:0:
256,192,181239,1,12,0:0:0:0:
256,192,181489,1,4,0:0:0:0:
256,192,181989,1,0,0:0:0:0:
256,192,182051,1,0,0:0:0:0:
256,192,182114,1,0,0:0:0:0:
256,192,182176,1,0,0:0:0:0:
256,192,182239,1,8,0:0:0:0:
256,192,182739,1,4,0:0:0:0:
256,192,183114,1,4,0:0:0:0:
256,192,183364,1,0,0:0:0:0:
256,192,183489,1,12,0:0:0:0:
256,192,183739,1,8,0:0:0:0:
256,192,183989,1,8,0:0:0:0:
256,192,184051,1,8,0:0:0:0:
256,192,184114,1,8,0:0:0:0:
256,192,184176,1,8,0:0:0:0:
256,192,184239,1,0,0:0:0:0:
256,192,184301,1,0,0:0:0:0:
256,192,184364,1,8,0:0:0:0:
256,192,184426,1,8,0:0:0:0:
256,192,184489,1,8,0:0:0:0:
256,192,184551,1,8,0:0:0:0:
256,192,184614,1,0,0:0:0:0:
256,192,184676,1,0,0:0:0:0:
256,192,184739,1,8,0:0:0:0:
256,192,184801,1,8,0:0:0:0:
256,192,184864,1,0,0:0:0:0:
256,192,184926,1,0,0:0:0:0:
256,192,184989,1,0,0:0:0:0:
256,192,185051,1,0,0:0:0:0:
256,192,185114,1,8,0:0:0:0:
256,192,185239,1,12,0:0:0:0:
256,192,185489,1,4,0:0:0:0:
256,192,186239,1,8,0:0:0:0:
256,192,186364,1,4,0:0:0:0:
256,192,186614,1,4,0:0:0:0:
256,192,186989,1,0,0:0:0:0:
256,192,187051,1,0,0:0:0:0:
256,192,187114,1,0,0:0:0:0:
256,192,187176,1,0,0:0:0:0:
256,192,187239,1,8,0:0:0:0:
256,192,187739,1,8,0:0:0:0:
256,192,187801,1,8,0:0:0:0:
256,192,187864,1,8,0:0:0:0:
256,192,187926,1,8,0:0:0:0:
256,192,187989,1,0,0:0:0:0:
256,192,188239,1,8,0:0:0:0:
256,192,188301,1,0,0:0:0:0:
256,192,188364,1,0,0:0:0:0:
256,192,188426,1,0,0:0:0:0:
256,192,188489,1,8,0:0:0:0:
256,192,188739,1,8,0:0:0:0:
256,192,188801,1,8,0:0:0:0:
256,192,188864,1,0,0:0:0:0:
256,192,188926,1,0,0:0:0:0:
256,192,188989,1,8,0:0:0:0:
256,192,189364,1,0,0:0:0:0:
256,192,189426,1,0,0:0:0:0:
256,192,189489,1,8,0:0:0:0:
256,192,189551,1,8,0:0:0:0:
256,192,189739,1,8,0:0:0:0:
256,192,189864,1,8,0:0:0:0:
256,192,189989,1,4,0:0:0:0:
256,192,190239,1,4,0:0:0:0:
256,192,190614,1,8,0:0:0:0:
256,192,191114,1,4,0:0:0:0:
256,192,191489,1,0,0:0:0:0:
256,192,191551,1,0,0:0:0:0:
256,192,191614,1,0,0:0:0:0:
256,192,191676,1,0,0:0:0:0:
256,192,191739,1,8,0:0:0:0:
256,192,192239,1,8,0:0:0:0:
256,192,192301,1,8,0:0:0:0:
256,192,192364,1,8,0:0:0:0:
256,192,192426,1,8,0:0:0:0:
256,192,192489,1,0,0:0:0:0:
256,192,192739,1,8,0:0:0:0:
256,192,192801,1,8,0:0:0:0:
256,192,192864,1,0,0:0:0:0:
256,192,192926,1,0,0:0:0:0:
256,192,192989,1,8,0:0:0:0:
256,192,193239,1,0,0:0:0:0:
256,192,193301,1,0,0:0:0:0:
256,192,193364,1,0,0:0:0:0:
256,192,193426,1,0,0:0:0:0:
256,192,193489,1,8,0:0:0:0:
256,192,193864,1,0,0:0:0:0:
256,192,193926,1,0,0:0:0:0:
256,192,193989,1,8,0:0:0:0:
256,192,194051,1,8,0:0:0:0:
256,192,194239,1,8,0:0:0:0:
256,192,194364,1,8,0:0:0:0:
256,192,194489,1,4,0:0:0:0:
256,192,194989,1,0,0:0:0:0:
256,192,195051,1,0,0:0:0:0:
256,192,195114,1,0,0:0:0:0:
256,192,195176,1,0,0:0:0:0:
256,192,195239,1,8,0:0:0:0:
256,192,195739,1,4,0:0:0:0:
256,192,196114,1,4,0:0:0:0:
256,192,196364,1,4,0:0:0:0:
256,192,196489,1,4,0:0:0:0:
256,192,196739,1,4,0:0:0:0:
256,192,196989,1,8,0:0:0:0:
256,192,197051,1,8,0:0:0:0:
256,192,197114,1,8,0:0:0:0:
256,192,197176,1,8,0:0:0:0:
256,192,197239,1,0,0:0:0:0:
256,192,197301,1,0,0:0:0:0:
256,192,197364,1,8,0:0:0:0:
256,192,197426,1,8,0:0:0:0:
256,192,197489,1,8,0:0:0:0:
256,192,197551,1,8,0:0:0:0:
256,192,197614,1,0,0:0:0:0:
256,192,197676,1,0,0:0:0:0:
256,192,197739,1,8,0:0:0:0:
256,192,197801,1,8,0:0:0:0:
256,192,197864,1,0,0:0:0:0:
256,192,197926,1,0,0:0:0:0:
256,192,197989,1,0,0:0:0:0:
256,192,198051,1,0,0:0:0:0:
256,192,198114,1,8,0:0:0:0:
256,192,198239,1,12,0:0:0:0:
256,192,198489,1,12,0:0:0:0:
256,192,198707,1,0,0:0:0:0:
256,192,198926,1,8,0:0:0:0:
256,192,199145,1,0,0:0:0:0:
256,192,199255,1,0,0:0:0:0:
256,192,199364,1,8,0:0:0:0:
256,192,199474,1,0,0:0:0:0:
256,192,199693,1,0,0:0:0:0:
256,192,199802,1,8,0:0:0:0:
256,192,199912,1,0,0:0:0:0:
256,192,200131,1,0,0:0:0:0:
256,192,200240,1,8,0:0:0:0:
256,192,200350,1,0,0:0:0:0:
256,192,200459,1,8,0:0:0:0:
256,192,200514,1,8,0:0:0:0:
256,192,200569,1,8,0:0:0:0:
256,192,200624,1,8,0:0:0:0:
256,192,200678,1,0,0:0:0:0:
256,192,200788,1,8,0:0:0:0:
256,192,201007,1,8,0:0:0:0:
256,192,201116,1,8,0:0:0:0:
256,192,201226,1,8,0:0:0:0:
256,192,201335,1,0,0:0:0:0:
256,192,201445,1,8,0:0:0:0:
256,192,201554,1,8,0:0:0:0:
256,192,201664,1,0,0:0:0:0:
256,192,201773,1,12,0:0:0:0:
256,192,201991,1,0,0:0:0:0:
256,192,202210,1,8,0:0:0:0:
256,192,202429,1,0,0:0:0:0:
256,192,202539,1,0,0:0:0:0:
256,192,202648,1,8,0:0:0:0:
256,192,202758,1,0,0:0:0:0:
256,192,202977,1,0,0:0:0:0:
256,192,203086,1,8,0:0:0:0:
256,192,203196,1,0,0:0:0:0:
256,192,203305,1,8,0:0:0:0:
256,192,203524,1,8,0:0:0:0:
256,192,203743,1,8,0:0:0:0:
256,192,203962,1,8,0:0:0:0:
256,192,204017,1,8,0:0:0:0:
256,192,204072,1,8,0:0:0:0:
256,192,204181,1,8,0:0:0:0:
256,192,204291,1,0,0:0:0:0:
256,192,204345,1,0,0:0:0:0:
256,192,204400,1,8,0:0:0:0:
256,192,204510,1,8,0:0:0:0:
256,192,204619,1,0,0:0:0:0:
256,192,204674,1,0,0:0:0:0:
256,192,204729,1,0,0:0:0:0:
256,192,204838,1,8,0:0:0:0:
256,192,204948,1,0,0:0:0:0:
256,192,205002,1,0,0:0:0:0:
256,192,205057,1,0,0:0:0:0:
256,192,205167,1,0,0:0:0:0:
256,192,205276,1,12,0:0:0:0:
256,192,205494,1,0,0:0:0:0:
256,192,205713,1,8,0:0:0:0:
256,192,205932,1,0,0:0:0:0:
256,192,206042,1,0,0:0:0:0:
256,192,206151,1,8,0:0:0:0:
256,192,206261,1,0,0:0:0:0:
256,192,206480,1,0,0:0:0:0:
256,192,206589,1,8,0:0:0:0:
256,192,206699,1,0,0:0:0:0:
256,192,206918,1,0,0:0:0:0:
256,192,207027,1,8,0:0:0:0:
256,192,207137,1,0,0:0:0:0:
256,192,207247,1,8,0:0:0:0:
256,192,207356,1,0,0:0:0:0:
256,192,207465,1,0,0:0:0:0:
256,192,207575,1,8,0:0:0:0:
256,192,207794,1,8,0:0:0:0:
256,192,207903,1,8,0:0:0:0:
256,192,208013,1,8,0:0:0:0:
256,192,208122,1,0,0:0:0:0:
256,192,208232,1,8,0:0:0:0:
256,192,208341,1,8,0:0:0:0:
256,192,208451,1,0,0:0:0:0:
256,192,208561,1,12,0:0:0:0:
256,192,208779,1,0,0:0:0:0:
256,192,208998,1,8,0:0:0:0:
256,192,209217,1,0,0:0:0:0:
256,192,209327,1,0,0:0:0:0:
256,192,209436,1,8,0:0:0:0:
256,192,209546,1,0,0:0:0:0:
256,192,209765,1,0,0:0:0:0:
256,192,209874,1,8,0:0:0:0:
256,192,209984,1,0,0:0:0:0:
256,192,210093,1,8,0:0:0:0:
256,192,210312,1,8,0:0:0:0:
256,192,210531,1,8,0:0:0:0:
256,192,210750,1,8,0:0:0:0:
256,192,210805,1,8,0:0:0:0:
256,192,210860,1,8,0:0:0:0:
256,192,210969,1,8,0:0:0:0:
256,192,211079,1,0,0:0:0:0:
256,192,211133,1,0,0:0:0:0:
256,192,211188,1,8,0:0:0:0:
256,192,211298,1,8,0:0:0:0:
256,192,211407,1,0,0:0:0:0:
256,192,211462,1,0,0:0:0:0:
256,192,211517,1,0,0:0:0:0:
256,192,211626,1,8,0:0:0:0:
256,192,211736,1,0,0:0:0:0:
256,192,211790,1,0,0:0:0:0:
256,192,211845,1,0,0:0:0:0:
256,192,211955,1,0,0:0:0:0:
256,192,212065,1,12,0:0:0:0:
256,192,212283,1,0,0:0:0:0:
256,192,212502,1,0,0:0:0:0:
256,192,212721,1,0,0:0:0:0:
256,192,212831,1,8,0:0:0:0:
256,192,212940,1,8,0:0:0:0:
256,192,213050,1,0,0:0:0:0:
256,192,213269,1,0,0:0:0:0:
256,192,213488,1,0,0:0:0:0:
256,192,213707,1,0,0:0:0:0:
256,192,213926,1,0,0:0:0:0:
256,192,214036,1,12,0:0:0:0:
256,192,214254,1,0,0:0:0:0:
256,192,214473,1,0,0:0:0:0:
256,192,214692,1,0,0:0:0:0:
256,192,214802,1,8,0:0:0:0:
256,192,214911,1,8,0:0:0:0:
256,192,215021,1,0,0:0:0:0:
256,192,215240,1,0,0:0:0:0:
256,192,215459,1,0,0:0:0:0:
256,192,215678,1,0,0:0:0:0:
256,192,215897,1,8,0:0:0:0:
256,192,216006,1,8,0:0:0:0:
256,192,216225,1,12,0:0:0:0:
256,192,216444,1,0,0:0:0:0:
256,192,216663,1,0,0:0:0:0:
256,192,216882,1,0,0:0:0:0:
256,192,216992,1,8,0:0:0:0:
256,192,217101,1,8,0:0:0:0:
256,192,217211,1,0,0:0:0:0:
256,192,217430,1,0,0:0:0:0:
256,192,217649,1,0,0:0:0:0:
256,192,217868,1,0,0:0:0:0:
256,192,218087,1,0,0:0:0:0:
256,192,218197,1,12,0:0:0:0:
256,192,218415,1,0,0:0:0:0:
256,192,218634,1,0,0:0:0:0:
256,192,218853,1,0,0:0:0:0:
256,192,218963,1,8,0:0:0:0:
256,192,219072,1,8,0:0:0:0:
256,192,219182,1,0,0:0:0:0:
256,192,219401,1,0,0:0:0:0:
256,192,219620,1,0,0:0:0:0:
256,192,219839,1,0,0:0:0:0:
256,192,220058,1,8,0:0:0:0:
256,192,220167,1,8,0:0:0:0:
256,192,220386,1,4,0:0:0:0:
256,192,220605,1,0,0:0:0:0:
256,192,220824,1,0,0:0:0:0:
256,192,221043,1,0,0:0:0:0:
256,192,221153,1,0,0:0:0:0:
256,192,221262,1,8,0:0:0:0:
256,192,221372,1,0,0:0:0:0:
256,192,221591,1,0,0:0:0:0:
256,192,221810,1,0,0:0:0:0:
256,192,222029,1,0,0:0:0:0:
256,192,222248,1,0,0:0:0:0:
256,192,222358,1,12,0:0:0:0:
256,192,222576,1,0,0:0:0:0:
256,192,222795,1,0,0:0:0:0:
256,192,223014,1,0,0:0:0:0:
256,192,223124,1,0,0:0:0:0:
256,192,223233,1,8,0:0:0:0:
256,192,223343,1,0,0:0:0:0:
256,192,223562,1,0,0:0:0:0:
256,192,223781,1,0,0:0:0:0:
256,192,224000,1,0,0:0:0:0:
256,192,224219,1,8,0:0:0:0:
256,192,224328,1,4,0:0:0:0:
256,192,224547,1,12,0:0:0:0:
256,192,224766,1,0,0:0:0:0:
256,192,224985,1,0,0:0:0:0:
256,192,225204,1,0,0:0:0:0:
256,192,225314,1,0,0:0:0:0:
256,192,225423,1,8,0:0:0:0:
256,192,225533,1,0,0:0:0:0:
256,192,225752,1,0,0:0:0:0:
256,192,225971,1,0,0:0:0:0:
256,192,226190,1,0,0:0:0:0:
256,192,226409,1,0,0:0:0:0:
256,192,226519,1,8,0:0:0:0:
256,192,226628,1,8,0:0:0:0:
256,192,226737,1,0,0:0:0:0:
256,192,226847,1,8,0:0:0:0:
256,192,227066,1,8,0:0:0:0:
256,192,227175,1,8,0:0:0:0:
256,192,227285,1,8,0:0:0:0:
256,192,227394,1,0,0:0:0:0:
256,192,227504,1,8,0:0:0:0:
256,192,227613,1,8,0:0:0:0:
256,192,227723,1,0,0:0:0:0:
256,192,227833,1,12,0:0:0:0:
256,192,228051,1,0,0:0:0:0:
256,192,228270,1,0,0:0:0:0:
256,192,228489,1,0,0:0:0:0:
256,192,228599,1,8,0:0:0:0:
256,192,228708,1,8,0:0:0:0:
256,192,228818,1,0,0:0:0:0:
256,192,229037,1,0,0:0:0:0:
256,192,229256,1,0,0:0:0:0:
256,192,229475,1,0,0:0:0:0:
256,192,229694,1,0,0:0:0:0:
256,192,229804,1,12,0:0:0:0:
256,192,230022,1,0,0:0:0:0:
256,192,230241,1,0,0:0:0:0:
256,192,230460,1,0,0:0:0:0:
256,192,230570,1,8,0:0:0:0:
256,192,230679,1,8,0:0:0:0:
256,192,230789,1,0,0:0:0:0:
256,192,231008,1,0,0:0:0:0:
256,192,231227,1,0,0:0:0:0:
256,192,231446,1,0,0:0:0:0:
256,192,231665,1,8,0:0:0:0:
256,192,231774,1,8,0:0:0:0:
256,192,231993,1,12,0:0:0:0:
256,192,232212,1,0,0:0:0:0:
256,192,232431,1,0,0:0:0:0:
256,192,232650,1,0,0:0:0:0:
256,192,232760,1,8,0:0:0:0:
256,192,232869,1,8,0:0:0:0:
256,192,232979,1,0,0:0:0:0:
256,192,233198,1,0,0:0:0:0:
256,192,233417,1,0,0:0:0:0:
256,192,233636,1,0,0:0:0:0:
256,192,233855,1,0,0:0:0:0:
256,192,233965,1,12,0:0:0:0:
256,192,234183,1,0,0:0:0:0:
256,192,234402,1,0,0:0:0:0:
256,192,234621,1,0,0:0:0:0:
256,192,234731,1,8,0:0:0:0:
256,192,234840,1,8,0:0:0:0:
256,192,234950,1,0,0:0:0:0:
256,192,235169,1,0,0:0:0:0:
256,192,235388,1,0,0:0:0:0:
256,192,235607,1,0,0:0:0:0:
256,192,235826,1,8,0:0:0:0:
256,192,235935,1,8,0:0:0:0:
256,192,236154,1,4,0:0:0:0:
256,192,236373,1,0,0:0:0:0:
256,192,236592,1,0,0:0:0:0:
256,192,236811,1,0,0:0:0:0:
256,192,236921,1,0,0:0:0:0:
256,192,237030,1,8,0:0:0:0:
256,192,237140,1,0,0:0:0:0:
256,192,237359,1,0,0:0:0:0:
256,192,237578,1,0,0:0:0:0:
256,192,237797,1,0,0:0:0:0:
256,192,238016,1,0,0:0:0:0:
256,192,238127,1,12,0:0:0:0:
256,192,238345,1,0,0:0:0:0:
256,192,238564,1,0,0:0:0:0:
256,192,238783,1,0,0:0:0:0:
256,192,238893,1,0,0:0:0:0:
256,192,239002,1,8,0:0:0:0:
256,192,239112,1,0,0:0:0:0:
256,192,239331,1,0,0:0:0:0:
256,192,239550,1,0,0:0:0:0:
256,192,239769,1,0,0:0:0:0:
256,192,239988,1,8,0:0:0:0:
256,192,240097,1,4,0:0:0:0:
256,192,240316,1,12,0:0:0:0:
256,192,240535,1,0,0:0:0:0:
256,192,240754,1,0,0:0:0:0:
256,192,240973,1,0,0:0:0:0:
256,192,241083,1,0,0:0:0:0:
256,192,241192,1,8,0:0:0:0:
256,192,241302,1,0,0:0:0:0:
256,192,241521,1,0,0:0:0:0:
256,192,241740,1,0,0:0:0:0:
256,192,241959,1,0,0:0:0:0:
256,192,242177,1,0,0:0:0:0:
256,192,242287,1,8,0:0:0:0:
256,192,242396,1,0,0:0:0:0:
256,192,242504,1,0,0:0:0:0:
256,192,242614,1,8,0:0:0:0:
256,192,242833,1,8,0:0:0:0:
256,192,242942,1,8,0:0:0:0:
256,192,243052,1,8,0:0:0:0:
256,192,243161,1,0,0:0:0:0:
256,192,243271,1,8,0:0:0:0:
256,192,243381,1,8,0:0:0:0:
256,192,243490,1,0,0:0:0:0:
256,192,243600,1,8,0:0:0:0:
256,192,243655,1,8,0:0:0:0:
256,192,243710,1,8,0:0:0:0:
256,192,243819,1,0,0:0:0:0:
256,192,243929,1,8,0:0:0:0:
256,192,243984,1,8,0:0:0:0:
256,192,244038,1,8,0:0:0:0:
256,192,244148,1,0,0:0:0:0:
256,192,244257,1,8,0:0:0:0:
256,192,244312,1,8,0:0:0:0:
256,192,244367,1,0,0:0:0:0:
256,192,244476,1,8,0:0:0:0:
256,192,244586,1,0,0:0:0:0:
256,192,244641,1,0,0:0:0:0:
256,192,244695,1,8,0:0:0:0:
256,192,244805,1,8,0:0:0:0:
256,192,244913,1,0,0:0:0:0:
256,192,244987,1,0,0:0:0:0:
256,192,245060,1,0,0:0:0:0:
256,192,245133,1,0,0:0:0:0:
256,192,245352,1,0,0:0:0:0:
256,192,245425,1,0,0:0:0:0:
256,192,245498,1,0,0:0:0:0:
256,192,245571,1,8,0:0:0:0:
256,192,246009,1,0,0:0:0:0:
256,192,246374,1,0,0:0:0:0:
256,192,246666,1,0,0:0:0:0:
256,192,246776,1,8,0:0:0:0:
256,192,247104,1,0,0:0:0:0:
256,192,247542,1,0,0:0:0:0:
256,192,247614,1,0,0:0:0:0:
256,192,247687,1,0,0:0:0:0:
256,192,247760,1,0,0:0:0:0:
256,192,247979,1,0,0:0:0:0:
256,192,248052,1,0,0:0:0:0:
256,192,248125,1,0,0:0:0:0:
256,192,248198,1,8,0:0:0:0:
256,192,248636,1,0,0:0:0:0:
256,192,249001,1,0,0:0:0:0:
256,192,249293,1,0,0:0:0:0:
256,192,249365,1,0,0:0:0:0:
256,192,249438,1,0,0:0:0:0:
256,192,249511,1,0,0:0:0:0:
256,192,249730,1,0,0:0:0:0:
256,192,249803,1,0,0:0:0:0:
256,192,249876,1,0,0:0:0:0:
256,192,249949,1,8,0:0:0:0:
256,192,250387,1,0,0:0:0:0:
256,192,250752,1,0,0:0:0:0:
256,192,251044,1,0,0:0:0:0:
256,192,251154,1,8,0:0:0:0:
256,192,251482,1,0,0:0:0:0:
256,192,251920,1,0,0:0:0:0:
256,192,251992,1,0,0:0:0:0:
256,192,252065,1,0,0:0:0:0:
256,192,252138,1,0,0:0:0:0:
256,192,252357,1,0,0:0:0:0:
256,192,252430,1,0,0:0:0:0:
256,192,252503,1,0,0:0:0:0:
256,192,252576,1,8,0:0:0:0:
256,192,253014,1,0,0:0:0:0:
256,192,253379,1,0,0:0:0:0:
256,192,253671,1,0,0:0:0:0:
256,192,253743,1,0,0:0:0:0:
256,192,253816,1,0,0:0:0:0:
256,192,253889,1,0,0:0:0:0:
256,192,254108,1,0,0:0:0:0:
256,192,254181,1,0,0:0:0:0:
256,192,254254,1,0,0:0:0:0:
256,192,254327,1,8,0:0:0:0:
256,192,254765,1,0,0:0:0:0:
256,192,255130,1,0,0:0:0:0:
256,192,255422,1,0,0:0:0:0:
256,192,255532,1,8,0:0:0:0:
256,192,255860,1,0,0:0:0:0:
256,192,256298,1,0,0:0:0:0:
256,192,256370,1,0,0:0:0:0:
256,192,256443,1,0,0:0:0:0:
256,192,256516,1,0,0:0:0:0:
256,192,256735,1,0,0:0:0:0:
256,192,256808,1,0,0:0:0:0:
256,192,256881,1,0,0:0:0:0:
256,192,256954,1,8,0:0:0:0:
256,192,257392,1,0,0:0:0:0:
256,192,257757,1,0,0:0:0:0:
256,192,258049,1,0,0:0:0:0:
256,192,258121,1,0,0:0:0:0:
256,192,258194,1,0,0:0:0:0:
256,192,258267,1,0,0:0:0:0:
256,192,258486,1,0,0:0:0:0:
256,192,258559,1,0,0:0:0:0:
256,192,258632,1,0,0:0:0:0:
256,192,258705,1,8,0:0:0:0:
256,192,259070,1,0,0:0:0:0:
256,192,259362,1,0,0:0:0:0:
256,192,259434,1,0,0:0:0:0:
256,192,259507,1,0,0:0:0:0:
256,192,259580,1,0,0:0:0:0:
256,192,259799,1,0,0:0:0:0:
256,192,259872,1,0,0:0:0:0:
256,192,259945,1,0,0:0:0:0:
256,192,260018,1,8,0:0:0:0:
256,192,260456,1,0,0:0:0:0:
256,192,260821,1,0,0:0:0:0:
256,192,261113,1,12,0:0:0:0:
256,192,264355,1,0,0:0:0:0:
256,192,264428,1,0,0:0:0:0:
256,192,264501,1,0,0:0:0:0:
256,192,264574,1,8,0:0:0:0:
256,192,268141,1,8,0:0:0:0:
256,192,269418,1,0,0:0:0:0:
256,192,270056,1,0,0:0:0:0:
256,192,270748,1,12,0:0:0:0:
256,192,273594,1,0,0:0:0:0:
256,192,273704,1,0,0:0:0:0:
256,192,273813,1,0,0:0:0:0:
256,192,273923,1,0,0:0:0:0:
256,192,274032,1,0,0:0:0:0:
256,192,274142,1,0,0:0:0:0:
256,192,274251,1,8,0:0:0:0:
256,192,275565,1,0,0:0:0:0:
256,192,275784,1,8,0:0:0:0:
256,192,276441,1,8,0:0:0:0:
256,192,276769,1,8,0:0:0:0:
256,192,278170,1,8,0:0:0:0:
256,192,278826,1,8,0:0:0:0:
256,192,279483,1,8,0:0:0:0:
256,192,279943,1,0,0:0:0:0:
256,192,280161,1,0,0:0:0:0:
256,192,280383,1,4,0:0:0:0:
256,192,280820,1,0,0:0:0:0:
256,192,281258,1,8,0:0:0:0:
256,192,281696,1,0,0:0:0:0:
256,192,283010,1,8,0:0:0:0:
256,192,283448,1,0,0:0:0:0:
256,192,283667,1,0,0:0:0:0:
256,192,283777,1,0,0:0:0:0:
256,192,283886,1,0,0:0:0:0:
256,192,284324,1,0,0:0:0:0:
256,192,284762,1,8,0:0:0:0:
256,192,285200,1,0,0:0:0:0:
256,192,286514,1,8,0:0:0:0:
256,192,286952,1,0,0:0:0:0:
256,192,287171,1,0,0:0:0:0:
256,192,287280,1,0,0:0:0:0:
256,192,287390,1,0,0:0:0:0:
256,192,287827,1,0,0:0:0:0:
256,192,288265,1,8,0:0:0:0:
256,192,288703,1,0,0:0:0:0:
256,192,289579,1,0,0:0:0:0:
256,192,289798,1,0,0:0:0:0:
256,192,289908,1,0,0:0:0:0:
256,192,290017,1,8,0:0:0:0:
256,192,290236,1,0,0:0:0:0:
256,192,290455,1,0,0:0:0:0:
256,192,290893,1,8,0:0:0:0:
256,192,291331,1,0,0:0:0:0:
256,192,292207,1,0,0:0:0:0:
256,192,292645,1,8,0:0:0:0:
256,192,293083,1,0,0:0:0:0:
256,192,293302,1,0,0:0:0:0:
256,192,293412,1,0,0:0:0:0:
256,192,293521,1,0,0:0:0:0:
256,192,293959,1,0,0:0:0:0:
256,192,294178,1,0,0:0:0:0:
256,192,294397,1,8,0:0:0:0:
256,192,294835,1,0,0:0:0:0:
256,192,295273,1,0,0:0:0:0:
256,192,295492,1,0,0:0:0:0:
256,192,296039,1,0,0:0:0:0:
256,192,296149,1,8,0:0:0:0:
256,192,296587,1,0,0:0:0:0:
256,192,296806,1,0,0:0:0:0:
256,192,296915,1,0,0:0:0:0:
256,192,297025,1,0,0:0:0:0:
256,192,297462,1,0,0:0:0:0:
256,192,297900,1,8,0:0:0:0:
256,192,298338,1,0,0:0:0:0:
256,192,298776,1,0,0:0:0:0:
256,192,299214,1,0,0:0:0:0:
256,192,299433,1,0,0:0:0:0:
256,192,299652,1,4,0:0:0:0:
256,192,300090,1,0,0:0:0:0:
256,192,300528,1,8,0:0:0:0:
256,192,300966,1,0,0:0:0:0:
256,192,301623,1,0,0:0:0:0:
256,192,302171,1,0,0:0:0:0:
256,192,302280,1,8,0:0:0:0:
256,192,302609,1,8,0:0:0:0:
256,192,302718,1,0,0:0:0:0:
256,192,303047,1,0,0:0:0:0:
256,192,303156,1,0,0:0:0:0:
256,192,303594,1,0,0:0:0:0:
256,192,304032,1,8,0:0:0:0:
256,192,304470,1,0,0:0:0:0:
256,192,304908,1,0,0:0:0:0:
256,192,305127,1,8,0:0:0:0:
256,192,305346,1,0,0:0:0:0:
256,192,305565,1,0,0:0:0:0:
256,192,305674,1,0,0:0:0:0:
256,192,305784,1,8,0:0:0:0:
256,192,306222,1,0,0:0:0:0:
256,192,306441,1,0,0:0:0:0:
256,192,306550,1,0,0:0:0:0:
256,192,306660,1,8,0:0:0:0:
256,192,307097,1,0,0:0:0:0:
256,192,307535,1,8,0:0:0:0:
256,192,307973,1,0,0:0:0:0:
256,192,308411,1,0,0:0:0:0:
256,192,308630,1,0,0:0:0:0:
256,192,308740,1,8,0:0:0:0:
256,192,308849,1,0,0:0:0:0:
256,192,309068,1,0,0:0:0:0:
256,192,309178,1,0,0:0:0:0:
256,192,309287,1,12,0:0:0:0:
256,192,309506,1,0,0:0:0:0:
256,192,309725,1,0,0:0:0:0:
256,192,310163,1,8,0:0:0:0:
256,192,310601,1,0,0:0:0:0:
256,192,311039,1,0,0:0:0:0:
256,192,311477,1,0,0:0:0:0:
256,192,311696,1,0,0:0:0:0:
256,192,311806,1,0,0:0:0:0:
256,192,311915,1,8,0:0:0:0:
256,192,312244,1,8,0:0:0:0:
256,192,312353,1,0,0:0:0:0:
256,192,312572,1,0,0:0:0:0:
256,192,312682,1,0,0:0:0:0:
256,192,312791,1,8,0:0:0:0:
256,192,313010,1,0,0:0:0:0:
256,192,313229,1,0,0:0:0:0:
256,192,313448,1,0,0:0:0:0:
256,192,313667,1,8,0:0:0:0:
256,192,314105,1,0,0:0:0:0:
256,192,314324,1,0,0:0:0:0:
256,192,314433,1,0,0:0:0:0:
256,192,314543,1,0,0:0:0:0:
256,192,314762,1,8,0:0:0:0:
256,192,314981,1,8,0:0:0:0:
256,192,315090,1,0,0:0:0:0:
256,192,315200,1,0,0:0:0:0:
256,192,315309,1,0,0:0:0:0:
256,192,315419,1,8,0:0:0:0:
256,192,315857,1,0,0:0:0:0:
256,192,316076,1,0,0:0:0:0:
256,192,316185,1,0,0:0:0:0:
256,192,316295,1,8,0:0:0:0:
256,192,316513,1,0,0:0:0:0:
256,192,316732,1,0,0:0:0:0:
256,192,316951,1,0,0:0:0:0:
256,192,317061,1,0,0:0:0:0:
256,192,317170,1,8,0:0:0:0:
256,192,317608,1,0,0:0:0:0:
256,192,318046,1,0,0:0:0:0:
256,192,318265,1,0,0:0:0:0:
256,192,318375,1,8,0:0:0:0:
256,192,318484,1,8,0:0:0:0:
256,192,318703,1,0,0:0:0:0:
256,192,318922,1,12,0:0:0:0:
256,192,319360,1,0,0:0:0:0:
256,192,319798,1,8,0:0:0:0:
256,192,320017,1,0,0:0:0:0:
256,192,320236,1,0,0:0:0:0:
256,192,320674,1,0,0:0:0:0:
256,192,320893,1,8,0:0:0:0:
256,192,321112,1,0,0:0:0:0:
256,192,321331,1,0,0:0:0:0:
256,192,321441,1,0,0:0:0:0:
256,192,321550,1,8,0:0:0:0:
256,192,321988,1,0,0:0:0:0:
256,192,322207,1,0,0:0:0:0:
256,192,322317,1,0,0:0:0:0:
256,192,322426,1,8,0:0:0:0:
256,192,322645,1,0,0:0:0:0:
256,192,322864,1,0,0:0:0:0:
256,192,323083,1,0,0:0:0:0:
256,192,323302,1,8,0:0:0:0:
256,192,323740,1,0,0:0:0:0:
256,192,324178,1,0,0:0:0:0:
256,192,324397,1,8,0:0:0:0:
256,192,324616,1,0,0:0:0:0:
256,192,324835,1,0,0:0:0:0:
256,192,324944,1,0,0:0:0:0:
256,192,325054,1,8,0:0:0:0:
256,192,325382,1,8,0:0:0:0:
256,192,325492,1,0,0:0:0:0:
256,192,325711,1,0,0:0:0:0:
256,192,325820,1,0,0:0:0:0:
256,192,325930,1,8,0:0:0:0:
256,192,326148,1,0,0:0:0:0:
256,192,326367,1,0,0:0:0:0:
256,192,326586,1,0,0:0:0:0:
256,192,326805,1,8,0:0:0:0:
256,192,327243,1,0,0:0:0:0:
256,192,327681,1,8,0:0:0:0:
256,192,327900,1,0,0:0:0:0:
256,192,328010,1,0,0:0:0:0:
256,192,328119,1,8,0:0:0:0:
256,192,328229,1,0,0:0:0:0:
256,192,328338,1,0,0:0:0:0:
256,192,328557,1,4,0:0:0:0:
256,192,328995,1,0,0:0:0:0:
256,192,329214,1,0,0:0:0:0:
256,192,329433,1,8,0:0:0:0:
256,192,329871,1,0,0:0:0:0:
256,192,330090,1,0,0:0:0:0:
256,192,330309,1,0,0:0:0:0:
256,192,330528,1,8,0:0:0:0:
256,192,330747,1,0,0:0:0:0:
256,192,330966,1,0,0:0:0:0:
256,192,331076,1,0,0:0:0:0:
256,192,331185,1,8,0:0:0:0:
256,192,331514,1,8,0:0:0:0:
256,192,331623,1,0,0:0:0:0:
256,192,331842,1,0,0:0:0:0:
256,192,331952,1,0,0:0:0:0:
256,192,332061,1,8,0:0:0:0:
256,192,332499,1,0,0:0:0:0:
256,192,332718,1,0,0:0:0:0:
256,192,332937,1,8,0:0:0:0:
256,192,333375,1,0,0:0:0:0:
256,192,333813,1,0,0:0:0:0:
256,192,334032,1,8,0:0:0:0:
256,192,334251,1,0,0:0:0:0:
256,192,334360,1,8,0:0:0:0:
256,192,334470,1,0,0:0:0:0:
256,192,334579,1,0,0:0:0:0:
256,192,334689,1,8,0:0:0:0:
256,192,335127,1,8,0:0:0:0:
256,192,335236,1,0,0:0:0:0:
256,192,335346,1,0,0:0:0:0:
256,192,335455,1,0,0:0:0:0:
256,192,335565,1,8,0:0:0:0:
256,192,335783,1,0,0:0:0:0:
256,192,336002,1,0,0:0:0:0:
256,192,336221,1,0,0:0:0:0:
256,192,336440,1,8,0:0:0:0:
256,192,336878,1,0,0:0:0:0:
256,192,337097,1,0,0:0:0:0:
256,192,337316,1,0,0:0:0:0:
256,192,337535,1,0,0:0:0:0:
256,192,337754,1,8,0:0:0:0:
256,192,337864,1,0,0:0:0:0:
256,192,337973,1,8,0:0:0:0:
256,192,338083,1,8,0:0:0:0:
256,192,338192,1,4,0:0:0:0:
256,192,338630,1,0,0:0:0:0:
256,192,339068,1,8,0:0:0:0:
256,192,339287,1,0,0:0:0:0:
256,192,339506,1,0,0:0:0:0:
256,192,339835,1,8,0:0:0:0:
256,192,339944,1,0,0:0:0:0:
256,192,340163,1,0,0:0:0:0:
256,192,340382,1,8,0:0:0:0:
256,192,340492,1,0,0:0:0:0:
256,192,340601,1,8,0:0:0:0:
256,192,340711,1,8,0:0:0:0:
256,192,340820,1,8,0:0:0:0:
256,192,341258,1,0,0:0:0:0:
256,192,341477,1,0,0:0:0:0:
256,192,341587,1,0,0:0:0:0:
256,192,341696,1,8,0:0:0:0:
256,192,342134,1,0,0:0:0:0:
256,192,342353,1,0,0:0:0:0:
256,192,342572,1,8,0:0:0:0:
256,192,342791,1,0,0:0:0:0:
256,192,343010,1,0,0:0:0:0:
256,192,343229,1,0,0:0:0:0:
256,192,343338,1,8,0:0:0:0:
256,192,343448,1,0,0:0:0:0:
256,192,343667,1,0,0:0:0:0:
256,192,343886,1,8,0:0:0:0:
256,192,343995,1,8,0:0:0:0:
256,192,344105,1,0,0:0:0:0:
256,192,344214,1,0,0:0:0:0:
256,192,344324,1,8,0:0:0:0:
256,192,344652,1,8,0:0:0:0:
256,192,344762,1,0,0:0:0:0:
256,192,344981,1,0,0:0:0:0:
256,192,345090,1,0,0:0:0:0:
256,192,345200,1,8,0:0:0:0:
256,192,345638,1,0,0:0:0:0:
256,192,345857,1,0,0:0:0:0:
256,192,346076,1,8,0:0:0:0:
256,192,346295,1,0,0:0:0:0:
256,192,346514,1,0,0:0:0:0:
256,192,346733,1,8,0:0:0:0:
256,192,346952,1,8,0:0:0:0:
256,192,347171,1,0,0:0:0:0:
256,192,347281,1,8,0:0:0:0:
256,192,347390,1,0,0:0:0:0:
256,192,347500,1,8,0:0:0:0:
256,192,347609,1,8,0:0:0:0:
256,192,347719,1,0,0:0:0:0:
256,192,347828,1,12,0:0:0:0:
256,192,348267,1,8,0:0:0:0:
256,192,348377,1,0,0:0:0:0:
256,192,348486,1,0,0:0:0:0:
256,192,348596,1,0,0:0:0:0:
256,192,348705,1,12,0:0:0:0:
256,192,349143,1,0,0:0:0:0:
256,192,349362,1,0,0:0:0:0:
256,192,349472,1,8,0:0:0:0:
256,192,349581,1,0,0:0:0:0:
256,192,349800,1,0,0:0:0:0:
256,192,350019,1,0,0:0:0:0:
256,192,350129,1,8,0:0:0:0:
256,192,350238,1,0,0:0:0:0:
256,192,350348,1,0,0:0:0:0:
256,192,350457,1,8,0:0:0:0:
256,192,350786,1,8,0:0:0:0:
256,192,350895,1,0,0:0:0:0:
256,192,351114,1,0,0:0:0:0:
256,192,351224,1,0,0:0:0:0:
256,192,351333,1,8,0:0:0:0:
256,192,351552,1,0,0:0:0:0:
256,192,351662,1,0,0:0:0:0:
256,192,351771,1,8,0:0:0:0:
256,192,351881,1,0,0:0:0:0:
256,192,351990,1,0,0:0:0:0:
256,192,352100,1,0,0:0:0:0:
256,192,352209,1,8,0:0:0:0:
256,192,352647,1,0,0:0:0:0:
256,192,352757,1,8,0:0:0:0:
256,192,352975,1,8,0:0:0:0:
256,192,353085,1,0,0:0:0:0:
256,192,353304,1,0,0:0:0:0:
256,192,353523,1,8,0:0:0:0:
256,192,353632,1,8,0:0:0:0:
256,192,353742,1,0,0:0:0:0:
256,192,353851,1,0,0:0:0:0:
256,192,353961,1,8,0:0:0:0:
256,192,354289,1,8,0:0:0:0:
256,192,354399,1,0,0:0:0:0:
256,192,354618,1,0,0:0:0:0:
256,192,354727,1,0,0:0:0:0:
256,192,354837,1,8,0:0:0:0:
256,192,355165,1,0,0:0:0:0:
256,192,355274,1,8,0:0:0:0:
256,192,355493,1,0,0:0:0:0:
256,192,355603,1,0,0:0:0:0:
256,192,355712,1,8,0:0:0:0:
256,192,355931,1,0,0:0:0:0:
256,192,356150,1,0,0:0:0:0:
256,192,356260,1,8,0:0:0:0:
256,192,356369,1,0,0:0:0:0:
256,192,356479,1,8,0:0:0:0:
256,192,356588,1,8,0:0:0:0:
256,192,356807,1,0,0:0:0:0:
256,192,356917,1,0,0:0:0:0:
256,192,357026,1,0,0:0:0:0:
256,192,357136,1,8,0:0:0:0:
256,192,357245,1,8,0:0:0:0:
256,192,357355,1,8,0:0:0:0:
256,192,357464,1,4,0:0:0:0:
256,192,357683,1,0,0:0:0:0:
256,192,357793,1,0,0:0:0:0:
256,192,357902,1,8,0:0:0:0:
256,192,358012,1,8,0:0:0:0:
256,192,358121,1,0,0:0:0:0:
256,192,358231,1,0,0:0:0:0:
256,192,358340,1,8,0:0:0:0:
256,192,358559,1,0,0:0:0:0:
256,192,358669,1,0,0:0:0:0:
256,192,358778,1,8,0:0:0:0:
256,192,358888,1,8,0:0:0:0:
256,192,358997,1,0,0:0:0:0:
256,192,359107,1,0,0:0:0:0:
256,192,359216,1,8,0:0:0:0:
256,192,359326,1,0,0:0:0:0:
256,192,359435,1,0,0:0:0:0:
256,192,359545,1,0,0:0:0:0:
256,192,359654,1,8,0:0:0:0:
256,192,359764,1,0,0:0:0:0:
256,192,359873,1,0,0:0:0:0:
256,192,359983,1,8,0:0:0:0:
256,192,360092,1,8,0:0:0:0:
256,192,360311,1,0,0:0:0:0:
256,192,360421,1,8,0:0:0:0:
256,192,360530,1,8,0:0:0:0:
256,192,360640,1,8,0:0:0:0:
256,192,360749,1,0,0:0:0:0:
256,192,360859,1,0,0:0:0:0:
256,192,360968,1,8,0:0:0:0:
256,192,361078,1,8,0:0:0:0:
256,192,361187,1,0,0:0:0:0:
256,192,361297,1,0,0:0:0:0:
256,192,361406,1,8,0:0:0:0:
256,192,361516,1,0,0:0:0:0:
256,192,361625,1,0,0:0:0:0:
256,192,361735,1,0,0:0:0:0:
256,192,361844,1,8,0:0:0:0:
256,192,362063,1,0,0:0:0:0:
256,192,362173,1,0,0:0:0:0:
256,192,362282,1,8,0:0:0:0:
256,192,362392,1,8,0:0:0:0:
256,192,362501,1,0,0:0:0:0:
256,192,362610,1,0,0:0:0:0:
256,192,362720,1,0,0:0:0:0:
256,192,362829,1,8,0:0:0:0:
256,192,362939,1,0,0:0:0:0:
256,192,363048,1,0,0:0:0:0:
256,192,363158,1,0,0:0:0:0:
256,192,363267,1,0,0:0:0:0:
256,192,363377,1,8,0:0:0:0:
256,192,363486,1,0,0:0:0:0:
256,192,363596,1,8,0:0:0:0:
256,192,363815,1,8,0:0:0:0:
256,192,363924,1,8,0:0:0:0:
256,192,364034,1,0,0:0:0:0:
256,192,364143,1,8,0:0:0:0:
256,192,364253,1,8,0:0:0:0:
256,192,364362,1,8,0:0:0:0:
256,192,364473,1,0,0:0:0:0:
256,192,364582,1,8,0:0:0:0:
256,192,364691,1,0,0:0:0:0:
256,192,364801,1,0,0:0:0:0:
256,192,364910,1,8,0:0:0:0:
256,192,365020,1,0,0:0:0:0:
256,192,365129,1,0,0:0:0:0:
256,192,365239,1,0,0:0:0:0:
256,192,365348,1,8,0:0:0:0:
256,192,365567,1,0,0:0:0:0:
256,192,365677,1,0,0:0:0:0:
256,192,365786,1,8,0:0:0:0:
256,192,365896,1,8,0:0:0:0:
256,192,366005,1,8,0:0:0:0:
256,192,366115,1,8,0:0:0:0:
256,192,366224,1,8,0:0:0:0:
256,192,366334,1,8,0:0:0:0:
256,192,366443,1,0,0:0:0:0:
256,192,366553,1,0,0:0:0:0:
256,192,366662,1,0,0:0:0:0:
256,192,366772,1,0,0:0:0:0:
256,192,366881,1,0,0:0:0:0:
256,192,366991,1,0,0:0:0:0:
256,192,367100,1,12,0:0:0:0:
256,192,367318,1,0,0:0:0:0:
256,192,367428,1,0,0:0:0:0:
256,192,367537,1,8,0:0:0:0:
256,192,367647,1,0,0:0:0:0:
256,192,367756,1,0,0:0:0:0:
256,192,367866,1,0,0:0:0:0:
256,192,367975,1,8,0:0:0:0:
256,192,368085,1,8,0:0:0:0:
256,192,368194,1,0,0:0:0:0:
256,192,368304,1,8,0:0:0:0:
256,192,368413,1,8,0:0:0:0:
256,192,368523,1,0,0:0:0:0:
256,192,368632,1,0,0:0:0:0:
256,192,368742,1,0,0:0:0:0:
256,192,368851,1,8,0:0:0:0:
256,192,368961,1,0,0:0:0:0:
256,192,369070,1,8,0:0:0:0:
256,192,369180,1,0,0:0:0:0:
256,192,369289,1,8,0:0:0:0:
256,192,369399,1,0,0:0:0:0:
256,192,369508,1,0,0:0:0:0:
256,192,369618,1,0,0:0:0:0:
256,192,369727,1,8,0:0:0:0:
256,192,369837,1,8,0:0:0:0:
256,192,369946,1,8,0:0:0:0:
256,192,370056,1,8,0:0:0:0:
256,192,370165,1,0,0:0:0:0:
256,192,370275,1,8,0:0:0:0:
256,192,370384,1,0,0:0:0:0:
256,192,370494,1,0,0:0:0:0:
256,192,370603,1,8,0:0:0:0:
256,192,370713,1,8,0:0:0:0:
256,192,370822,1,8,0:0:0:0:
256,192,370932,1,0,0:0:0:0:
256,192,371041,1,8,0:0:0:0:
256,192,371151,1,0,0:0:0:0:
256,192,371260,1,0,0:0:0:0:
256,192,371370,1,8,0:0:0:0:
256,192,371479,1,8,0:0:0:0:
256,192,371589,1,0,0:0:0:0:
256,192,371698,1,0,0:0:0:0:
256,192,371808,1,0,0:0:0:0:
256,192,371917,1,8,0:0:0:0:
256,192,372027,1,8,0:0:0:0:
256,192,372136,1,0,0:0:0:0:
256,192,372245,1,0,0:0:0:0:
256,192,372355,1,0,0:0:0:0:
256,192,372464,1,8,0:0:0:0:
256,192,372574,1,0,0:0:0:0:
256,192,372683,1,0,0:0:0:0:
256,192,372793,1,8,0:0:0:0:
256,192,372902,1,0,0:0:0:0:
256,192,373012,1,0,0:0:0:0:
256,192,373121,1,0,0:0:0:0:
256,192,373231,1,8,0:0:0:0:
256,192,373340,1,8,0:0:0:0:
256,192,373450,1,8,0:0:0:0:
256,192,373559,1,8,0:0:0:0:
256,192,373669,1,0,0:0:0:0:
256,192,373778,1,8,0:0:0:0:
256,192,373888,1,8,0:0:0:0:
256,192,373997,1,0,0:0:0:0:
256,192,374106,1,8,0:0:0:0:
256,192,374215,1,8,0:0:0:0:
256,192,374324,1,8,0:0:0:0:
256,192,374434,1,0,0:0:0:0:
256,192,374543,1,8,0:0:0:0:
256,192,374653,1,8,0:0:0:0:
256,192,374762,1,0,0:0:0:0:
256,192,374872,1,0,0:0:0:0:
256,192,374981,1,8,0:0:0:0:
256,192,375091,1,0,0:0:0:0:
256,192,375200,1,0,0:0:0:0:
256,192,375310,1,0,0:0:0:0:
256,192,375419,1,8,0:0:0:0:
256,192,375529,1,0,0:0:0:0:
256,192,375638,1,8,0:0:0:0:
256,192,375748,1,8,0:0:0:0:
256,192,375857,1,4,0:0:0:0:
256,192,376076,1,4,0:0:0:0:
256,192,376295,1,4,0:0:0:0:
256,192,376514,1,4,0:0:0:0:
256,192,376735,1,12,0:0:0:0:
256,192,376953,1,0,0:0:0:0:
256,192,377063,1,0,0:0:0:0:
256,192,377172,1,8,0:0:0:0:
256,192,377282,1,0,0:0:0:0:
256,192,377391,1,0,0:0:0:0:
256,192,377501,1,0,0:0:0:0:
256,192,377610,1,8,0:0:0:0:
256,192,377720,1,8,0:0:0:0:
256,192,377829,1,0,0:0:0:0:
256,192,377939,1,8,0:0:0:0:
256,192,378048,1,8,0:0:0:0:
256,192,378158,1,0,0:0:0:0:
256,192,378267,1,0,0:0:0:0:
256,192,378377,1,0,0:0:0:0:
256,192,378486,1,8,0:0:0:0:
256,192,378596,1,0,0:0:0:0:
256,192,378705,1,8,0:0:0:0:
256,192,378815,1,0,0:0:0:0:
256,192,378924,1,8,0:0:0:0:
256,192,379034,1,0,0:0:0:0:
256,192,379143,1,0,0:0:0:0:
256,192,379253,1,0,0:0:0:0:
256,192,379362,1,8,0:0:0:0:
256,192,379472,1,8,0:0:0:0:
256,192,379581,1,8,0:0:0:0:
256,192,379691,1,8,0:0:0:0:
256,192,379800,1,0,0:0:0:0:
256,192,379910,1,8,0:0:0:0:
256,192,380019,1,0,0:0:0:0:
256,192,380129,1,0,0:0:0:0:
256,192,380238,1,8,0:0:0:0:
256,192,380348,1,8,0:0:0:0:
256,192,380457,1,8,0:0:0:0:
256,192,380567,1,0,0:0:0:0:
256,192,380676,1,8,0:0:0:0:
256,192,380786,1,0,0:0:0:0:
256,192,380895,1,0,0:0:0:0:
256,192,381005,1,8,0:0:0:0:
256,192,381114,1,8,0:0:0:0:
256,192,381224,1,0,0:0:0:0:
256,192,381333,1,0,0:0:0:0:
256,192,381443,1,0,0:0:0:0:
256,192,381552,1,8,0:0:0:0:
256,192,381662,1,8,0:0:0:0:
256,192,381771,1,0,0:0:0:0:
256,192,381880,1,0,0:0:0:0:
256,192,381990,1,0,0:0:0:0:
256,192,382099,1,8,0:0:0:0:
256,192,382209,1,0,0:0:0:0:
256,192,382318,1,0,0:0:0:0:
256,192,382428,1,8,0:0:0:0:
256,192,382537,1,0,0:0:0:0:
256,192,382647,1,0,0:0:0:0:
256,192,382756,1,0,0:0:0:0:
256,192,382866,1,8,0:0:0:0:
256,192,382975,1,8,0:0:0:0:
256,192,383085,1,8,0:0:0:0:
256,192,383194,1,8,0:0:0:0:
256,192,383304,1,0,0:0:0:0:
256,192,383413,1,8,0:0:0:0:
256,192,383523,1,8,0:0:0:0:
256,192,383632,1,0,0:0:0:0:
256,192,383741,1,8,0:0:0:0:
256,192,383850,1,8,0:0:0:0:
256,192,383959,1,8,0:0:0:0:
256,192,384069,1,8,0:0:0:0:
256,192,384178,1,0,0:0:0:0:
256,192,384288,1,8,0:0:0:0:
256,192,384397,1,8,0:0:0:0:
256,192,384507,1,0,0:0:0:0:
256,192,384616,1,8,0:0:0:0:
256,192,384726,1,8,0:0:0:0:
256,192,384835,1,0,0:0:0:0:
256,192,385054,1,8,0:0:0:0:
256,192,385164,1,8,0:0:0:0:
256,192,385273,1,8,0:0:0:0:
256,192,385383,1,8,0:0:0:0:
256,192,385492,1,8,0:0:0:0:
256,192,385602,1,8,0:0:0:0:
256,192,385711,1,0,0:0:0:0:
256,192,385821,1,0,0:0:0:0:
256,192,385930,1,0,0:0:0:0:
256,192,386040,1,0,0:0:0:0:
256,192,386149,1,0,0:0:0:0:
256,192,386259,1,0,0:0:0:0:
256,192,386370,1,12,0:0:0:0:
256,192,386588,1,0,0:0:0:0:
256,192,386698,1,8,0:0:0:0:
256,192,386807,1,0,0:0:0:0:
256,192,386917,1,8,0:0:0:0:
256,192,387026,1,0,0:0:0:0:
256,192,387136,1,0,0:0:0:0:
256,192,387245,1,8,0:0:0:0:
256,192,387355,1,8,0:0:0:0:
256,192,387464,1,0,0:0:0:0:
256,192,387574,1,0,0:0:0:0:
256,192,387683,1,8,0:0:0:0:
256,192,387793,1,0,0:0:0:0:
256,192,387902,1,0,0:0:0:0:
256,192,388012,1,0,0:0:0:0:
256,192,388121,1,8,0:0:0:0:
256,192,388231,1,0,0:0:0:0:
256,192,388340,1,8,0:0:0:0:
256,192,388450,1,0,0:0:0:0:
256,192,388559,1,8,0:0:0:0:
256,192,388669,1,8,0:0:0:0:
256,192,388778,1,0,0:0:0:0:
256,192,388888,1,0,0:0:0:0:
256,192,388997,1,8,0:0:0:0:
256,192,389107,1,0,0:0:0:0:
256,192,389216,1,8,0:0:0:0:
256,192,389326,1,0,0:0:0:0:
256,192,389435,1,8,0:0:0:0:
256,192,389545,1,0,0:0:0:0:
256,192,389654,1,8,0:0:0:0:
256,192,389873,1,12,0:0:0:0:
256,192,390092,1,0,0:0:0:0:
256,192,390202,1,8,0:0:0:0:
256,192,390311,1,8,0:0:0:0:
256,192,390421,1,0,0:0:0:0:
256,192,390530,1,8,0:0:0:0:
256,192,390640,1,0,0:0:0:0:
256,192,390749,1,8,0:0:0:0:
256,192,390859,1,8,0:0:0:0:
256,192,390968,1,0,0:0:0:0:
256,192,391078,1,0,0:0:0:0:
256,192,391187,1,0,0:0:0:0:
256,192,391297,1,8,0:0:0:0:
256,192,391406,1,0,0:0:0:0:
256,192,391515,1,8,0:0:0:0:
256,192,391625,1,8,0:0:0:0:
256,192,391734,1,0,0:0:0:0:
256,192,391844,1,0,0:0:0:0:
256,192,391953,1,0,0:0:0:0:
256,192,392063,1,8,0:0:0:0:
256,192,392172,1,0,0:0:0:0:
256,192,392282,1,0,0:0:0:0:
256,192,392391,1,0,0:0:0:0:
256,192,392501,1,8,0:0:0:0:
256,192,392610,1,8,0:0:0:0:
256,192,392720,1,8,0:0:0:0:
256,192,392829,1,0,0:0:0:0:
256,192,392939,1,8,0:0:0:0:
256,192,393048,1,8,0:0:0:0:
256,192,393158,1,8,0:0:0:0:
256,192,393377,1,12,0:0:0:0:
256,192,393594,1,8,0:0:0:0:
256,192,393704,1,0,0:0:0:0:
256,192,393813,1,0,0:0:0:0:
256,192,393923,1,0,0:0:0:0:
256,192,394032,1,8,0:0:0:0:
256,192,394142,1,0,0:0:0:0:
256,192,394251,1,8,0:0:0:0:
256,192,394361,1,8,0:0:0:0:
256,192,394470,1,0,0:0:0:0:
256,192,394580,1,8,0:0:0:0:
256,192,394689,1,8,0:0:0:0:
256,192,394799,1,0,0:0:0:0:
256,192,394908,1,8,0:0:0:0:
256,192,395018,1,8,0:0:0:0:
256,192,395127,1,4,0:0:0:0:
256,192,395346,1,4,0:0:0:0:
256,192,395565,1,4,0:0:0:0:
256,192,395784,1,4,0:0:0:0:
256,192,396005,1,12,0:0:0:0:
256,192,396223,1,0,0:0:0:0:
256,192,396333,1,8,0:0:0:0:
256,192,396442,1,0,0:0:0:0:
256,192,396552,1,8,0:0:0:0:
256,192,396661,1,0,0:0:0:0:
256,192,396771,1,0,0:0:0:0:
256,192,396880,1,8,0:0:0:0:
256,192,396990,1,8,0:0:0:0:
256,192,397099,1,0,0:0:0:0:
256,192,397209,1,0,0:0:0:0:
256,192,397318,1,8,0:0:0:0:
256,192,397428,1,0,0:0:0:0:
256,192,397537,1,0,0:0:0:0:
256,192,397647,1,0,0:0:0:0:
256,192,397756,1,8,0:0:0:0:
256,192,397866,1,0,0:0:0:0:
256,192,397975,1,8,0:0:0:0:
256,192,398085,1,0,0:0:0:0:
256,192,398194,1,8,0:0:0:0:
256,192,398304,1,8,0:0:0:0:
256,192,398413,1,0,0:0:0:0:
256,192,398523,1,0,0:0:0:0:
256,192,398632,1,8,0:0:0:0:
256,192,398742,1,0,0:0:0:0:
256,192,398851,1,8,0:0:0:0:
256,192,398961,1,0,0:0:0:0:
256,192,399070,1,8,0:0:0:0:
256,192,399180,1,0,0:0:0:0:
256,192,399289,1,8,0:0:0:0:
256,192,399508,1,12,0:0:0:0:
256,192,399727,1,0,0:0:0:0:
256,192,399837,1,8,0:0:0:0:
256,192,399946,1,8,0:0:0:0:
256,192,400056,1,0,0:0:0:0:
256,192,400165,1,8,0:0:0:0:
256,192,400275,1,0,0:0:0:0:
256,192,400384,1,8,0:0:0:0:
256,192,400494,1,8,0:0:0:0:
256,192,400603,1,0,0:0:0:0:
256,192,400713,1,0,0:0:0:0:
256,192,400822,1,0,0:0:0:0:
256,192,400932,1,8,0:0:0:0:
256,192,401041,1,0,0:0:0:0:
256,192,401150,1,8,0:0:0:0:
256,192,401260,1,8,0:0:0:0:
256,192,401369,1,0,0:0:0:0:
256,192,401479,1,0,0:0:0:0:
256,192,401588,1,0,0:0:0:0:
256,192,401698,1,8,0:0:0:0:
256,192,401807,1,0,0:0:0:0:
256,192,401917,1,0,0:0:0:0:
256,192,402026,1,0,0:0:0:0:
256,192,402136,1,8,0:0:0:0:
256,192,402245,1,8,0:0:0:0:
256,192,402355,1,8,0:0:0:0:
256,192,402464,1,0,0:0:0:0:
256,192,402574,1,8,0:0:0:0:
256,192,402683,1,8,0:0:0:0:
256,192,402793,1,8,0:0:0:0:
256,192,403012,1,12,0:0:0:0:
256,192,403229,1,8,0:0:0:0:
256,192,403339,1,0,0:0:0:0:
256,192,403448,1,0,0:0:0:0:
256,192,403558,1,0,0:0:0:0:
256,192,403667,1,8,0:0:0:0:
256,192,403777,1,0,0:0:0:0:
256,192,403886,1,8,0:0:0:0:
256,192,403996,1,8,0:0:0:0:
256,192,404105,1,0,0:0:0:0:
256,192,404215,1,8,0:0:0:0:
256,192,404324,1,8,0:0:0:0:
256,192,404434,1,0,0:0:0:0:
256,192,404543,1,8,0:0:0:0:
256,192,404653,1,8,0:0:0:0:
256,192,404762,1,4,0:0:0:0:
256,192,404981,1,4,0:0:0:0:
256,192,405200,1,4,0:0:0:0:
256,192,405419,1,4,0:0:0:0:
256,192,405639,1,12,0:0:0:0:
256,192,405857,1,8,0:0:0:0:
256,192,405967,1,8,0:0:0:0:
256,192,406076,1,0,0:0:0:0:
256,192,406186,1,8,0:0:0:0:
256,192,406295,1,0,0:0:0:0:
256,192,406405,1,0,0:0:0:0:
256,192,406514,1,8,0:0:0:0:
256,192,406624,1,0,0:0:0:0:
256,192,406733,1,8,0:0:0:0:
256,192,406843,1,8,0:0:0:0:
256,192,406952,1,0,0:0:0:0:
256,192,407062,1,8,0:0:0:0:
256,192,407171,1,8,0:0:0:0:
256,192,407281,1,0,0:0:0:0:
256,192,407390,1,8,0:0:0:0:
256,192,407500,1,8,0:0:0:0:
256,192,407609,1,8,0:0:0:0:
256,192,407719,1,0,0:0:0:0:
256,192,407828,1,8,0:0:0:0:
256,192,407938,1,8,0:0:0:0:
256,192,408047,1,0,0:0:0:0:
256,192,408157,1,0,0:0:0:0:
256,192,408266,1,8,0:0:0:0:
256,192,408376,1,0,0:0:0:0:
256,192,408485,1,8,0:0:0:0:
256,192,408595,1,8,0:0:0:0:
256,192,408704,1,0,0:0:0:0:
256,192,408814,1,8,0:0:0:0:
256,192,408923,1,0,0:0:0:0:
256,192,409033,1,0,0:0:0:0:
256,192,409142,1,8,0:0:0:0:
256,192,409252,1,0,0:0:0:0:
256,192,409361,1,8,0:0:0:0:
256,192,409471,1,8,0:0:0:0:
256,192,409580,1,0,0:0:0:0:
256,192,409690,1,8,0:0:0:0:
256,192,409799,1,8,0:0:0:0:
256,192,409909,1,0,0:0:0:0:
256,192,410018,1,8,0:0:0:0:
256,192,410128,1,8,0:0:0:0:
256,192,410237,1,8,0:0:0:0:
256,192,410347,1,0,0:0:0:0:
256,192,410456,1,8,0:0:0:0:
256,192,410566,1,8,0:0:0:0:
256,192,410675,1,0,0:0:0:0:
256,192,410785,1,0,0:0:0:0:
256,192,410894,1,8,0:0:0:0:
256,192,411004,1,0,0:0:0:0:
256,192,411113,1,8,0:0:0:0:
256,192,411223,1,8,0:0:0:0:
256,192,411332,1,0,0:0:0:0:
256,192,411442,1,8,0:0:0:0:
256,192,411551,1,0,0:0:0:0:
256,192,411661,1,0,0:0:0:0:
256,192,411770,1,8,0:0:0:0:
256,192,411880,1,0,0:0:0:0:
256,192,411989,1,8,0:0:0:0:
256,192,412099,1,8,0:0:0:0:
256,192,412208,1,0,0:0:0:0:
256,192,412318,1,8,0:0:0:0:
256,192,412427,1,8,0:0:0:0:
256,192,412537,1,0,0:0:0:0:
256,192,412646,1,8,0:0:0:0:
256,192,412756,1,8,0:0:0:0:
256,192,412865,1,8,0:0:0:0:
256,192,412975,1,0,0:0:0:0:
256,192,413084,1,8,0:0:0:0:
256,192,413194,1,8,0:0:0:0:
256,192,413303,1,0,0:0:0:0:
256,192,413413,1,0,0:0:0:0:
256,192,413522,1,8,0:0:0:0:
256,192,413632,1,8,0:0:0:0:
256,192,413740,1,0,0:0:0:0:
256,192,413850,1,8,0:0:0:0:
256,192,413959,1,8,0:0:0:0:
256,192,414069,1,0,0:0:0:0:
256,192,414178,1,8,0:0:0:0:
256,192,414288,1,8,0:0:0:0:
256,192,414397,1,4,0:0:0:0:
256,192,414616,1,4,0:0:0:0:
256,192,414835,1,4,0:0:0:0:
256,192,415054,1,4,0:0:0:0:
256,192,415275,1,12,0:0:0:0:
256,192,415493,1,0,0:0:0:0:
256,192,415603,1,0,0:0:0:0:
256,192,415712,1,8,0:0:0:0:
256,192,415822,1,8,0:0:0:0:
256,192,415931,1,0,0:0:0:0:
256,192,416041,1,0,0:0:0:0:
256,192,416150,1,8,0:0:0:0:
256,192,416260,1,8,0:0:0:0:
256,192,416369,1,0,0:0:0:0:
256,192,416479,1,8,0:0:0:0:
256,192,416588,1,0,0:0:0:0:
256,192,416698,1,8,0:0:0:0:
256,192,416807,1,0,0:0:0:0:
256,192,416917,1,0,0:0:0:0:
256,192,417026,1,8,0:0:0:0:
256,192,417136,1,0,0:0:0:0:
256,192,417245,1,8,0:0:0:0:
256,192,417355,1,8,0:0:0:0:
256,192,417464,1,0,0:0:0:0:
256,192,417574,1,8,0:0:0:0:
256,192,417683,1,8,0:0:0:0:
256,192,417793,1,0,0:0:0:0:
256,192,417902,1,8,0:0:0:0:
256,192,418012,1,8,0:0:0:0:
256,192,418121,1,8,0:0:0:0:
256,192,418231,1,0,0:0:0:0:
256,192,418340,1,8,0:0:0:0:
256,192,418450,1,8,0:0:0:0:
256,192,418559,1,0,0:0:0:0:
256,192,418669,1,0,0:0:0:0:
256,192,418778,1,8,0:0:0:0:
256,192,418888,1,0,0:0:0:0:
256,192,418997,1,8,0:0:0:0:
256,192,419107,1,8,0:0:0:0:
256,192,419216,1,0,0:0:0:0:
256,192,419326,1,8,0:0:0:0:
256,192,419435,1,0,0:0:0:0:
256,192,419545,1,0,0:0:0:0:
256,192,419654,1,8,0:0:0:0:
256,192,419764,1,0,0:0:0:0:
256,192,419873,1,8,0:0:0:0:
256,192,419983,1,8,0:0:0:0:
256,192,420092,1,0,0:0:0:0:
256,192,420202,1,8,0:0:0:0:
256,192,420311,1,8,0:0:0:0:
256,192,420421,1,0,0:0:0:0:
256,192,420530,1,8,0:0:0:0:
256,192,420640,1,8,0:0:0:0:
256,192,420749,1,8,0:0:0:0:
256,192,420859,1,0,0:0:0:0:
256,192,420968,1,8,0:0:0:0:
256,192,421078,1,8,0:0:0:0:
256,192,421187,1,0,0:0:0:0:
256,192,421297,1,0,0:0:0:0:
256,192,421406,1,8,0:0:0:0:
256,192,421516,1,0,0:0:0:0:
256,192,421625,1,8,0:0:0:0:
256,192,421735,1,8,0:0:0:0:
256,192,421844,1,0,0:0:0:0:
256,192,421954,1,8,0:0:0:0:
256,192,422063,1,0,0:0:0:0:
256,192,422173,1,0,0:0:0:0:
256,192,422282,1,8,0:0:0:0:
256,192,422390,1,0,0:0:0:0:
256,192,422499,1,8,0:0:0:0:
256,192,422609,1,8,0:0:0:0:
256,192,422718,1,0,0:0:0:0:
256,192,422828,1,8,0:0:0:0:
256,192,422937,1,8,0:0:0:0:
256,192,423047,1,0,0:0:0:0:
256,192,423156,1,8,0:0:0:0:
256,192,423266,1,8,0:0:0:0:
256,192,423375,1,8,0:0:0:0:
256,192,423485,1,0,0:0:0:0:
256,192,423594,1,8,0:0:0:0:
256,192,423704,1,8,0:0:0:0:
256,192,423813,1,0,0:0:0:0:
256,192,423923,1,8,0:0:0:0:
256,192,424032,1,4,0:0:0:0:
256,192,424251,1,4,0:0:0:0:
256,192,424470,1,4,0:0:0:0:
256,192,424689,1,4,0:0:0:0:
256,192,424910,1,12,0:0:0:0:
256,192,425785,1,8,0:0:0:0:
256,192,426661,1,4,0:0:0:0:
256,192,427536,1,8,0:0:0:0:
256,192,427755,1,0,0:0:0:0:
256,192,427865,1,0,0:0:0:0:
256,192,427974,1,8,0:0:0:0:
256,192,428084,1,8,0:0:0:0:
256,192,428193,1,8,0:0:0:0:
256,192,428303,1,8,0:0:0:0:
256,192,428412,1,8,0:0:0:0:
256,192,428522,1,8,0:0:0:0:
256,192,428631,1,0,0:0:0:0:
256,192,428741,1,0,0:0:0:0:
256,192,428851,1,12,0:0:0:0:
256,192,429288,1,4,0:0:0:0:
256,192,429726,1,8,0:0:0:0:
256,192,430164,1,8,0:0:0:0:
256,192,430603,1,4,0:0:0:0:
256,192,431040,1,8,0:0:0:0:
256,192,431150,1,0,0:0:0:0:
256,192,431259,1,0,0:0:0:0:
256,192,431369,1,0,0:0:0:0:
256,192,431478,1,8,0:0:0:0:
256,192,431588,1,8,0:0:0:0:
256,192,431697,1,8,0:0:0:0:
256,192,431807,1,8,0:0:0:0:
256,192,431916,1,8,0:0:0:0:
256,192,432026,1,8,0:0:0:0:
256,192,432135,1,0,0:0:0:0:
256,192,432245,1,0,0:0:0:0:
256,192,432354,1,8,0:0:0:0:
256,192,432464,1,8,0:0:0:0:
256,192,432573,1,0,0:0:0:0:
256,192,432683,1,0,0:0:0:0:
256,192,432792,1,12,0:0:0:0:
256,192,433011,1,0,0:0:0:0:
256,192,433230,1,8,0:0:0:0:
256,192,433340,1,0,0:0:0:0:
256,192,433449,1,8,0:0:0:0:
256,192,433668,1,8,0:0:0:0:
256,192,433741,1,8,0:0:0:0:
256,192,433814,1,8,0:0:0:0:
256,192,433887,1,0,0:0:0:0:
256,192,433997,1,8,0:0:0:0:
256,192,434106,1,8,0:0:0:0:
256,192,434216,1,0,0:0:0:0:
256,192,434325,1,8,0:0:0:0:
256,192,434435,1,0,0:0:0:0:
256,192,434544,1,0,0:0:0:0:
256,192,434654,1,8,0:0:0:0:
256,192,434763,1,8,0:0:0:0:
256,192,434873,1,0,0:0:0:0:
256,192,434982,1,0,0:0:0:0:
256,192,435201,1,0,0:0:0:0:
256,192,435311,1,8,0:0:0:0:
256,192,435365,1,0,0:0:0:0:
256,192,435420,1,8,0:0:0:0:
256,192,435475,1,8,0:0:0:0:
256,192,435530,1,0,0:0:0:0:
256,192,435639,1,0,0:0:0:0:
256,192,435748,1,8,0:0:0:0:
256,192,435858,1,0,0:0:0:0:
256,192,435913,1,0,0:0:0:0:
256,192,435967,1,8,0:0:0:0:
256,192,436077,1,8,0:0:0:0:
256,192,436132,1,8,0:0:0:0:
256,192,436186,1,0,0:0:0:0:
256,192,436241,1,0,0:0:0:0:
256,192,436296,1,8,0:0:0:0:
256,192,436369,1,0,0:0:0:0:
256,192,436442,1,8,0:0:0:0:
256,192,436515,1,8,0:0:0:0:
256,192,436588,1,0,0:0:0:0:
256,192,436661,1,0,0:0:0:0:
256,192,436734,1,8,0:0:0:0:
256,192,436807,1,8,0:0:0:0:
256,192,436880,1,8,0:0:0:0:
256,192,436953,1,0,0:0:0:0:
256,192,437026,1,0,0:0:0:0:
256,192,437099,1,0,0:0:0:0:
256,192,437172,1,8,0:0:0:0:
256,192,437391,1,0,0:0:0:0:
256,192,437500,1,8,0:0:0:0:
256,192,437610,1,0,0:0:0:0:
256,192,437829,1,0,0:0:0:0:
256,192,437902,1,8,0:0:0:0:
256,192,437975,1,8,0:0:0:0:
256,192,438048,1,0,0:0:0:0:
256,192,438157,1,8,0:0:0:0:
256,192,438267,1,0,0:0:0:0:
256,192,438376,1,0,0:0:0:0:
256,192,438486,1,8,0:0:0:0:
256,192,438595,1,0,0:0:0:0:
256,192,438705,1,8,0:0:0:0:
256,192,438814,1,8,0:0:0:0:
256,192,438924,1,8,0:0:0:0:
256,192,439033,1,0,0:0:0:0:
256,192,439143,1,8,0:0:0:0:
256,192,439361,1,0,0:0:0:0:
256,192,439580,1,8,0:0:0:0:
256,192,439653,1,8,0:0:0:0:
256,192,439726,1,8,0:0:0:0:
256,192,439799,1,8,0:0:0:0:
256,192,439872,1,0,0:0:0:0:
256,192,439945,1,0,0:0:0:0:
256,192,440018,1,8,0:0:0:0:
256,192,440091,1,8,0:0:0:0:
256,192,440164,1,8,0:0:0:0:
256,192,440237,1,0,0:0:0:0:
256,192,440310,1,0,0:0:0:0:
256,192,440383,1,0,0:0:0:0:
256,192,440456,1,8,0:0:0:0:
256,192,440529,1,8,0:0:0:0:
256,192,440602,1,0,0:0:0:0:
256,192,440675,1,0,0:0:0:0:
256,192,440748,1,0,0:0:0:0:
256,192,440821,1,0,0:0:0:0:
256,192,440894,1,8,0:0:0:0:
256,192,440967,1,0,0:0:0:0:
256,192,441040,1,0,0:0:0:0:
256,192,441113,1,0,0:0:0:0:
256,192,441186,1,0,0:0:0:0:
256,192,441259,1,0,0:0:0:0:
256,192,441332,1,12,0:0:0:0:
256,192,441478,1,0,0:0:0:0:
256,192,441551,1,0,0:0:0:0:
256,192,441624,1,8,0:0:0:0:
256,192,441697,1,0,0:0:0:0:
256,192,441770,1,8,0:0:0:0:
256,192,441843,1,8,0:0:0:0:
256,192,441916,1,0,0:0:0:0:
256,192,441989,1,0,0:0:0:0:
256,192,442062,1,0,0:0:0:0:
256,192,442135,1,0,0:0:0:0:
256,192,442208,1,8,0:0:0:0:
256,192,442281,1,8,0:0:0:0:
256,192,442354,1,0,0:0:0:0:
256,192,442427,1,0,0:0:0:0:
256,192,442500,1,8,0:0:0:0:
256,192,442573,1,8,0:0:0:0:
256,192,442646,1,8,0:0:0:0:
256,192,442719,1,8,0:0:0:0:
256,192,442792,1,0,0:0:0:0:
256,192,442865,1,8,0:0:0:0:
256,192,442938,1,8,0:0:0:0:
256,192,443011,1,0,0:0:0:0:
256,192,443084,1,0,0:0:0:0:
256,192,443157,1,0,0:0:0:0:
256,192,443230,1,0,0:0:0:0:
256,192,443303,1,8,0:0:0:0:
256,192,443522,1,8,0:0:0:0:
256,192,443595,1,0,0:0:0:0:
256,192,443668,1,0,0:0:0:0:
256,192,443741,1,8,0:0:0:0:
256,192,443814,1,0,0:0:0:0:
256,192,443887,1,0,0:0:0:0:
256,192,443960,1,8,0:0:0:0:
256,192,444033,1,8,0:0:0:0:
256,192,444106,1,0,0:0:0:0:
256,192,444179,1,0,0:0:0:0:
256,192,444252,1,0,0:0:0:0:
256,192,444325,1,0,0:0:0:0:
256,192,444398,1,8,0:0:0:0:
256,192,444471,1,8,0:0:0:0:
256,192,444544,1,0,0:0:0:0:
256,192,444617,1,0,0:0:0:0:
256,192,444690,1,8,0:0:0:0:
256,192,444763,1,8,0:0:0:0:
256,192,444836,1,8,0:0:0:0:
256,192,444909,1,0,0:0:0:0:
256,192,444982,1,0,0:0:0:0:
256,192,445055,1,8,0:0:0:0:
256,192,445128,1,0,0:0:0:0:
256,192,445201,1,0,0:0:0:0:
256,192,445274,1,8,0:0:0:0:
256,192,445347,1,8,0:0:0:0:
256,192,445420,1,8,0:0:0:0:
256,192,445493,1,8,0:0:0:0:
256,192,445566,1,0,0:0:0:0:
256,192,445712,1,12,0:0:0:0:
256,192,445931,1,0,0:0:0:0:
256,192,446150,1,8,0:0:0:0:
256,192,446259,1,8,0:0:0:0:
256,192,446369,1,0,0:0:0:0:
256,192,446478,1,0,0:0:0:0:
256,192,446588,1,8,0:0:0:0:
256,192,446643,1,0,0:0:0:0:
256,192,446697,1,8,0:0:0:0:
256,192,446807,1,8,0:0:0:0:
256,192,446916,1,0,0:0:0:0:
256,192,447026,1,0,0:0:0:0:
256,192,447135,1,8,0:0:0:0:
256,192,447245,1,8,0:0:0:0:
256,192,447354,1,0,0:0:0:0:
256,192,447464,1,0,0:0:0:0:
256,192,447573,1,8,0:0:0:0:
256,192,447683,1,8,0:0:0:0:
256,192,447901,1,8,0:0:0:0:
256,192,447974,1,0,0:0:0:0:
256,192,448047,1,0,0:0:0:0:
256,192,448120,1,8,0:0:0:0:
256,192,448193,1,0,0:0:0:0:
256,192,448266,1,0,0:0:0:0:
256,192,448339,1,8,0:0:0:0:
256,192,448412,1,0,0:0:0:0:
256,192,448485,1,0,0:0:0:0:
256,192,448558,1,8,0:0:0:0:
256,192,448631,1,0,0:0:0:0:
256,192,448704,1,0,0:0:0:0:
256,192,448777,1,8,0:0:0:0:
256,192,448850,1,8,0:0:0:0:
256,192,448923,1,0,0:0:0:0:
256,192,448996,1,8,0:0:0:0:
256,192,449069,1,8,0:0:0:0:
256,192,449142,1,0,0:0:0:0:
256,192,449215,1,8,0:0:0:0:
256,192,449288,1,8,0:0:0:0:
256,192,449361,1,0,0:0:0:0:
256,192,449434,1,8,0:0:0:0:
256,192,449507,1,8,0:0:0:0:
256,192,449580,1,0,0:0:0:0:
256,192,449653,1,8,0:0:0:0:
256,192,449726,1,8,0:0:0:0:
256,192,449799,1,8,0:0:0:0:
256,192,449872,1,4,0:0:0:0:
256,192,450091,1,0,0:0:0:0:
256,192,450201,1,8,0:0:0:0:
256,192,450310,1,0,0:0:0:0:
256,192,450420,1,0,0:0:0:0:
256,192,450529,1,8,0:0:0:0:
256,192,450639,1,8,0:0:0:0:
256,192,450748,1,0,0:0:0:0:
256,192,450858,1,8,0:0:0:0:
256,192,450967,1,0,0:0:0:0:
256,192,451077,1,0,0:0:0:0:
256,192,451186,1,8,0:0:0:0:
256,192,451296,1,8,0:0:0:0:
256,192,451405,1,0,0:0:0:0:
256,192,451515,1,8,0:0:0:0:
256,192,451624,1,8,0:0:0:0:
256,192,451734,1,8,0:0:0:0:
256,192,451843,1,0,0:0:0:0:
256,192,451953,1,0,0:0:0:0:
256,192,452062,1,8,0:0:0:0:
256,192,452172,1,8,0:0:0:0:
256,192,452281,1,0,0:0:0:0:
256,192,452391,1,8,0:0:0:0:
256,192,452500,1,0,0:0:0:0:
256,192,452610,1,0,0:0:0:0:
256,192,452719,1,8,0:0:0:0:
256,192,452828,1,0,0:0:0:0:
256,192,452938,1,8,0:0:0:0:
256,192,453047,1,8,0:0:0:0:
256,192,453157,1,0,0:0:0:0:
256,192,453266,1,8,0:0:0:0:
256,192,453376,1,8,0:0:0:0:
256,192,453485,1,0,0:0:0:0:
256,192,453595,1,0,0:0:0:0:
256,192,453704,1,0,0:0:0:0:
256,192,453814,1,0,0:0:0:0:
256,192,453923,1,8,0:0:0:0:
256,192,454033,1,8,0:0:0:0:
256,192,454252,1,8,0:0:0:0:
256,192,454325,1,0,0:0:0:0:
256,192,454398,1,0,0:0:0:0:
256,192,454471,1,8,0:0:0:0:
256,192,454544,1,8,0:0:0:0:
256,192,454617,1,0,0:0:0:0:
256,192,454690,1,8,0:0:0:0:
256,192,454763,1,0,0:0:0:0:
256,192,454836,1,0,0:0:0:0:
256,192,454909,1,8,0:0:0:0:
256,192,454982,1,8,0:0:0:0:
256,192,455055,1,0,0:0:0:0:
256,192,455128,1,8,0:0:0:0:
256,192,455201,1,8,0:0:0:0:
256,192,455274,1,0,0:0:0:0:
256,192,455347,1,0,0:0:0:0:
256,192,455420,1,8,0:0:0:0:
256,192,455493,1,8,0:0:0:0:
256,192,455566,1,8,0:0:0:0:
256,192,455639,1,8,0:0:0:0:
256,192,455712,1,0,0:0:0:0:
256,192,455785,1,0,0:0:0:0:
256,192,455858,1,0,0:0:0:0:
256,192,455931,1,8,0:0:0:0:
256,192,456004,1,8,0:0:0:0:
256,192,456077,1,0,0:0:0:0:
256,192,456150,1,0,0:0:0:0:
256,192,456223,1,12,0:0:0:0:
256,192,456441,1,0,0:0:0:0:
256,192,456660,1,0,0:0:0:0:
256,192,456879,1,0,0:0:0:0:
256,192,456934,1,8,0:0:0:0:
256,192,456989,1,0,0:0:0:0:
256,192,457098,1,8,0:0:0:0:
256,192,457208,1,0,0:0:0:0:
256,192,457317,1,8,0:0:0:0:
256,192,457427,1,8,0:0:0:0:
256,192,457536,1,0,0:0:0:0:
256,192,457646,1,8,0:0:0:0:
256,192,457755,1,0,0:0:0:0:
256,192,457865,1,0,0:0:0:0:
256,192,457974,1,0,0:0:0:0:
256,192,458084,1,8,0:0:0:0:
256,192,458193,1,8,0:0:0:0:
256,192,458303,1,8,0:0:0:0:
256,192,458412,1,0,0:0:0:0:
256,192,458522,1,8,0:0:0:0:
256,192,458631,1,8,0:0:0:0:
256,192,458741,1,0,0:0:0:0:
256,192,458850,1,0,0:0:0:0:
256,192,458960,1,8,0:0:0:0:
256,192,459069,1,0,0:0:0:0:
256,192,459179,1,8,0:0:0:0:
256,192,459288,1,8,0:0:0:0:
256,192,459398,1,0,0:0:0:0:
256,192,459507,1,0,0:0:0:0:
256,192,459726,1,0,0:0:0:0:
256,192,459836,1,8,0:0:0:0:
256,192,459945,1,8,0:0:0:0:
256,192,460055,1,0,0:0:0:0:
256,192,460164,1,0,0:0:0:0:
256,192,460274,1,8,0:0:0:0:
256,192,460383,1,0,0:0:0:0:
256,192,460493,1,0,0:0:0:0:
256,192,460602,1,8,0:0:0:0:
256,192,460712,1,8,0:0:0:0:
256,192,460766,1,8,0:0:0:0:
256,192,460821,1,0,0:0:0:0:
256,192,460931,1,0,0:0:0:0:
256,192,461040,1,8,0:0:0:0:
256,192,461150,1,8,0:0:0:0:
256,192,461259,1,0,0:0:0:0:
256,192,461368,1,0,0:0:0:0:
256,192,461478,1,8,0:0:0:0:
256,192,461587,1,0,0:0:0:0:
256,192,461697,1,0,0:0:0:0:
256,192,461806,1,8,0:0:0:0:
256,192,461916,1,8,0:0:0:0:
256,192,462025,1,0,0:0:0:0:
256,192,462135,1,0,0:0:0:0:
256,192,462244,1,8,0:0:0:0:
256,192,462354,1,0,0:0:0:0:
256,192,462463,1,8,0:0:0:0:
256,192,462573,1,8,0:0:0:0:
256,192,462792,1,8,0:0:0:0:
256,192,462865,1,0,0:0:0:0:
256,192,462938,1,0,0:0:0:0:
256,192,463011,1,0,0:0:0:0:
256,192,463084,1,0,0:0:0:0:
256,192,463157,1,0,0:0:0:0:
256,192,463230,1,8,0:0:0:0:
256,192,463303,1,8,0:0:0:0:
256,192,463376,1,0,0:0:0:0:
256,192,463449,1,0,0:0:0:0:
256,192,463522,1,0,0:0:0:0:
256,192,463595,1,0,0:0:0:0:
256,192,463668,1,8,0:0:0:0:
256,192,463741,1,0,0:0:0:0:
256,192,463814,1,8,0:0:0:0:
256,192,463887,1,0,0:0:0:0:
256,192,463960,1,8,0:0:0:0:
256,192,464033,1,8,0:0:0:0:
256,192,464106,1,8,0:0:0:0:
256,192,464179,1,8,0:0:0:0:
256,192,464252,1,0,0:0:0:0:
256,192,464325,1,0,0:0:0:0:
256,192,464398,1,8,0:0:0:0:
256,192,464471,1,8,0:0:0:0:
256,192,464544,1,0,0:0:0:0:
256,192,464763,1,8,0:0:0:0:
256,192,464835,1,0,0:0:0:0:
256,192,464908,1,0,0:0:0:0:
256,192,464981,1,8,0:0:0:0:
256,192,465054,1,0,0:0:0:0:
256,192,465127,1,0,0:0:0:0:
256,192,465200,1,8,0:0:0:0:
256,192,465273,1,8,0:0:0:0:
256,192,465346,1,0,0:0:0:0:
256,192,465419,1,8,0:0:0:0:
256,192,465492,1,0,0:0:0:0:
256,192,465565,1,8,0:0:0:0:
256,192,465638,1,8,0:0:0:0:
256,192,465711,1,8,0:0:0:0:
256,192,465784,1,8,0:0:0:0:
256,192,465857,1,0,0:0:0:0:
256,192,465930,1,0,0:0:0:0:
256,192,466003,1,0,0:0:0:0:
256,192,466076,1,8,0:0:0:0:
256,192,466149,1,8,0:0:0:0:
256,192,466222,1,0,0:0:0:0:
256,192,466295,1,0,0:0:0:0:
256,192,466368,1,0,0:0:0:0:
256,192,466441,1,0,0:0:0:0:
256,192,466514,1,8,0:0:0:0:
256,192,466624,1,8,0:0:0:0:
256,192,466733,1,8,0:0:0:0:
256,192,466952,1,8,0:0:0:0:
256,192,467025,1,8,0:0:0:0:
256,192,467098,1,8,0:0:0:0:
256,192,467171,1,8,0:0:0:0:
256,192,467244,1,0,0:0:0:0:
256,192,467317,1,0,0:0:0:0:
256,192,467390,1,8,0:0:0:0:
256,192,467463,1,8,0:0:0:0:
256,192,467536,1,8,0:0:0:0:
256,192,467609,1,8,0:0:0:0:
256,192,467682,1,0,0:0:0:0:
256,192,467828,1,0,0:0:0:0:
256,192,467901,1,8,0:0:0:0:
256,192,467974,1,8,0:0:0:0:
256,192,468047,1,8,0:0:0:0:
256,192,468266,1,8,0:0:0:0:
256,192,468339,1,0,0:0:0:0:
256,192,468412,1,0,0:0:0:0:
256,192,468485,1,8,0:0:0:0:
256,192,468704,1,0,0:0:0:0:
256,192,468814,1,8,0:0:0:0:
256,192,469143,1,12,0:0:0:0:
256,192,469361,1,0,0:0:0:0:
256,192,469580,1,8,0:0:0:0:
256,192,469690,1,0,0:0:0:0:
256,192,469799,1,0,0:0:0:0:
256,192,469909,1,0,0:0:0:0:
256,192,470018,1,8,0:0:0:0:
256,192,470237,1,0,0:0:0:0:
256,192,470347,1,8,0:0:0:0:
256,192,470456,1,8,0:0:0:0:
256,192,470566,1,0,0:0:0:0:
256,192,470675,1,8,0:0:0:0:
256,192,470785,1,8,0:0:0:0:
256,192,470894,1,0,0:0:0:0:
256,192,471113,1,0,0:0:0:0:
256,192,471223,1,8,0:0:0:0:
256,192,471332,1,8,0:0:0:0:
256,192,471442,1,0,0:0:0:0:
256,192,471551,1,8,0:0:0:0:
256,192,471661,1,0,0:0:0:0:
256,192,471770,1,8,0:0:0:0:
256,192,471880,1,0,0:0:0:0:
256,192,471989,1,0,0:0:0:0:
256,192,472099,1,8,0:0:0:0:
256,192,472208,1,8,0:0:0:0:
256,192,472427,1,8,0:0:0:0:
256,192,472646,1,8,0:0:0:0:
256,192,472756,1,8,0:0:0:0:
256,192,472865,1,8,0:0:0:0:
256,192,473084,1,8,0:0:0:0:
256,192,473194,1,0,0:0:0:0:
256,192,473303,1,0,0:0:0:0:
256,192,473413,1,0,0:0:0:0:
256,192,473522,1,0,0:0:0:0:
256,192,473741,1,0,0:0:0:0:
256,192,473851,1,8,0:0:0:0:
256,192,473960,1,0,0:0:0:0:
256,192,474070,1,0,0:0:0:0:
256,192,474179,1,8,0:0:0:0:
256,192,474398,1,8,0:0:0:0:
256,192,474617,1,0,0:0:0:0:
256,192,474726,1,8,0:0:0:0:
256,192,474836,1,8,0:0:0:0:
256,192,474945,1,0,0:0:0:0:
256,192,475055,1,8,0:0:0:0:
256,192,475274,1,8,0:0:0:0:
256,192,475493,1,0,0:0:0:0:
256,192,475602,1,8,0:0:0:0:
256,192,475712,1,8,0:0:0:0:
256,192,475931,1,0,0:0:0:0:
256,192,476150,1,8,0:0:0:0:
256,192,476223,1,8,0:0:0:0:
256,192,476296,1,0,0:0:0:0:
256,192,476369,1,0,0:0:0:0:
256,192,476442,1,0,0:0:0:0:
256,192,476515,1,0,0:0:0:0:
256,192,476588,1,8,0:0:0:0:
256,192,476661,1,8,0:0:0:0:
256,192,476734,1,0,0:0:0:0:
256,192,476807,1,0,0:0:0:0:
256,192,476880,1,0,0:0:0:0:
256,192,476953,1,0,0:0:0:0:
256,192,477026,1,8,0:0:0:0:
256,192,477099,1,0,0:0:0:0:
256,192,477172,1,0,0:0:0:0:
256,192,477245,1,8,0:0:0:0:
256,192,477318,1,0,0:0:0:0:
256,192,477391,1,0,0:0:0:0:
256,192,477464,1,8,0:0:0:0:
256,192,477537,1,8,0:0:0:0:
256,192,477610,1,0,0:0:0:0:
256,192,477683,1,8,0:0:0:0:
256,192,477756,1,8,0:0:0:0:
256,192,477829,1,0,0:0:0:0:
256,192,477902,1,8,0:0:0:0:
256,192,477975,1,8,0:0:0:0:
256,192,478048,1,0,0:0:0:0:
256,192,478121,1,0,0:0:0:0:
256,192,478194,1,8,0:0:0:0:
256,192,478267,1,0,0:0:0:0:
256,192,478340,1,8,0:0:0:0:
256,192,478413,1,8,0:0:0:0:
256,192,478486,1,8,0:0:0:0:
256,192,478559,1,8,0:0:0:0:
256,192,478632,1,0,0:0:0:0:
256,192,478778,1,0,0:0:0:0:
256,192,478887,1,8,0:0:0:0:
256,192,478997,1,8,0:0:0:0:
256,192,479106,1,8,0:0:0:0:
256,192,479215,1,8,0:0:0:0:
256,192,479434,1,0,0:0:0:0:
256,192,479653,1,8,0:0:0:0:
256,192,479708,1,0,0:0:0:0:
256,192,479763,1,8,0:0:0:0:
256,192,479818,1,8,0:0:0:0:
256,192,479872,1,0,0:0:0:0:
256,192,479982,1,0,0:0:0:0:
256,192,480091,1,8,0:0:0:0:
256,192,480146,1,8,0:0:0:0:
256,192,480201,1,0,0:0:0:0:
256,192,480310,1,8,0:0:0:0:
256,192,480420,1,8,0:0:0:0:
256,192,480529,1,0,0:0:0:0:
256,192,480584,1,0,0:0:0:0:
256,192,480639,1,8,0:0:0:0:
256,192,480694,1,8,0:0:0:0:
256,192,480748,1,0,0:0:0:0:
256,192,480858,1,0,0:0:0:0:
256,192,480967,1,8,0:0:0:0:
256,192,481022,1,8,0:0:0:0:
256,192,481077,1,0,0:0:0:0:
256,192,481132,1,0,0:0:0:0:
256,192,481186,1,8,0:0:0:0:
256,192,481405,1,8,0:0:0:0:
256,192,481477,1,0,0:0:0:0:
256,192,481550,1,8,0:0:0:0:
256,192,481623,1,8,0:0:0:0:
256,192,481696,1,0,0:0:0:0:
256,192,481769,1,0,0:0:0:0:
256,192,481842,1,8,0:0:0:0:
256,192,481915,1,8,0:0:0:0:
256,192,481988,1,0,0:0:0:0:
256,192,482061,1,0,0:0:0:0:
256,192,482134,1,0,0:0:0:0:
256,192,482207,1,0,0:0:0:0:
256,192,482280,1,8,0:0:0:0:
256,192,482609,1,0,0:0:0:0:
256,192,482718,1,8,0:0:0:0:
256,192,482937,1,0,0:0:0:0:
256,192,483156,1,8,0:0:0:0:
256,192,483229,1,8,0:0:0:0:
256,192,483302,1,8,0:0:0:0:
256,192,483375,1,0,0:0:0:0:
256,192,483448,1,0,0:0:0:0:
256,192,483521,1,0,0:0:0:0:
256,192,483594,1,8,0:0:0:0:
256,192,483813,1,0,0:0:0:0:
256,192,484032,1,0,0:0:0:0:
256,192,484251,1,0,0:0:0:0:
256,192,484361,1,8,0:0:0:0:
256,192,484580,1,0,0:0:0:0:
256,192,484799,1,0,0:0:0:0:
256,192,485018,1,0,0:0:0:0:
256,192,485237,1,0,0:0:0:0:
256,192,485456,1,0,0:0:0:0:
256,192,485565,1,8,0:0:0:0:
256,192,485784,1,8,0:0:0:0:
256,192,486003,1,8,0:0:0:0:
256,192,486222,1,8,0:0:0:0:
256,192,486441,1,0,0:0:0:0:
256,192,486550,1,8,0:0:0:0:
256,192,486769,1,8,0:0:0:0:
256,192,486988,1,8,0:0:0:0:
256,192,487207,1,8,0:0:0:0:
256,192,487426,1,8,0:0:0:0:
256,192,487645,1,0,0:0:0:0:
256,192,487756,1,12,0:0:0:0:
256,192,487974,1,0,0:0:0:0:
256,192,488193,1,0,0:0:0:0:
256,192,488412,1,0,0:0:0:0:
256,192,488522,1,8,0:0:0:0:
256,192,488631,1,8,0:0:0:0:
256,192,488741,1,0,0:0:0:0:
256,192,488960,1,0,0:0:0:0:
256,192,489179,1,0,0:0:0:0:
256,192,489398,1,0,0:0:0:0:
256,192,489617,1,0,0:0:0:0:
256,192,489726,1,12,0:0:0:0:
256,192,489944,1,0,0:0:0:0:
256,192,490163,1,0,0:0:0:0:
256,192,490382,1,0,0:0:0:0:
256,192,490492,1,8,0:0:0:0:
256,192,490601,1,8,0:0:0:0:
256,192,490711,1,0,0:0:0:0:
256,192,490930,1,0,0:0:0:0:
256,192,491149,1,0,0:0:0:0:
256,192,491368,1,0,0:0:0:0:
256,192,491587,1,8,0:0:0:0:
256,192,491696,1,8,0:0:0:0:
256,192,491915,1,12,0:0:0:0:
256,192,492134,1,0,0:0:0:0:
256,192,492353,1,0,0:0:0:0:
256,192,492572,1,0,0:0:0:0:
256,192,492682,1,8,0:0:0:0:
256,192,492791,1,8,0:0:0:0:
256,192,492901,1,0,0:0:0:0:
256,192,493120,1,0,0:0:0:0:
256,192,493339,1,0,0:0:0:0:
256,192,493558,1,0,0:0:0:0:
256,192,493777,1,0,0:0:0:0:
256,192,493887,1,12,0:0:0:0:
256,192,494105,1,0,0:0:0:0:
256,192,494324,1,0,0:0:0:0:
256,192,494543,1,0,0:0:0:0:
256,192,494653,1,8,0:0:0:0:
256,192,494762,1,8,0:0:0:0:
256,192,494872,1,0,0:0:0:0:
256,192,495091,1,0,0:0:0:0:
256,192,495310,1,0,0:0:0:0:
256,192,495529,1,0,0:0:0:0:
256,192,495748,1,8,0:0:0:0:
256,192,495857,1,8,0:0:0:0:
256,192,496076,1,4,0:0:0:0:
256,192,496295,1,0,0:0:0:0:
256,192,496514,1,0,0:0:0:0:
256,192,496733,1,0,0:0:0:0:
256,192,496843,1,0,0:0:0:0:
256,192,496952,1,8,0:0:0:0:
256,192,497062,1,0,0:0:0:0:
256,192,497281,1,0,0:0:0:0:
256,192,497500,1,0,0:0:0:0:
256,192,497719,1,0,0:0:0:0:
256,192,497938,1,0,0:0:0:0:
256,192,498047,1,12,0:0:0:0:
256,192,498265,1,0,0:0:0:0:
256,192,498484,1,0,0:0:0:0:
256,192,498703,1,0,0:0:0:0:
256,192,498813,1,0,0:0:0:0:
256,192,498922,1,8,0:0:0:0:
256,192,499032,1,0,0:0:0:0:
256,192,499251,1,0,0:0:0:0:
256,192,499470,1,0,0:0:0:0:
256,192,499689,1,0,0:0:0:0:
256,192,499908,1,8,0:0:0:0:
256,192,500017,1,4,0:0:0:0:
256,192,500236,1,12,0:0:0:0:
256,192,500455,1,0,0:0:0:0:
256,192,500674,1,0,0:0:0:0:
256,192,500893,1,0,0:0:0:0:
256,192,501003,1,0,0:0:0:0:
256,192,501112,1,8,0:0:0:0:
256,192,501222,1,0,0:0:0:0:
256,192,501441,1,0,0:0:0:0:
256,192,501660,1,0,0:0:0:0:
256,192,501879,1,0,0:0:0:0:
256,192,502098,1,0,0:0:0:0:
256,192,502208,1,12,0:0:0:0:
256,192,502426,1,0,0:0:0:0:
256,192,502645,1,0,0:0:0:0:
256,192,502864,1,0,0:0:0:0:
256,192,502974,1,0,0:0:0:0:
256,192,503083,1,8,0:0:0:0:
256,192,503193,1,0,0:0:0:0:
256,192,503412,1,0,0:0:0:0:
256,192,503631,1,0,0:0:0:0:
256,192,503850,1,0,0:0:0:0:
256,192,504069,1,8,0:0:0:0:
256,192,504178,1,4,0:0:0:0:
256,192,504397,1,12,0:0:0:0:
256,192,504615,1,0,0:0:0:0:
256,192,504834,1,0,0:0:0:0:
256,192,505053,1,0,0:0:0:0:
256,192,505163,1,8,0:0:0:0:
256,192,505272,1,8,0:0:0:0:
256,192,505382,1,0,0:0:0:0:
256,192,505601,1,0,0:0:0:0:
256,192,505820,1,0,0:0:0:0:
256,192,506039,1,0,0:0:0:0:
256,192,506258,1,0,0:0:0:0:
256,192,506367,1,12,0:0:0:0:
256,192,506587,1,0,0:0:0:0:
256,192,506806,1,0,0:0:0:0:
256,192,507025,1,0,0:0:0:0:
256,192,507135,1,8,0:0:0:0:
256,192,507244,1,8,0:0:0:0:
256,192,507354,1,0,0:0:0:0:
256,192,507573,1,0,0:0:0:0:
256,192,507792,1,0,0:0:0:0:
256,192,508011,1,0,0:0:0:0:
256,192,508230,1,8,0:0:0:0:
256,192,508339,1,8,0:0:0:0:
256,192,508558,1,12,0:0:0:0:
256,192,508777,1,0,0:0:0:0:
256,192,508996,1,0,0:0:0:0:
256,192,509215,1,0,0:0:0:0:
256,192,509325,1,8,0:0:0:0:
256,192,509434,1,8,0:0:0:0:
256,192,509544,1,0,0:0:0:0:
256,192,509763,1,0,0:0:0:0:
256,192,509982,1,0,0:0:0:0:
256,192,510201,1,0,0:0:0:0:
256,192,510420,1,0,0:0:0:0:
256,192,510528,1,12,0:0:0:0:
256,192,510746,1,0,0:0:0:0:
256,192,510965,1,8,0:0:0:0:
256,192,511184,1,0,0:0:0:0:
256,192,511294,1,8,0:0:0:0:
256,192,511403,1,8,0:0:0:0:
256,192,511513,1,0,0:0:0:0:
256,192,511733,1,8,0:0:0:0:
256,192,511951,1,0,0:0:0:0:
256,192,512170,1,8,0:0:0:0:
256,192,512389,1,8,0:0:0:0:
256,192,512498,1,8,0:0:0:0:
256,192,512717,1,4,0:0:0:0:
256,192,512936,1,0,0:0:0:0:
256,192,513155,1,0,0:0:0:0:
256,192,513374,1,0,0:0:0:0:
256,192,513484,1,0,0:0:0:0:
256,192,513593,1,8,0:0:0:0:
256,192,513703,1,0,0:0:0:0:
256,192,513922,1,0,0:0:0:0:
256,192,514141,1,0,0:0:0:0:
256,192,514360,1,0,0:0:0:0:
256,192,514579,1,0,0:0:0:0:
256,192,514688,1,12,0:0:0:0:
256,192,514908,1,0,0:0:0:0:
256,192,515127,1,0,0:0:0:0:
256,192,515346,1,0,0:0:0:0:
256,192,515456,1,0,0:0:0:0:
256,192,515565,1,8,0:0:0:0:
256,192,515675,1,0,0:0:0:0:
256,192,515894,1,0,0:0:0:0:
256,192,516113,1,0,0:0:0:0:
256,192,516332,1,0,0:0:0:0:
256,192,516551,1,8,0:0:0:0:
256,192,516660,1,4,0:0:0:0:
256,192,516879,1,12,0:0:0:0:
256,192,517098,1,0,0:0:0:0:
256,192,517317,1,8,0:0:0:0:
256,192,517536,1,0,0:0:0:0:
256,192,517646,1,8,0:0:0:0:
256,192,517755,1,8,0:0:0:0:
256,192,517865,1,0,0:0:0:0:
256,192,518084,1,8,0:0:0:0:
256,192,518303,1,0,0:0:0:0:
256,192,518522,1,8,0:0:0:0:
256,192,518741,1,0,0:0:0:0:
256,192,518850,1,8,0:0:0:0:
256,192,518959,1,0,0:0:0:0:
256,192,519068,1,0,0:0:0:0:
256,192,519178,1,8,0:0:0:0:
256,192,519397,1,8,0:0:0:0:
256,192,519506,1,8,0:0:0:0:
256,192,519616,1,8,0:0:0:0:
256,192,519725,1,0,0:0:0:0:
256,192,519835,1,0,0:0:0:0:
256,192,519944,1,0,0:0:0:0:
256,192,520054,1,0,0:0:0:0:
256,192,520163,1,8,0:0:0:0:
256,192,520218,1,8,0:0:0:0:
256,192,520273,1,8,0:0:0:0:
256,192,520328,1,8,0:0:0:0:
256,192,520383,1,0,0:0:0:0:
256,192,520493,1,8,0:0:0:0:
256,192,520549,1,8,0:0:0:0:
256,192,520604,1,8,0:0:0:0:
256,192,520714,1,0,0:0:0:0:
256,192,520824,1,8,0:0:0:0:
256,192,520879,1,8,0:0:0:0:
256,192,520935,1,0,0:0:0:0:
256,192,521045,1,8,0:0:0:0:
256,192,521155,1,0,0:0:0:0:
256,192,521210,1,0,0:0:0:0:
256,192,521265,1,0,0:0:0:0:
256,192,521376,1,0,0:0:0:0:
256,192,521485,1,8,0:0:0:0:
256,192,521557,1,8,0:0:0:0:
256,192,521630,1,8,0:0:0:0:
256,192,521703,1,8,0:0:0:0:
256,192,521922,1,8,0:0:0:0:
256,192,521995,1,8,0:0:0:0:
256,192,522068,1,8,0:0:0:0:
256,192,522141,1,8,0:0:0:0:
256,192,522579,1,8,0:0:0:0:
256,192,522944,1,8,0:0:0:0:
256,192,523236,1,0,0:0:0:0:
256,192,523346,1,8,0:0:0:0:
256,192,523674,1,8,0:0:0:0:
256,192,524112,1,8,0:0:0:0:
256,192,524184,1,8,0:0:0:0:
256,192,524257,1,8,0:0:0:0:
256,192,524330,1,8,0:0:0:0:
256,192,524549,1,8,0:0:0:0:
256,192,524622,1,8,0:0:0:0:
256,192,524695,1,8,0:0:0:0:
256,192,524768,1,8,0:0:0:0:
256,192,525206,1,8,0:0:0:0:
256,192,525571,1,8,0:0:0:0:
256,192,525864,1,8,0:0:0:0:
256,192,525936,1,0,0:0:0:0:
256,192,526009,1,0,0:0:0:0:
256,192,526082,1,8,0:0:0:0:
256,192,526301,1,8,0:0:0:0:
256,192,526374,1,0,0:0:0:0:
256,192,526447,1,0,0:0:0:0:
256,192,526520,1,8,0:0:0:0:
256,192,526958,1,8,0:0:0:0:
256,192,527323,1,8,0:0:0:0:
256,192,527615,1,0,0:0:0:0:
256,192,527725,1,8,0:0:0:0:
256,192,528053,1,8,0:0:0:0:
256,192,528491,1,8,0:0:0:0:
256,192,528563,1,0,0:0:0:0:
256,192,528636,1,0,0:0:0:0:
256,192,528709,1,8,0:0:0:0:
256,192,528928,1,8,0:0:0:0:
256,192,529001,1,0,0:0:0:0:
256,192,529074,1,0,0:0:0:0:
256,192,529147,1,8,0:0:0:0:
256,192,529585,1,8,0:0:0:0:
256,192,529950,1,8,0:0:0:0:
256,192,530242,1,0,0:0:0:0:
256,192,530352,1,12,0:0:0:0:
256,192,530680,1,4,0:0:0:0:
