osu file format v14

[General]
AudioFilename: audio.mp3
AudioLeadIn: 0
PreviewTime: 302940
Countdown: 0
SampleSet: Drum
StackLeniency: 0.4
Mode: 0
LetterboxInBreaks: 0
WidescreenStoryboard: 0

[Editor]
Bookmarks: 32567,56567,62567,68567,74567,80567,89567,95567,101567,107192,113567,121067,130442,141692,152004,188567,194566,200567,206566,212566,218566,224378,229065,234128,244440,256815,274440,286440,304440,310440,316440,325440,337440,352252
DistanceSpacing: 0.6
BeatDivisor: 4
GridSize: 16
TimelineZoom: 2.599999

[Metadata]
Title:Merkabah
TitleUnicode:Merkabah
Artist:Persefone
ArtistUnicode:Persefone
Creator:Ghouru
Version:Metamorphosis
Source:
Tags:itswinter metanoia progressive melodic metal english silence player
BeatmapID:3917473
BeatmapSetID:1900494

[Difficulty]
HPDrainRate:5
CircleSize:4.4
OverallDifficulty:9.5
ApproachRate:9.7
SliderMultiplier:2
SliderTickRate:0.5

[Events]
//Background and Video events
0,0,"metanoia.jpg",0,0
//Break Periods
2,83579,86052
2,164953,167071
2,265827,267757
2,301640,302940
//Storyboard Layer 0 (Background)
//Storyboard Layer 1 (Fail)
//Storyboard Layer 2 (Pass)
//Storyboard Layer 3 (Foreground)
//Storyboard Layer 4 (Overlay)
//Storyboard Sound Samples

[TimingPoints]
32567,375,4,3,1,40,1,0
32567,-500,4,3,1,40,0,0
43817,-1000,4,3,1,40,0,0
44567,-333.333333333333,4,3,1,40,0,0
49067,-250,4,3,1,40,0,0
50942,-333.333333333333,4,3,1,40,0,0
53567,-500,4,3,1,40,0,0
54129,-400,4,3,1,40,0,0
54692,-333.333333333333,4,3,1,40,0,0
55817,-200,4,3,1,40,0,0
56192,-133.333333333333,4,3,1,40,0,0
56754,-100,4,3,1,70,0,0
57035,-100,4,3,1,5,0,0
57129,-66.6666666666667,4,3,1,70,0,0
57410,-100,4,3,1,5,0,0
57504,-200,4,3,1,70,0,0
57785,-200,4,3,1,5,0,0
57879,-200,4,3,1,70,0,0
58160,-100,4,3,1,5,0,0
58254,-66.6666666666667,4,3,1,70,0,0
58535,-66.6666666666667,4,3,1,5,0,0
58629,-66.6666666666667,4,3,1,70,0,0
59567,-100,4,3,1,70,0,0
60129,-66.6666666666667,4,3,1,70,0,0
60410,-66.6666666666667,4,3,1,5,0,0
60504,-83.3333333333333,4,3,1,70,0,0
60598,-83.3333333333333,4,3,1,5,0,0
60692,-83.3333333333333,4,3,1,70,0,0
60785,-83.3333333333333,4,3,1,5,0,0
60879,-66.6666666666667,4,3,1,70,0,0
60973,-83.3333333333333,4,3,1,5,0,0
61067,-66.6666666666667,4,3,1,70,0,0
62567,-66.6666666666667,4,3,1,70,0,0
71567,-66.6666666666667,4,3,2,70,0,0
71754,-66.6666666666667,4,3,3,70,0,0
71942,-66.6666666666667,4,3,4,70,0,0
72129,-66.6666666666667,4,3,1,70,0,0
77754,-66.6666666666667,4,3,3,70,0,0
77942,-66.6666666666667,4,3,1,70,0,0
78129,-66.6666666666667,4,3,4,70,0,0
78317,-66.6666666666667,4,3,1,70,0,0
78598,-57.1428571428571,4,3,1,70,0,0
79067,-100,4,3,1,70,0,0
79160,-100,4,3,1,40,0,0
79348,-100,4,3,1,70,0,0
79442,-100,4,3,1,40,0,0
79629,-100,4,3,1,70,0,0
79723,-100,4,3,1,40,0,0
79817,-100,4,3,1,70,0,0
80098,-100,4,3,3,70,0,0
80192,-100,4,3,1,70,0,0
80379,-66.6666666666667,4,3,1,70,0,0
80567,-272.702481592582,4,3,1,70,0,0
83379,-272.702481592582,4,3,1,50,0,0
86567,-272.702481592582,4,3,1,70,0,0
87035,-100,4,3,1,70,0,0
87598,-100,4,3,2,70,0,0
87785,-100,4,3,3,70,0,0
87973,-100,4,3,4,70,0,0
88348,-100,4,3,1,70,0,0
98942,-100,4,3,2,70,0,0
99129,-100,4,3,3,70,0,0
99317,-100,4,3,4,70,0,0
99598,-100,4,3,1,70,0,0
99879,-100,4,3,2,70,0,0
100067,-100,4,3,1,70,0,0
101567,-66.6666666666667,4,3,1,70,0,0
101848,-66.6666666666667,4,3,1,5,0,0
101942,-66.6666666666667,4,3,1,70,0,0
102410,-66.6666666666667,4,3,1,5,0,0
102504,-66.6666666666667,4,3,1,70,0,0
102598,-66.6666666666667,4,3,1,5,0,0
102692,375,4,3,1,40,1,0
102692,-66.6666666666667,4,3,1,70,0,0
105973,-66.6666666666667,4,3,1,5,0,0
106067,-66.6666666666667,4,3,1,70,0,0
106160,-66.6666666666667,4,3,1,5,0,0
106254,-66.6666666666667,4,3,4,70,0,0
106629,-66.6666666666667,4,3,1,70,0,0
106723,-66.6666666666667,4,3,1,5,0,0
106817,-66.6666666666667,4,3,4,70,0,0
107192,-100,4,3,1,70,0,0
111692,-50,4,3,1,70,0,0
111973,-50,4,3,1,5,0,0
112067,-50,4,3,1,70,0,0
112160,-50,4,3,2,70,0,0
112254,-50,4,3,3,70,0,0
112348,-50,4,3,4,70,0,0
112442,-50,4,3,1,70,0,0
112535,-50,4,3,1,5,0,0
112629,-50,4,3,1,70,0,0
112723,-50,4,3,1,5,0,0
112817,-50,4,3,1,70,0,0
112910,-50,4,3,2,70,0,0
113004,-50,4,3,3,70,0,0
113098,-50,4,3,4,70,0,0
113192,-100,4,3,1,70,0,0
113567,375,4,3,1,70,1,0
119567,-66.6666666666667,4,3,1,70,0,0
119848,-66.6666666666667,4,3,1,5,0,0
119942,-66.6666666666667,4,3,1,70,0,0
120129,-66.6666666666667,4,3,3,70,0,0
120504,-66.6666666666667,4,3,1,70,0,0
120692,-66.6666666666667,4,3,4,70,0,0
121067,-66.6666666666667,4,3,1,70,0,0
125848,-66.6666666666667,4,3,1,5,0,0
125942,-66.6666666666667,4,3,1,70,0,0
126035,-66.6666666666667,4,3,2,70,0,0
126129,-66.6666666666667,4,3,3,70,0,0
126223,-66.6666666666667,4,3,4,70,0,0
126317,375,3,3,1,70,1,0
126317,-66.6666666666667,3,3,1,70,0,0
127442,-33.3333333333333,3,3,1,70,0,0
127656,-33.3333333333333,3,3,1,5,0,0
127709,-33.3333333333333,3,3,1,70,0,0
128192,-66.6666666666667,3,3,1,70,0,0
129692,-71.4285714285714,3,3,4,70,0,0
130348,-19.4569050120954,3,3,4,5,0,0
130442,375,4,3,1,70,1,0
130442,-50,4,3,1,70,0,0
130723,-50,4,3,1,5,0,0
130817,-100,4,3,1,70,0,0
131098,-100,4,3,1,5,0,0
131192,-100,4,3,1,70,0,0
131473,-100,4,3,1,5,0,0
131567,-100,4,3,1,70,0,0
131848,-100,4,3,1,5,0,0
131942,-100,4,3,1,70,0,0
132973,-100,4,3,1,5,0,0
133067,-100,4,3,1,70,0,0
133254,375,4,3,1,70,1,0
134285,-100,4,3,1,5,0,0
134379,-100,4,3,1,70,0,0
134660,-100,4,3,1,5,0,0
134754,-100,4,3,1,70,0,0
135504,-80,4,3,1,70,0,0
136066,375,4,3,1,70,1,0
136066,-66.6666666666667,4,3,1,70,0,0
136723,-66.6666666666667,4,3,1,5,0,0
136817,-80,4,3,1,70,0,0
137098,-80,4,3,1,5,0,0
137192,-100,4,3,1,70,0,0
137473,-100,4,3,1,5,0,0
137567,-100,4,3,1,70,0,0
137848,-100,4,3,1,5,0,0
137942,-100,4,3,1,70,0,0
138223,-100,4,3,1,5,0,0
138317,-100,4,3,1,70,0,0
138598,-100,4,3,1,5,0,0
138692,-100,4,3,1,70,0,0
138878,375,4,3,1,70,1,0
139160,-100,4,3,1,5,0,0
139254,-66.6666666666667,4,3,1,70,0,0
139628,375,4,3,1,70,1,0
139628,-66.6666666666667,4,3,1,70,0,0
139910,-66.6666666666667,4,3,1,5,0,0
140004,-80,4,3,1,70,0,0
140285,-80,4,3,1,5,0,0
140379,-80,4,3,1,70,0,0
141035,-80,4,3,1,5,0,0
141129,-50,4,3,1,70,0,0
141692,375,4,3,1,70,1,0
141785,-100,4,3,2,70,0,0
141879,-100,4,3,1,70,0,0
142067,-100,4,3,3,70,0,0
142254,-100,4,3,1,70,0,0
142442,-50,4,3,1,70,0,0
144973,-50,4,3,1,5,0,0
145067,-50,4,3,1,70,0,0
145348,-50,4,3,1,5,0,0
145442,-50,4,3,1,70,0,0
147223,-50,4,3,1,5,0,0
147317,-200,4,3,4,70,0,0
147504,-200,4,3,1,70,0,0
148254,-66.6666666666667,4,3,1,70,0,0
149004,375,4,3,1,70,1,0
150504,-100,4,3,2,70,0,0
150879,-100,4,3,3,70,0,0
151066,-100,4,3,4,70,0,0
151254,-100,4,3,1,70,0,0
153035,-100,3,3,1,5,0,0
153129,-100,3,3,1,70,0,0
153504,-66.6666666666667,4,3,1,70,0,0
155097,-66.6666666666667,4,3,2,70,0,0
155191,-66.6666666666667,4,3,1,70,0,0
155379,-66.6666666666667,4,3,3,70,0,0
155472,-66.6666666666667,4,3,2,70,0,0
155566,-66.6666666666667,4,3,1,70,0,0
155754,375,4,3,1,70,1,0
155754,-50,4,3,1,70,0,0
156129,-100,4,3,4,70,0,0
156316,-50,4,3,1,70,0,0
157066,-100,4,3,3,70,0,0
157254,-100,4,3,1,70,0,0
157535,-100,4,3,1,5,0,0
157629,-80,4,3,1,70,0,0
157910,-80,4,3,1,5,0,0
158004,-80,4,3,1,70,0,0
158566,-50,4,3,1,70,0,0
159504,-66.6666666666667,4,3,1,70,0,0
159785,-66.6666666666667,4,3,1,5,0,0
159879,-66.6666666666667,4,3,4,70,0,0
160066,375,4,3,1,70,1,0
160066,-100,4,3,1,70,0,0
161566,-100,4,3,4,70,0,0
161753,-50,4,3,1,70,0,0
162316,-50,4,3,2,70,0,0
162503,-50,4,3,1,70,0,0
162691,-50,4,3,3,70,0,0
163066,-100,4,3,2,70,0,0
163191,-100,4,3,3,70,0,0
163316,-100,4,3,4,70,0,0
163441,-100,4,3,2,70,0,0
163566,-100,4,3,3,70,0,0
163691,-100,4,3,4,70,0,0
163816,-100,4,3,1,70,0,0
164003,-100,4,3,1,5,0,0
164066,-100,4,3,4,70,0,0
164253,-100,4,3,4,5,0,0
164316,-100,4,3,4,70,0,0
164503,-100,4,3,4,5,0,0
164566,-100,4,3,1,70,0,0
164753,-100,4,3,1,5,0,0
167566,-333.333333333333,4,3,1,40,0,0
170941,-500,4,3,1,40,0,0
188472,-500,4,3,1,5,0,0
188566,375,6,3,1,50,1,0
188566,-133.333333333333,6,3,1,50,0,0
188847,-133.333333333333,6,3,1,5,0,0
188941,-133.333333333333,6,3,2,50,0,0
189691,-333.333333333333,6,3,1,50,0,0
190066,-333.333333333333,6,3,2,50,0,0
190628,-333.333333333333,6,3,1,50,0,0
190816,-333.333333333333,6,3,2,50,0,0
191003,-200,6,3,1,50,0,0
191566,375,6,3,2,50,1,0
191566,-200,6,3,2,50,0,0
192691,-200,6,3,1,50,0,0
193066,-200,6,3,2,50,0,0
194003,-200,6,3,1,50,0,0
194566,375,6,3,1,50,1,0
194566,-200,6,3,1,50,0,0
194941,-200,6,3,2,50,0,0
195691,-200,6,3,1,50,0,0
196066,-200,6,3,2,50,0,0
197566,375,6,3,2,50,1,0
197566,-200,6,3,2,50,0,0
198691,-200,6,3,1,50,0,0
199066,-200,6,3,2,50,0,0
199816,-200,6,3,1,50,0,0
200566,375,6,3,2,50,1,0
200566,-133.333333333333,6,3,1,50,0,0
200847,-133.333333333333,6,3,1,5,0,0
200941,-200,6,3,1,50,0,0
203566,375,6,3,1,50,1,0
203566,-200,6,3,1,50,0,0
206566,375,6,3,1,50,1,0
206566,-200,6,3,1,50,0,0
206847,-200,6,3,1,5,0,0
206941,-200,6,3,1,50,0,0
209566,375,6,3,1,50,1,0
209566,-200,6,3,1,50,0,0
210972,-200,6,3,1,5,0,0
211066,-200,6,3,1,50,0,0
212097,-200,6,3,1,5,0,0
212191,-200,6,3,1,50,0,0
212472,-200,6,3,1,5,0,0
212566,375,4,3,2,70,1,0
212566,-50,4,3,1,70,0,0
212753,-50,4,3,1,5,0,0
212847,-50,4,3,1,70,0,0
213034,-50,4,3,1,5,0,0
213128,-125,4,3,1,70,0,0
213597,-125,4,3,1,5,0,0
213691,-37.037037037037,4,3,1,70,0,0
214159,-37.037037037037,4,3,1,5,0,0
214274,-133.333333333333,4,3,2,70,0,0
214441,-133.333333333333,4,3,2,5,0,0
214548,-133.333333333333,4,3,2,70,0,0
214708,-133.333333333333,4,3,2,5,0,0
214816,-133.333333333333,4,3,3,70,0,0
214976,-133.333333333333,4,3,3,5,0,0
215097,-133.333333333333,4,3,3,70,0,0
215284,-133.333333333333,4,3,3,5,0,0
215378,-133.333333333333,4,3,4,70,0,0
215472,-133.333333333333,4,3,4,5,0,0
215566,-100,4,3,1,70,0,0
215847,-100,4,3,1,5,0,0
215941,-100,4,3,1,70,0,0
216128,-50,4,3,1,70,0,0
216409,-50,4,3,1,5,0,0
216503,-100,4,3,4,70,0,0
216878,-50,4,3,1,70,0,0
217159,-50,4,3,1,5,0,0
217253,-50,4,3,1,70,0,0
217441,-100,4,3,1,70,0,0
217816,-100,4,3,2,70,0,0
218191,-100,4,3,3,70,0,0
218378,-100,4,3,4,70,0,0
218566,-100,4,3,1,70,0,0
222597,-100,4,3,3,70,0,0
222784,-100,4,3,4,70,0,0
223066,-100,4,3,1,70,0,0
224378,375,4,3,1,70,1,0
224378,-50,4,3,1,70,0,0
224659,-50,4,3,1,5,0,0
224753,-50,4,3,1,70,0,0
225034,-50,4,3,1,5,0,0
225128,-50,4,3,1,70,0,0
225690,375,4,3,1,70,1,0
225690,-50,4,3,1,70,0,0
225971,-50,4,3,1,5,0,0
226065,-50,4,3,1,70,0,0
226346,-50,4,3,1,5,0,0
226440,-50,4,3,1,70,0,0
226721,-50,4,3,1,5,0,0
226815,-50,4,3,1,70,0,0
227096,-50,4,3,1,5,0,0
227190,-50,4,3,1,70,0,0
227752,375,4,3,1,70,1,0
227752,-50,4,3,1,70,0,0
228034,-50,4,3,1,5,0,0
228128,-50,4,3,1,70,0,0
228409,-50,4,3,1,5,0,0
228503,-50,4,3,1,70,0,0
228690,-50,4,3,2,70,0,0
228878,-50,4,3,3,70,0,0
229065,375,4,3,1,70,1,0
229065,-50,4,3,1,70,0,0
229346,-50,4,3,1,5,0,0
229440,-50,4,3,1,70,0,0
232346,-50,4,3,1,5,0,0
232440,-50,4,3,1,70,0,0
232721,-50,4,3,1,5,0,0
232815,-50,4,3,1,70,0,0
233002,-50,4,3,1,5,0,0
233096,-50,4,3,1,70,0,0
233471,-50,4,3,1,5,0,0
233565,-200,4,3,4,70,0,0
233752,-200,4,3,1,70,0,0
234128,375,4,3,1,70,1,0
234128,-50,4,3,1,70,0,0
234409,-50,4,3,1,5,0,0
234503,-50,4,3,1,70,0,0
234784,-50,4,3,1,5,0,0
234878,-50,4,3,4,70,0,0
235065,-50,4,3,1,70,0,0
235440,375,4,3,1,70,1,0
235440,-50,4,3,1,70,0,0
235721,-50,4,3,1,5,0,0
235815,-50,4,3,1,70,0,0
237690,-50,4,3,1,70,0,0
237971,-50,4,3,1,5,0,0
238065,-50,4,3,1,70,0,0
238346,-50,4,3,1,5,0,0
238440,-100,4,3,1,70,0,0
242190,-50,4,3,1,70,0,0
242940,-66.6666666666667,4,3,4,70,0,0
243221,-66.6666666666667,4,3,4,5,0,0
243315,-66.6666666666667,4,3,4,70,0,0
243596,-66.6666666666667,4,3,4,5,0,0
243690,-50,4,3,1,70,0,0
243971,-50,4,3,1,5,0,0
244065,-50,4,3,1,70,0,0
244346,-50,4,3,1,5,0,0
244440,-66.6666666666667,4,3,1,70,0,0
248190,-133.333333333333,4,3,4,70,0,0
248471,-133.333333333333,4,3,4,5,0,0
248565,-133.333333333333,4,3,2,70,0,0
248752,-133.333333333333,4,3,3,70,0,0
248940,-50,4,3,1,70,0,0
249315,-50,4,3,2,70,0,0
249502,-50,4,3,3,70,0,0
249690,-50,4,3,1,70,0,0
250065,375,4,3,1,70,1,0
250065,-133.333333333333,4,3,1,70,0,0
250346,-133.333333333333,4,3,1,5,0,0
250440,-133.333333333333,4,3,1,70,0,0
250721,-133.333333333333,4,3,1,5,0,0
250815,375,4,3,1,70,1,0
250815,-100,4,3,1,70,0,0
255315,-100,4,3,4,70,0,0
255596,-100,4,3,4,5,0,0
255690,-100,4,3,4,70,0,0
255971,-100,4,3,4,5,0,0
256065,-80,4,3,1,70,0,0
256440,-66.6666666666667,4,3,1,70,0,0
256721,-66.6666666666667,4,3,1,5,0,0
256815,-66.6666666666667,4,3,1,70,0,0
260565,375,4,3,1,70,1,0
260565,-50,4,3,1,70,0,0
260846,-50,4,3,1,5,0,0
260940,-50,4,3,3,70,0,0
261127,-50,4,3,4,70,0,0
261315,-50,4,3,1,70,0,0
261690,-50,4,3,2,70,0,0
261877,-50,4,3,3,70,0,0
262065,-50,4,3,1,70,0,0
262252,-66.6666666666667,4,3,1,70,0,0
262440,375,4,3,1,70,1,0
263940,-100,4,3,1,50,0,0
265627,-100,4,3,1,40,0,0
268440,-100,4,3,1,5,0,0
270690,-200,4,3,1,40,0,0
271065,-166.666666666667,4,3,1,50,0,0
271440,-166.666666666667,4,3,1,60,0,0
271815,-166.666666666667,4,3,1,50,0,0
272190,-166.666666666667,4,3,1,40,0,0
272715,-166.666666666667,4,3,1,70,0,0
274440,-50,4,3,1,70,0,0
274721,-50,4,3,1,5,0,0
274815,-50,4,3,2,70,0,0
275190,-50,4,3,1,70,0,0
275252,-50,4,3,2,70,0,0
275565,-66.6666666666667,4,3,1,70,0,0
275846,-66.6666666666667,4,3,1,5,0,0
275940,-66.6666666666667,4,3,1,70,0,0
276221,-66.6666666666667,4,3,1,5,0,0
276315,-66.6666666666667,4,3,1,70,0,0
276408,-66.6666666666667,4,3,1,5,0,0
276502,-66.6666666666667,4,3,1,70,0,0
276596,-66.6666666666667,4,3,1,5,0,0
276690,-66.6666666666667,4,3,1,70,0,0
276971,-66.6666666666667,4,3,1,5,0,0
277065,-66.6666666666667,4,3,1,70,0,0
277190,-66.6666666666667,4,3,2,70,0,0
277440,-66.6666666666667,4,3,1,70,0,0
277533,-66.6666666666667,4,3,1,5,0,0
277627,-66.6666666666667,4,3,1,70,0,0
277721,-66.6666666666667,4,3,1,5,0,0
277815,-66.6666666666667,4,3,1,70,0,0
278096,-66.6666666666667,4,3,1,5,0,0
278190,-66.6666666666667,4,3,1,70,0,0
278283,-66.6666666666667,4,3,1,5,0,0
278377,-66.6666666666667,4,3,1,70,0,0
278471,-66.6666666666667,4,3,1,5,0,0
278565,-66.6666666666667,4,3,1,70,0,0
278846,-66.6666666666667,4,3,1,5,0,0
278940,-66.6666666666667,4,3,1,70,0,0
279033,-66.6666666666667,4,3,1,5,0,0
279127,-66.6666666666667,4,3,1,70,0,0
279221,-66.6666666666667,4,3,1,5,0,0
279315,-66.6666666666667,4,3,1,70,0,0
279596,-66.6666666666667,4,3,1,5,0,0
279690,-66.6666666666667,4,3,1,70,0,0
279783,-66.6666666666667,4,3,1,5,0,0
279877,-66.6666666666667,4,3,1,70,0,0
280346,-66.6666666666667,4,3,1,5,0,0
280440,-66.6666666666667,4,3,1,70,0,0
280533,-66.6666666666667,4,3,1,5,0,0
280627,-66.6666666666667,4,3,1,70,0,0
280721,-66.6666666666667,4,3,1,5,0,0
280815,-66.6666666666667,4,3,1,70,0,0
280908,-66.6666666666667,4,3,1,5,0,0
281002,-66.6666666666667,4,3,1,70,0,0
281096,-66.6666666666667,4,3,1,5,0,0
281190,-66.6666666666667,4,3,1,70,0,0
281471,-66.6666666666667,4,3,1,5,0,0
281565,-66.6666666666667,4,3,1,70,0,0
281846,-66.6666666666667,4,3,1,5,0,0
281940,-66.6666666666667,4,3,1,70,0,0
282033,-66.6666666666667,4,3,1,5,0,0
282127,-66.6666666666667,4,3,1,70,0,0
282221,-66.6666666666667,4,3,1,5,0,0
282315,-66.6666666666667,4,3,1,70,0,0
282408,-66.6666666666667,4,3,1,5,0,0
282502,-66.6666666666667,4,3,1,70,0,0
282596,-66.6666666666667,4,3,1,5,0,0
282690,-66.6666666666667,4,3,1,70,0,0
282971,-66.6666666666667,4,3,1,5,0,0
283065,-66.6666666666667,4,3,1,70,0,0
283346,-66.6666666666667,4,3,1,5,0,0
283440,-66.6666666666667,4,3,1,70,0,0
283627,-66.6666666666667,4,3,1,5,0,0
283721,-66.6666666666667,4,3,1,70,0,0
284002,-66.6666666666667,4,3,1,5,0,0
284096,-66.6666666666667,4,3,1,70,0,0
284377,-66.6666666666667,4,3,1,5,0,0
284471,-66.6666666666667,4,3,1,70,0,0
284752,-66.6666666666667,4,3,1,5,0,0
284846,-66.6666666666667,4,3,1,70,0,0
285127,-66.6666666666667,4,3,1,5,0,0
285221,-66.6666666666667,4,3,1,70,0,0
285502,-66.6666666666667,4,3,1,5,0,0
285596,-66.6666666666667,4,3,1,70,0,0
285690,-50,4,3,1,70,0,0
285877,-50,4,3,1,5,0,0
285971,-50,4,3,1,70,0,0
286252,-50,4,3,1,5,0,0
286346,-50,4,3,1,70,0,0
287846,-50,4,3,1,5,0,0
288690,-50,4,3,1,70,0,0
289346,-50,4,3,1,5,0,0
289440,-133.333333333333,4,3,1,70,0,0
289721,-133.333333333333,4,3,1,5,0,0
289815,-133.333333333333,4,3,1,70,0,0
289908,-133.333333333333,4,3,1,5,0,0
290002,-133.333333333333,4,3,1,70,0,0
290096,-133.333333333333,4,3,1,5,0,0
290190,-100,4,3,1,70,0,0
290283,-100,4,3,1,5,0,0
290377,-100,4,3,1,70,0,0
290471,-100,4,3,1,5,0,0
290565,-100,4,3,1,70,0,0
290658,-100,4,3,1,5,0,0
290752,-100,4,3,1,70,0,0
290846,-100,4,3,1,5,0,0
290940,-100,4,3,1,70,0,0
291127,-66.6666666666667,4,3,1,70,0,0
291221,-66.6666666666667,4,3,1,5,0,0
291315,-66.6666666666667,4,3,1,70,0,0
291408,-66.6666666666667,4,3,1,5,0,0
291502,-66.6666666666667,4,3,1,70,0,0
291596,-66.6666666666667,4,3,1,5,0,0
291690,-50,4,3,1,70,0,0
291783,-50,4,3,1,5,0,0
291877,-50,4,3,1,70,0,0
291971,-50,4,3,1,5,0,0
292065,-50,4,3,1,70,0,0
292158,-50,4,3,1,5,0,0
292252,-50,4,3,1,70,0,0
293565,-133.333333333333,4,3,1,70,0,0
293658,-133.333333333333,4,3,1,5,0,0
293752,-133.333333333333,4,3,1,70,0,0
293940,-1000,4,3,1,70,0,0
294596,-1000,4,3,1,5,0,0
294690,-50,4,3,1,70,0,0
295346,-50,4,3,1,5,0,0
295440,-66.6666666666667,4,3,1,70,0,0
295721,-66.6666666666667,4,3,1,5,0,0
295815,-66.6666666666667,4,3,1,70,0,0
296096,-66.6666666666667,4,3,1,5,0,0
296190,-66.6666666666667,4,3,1,70,0,0
296471,-66.6666666666667,4,3,1,5,0,0
296565,-66.6666666666667,4,3,1,70,0,0
296846,-66.6666666666667,4,3,1,5,0,0
296940,-66.6666666666667,4,3,1,70,0,0
297221,-66.6666666666667,4,3,1,5,0,0
297315,-66.6666666666667,4,3,1,70,0,0
297596,-66.6666666666667,4,3,1,5,0,0
297690,-50,4,3,1,70,0,0
297971,-50,4,3,1,5,0,0
298065,-50,4,3,1,70,0,0
298346,-50,4,3,1,5,0,0
298440,-50,4,3,1,70,0,0
298533,-50,4,3,1,30,0,0
301440,-50,4,3,1,50,0,0
304440,-100,4,3,1,80,0,1
307440,-66.6666666666667,4,3,1,80,0,1
309690,-66.6666666666667,4,3,2,80,0,1
310065,-66.6666666666667,4,3,1,80,0,1
310252,-66.6666666666667,4,3,3,80,0,1
310440,-66.6666666666667,4,3,1,80,0,1
315127,-66.6666666666667,4,3,2,80,0,1
315315,-66.6666666666667,4,3,1,80,0,1
315502,-66.6666666666667,4,3,3,80,0,1
315690,-66.6666666666667,4,3,1,80,0,1
315877,-66.6666666666667,4,3,4,80,0,1
316065,-66.6666666666667,4,3,1,80,0,1
316440,-66.6666666666667,4,3,1,80,0,0
316815,-66.6666666666667,4,3,1,80,0,1
320190,-66.6666666666667,4,3,3,80,0,1
320377,-66.6666666666667,4,3,2,80,0,1
320565,-66.6666666666667,4,3,4,80,0,1
320940,-66.6666666666667,4,3,1,80,0,1
322440,-66.6666666666667,4,3,1,70,0,0
323471,-133.333333333333,4,3,1,70,0,0
336690,-50,4,3,1,70,0,0
337440,-66.6666666666667,4,3,1,70,0,0
337533,-66.6666666666667,4,3,2,70,0,0
337721,-66.6666666666667,4,3,3,70,0,0
337908,-66.6666666666667,4,3,4,70,0,0
338190,-66.6666666666667,4,3,1,70,0,0
338283,-66.6666666666667,4,3,2,70,0,0
338565,-66.6666666666667,4,3,3,70,0,0
338752,-66.6666666666667,4,3,4,70,0,0
338940,-66.6666666666667,4,3,1,70,0,0
339127,-66.6666666666667,4,3,2,70,0,0
339221,-66.6666666666667,4,3,1,70,0,0
339315,-66.6666666666667,4,3,3,70,0,0
339408,-66.6666666666667,4,3,1,70,0,0
339502,-66.6666666666667,4,3,4,70,0,0
339596,-66.6666666666667,4,3,1,70,0,0
339877,-66.6666666666667,4,3,2,70,0,0
340065,-66.6666666666667,4,3,3,70,0,0
340252,-66.6666666666667,4,3,4,70,0,0
340440,-66.6666666666667,4,3,1,70,0,0
340627,-66.6666666666667,4,3,2,70,0,0
340815,-66.6666666666667,4,3,3,70,0,0
341002,-66.6666666666667,4,3,4,70,0,0
341190,-66.6666666666667,4,3,1,70,0,0
341377,-66.6666666666667,4,3,2,70,0,0
341565,-66.6666666666667,4,3,3,70,0,0
341752,-66.6666666666667,4,3,4,70,0,0
341940,-100,4,3,2,70,0,0
342127,-100,4,3,3,70,0,0
342315,-100,4,3,2,70,0,0
342690,-100,4,3,3,70,0,0
343065,-100,4,3,4,70,0,0
343440,-100,4,3,1,70,0,0
343533,-100,4,3,2,70,0,0
343815,-100,4,3,3,70,0,0
344190,-66.6666666666667,4,3,1,70,0,0
344283,-66.6666666666667,4,3,2,70,0,0
344471,-66.6666666666667,4,3,1,70,0,0
344565,-66.6666666666667,4,3,3,70,0,0
344752,-66.6666666666667,4,3,1,70,0,0
344846,-66.6666666666667,4,3,4,70,0,0
344940,-66.6666666666667,4,3,1,70,0,0
345127,-66.6666666666667,4,3,2,70,0,0
345315,-66.6666666666667,4,3,3,70,0,0
345502,-66.6666666666667,4,3,4,70,0,0
345690,-66.6666666666667,4,3,1,70,0,0
345877,-66.6666666666667,4,3,2,70,0,0
346065,-66.6666666666667,4,3,3,70,0,0
346252,-66.6666666666667,4,3,4,70,0,0
346440,-66.6666666666667,4,3,1,70,0,0
346627,-66.6666666666667,4,3,3,70,0,0
346815,-66.6666666666667,4,3,4,70,0,0
347190,-66.6666666666667,4,3,1,70,0,0
347283,-66.6666666666667,4,3,2,70,0,0
347565,-100,4,3,3,70,0,0
347940,-100,4,3,1,70,0,0
348127,-100,4,3,2,70,0,0
348315,-100,4,3,3,70,0,0
348502,-100,4,3,1,70,0,0
348690,-100,4,3,4,70,0,0
348783,-100,4,3,1,70,0,0
348877,-100,4,3,3,70,0,0
349065,-100,4,3,3,70,0,0
349252,-100,4,3,4,70,0,0
349440,-66.6666666666667,4,3,1,70,0,0
350565,-66.6666666666667,4,3,2,70,0,0
350752,-66.6666666666667,4,3,3,70,0,0
350940,-66.6666666666667,4,3,1,70,0,0
352252,-50,4,3,1,70,0,0
352815,-50,4,3,1,5,0,0

[Colours]
Combo1 : 128,128,128
Combo2 : 209,209,209
Combo3 : 218,241,234
Combo4 : 211,211,241

[HitObjects]
512,368,32567,6,0,P|497:349|478:338,1,40,2|0,2:0|2:0,2:0:0:0:
434,268,33129,2,0,P|419:287|400:298,1,40,2|0,2:0|2:0,2:0:0:0:
338,380,33692,6,0,P|249:356|139:340,1,200,2|0,2:0|2:0,2:0:0:0:
11,58,37067,6,0,P|35:37|66:34,2,60,2|2|2,2:0|2:0|2:0,2:0:0:0:
54,147,38567,1,0,2:0:0:0:
66,135,38942,2,0,B|117:94|200:133|151:153|230:199|292:152,1,240,2|0,2:0|2:0,2:0:0:0:
434,4,41567,6,0,P|425:30|414:65,1,60,2|0,2:0|2:0,2:0:0:0:
387,77,42317,2,0,P|398:110|412:156,1,80,2|0,2:0|2:0,2:0:0:0:
143,222,43817,6,0,P|127:213|113:207,1,30,2|0,2:0|2:0,2:0:0:0:
111,184,44567,2,0,B|165:145|218:180|218:180|223:177|223:177|259:208|248:263|219:280|219:280|272:264|341:280|289:322|369:347|408:320|408:320|384:318|375:308,1,479.999985351563,2|0,2:0|2:0,2:0:0:0:
67,383,49067,6,0,P|94:365|147:345,1,80,2|2,2:0|2:0,2:0:0:0:
191,260,49629,2,0,P|235:289|303:316,1,120,2|2,2:0|2:0,2:0:0:0:
352,203,50567,1,0,2:0:0:0:
364,189,50942,6,0,B|380:152|365:110|326:95|293:98|263:115|244:153|246:200|274:246|301:267,1,299.999990844727,2|0,2:0|2:0,2:0:0:0:
466,372,53379,1,2,2:0:0:0:
455,355,53567,6,0,L|413:369,1,40,2|0,2:0|2:0,2:0:0:0:
379,268,54129,2,0,L|428:284,1,50,2|0,2:0|2:0,2:0:0:0:
448,193,54692,2,0,B|416:177|366:200|406:211|352:248|310:227,1,149.999995422363,2|0,2:0|2:0,2:0:0:0:
247,181,55817,6,0,P|254:148|250:126,1,50,2|0,2:3|2:0,2:0:0:0:
165,146,56192,2,0,P|130:111|77:108,1,75.0000028610231,6|0,2:3|2:0,2:0:0:0:
70,221,56567,5,4,3:0:0:0:
227,350,56754,2,0,B|113:317|113:317|53:334,1,150,0|0,3:0|3:0,3:0:0:0:
10,334,57129,2,0,B|116:304|116:304|121:307|121:307|260:268,1,225.000008583069,8|0,3:0|3:0,3:0:0:0:
280,218,57504,6,0,L|292:131,1,75,0|0,3:0|3:0,3:0:0:0:
212,109,57879,2,0,L|201:183,1,75,0|0,3:0|3:0,3:0:0:0:
305,296,58254,6,0,B|352:265|352:265|459:309|459:309|515:274,1,225.000008583069,8|0,3:0|3:0,3:0:0:0:
511,276,58629,1,0,3:0:0:0:
422,31,58817,6,0,L|396:126,1,75.0000028610231,10|0,3:0|3:0,3:0:0:0:
453,213,59004,2,0,L|472:140,1,75.0000028610231,8|0,3:0|3:0,3:0:0:0:
313,52,59192,1,2,3:0:0:0:
299,58,59285,1,0,3:0:0:0:
285,65,59379,1,0,3:0:0:0:
271,72,59473,1,0,3:0:0:0:
257,76,59567,6,0,B|182:51|182:51|129:70,1,100,10|0,3:0|3:0,3:0:0:0:
149,55,59848,2,0,L|160:-2,1,50,0|2,3:0|3:0,3:0:0:0:
11,116,60035,5,0,3:0:0:0:
0,129,60129,2,0,B|-25:105|-25:105|57:114|57:114|62:119|62:119|125:126|125:126|157:186,1,225.000008583069,8|0,3:0|3:0,3:0:0:0:
205,218,60504,6,0,P|180:236|134:244,1,59.9999981689454,0|0,3:0|3:0,3:0:0:0:
151,256,60692,2,0,P|179:247|203:230,1,59.9999981689454,2|0,3:0|3:0,3:0:0:0:
296,253,60879,2,0,L|281:350,1,75.0000028610231,8|0,3:0|3:0,3:0:0:0:
380,371,61067,5,2,3:0:0:0:
422,358,61160,1,0,3:0:0:0:
464,343,61254,1,0,3:0:0:0:
286,241,61442,1,10,3:0:0:0:
416,280,61629,5,0,3:0:0:0:
428,255,61722,1,0,3:0:0:0:
440,230,61816,1,2,3:0:0:0:
253,336,62004,1,8,3:0:0:0:
368,170,62192,5,2,3:0:0:0:
355,128,62285,1,0,3:0:0:0:
340,86,62379,1,8,3:0:0:0:
484,28,62567,5,4,3:0:0:0:
503,59,62660,1,0,3:0:0:0:
497,96,62754,1,10,3:2:0:0:
469,122,62848,1,0,3:0:0:0:
393,96,62942,5,2,3:2:0:0:
364,52,63035,1,8,3:0:0:0:
312,40,63129,1,2,3:2:0:0:
266,66,63223,1,0,3:0:0:0:
246,148,63317,6,0,L|253:223,1,75.0000028610231,10|0,3:2|3:0,3:0:0:0:
363,220,63504,1,2,3:2:0:0:
363,220,63598,2,0,L|356:295,1,75.0000028610231,8|2,3:0|3:2,3:0:0:0:
217,308,63785,1,0,3:0:0:0:
217,308,63879,2,0,L|224:383,1,75.0000028610231,10|0,3:2|3:0,3:0:0:0:
394,372,64067,5,2,3:2:0:0:
432,336,64160,1,8,3:0:0:0:
429,283,64254,2,0,P|411:253|374:233,1,75.0000028610231,2|0,3:2|3:0,3:0:0:0:
257,63,64442,1,10,3:2:0:0:
271,46,64535,1,0,3:0:0:0:
293,43,64629,1,2,3:2:0:0:
351,83,64723,6,0,B|366:117|366:117|349:170,1,75.0000028610231,8|2,3:0|3:2,3:0:0:0:
171,31,64910,1,0,3:0:0:0:
171,31,65004,2,0,P|222:19|265:4,1,75.0000028610231,10|0,3:2|3:0,3:0:0:0:
177,176,65192,1,2,3:1:0:0:
166,145,65285,1,8,3:0:0:0:
118,116,65379,1,8,3:0:0:0:
51,137,65473,1,0,3:0:0:0:
23,222,65567,5,4,3:1:0:0:
53,243,65660,1,0,3:0:0:0:
89,232,65754,1,0,3:0:0:0:
111,201,65848,1,0,3:0:0:0:
102,164,65942,1,2,3:0:0:0:
74,139,66035,1,0,3:0:0:0:
68,101,66129,1,0,3:0:0:0:
89,69,66223,1,0,3:0:0:0:
183,47,66317,5,8,3:0:0:0:
191,98,66410,1,8,3:0:0:0:
199,149,66504,1,0,3:0:0:0:
207,200,66598,2,0,L|308:187,1,75.0000028610231,8|2,3:0|3:0,3:0:0:0:
158,376,66785,5,0,3:0:0:0:
128,370,66879,1,8,3:0:0:0:
98,363,66973,1,0,3:0:0:0:
14,275,67067,5,2,3:0:0:0:
34,303,67160,2,0,P|86:286|130:280,1,75.0000028610231,0|0,3:0|3:0,3:0:0:0:
271,357,67348,1,0,3:0:0:0:
258,327,67441,2,0,P|221:319|186:306,1,75.0000028610231,2|0,3:0|3:0,3:0:0:0:
81,177,67629,1,0,3:0:0:0:
68,156,67723,1,0,3:0:0:0:
137,75,67817,5,8,3:0:0:0:
181,142,67910,2,0,B|177:173|177:173|179:176|179:176|172:226,1,75.0000028610231,8|0,3:0|3:0,3:0:0:0:
327,26,68098,1,8,3:0:0:0:
283,93,68191,2,0,B|287:124|287:124|285:127|285:127|292:177,1,75.0000028610231,2|0,3:0|3:0,3:0:0:0:
469,49,68379,2,0,P|430:14|403:12,1,75.0000028610231,8|0,3:0|3:0,3:0:0:0:
394,173,68567,5,4,3:0:0:0:
419,214,68660,1,0,3:0:0:0:
469,222,68754,1,0,3:0:0:0:
505,196,68848,1,0,3:0:0:0:
478,130,68942,5,2,3:0:0:0:
470,132,69035,1,0,3:0:0:0:
462,134,69129,1,0,3:0:0:0:
454,136,69223,1,0,3:0:0:0:
385,182,69317,5,8,3:0:0:0:
376,190,69410,2,0,L|288:169,1,75.0000028610231,0|0,3:0|3:0,3:0:0:0:
439,331,69598,5,8,3:0:0:0:
497,289,69691,2,0,L|483:208,1,75.0000028610231,2|0,3:0|3:0,3:0:0:0:
303,258,69879,1,8,3:0:0:0:
356,312,69973,1,8,3:0:0:0:
310,374,70067,5,4,3:2:0:0:
288,366,70160,1,0,3:0:0:0:
266,358,70254,1,0,3:0:0:0:
244,350,70348,1,0,3:0:0:0:
190,308,70442,5,2,3:0:0:0:
182,310,70535,1,0,3:0:0:0:
174,312,70629,1,0,3:0:0:0:
166,314,70723,1,0,3:0:0:0:
104,363,70817,5,8,3:0:0:0:
92,353,70910,2,0,L|-3:339,1,75.0000028610231,0|0,3:0|3:0,3:0:0:0:
152,171,71098,5,8,3:0:0:0:
202,234,71192,2,0,L|186:328,1,75.0000028610231,2|0,3:0|3:0,3:0:0:0:
21,129,71379,5,8,3:0:0:0:
62,189,71473,1,8,3:0:0:0:
130,164,71567,5,8,3:0:0:0:
173,103,71660,1,8,3:0:0:0:
230,100,71754,1,8,3:0:0:0:
270,131,71848,1,8,3:0:0:0:
277,165,71942,2,0,P|247:191|224:241,1,75.0000028610231,8|8,3:0|3:0,3:0:0:0:
306,311,72129,5,12,3:1:0:0:
376,299,72223,1,0,3:0:0:0:
421,292,72317,1,2,3:0:0:0:
446,286,72410,1,0,3:0:0:0:
469,280,72504,1,0,3:0:0:0:
490,276,72598,1,0,3:0:0:0:
506,273,72692,6,0,L|478:357,1,75.0000028610231,12|0,3:2|3:2,3:2:0:0:
364,180,72879,2,0,L|340:108,1,75.0000028610231,12|0,3:2|3:0,3:0:0:0:
461,46,73067,1,0,3:0:0:0:
465,34,73160,1,0,3:0:0:0:
469,24,73254,6,0,P|501:61|515:96,1,75.0000028610231,12|0,3:1|3:0,3:0:0:0:
236,101,73442,2,0,P|252:67|278:40,1,75.0000028610231,12|0,3:1|3:0,3:0:0:0:
422,249,73629,1,12,3:1:0:0:
368,207,73723,1,0,3:0:0:0:
320,214,73817,1,0,3:0:0:0:
298,241,73910,1,0,3:0:0:0:
302,272,74004,5,8,3:0:0:0:
244,229,74098,1,8,3:0:0:0:
174,256,74192,2,0,L|149:343,1,75.0000028610231,2|0,3:0|3:0,3:0:0:0:
421,377,74379,5,8,3:0:0:0:
375,317,74473,1,8,3:0:0:0:
436,259,74567,5,4,3:0:0:0:
433,236,74660,1,0,3:0:0:0:
429,213,74754,2,0,L|340:193,1,75.0000028610231,10|0,3:2|3:0,3:0:0:0:
465,38,74942,5,2,3:2:0:0:
512,99,75035,1,8,3:0:0:0:
441,142,75129,1,2,3:2:0:0:
434,125,75223,1,0,3:0:0:0:
365,63,75317,5,10,3:2:0:0:
343,70,75410,1,0,3:0:0:0:
321,77,75504,1,2,3:2:0:0:
221,144,75598,5,8,3:0:0:0:
243,151,75691,1,2,3:2:0:0:
265,158,75785,1,0,3:0:0:0:
193,19,75879,5,10,3:2:0:0:
171,26,75972,1,0,3:0:0:0:
149,33,76066,1,2,3:2:0:0:
78,106,76160,5,8,3:0:0:0:
81,128,76254,1,2,3:2:0:0:
84,150,76348,1,0,3:0:0:0:
165,220,76442,5,10,3:2:0:0:
162,242,76536,1,0,3:0:0:0:
159,264,76630,1,2,3:2:0:0:
42,309,76723,5,8,3:0:0:0:
55,291,76817,1,2,3:2:0:0:
76,285,76910,1,0,3:0:0:0:
181,344,77004,5,10,3:2:0:0:
194,362,77098,1,0,3:0:0:0:
215,368,77191,1,2,3:1:0:0:
294,324,77285,5,8,3:0:0:0:
286,249,77379,1,8,3:0:0:0:
278,174,77473,1,8,3:0:0:0:
199,127,77567,5,4,3:2:0:0:
146,179,77660,1,8,3:0:0:0:
183,244,77754,1,8,3:0:0:0:
257,235,77848,1,8,3:0:0:0:
264,160,77942,1,8,3:0:0:0:
512,345,78129,5,8,3:0:0:0:
488,273,78223,1,8,3:0:0:0:
414,257,78317,1,4,3:0:0:0:
362,310,78410,2,0,L|368:398,1,75.0000028610231,0|8,3:0|3:0,3:0:0:0:
145,227,78598,6,0,B|184:217|184:217|188:219|188:219|240:207,1,87.500000834465,8|0,3:0|3:0,3:0:0:0:
375,37,78785,1,8,3:0:0:0:
378,59,78879,1,0,3:0:0:0:
325,108,78973,1,8,3:0:0:0:
311,2,79067,6,0,P|280:14|248:24,2,50,8|8|8,3:2|3:1|3:1,3:1:0:0:
197,122,79348,2,0,P|166:110|134:100,2,50,8|8|8,3:2|3:1|3:1,3:0:0:0:
91,8,79629,2,0,P|60:20|28:30,1,50,8|8,3:2|3:1,3:0:0:0:
6,205,79817,5,4,3:1:0:0:
74,195,79910,1,0,3:0:0:0:
143,185,80004,1,0,3:0:0:0:
171,260,80098,5,8,3:0:0:0:
239,270,80191,1,4,3:1:0:0:
308,280,80285,1,0,3:0:0:0:
369,177,80379,6,0,P|377:215|387:263,1,75.0000028610231,2|0,3:0|3:0,3:0:0:0:
511,382,80567,22,1,P|255:295|-1:382,1,550.049994880211,6|0,0:0|2:0,2:0:0:0:
379,151,86567,5,8,0:0:0:0:
463,189,86660,1,8,0:0:0:0:
452,104,86754,1,8,0:0:0:0:
365,62,86942,5,2,3:2:0:0:
298,121,87035,2,0,L|286:57,2,50,8|0|0,0:0|3:0|3:0,0:0:0:0:
140,62,87317,5,8,0:0:0:0:
217,23,87410,1,8,0:0:0:0:
21,182,87598,5,8,3:0:0:0:
20,164,87692,1,8,3:0:0:0:
12,136,87785,5,8,3:0:0:0:
31,127,87879,1,8,3:0:0:0:
53,106,87973,5,8,3:0:0:0:
68,116,88067,1,8,3:0:0:0:
133,151,88160,5,0,3:0:0:0:
81,318,88348,5,12,3:1:0:0:
55,247,88442,1,12,3:1:0:0:
202,263,88629,5,0,3:0:0:0:
195,277,88723,1,0,3:0:0:0:
188,287,88817,1,12,3:2:0:0:
233,345,88910,1,8,3:0:0:0:
299,315,89004,2,0,L|310:237,1,50,0|0,3:0|3:0,3:0:0:0:
340,140,89192,5,12,3:1:0:0:
242,201,89285,1,8,3:0:0:0:
392,241,89379,1,8,3:0:0:0:
212,21,89567,5,6,3:0:0:0:
209,40,89660,1,0,3:0:0:0:
207,59,89754,1,0,3:0:0:0:
435,122,89942,1,2,3:0:0:0:
438,141,90035,1,0,3:0:0:0:
440,160,90129,1,0,3:0:0:0:
318,338,90317,5,10,3:0:0:0:
299,315,90410,2,0,P|251:325|176:336,1,100,0|0,3:0|3:0,3:0:0:0:
131,239,90692,1,2,3:0:0:0:
114,263,90785,1,0,3:0:0:0:
116,292,90879,1,0,3:0:0:0:
190,349,90973,5,8,3:0:0:0:
228,247,91067,5,2,3:0:0:0:
226,225,91160,1,0,3:0:0:0:
22,103,91348,1,0,3:0:0:0:
46,115,91442,1,2,3:0:0:0:
112,70,91535,2,0,L|104:15,1,50,8|0,3:0|3:0,3:0:0:0:
179,136,91723,1,0,3:0:0:0:
206,58,91817,6,0,L|198:113,1,50,10|0,3:0|3:0,3:0:0:0:
270,157,92004,1,0,3:0:0:0:
299,152,92098,1,0,3:0:0:0:
328,148,92192,1,2,3:0:0:0:
374,71,92285,5,8,3:0:0:0:
371,51,92379,1,0,3:0:0:0:
506,198,92567,5,4,3:0:0:0:
493,225,92660,1,0,3:0:0:0:
490,254,92754,1,0,3:0:0:0:
261,384,92942,5,2,3:0:0:0:
277,359,93035,1,0,3:0:0:0:
306,353,93129,1,0,3:0:0:0:
334,363,93223,1,0,3:0:0:0:
374,281,93317,5,10,3:0:0:0:
348,271,93410,1,0,3:0:0:0:
135,248,93598,1,0,3:0:0:0:
114,268,93692,2,0,L|125:336,1,50,2|0,3:0|3:0,3:0:0:0:
207,217,93879,2,0,L|218:149,1,50,0|8,3:0|3:0,3:0:0:0:
66,106,94067,5,2,3:0:0:0:
69,129,94160,1,0,3:0:0:0:
222,339,94348,5,0,3:0:0:0:
225,316,94441,1,2,3:0:0:0:
9,330,94629,1,0,3:0:0:0:
10,352,94723,1,0,3:0:0:0:
12,376,94817,5,10,3:0:0:0:
33,342,94910,1,0,3:0:0:0:
66,320,95004,1,0,3:0:0:0:
106,322,95098,1,0,3:0:0:0:
130,353,95192,5,2,3:0:0:0:
127,313,95285,1,0,3:0:0:0:
151,281,95379,1,0,3:0:0:0:
275,345,95567,5,4,3:0:0:0:
302,334,95660,1,0,3:0:0:0:
329,325,95754,1,0,3:0:0:0:
395,373,95942,5,2,3:0:0:0:
424,378,96035,1,0,3:0:0:0:
451,384,96129,1,0,3:0:0:0:
492,248,96317,5,10,3:0:0:0:
409,241,96410,2,0,L|501:227,1,50,0|0,3:0|3:0,3:0:0:0:
480,148,96598,1,0,3:0:0:0:
485,126,96692,1,2,3:0:0:0:
490,108,96785,1,0,3:0:0:0:
496,89,96879,1,0,3:0:0:0:
453,29,96973,5,8,3:0:0:0:
389,74,97067,1,2,3:0:0:0:
379,66,97160,1,0,3:0:0:0:
184,19,97348,5,0,3:0:0:0:
195,31,97442,1,2,3:0:0:0:
204,114,97535,1,8,3:0:0:0:
236,88,97629,1,0,3:0:0:0:
264,87,97723,1,0,3:0:0:0:
301,154,97817,5,10,3:0:0:0:
297,177,97910,1,0,3:0:0:0:
294,201,98004,1,0,3:0:0:0:
291,223,98098,1,0,3:0:0:0:
248,282,98192,5,10,3:0:0:0:
220,243,98285,1,0,3:0:0:0:
170,248,98379,1,0,3:0:0:0:
22,124,98567,5,8,3:0:0:0:
76,101,98660,1,8,3:0:0:0:
108,144,98754,1,8,3:0:0:0:
185,69,98942,5,8,3:0:0:0:
168,70,99035,1,8,3:0:0:0:
252,48,99129,5,8,3:0:0:0:
260,37,99222,1,8,3:0:0:0:
240,121,99317,5,8,3:0:0:0:
245,135,99410,1,8,3:0:0:0:
387,290,99598,5,0,3:0:0:0:
322,245,99692,1,8,3:0:0:0:
369,201,99785,1,8,3:0:0:0:
426,220,99879,2,0,L|511:204,1,50,8|8,3:0|3:0,3:0:0:0:
477,45,100067,5,0,3:0:0:0:
443,123,100160,1,2,3:0:0:0:
439,137,100348,5,8,3:0:0:0:
386,66,100442,1,12,3:2:0:0:
286,41,100629,5,0,3:0:0:0:
286,41,100723,1,0,3:0:0:0:
286,41,100817,5,8,3:0:0:0:
243,83,100910,1,8,3:0:0:0:
245,134,101004,1,8,3:0:0:0:
296,159,101098,1,8,3:0:0:0:
341,137,101192,5,8,3:0:0:0:
271,108,101285,1,8,3:0:0:0:
195,85,101379,1,8,3:0:0:0:
9,315,101567,6,0,B|-12:277|34:236|95:230|158:281|184:354|162:366,1,225.000008583069,4|0,3:0|3:0,3:0:0:0:
226,384,101942,5,8,3:0:0:0:
235,348,102035,1,0,3:0:0:0:
264,324,102129,1,0,3:0:0:0:
301,327,102223,1,0,3:0:0:0:
385,384,102317,6,0,B|380:353|380:353|382:353|382:353|376:299,1,75.0000028610231,12|0,3:1|0:0,0:0:0:0:
176,77,102504,6,0,B|171:107|171:107|173:107|173:107|167:161,1,75.0000028610231,12|0,3:1|0:0,0:0:0:0:
278,228,102692,5,4,3:0:0:0:
307,221,102785,1,0,0:0:0:0:
336,213,102879,1,0,0:0:0:0:
411,106,103067,5,2,0:0:0:0:
440,113,103160,1,0,0:0:0:0:
469,121,103254,1,0,0:0:0:0:
262,2,103442,5,10,0:0:0:0:
272,39,103535,1,0,0:0:0:0:
105,145,103723,1,0,0:0:0:0:
92,112,103817,1,2,0:2:0:0:
126,95,103910,1,0,0:0:0:0:
142,131,104004,1,0,0:0:0:0:
104,216,104098,5,8,0:0:0:0:
75,212,104192,1,2,0:0:0:0:
46,207,104285,1,0,0:0:0:0:
198,347,104473,5,0,0:0:0:0:
234,338,104567,1,2,0:2:0:0:
294,260,104660,5,8,0:0:0:0:
246,325,104754,1,0,0:0:0:0:
311,372,104848,1,0,0:0:0:0:
368,308,104942,5,8,0:0:0:0:
374,268,105035,1,0,0:0:0:0:
379,226,105129,1,0,0:0:0:0:
384,184,105223,1,0,0:0:0:0:
400,67,105317,5,2,0:2:0:0:
332,130,105410,1,8,0:0:0:0:
402,190,105504,2,0,B|436:186|436:186|438:183|438:183|483:178,1,75.0000028610231
363,384,105692,6,0,P|225:354|72:344,1,225.000008583069,4|0,0:0|0:0,0:0:0:0:
2,259,106067,2,0,P|42:238|82:225,1,75.0000028610231,4|0,0:0|0:0,0:0:0:0:
144,21,106254,5,8,0:0:0:0:
4,82,106442,5,8,0:0:0:0:
240,132,106629,6,0,L|220:246,1,75.0000028610231,12|0,0:1|0:0,0:0:0:0:
327,24,106817,5,8,0:0:0:0:
74,143,107004,5,8,0:0:0:0:
335,240,107192,5,4,0:2:0:0:
334,230,107285,1,0,0:0:0:0:
333,219,107379,1,0,0:0:0:0:
398,352,107567,5,2,0:0:0:0:
364,344,107660,1,0,0:0:0:0:
331,336,107754,1,0,0:0:0:0:
295,328,107848,1,0,0:0:0:0:
256,317,107942,2,0,L|351:295,1,50,8|0,0:0|0:0,0:0:0:0:
203,384,108129,2,0,L|108:362,1,50,2|0,0:2|0:0,0:0:0:0:
100,316,108317,5,2,0:0:0:0:
93,292,108410,1,0,0:0:0:0:
88,270,108504,1,0,0:0:0:0:
25,233,108598,5,8,0:0:0:0:
57,192,108692,1,2,0:0:0:0:
108,200,108785,1,0,0:0:0:0:
205,273,108973,5,8,0:0:0:0:
221,201,109067,1,8,0:0:0:0:
149,64,109254,5,2,0:2:0:0:
149,64,109348,1,0,0:0:0:0:
208,118,109442,5,8,0:0:0:0:
233,109,109535,1,0,0:0:0:0:
261,99,109629,1,0,0:0:0:0:
326,143,109723,5,8,0:0:0:0:
333,150,109817,2,0,L|344:78,1,50
506,30,110004,1,8,0:0:0:0:
438,4,110098,1,8,0:0:0:0:
384,51,110192,5,4,0:0:0:0:
380,75,110285,1,0,0:0:0:0:
376,99,110379,1,0,0:0:0:0:
372,123,110473,1,0,0:0:0:0:
368,147,110567,1,2,0:0:0:0:
417,209,110660,5,8,0:0:0:0:
426,219,110754,2,0,L|506:203,1,50
318,351,110942,5,12,0:1:0:0:
293,288,111035,1,8,0:0:0:0:
344,240,111129,1,8,0:0:0:0:
441,304,111223,5,8,0:0:0:0:
374,311,111317,1,8,0:0:0:0:
353,243,111410,1,8,0:0:0:0:
334,169,111504,1,8,0:0:0:0:
262,163,111598,1,8,0:0:0:0:
184,179,111692,6,0,B|162:251|230:234|221:288|180:312|180:312|191:251|86:220|246:145,1,300,4|0,0:2|0:0,0:0:0:0:
270,148,112067,5,8,0:0:0:0:
342,154,112161,1,8,0:0:0:0:
361,228,112255,1,8,0:0:0:0:
382,296,112348,1,8,0:0:0:0:
449,289,112442,6,0,L|469:184,1,100,8|0,0:0|0:0,0:0:0:0:
185,13,112629,6,0,L|203:111,1,100,8|0,0:0|0:0,0:0:0:0:
489,20,112817,5,12,0:1:0:0:
418,11,112911,1,8,0:0:0:0:
384,74,113004,1,8,0:0:0:0:
352,143,113098,1,8,0:0:0:0:
280,135,113192,6,0,L|262:207,1,50,2|0,0:0|0:0,0:0:0:0:
309,246,113379,2,0,L|327:318,1,50,4|0,0:2|0:0,0:0:0:0:
260,362,113567,5,4,0:0:0:0:
219,373,113660,1,0,0:0:0:0:
180,381,113754,1,0,0:0:0:0:
98,265,113942,5,2,0:0:0:0:
57,254,114035,1,0,0:0:0:0:
18,246,114129,1,0,0:0:0:0:
109,10,114317,5,8,0:0:0:0:
134,30,114410,2,0,L|121:111,1,50
165,150,114598,1,2,0:2:0:0:
229,71,114692,2,0,L|242:152,1,50,2|0,0:0|0:0,0:0:0:0:
303,194,114879,5,0,0:0:0:0:
329,184,114973,1,8,0:0:0:0:
342,94,115067,1,2,0:0:0:0:
317,81,115160,1,0,0:0:0:0:
440,25,115348,5,0,0:0:0:0:
463,14,115442,1,2,0:0:0:0:
506,80,115535,1,8,0:0:0:0:
482,112,115629,1,0,0:0:0:0:
485,151,115723,1,0,0:0:0:0:
435,238,115817,5,10,0:0:0:0:
403,206,115910,1,0,0:0:0:0:
358,199,116004,1,0,0:0:0:0:
320,224,116098,1,0,0:0:0:0:
300,341,116192,5,2,0:0:0:0:
342,351,116285,1,8,0:0:0:0:
372,323,116379,1,0,0:0:0:0:
156,261,116567,5,4,0:0:0:0:
158,275,116660,1,0,0:0:0:0:
160,289,116754,1,0,0:0:0:0:
237,210,116942,5,2,0:0:0:0:
249,185,117035,1,0,0:0:0:0:
206,123,117129,5,0,0:0:0:0:
194,98,117222,1,0,0:0:0:0:
262,11,117317,1,10,0:0:0:0:
288,30,117410,2,0,L|273:99,1,50
118,184,117598,1,2,0:2:0:0:
101,171,117692,5,2,0:0:0:0:
169,149,117785,5,0,0:0:0:0:
237,175,117879,5,0,0:0:0:0:
329,154,117973,5,8,0:0:0:0:
409,202,118067,5,2,0:0:0:0:
407,218,118160,1,0,0:0:0:0:
497,55,118348,1,0,0:0:0:0:
512,79,118442,2,0,L|498:166,1,50,2|0,0:2|0:0,0:0:0:0:
361,33,118629,1,0,0:0:0:0:
323,46,118723,1,0,0:0:0:0:
304,132,118817,5,10,0:0:0:0:
313,182,118910,1,0,0:0:0:0:
373,240,119004,1,0,0:0:0:0:
366,268,119097,1,2,0:2:0:0:
308,326,119192,5,2,0:0:0:0:
281,303,119285,1,0,0:0:0:0:
240,305,119379,1,0,0:0:0:0:
116,384,119567,6,0,P|94:285|46:160,1,225.000008583069,4|0,0:0|0:0,0:0:0:0:
98,38,119942,2,0,P|116:66|145:138,1,75.0000028610231,4|0,0:0|0:0,0:0:0:0:
225,186,120129,5,8,0:0:0:0:
46,291,120317,5,8,0:0:0:0:
307,353,120504,6,0,L|175:320,1,75.0000028610231,12|0,0:1|0:0,0:0:0:0:
388,202,120692,5,8,0:0:0:0:
301,260,120879,5,8,0:0:0:0:
475,324,121067,5,4,0:2:0:0:
484,288,121160,1,0,0:0:0:0:
492,255,121254,1,0,0:0:0:0:
378,179,121442,5,2,0:0:0:0:
369,143,121535,1,0,0:0:0:0:
361,110,121629,1,0,0:0:0:0:
352,74,121723,1,0,0:0:0:0:
397,17,121817,5,10,0:0:0:0:
412,23,121910,1,0,0:0:0:0:
281,99,122098,5,0,0:0:0:0:
266,105,122191,1,2,0:0:0:0:
224,85,122285,1,0,0:0:0:0:
177,64,122379,1,0,0:0:0:0:
112,92,122473,5,8,0:0:0:0:
56,132,122567,1,2,0:0:0:0:
26,117,122660,1,0,0:0:0:0:
162,220,122848,5,8,0:0:0:0:
183,151,122942,1,8,0:0:0:0:
70,255,123129,5,0,0:0:0:0:
73,271,123223,1,0,0:0:0:0:
77,287,123317,2,0,L|-2:269,1,75.0000028610231,12|0,0:1|0:0,0:0:0:0:
263,373,123504,5,0,0:0:0:0:
221,312,123598,2,0,L|142:330,1,75.0000028610231,12|0,0:1|0:0,0:0:0:0:
366,365,123785,5,0,0:0:0:0:
366,365,123879,1,8,0:0:0:0:
410,311,123973,1,8,0:0:0:0:
380,250,124067,5,4,0:0:0:0:
358,243,124160,1,0,0:0:0:0:
336,236,124254,1,0,0:0:0:0:
314,228,124348,1,0,0:0:0:0:
292,221,124442,1,2,0:0:0:0:
336,158,124535,5,8,0:0:0:0:
346,164,124629,2,0,L|437:149,1,75.0000028610231
500,58,124817,5,8,0:0:0:0:
470,14,124910,1,0,0:0:0:0:
424,19,125004,1,0,0:0:0:0:
380,81,125098,5,8,0:0:0:0:
357,102,125192,1,0,0:0:0:0:
323,93,125285,1,0,0:0:0:0:
296,6,125379,5,8,0:0:0:0:
310,13,125473,1,8,0:0:0:0:
236,59,125567,6,0,B|267:71|281:113|281:113|221:72|86:61,1,225.000008583069,4|0,0:0|0:0,0:0:0:0:
8,183,125942,1,8,0:0:0:0:
66,221,126035,1,8,0:0:0:0:
120,175,126129,1,8,0:0:0:0:
87,112,126223,1,8,0:0:0:0:
19,108,126317,6,0,L|2:215,1,75.0000028610231,12|0,0:1|0:0,0:0:0:0:
335,229,126504,6,0,L|323:155,1,75.0000028610231,12|0,0:1|0:0,0:0:0:0:
105,301,127442,6,0,B|81:301|65:290|65:290|53:308|29:321|29:321|282:272,1,342.857155936105,8|0,0:0|0:0,0:0:0:0:
289,282,127709,1,0,0:0:0:0:
301,290,127763,1,0,0:0:0:0:
311,299,127817,5,10,0:0:0:0:
447,269,127942,1,10,0:0:0:0:
185,174,128067,1,10,0:0:0:0:
329,155,128192,6,0,P|370:164|431:172,1,75.0000028610231,8|0,0:0|0:0,0:0:0:0:
258,0,128379,2,0,P|225:184|210:323,1,300.000011444092,2|0,0:0|0:0,0:0:0:0:
357,307,129692,6,0,B|373:309|406:309|432:293|432:293|470:310|479:345|479:345|292:305|292:305|286:301|286:301|134:270,1,489.999985046387
78,213,130442,6,0,B|80:174|62:165|30:162|3:164|-22:194|-35:244|-37:297|-5:346|25:363|69:323|74:284|73:265,1,300,4|0,0:1|0:0,0:0:0:0:
137,263,130817,2,0,B|171:240|226:265|198:276|247:302|292:272,1,150,2|0,0:0|0:0,0:0:0:0:
313,58,131192,2,0,B|280:93|280:93|326:210,1,150,10|0,0:0|0:0,0:0:0:0:
512,69,131567,2,0,P|484:21|392:34,1,150,2|0,0:0|0:0,0:0:0:0:
384,104,131942,5,2,0:0:0:0:
200,49,132129,2,0,P|249:43|307:32,1,100,0|2,0:0|0:0,0:0:0:0:
261,121,132504,1,0,0:0:0:0:
178,259,132692,6,0,B|152:249|142:222|142:222|176:120,1,150,8|0,0:0|0:0,0:0:0:0:
189,138,133067,1,2,0:0:0:0:
258,315,133254,2,0,P|306:297|357:284,1,100,4|0,0:1|0:0,0:0:0:0:
178,259,133629,2,0,B|175:286|154:308|154:308|176:339|173:368,1,100,2|0,0:0|0:0,0:0:0:0:
6,274,134004,6,0,B|65:259|65:259|68:263|68:263|161:237,1,150,8|0,0:0|0:0,0:0:0:0:
256,89,134379,6,0,B|220:75|189:141|232:166|260:141|267:202|241:231,1,150,2|0,0:0|0:0,0:0:0:0:
223,278,134754,5,0,0:0:0:0:
56,174,134942,2,0,P|101:131|151:153,1,100
176,30,135254,2,0,P|150:15|119:14,2,44.4444444444444
256,89,135504,6,0,B|312:80|312:80|316:83|316:83|382:71,1,125,12|0,0:1|0:0,0:0:0:0:
512,0,135879,1,8,0:0:0:0:
512,323,136066,6,0,P|476:304|432:290,1,75.0000028610231,4|0,0:0|0:0,0:0:0:0:
346,209,136253,2,0,P|381:190|425:176,1,75.0000028610231,4|0,0:0|0:0,0:0:0:0:
316,363,136441,6,0,B|287:335|287:335|86:391,1,225.000008583069,4|0,0:0|0:0,0:0:0:0:
20,321,136817,2,0,B|107:297|107:297|113:299|113:299|237:266,1,187.5,12|0,0:1|0:0,0:0:0:0:
258,176,137192,2,0,L|93:220,1,150,4|0,0:1|0:0,0:0:0:0:
25,15,137567,6,0,B|-3:60|12:93|12:93|50:117|50:160,1,150,4|0,0:1|0:0,0:0:0:0:
196,80,137942,2,0,B|215:61|217:36|217:36|198:1|147:-18|100:33,1,150,4|0,0:1|0:0,0:0:0:0:
135,143,138317,6,0,B|166:153|184:186|184:186|219:143|279:145,1,150,12|0,0:1|0:0,0:0:0:0:
285,18,138692,2,0,L|298:88,1,50,4|0,0:2|0:0,0:0:0:0:
512,142,138878,2,0,B|450:124|450:124|447:127|447:127|358:99,1,150,4|0,0:0|0:0,0:0:0:0:
330,180,139254,6,0,L|318:283,1,75.0000028610231,12|0,0:1|0:0,0:0:0:0:
171,0,139440,2,0,L|183:103,1,75.0000028610231,8|0,0:0|0:0,0:0:0:0:
0,256,139628,6,0,B|15:228|70:228|88:263|88:263|95:255|95:255|115:285|177:302|206:232,1,225.000008583069,4|0,0:2|0:0,0:0:0:0:
213,381,140004,2,0,B|164:337|200:276|200:276|245:270|261:307,1,187.5,4|0,0:1|0:0,0:0:0:0:
435,362,140379,2,0,L|267:393,1,125,4|0,0:1|0:0,0:0:0:0:
313,170,140754,6,0,B|393:182|393:182|396:187|396:187|540:208,1,187.5,4|0,0:0|0:0,0:0:0:0:
512,217,141129,6,0,L|498:335,1,100,12|0,0:1|0:0,0:0:0:0:
252,4,141315,2,0,L|266:122,1,100,12|0,0:1|0:0,0:0:0:0:
512,47,141504,6,0,B|471:37|471:37|467:39|467:39|367:17,1,100,12|0,0:1|0:0,0:0:0:0:
229,188,141692,5,8,0:0:0:0:
208,221,141785,1,8,0:0:0:0:
208,247,141879,1,0,0:0:0:0:
221,267,141973,1,0,0:0:0:0:
284,336,142067,5,8,0:0:0:0:
295,298,142160,1,8,0:0:0:0:
315,281,142254,1,0,0:0:0:0:
339,279,142348,1,0,0:0:0:0:
393,323,142442,6,0,B|402:373|402:373|341:388,1,100,12|0,0:1|0:0,0:0:0:0:
23,191,142629,2,0,B|71:179|71:179|77:180|77:180|139:166,1,100,12|0,0:1|0:0,0:0:0:0:
419,79,142817,6,0,L|401:204,1,100,12|0,0:1|0:0,0:0:0:0:
185,377,143004,2,0,L|170:278,1,100,12|0,0:1|0:0,0:0:0:0:
207,98,143192,5,0,0:0:0:0:
216,94,143285,1,0,0:0:0:0:
225,90,143379,1,0,0:0:0:0:
234,86,143473,1,0,0:0:0:0:
297,116,143567,5,0,0:0:0:0:
306,112,143660,1,0,0:0:0:0:
315,108,143754,1,0,0:0:0:0:
324,104,143848,1,0,0:0:0:0:
377,21,143942,5,0,0:0:0:0:
368,17,144035,1,0,0:0:0:0:
359,13,144129,1,0,0:0:0:0:
350,9,144223,1,0,0:0:0:0:
287,39,144317,5,0,0:0:0:0:
278,35,144410,1,0,0:0:0:0:
269,31,144504,1,0,0:0:0:0:
260,27,144598,1,0,0:0:0:0:
182,36,144692,6,0,B|174:21|160:19|160:19|165:8|165:0|165:0|205:2|219:36|209:86|209:86|211:89|211:89|172:110|165:177|165:177|138:118,1,300,4|0,0:2|0:0,0:0:0:0:
75,149,145067,6,0,P|220:124|398:106,1,300,4|0,0:0|0:0,0:0:0:0:
378,117,145442,2,0,P|314:124|247:138,1,100,2|0,0:0|0:0,0:0:0:0:
436,0,145629,1,8,0:0:0:0:
355,286,145817,2,0,B|319:244|319:244|340:189,1,100,4|0,0:1|0:0,0:0:0:0:
495,100,146004,2,0,B|484:150|484:150|486:153|486:153|467:234,1,100
415,354,146192,5,6,0:0:0:0:
452,288,146317,1,0,0:0:0:0:
409,228,146442,1,0,0:0:0:0:
266,368,146567,5,2,0:0:0:0:
223,308,146692,1,0,0:0:0:0:
260,242,146817,1,0,0:0:0:0:
341,295,146942,6,0,B|363:336|363:336|260:306|260:306|255:310|255:310|159:281|159:281|97:318,1,300,10|0,0:0|0:0,0:0:0:0:
61,372,147317,6,0,L|101:364,1,25,8|0,0:0|0:0,0:0:0:0:
191,213,147504,1,4,0:1:0:0:
161,206,147598,1,0,0:0:0:0:
131,199,147692,1,0,0:0:0:0:
101,193,147785,1,0,0:0:0:0:
56,143,147879,5,4,0:1:0:0:
54,133,147973,1,0,0:0:0:0:
52,123,148067,1,0,0:0:0:0:
50,113,148160,1,0,0:0:0:0:
110,50,148254,6,0,L|126:128,1,75.0000028610231,12|0,0:0|0:0,0:0:0:0:
195,75,148442,2,0,L|211:153,1,75.0000028610231,2|0,0:0|0:0,0:0:0:0:
286,127,148629,6,0,L|271:54,1,75.0000028610231
352,75,148817,2,0,L|337:2,1,75.0000028610231,2|0,0:0|0:0,0:0:0:0:
464,26,149004,5,0,0:0:0:0:
456,37,149097,1,8,0:0:0:0:
449,50,149191,1,8,0:0:0:0:
478,109,149285,5,4,0:2:0:0:
492,131,149379,1,8,0:0:0:0:
498,161,149472,1,8,0:0:0:0:
443,209,149566,6,0,P|436:231|426:285,1,50,0|8,0:0|0:0,0:0:0:0:
346,371,149754,5,0,0:0:0:0:
400,370,149847,1,8,0:0:0:0:
438,330,149941,1,8,0:0:0:0:
435,274,150035,1,8,0:0:0:0:
373,224,150129,5,8,0:0:0:0:
361,238,150222,1,8,0:0:0:0:
341,255,150316,1,8,0:0:0:0:
270,232,150410,5,0,0:0:0:0:
244,210,150504,1,8,0:0:0:0:
234,179,150597,1,8,0:0:0:0:
279,123,150691,5,8,0:0:0:0:
299,89,150785,1,8,0:0:0:0:
336,73,150879,1,8,0:0:0:0:
365,79,150972,1,8,0:0:0:0:
385,92,151066,2,0,P|394:124|414:160,1,50,8|8,0:0|0:0,0:0:0:0:
493,174,151254,5,12,0:1:0:0:
493,174,151347,1,0,0:0:0:0:
421,259,151441,5,12,0:1:0:0:
421,259,151534,1,0,0:0:0:0:
342,202,151629,5,12,0:1:0:0:
342,202,151722,1,0,0:0:0:0:
267,268,151816,5,12,0:1:0:0:
267,268,151909,1,0,0:0:0:0:
193,209,152004,6,0,P|110:227|-3:260,1,200,4|0,0:0|0:0,0:0:0:0:
148,306,152504,2,0,P|174:298|205:288,2,44.4444444444444
283,384,152754,6,0,B|277:316|277:316|280:313|280:313|272:204,1,150,12|0,0:1|0:0,0:0:0:0:
342,166,153129,2,0,L|351:252,1,50,4|0,0:0|0:0,0:0:0:0:
430,302,153316,2,0,L|439:216,1,50,4|0,0:2|0:0,0:0:0:0:
512,81,153504,6,0,P|455:94|411:110,2,100.000003814697,12|0|0,0:0|0:0|0:0,0:0:0:0:
251,28,153879,2,0,P|308:15|352:-1,2,100.000003814697,10|0|0,0:0|0:0|0:0,0:0:0:0:
165,175,154254,5,10,0:0:0:0:
141,87,154379,1,0,0:0:0:0:
226,114,154504,1,0,0:0:0:0:
154,171,154629,5,10,0:0:0:0:
156,78,154754,1,0,0:0:0:0:
230,130,154879,1,0,0:0:0:0:
149,191,155004,5,8,0:0:0:0:
112,204,155097,1,8,0:0:0:0:
74,182,155191,1,0,0:0:0:0:
38,193,155285,1,0,0:0:0:0:
7,260,155379,5,8,0:0:0:0:
24,274,155472,1,8,0:0:0:0:
33,294,155566,1,0,0:0:0:0:
34,316,155660,1,0,0:0:0:0:
10,384,155754,6,0,P|47:352|105:349,1,100,12|0,0:1|0:0,0:0:0:0:
221,99,155941,2,0,B|177:89|177:89|174:92|174:92|87:74,1,100,12|0,0:1|0:0,0:0:0:0:
284,214,156129,6,0,L|336:202,1,50,8|0,0:0|0:0,0:0:0:0:
415,9,156316,6,0,L|397:133,1,100,4|0,0:2|0:0,0:0:0:0:
512,324,156691,6,0,B|490:311|480:285|480:285|458:302|390:289,1,100,12|0,0:1|0:0,0:0:0:0:
219,338,156879,2,0,B|241:351|251:377|251:377|273:360|341:373,1,100,12|0,0:1|0:0,0:0:0:0:
204,181,157066,6,0,P|194:219|184:244,1,50,8|0,0:0|0:0,0:0:0:0:
0,328,157254,6,0,B|68:312|68:312|71:317|71:317|160:295,1,150.000005722046,4|0,0:2|0:0,0:0:0:0:
218,196,157629,2,0,B|134:176|134:176|130:182|130:182|20:155,1,187.5,4|0,0:2|0:0,0:0:0:0:
9,152,158004,5,2,0:0:0:0:
233,9,158191,1,8,0:0:0:0:
168,141,158379,6,0,B|144:135|144:135|142:138|142:138|105:131,1,62.5,4|0,0:0|0:0,0:0:0:0:
50,50,158566,2,0,B|98:38|98:38|100:41|100:41|148:29,1,100
284,104,158754,5,4,0:2:0:0:
333,161,158879,1,0,0:0:0:0:
304,230,159004,1,0,0:0:0:0:
169,242,159129,5,4,0:2:0:0:
226,193,159254,1,0,0:0:0:0:
295,222,159379,1,0,0:0:0:0:
366,332,159504,6,0,B|381:319|381:319|348:136|348:136|374:114,1,225.000008583069,12|0,0:0|0:0,0:0:0:0:
380,128,159879,1,8,0:0:0:0:
512,294,160066,5,4,0:0:0:0:
494,263,160159,1,0,0:0:0:0:
460,252,160253,1,0,0:0:0:0:
425,259,160347,1,0,0:0:0:0:
445,338,160441,5,2,0:0:0:0:
427,369,160534,1,0,0:0:0:0:
393,380,160628,1,0,0:0:0:0:
358,373,160722,1,0,0:0:0:0:
292,297,160816,5,8,0:0:0:0:
263,256,160909,1,0,0:0:0:0:
213,247,161003,1,0,0:0:0:0:
169,271,161097,1,0,0:0:0:0:
99,250,161191,5,2,0:0:0:0:
128,268,161284,1,0,0:0:0:0:
142,299,161378,1,0,0:0:0:0:
137,333,161472,1,0,0:0:0:0:
49,318,161566,5,8,0:0:0:0:
6,49,161753,6,0,L|26:178,1,100,12|0,0:1|0:0,0:0:0:0:
247,12,161941,2,0,B|201:3|201:3|199:7|199:7|107:-8,1,100,12|0,0:1|0:0,0:0:0:0:
236,198,162128,2,0,P|287:177|377:171,1,100,12|0,0:1|0:0,0:0:0:0:
415,26,162316,5,8,0:0:0:0:
396,1,162409,1,8,0:0:0:0:
390,30,162503,1,0,0:0:0:0:
409,53,162597,1,0,0:0:0:0:
512,0,162691,6,0,L|386:34,1,100,8|0,0:0|0:0,0:0:0:0:
326,156,162878,2,0,L|200:122,1,100,8|0,0:0|0:0,0:0:0:0:
139,32,163066,6,8,P|132:51|129:71,2,33.3333333333333
29,101,163253,2,0,P|36:120|39:140,2,33.3333333333333,8|8|8,0:0|0:0|0:0,0:0:0:0:
98,225,163441,5,8,0:0:0:0:
105,214,163503,1,8,0:0:0:0:
114,205,163566,1,8,0:0:0:0:
126,200,163628,1,8,0:0:0:0:
139,198,163691,1,8,0:0:0:0:
152,200,163753,1,8,0:0:0:0:
163,208,163816,6,0,B|169:254|169:254|172:257|172:257|182:326,1,100,4|0,0:2|0:0,0:0:0:0:
289,257,164066,6,0,B|282:303|282:303|280:306|280:306|270:375,1,100,8|0,0:0|0:0,0:0:0:0:
391,210,164316,6,0,B|397:256|397:256|400:259|400:259|410:328,1,100,8|0,0:0|0:0,0:0:0:0:
507,322,164566,6,0,P|477:296|412:302,1,100,12|0,0:2|0:0,0:0:0:0:
218,15,167566,6,0,L|230:111,1,89.9999972534181,2|0,2:0|2:0,2:0:0:0:
250,122,168316,2,0,L|238:218,1,89.9999972534181,2|0,2:0|2:0,2:0:0:0:
164,244,169066,6,0,P|131:221|75:221,2,89.9999972534181,2|2|2,2:0|2:0|2:0,2:0:0:0:
0,384,170566,1,0,2:0:0:0:
10,375,170941,2,0,P|72:336|274:357,1,280,2|2,2:0|2:0,2:0:0:0:
275,363,174316,1,2,2:0:0:0:
475,45,175066,5,2,2:1:0:0:
461,59,175816,6,0,P|444:40|444:5,1,60,2|0,2:1|2:0,2:0:0:0:
347,2,176566,6,0,B|228:14|228:14|259:41|269:79|254:129|205:144|161:104|173:66,1,320,2|2,2:0|2:0,2:0:0:0:
178,63,180316,1,2,2:0:0:0:
214,150,181066,6,0,L|209:198,1,40,2|2,2:0|2:0,2:0:0:0:
133,195,181628,2,0,L|141:261,1,60,2|2,2:0|2:0,2:0:0:0:
253,348,182566,5,0,2:0:0:0:
261,357,182941,2,0,P|328:343|385:333,1,120,2|0,2:0|2:0,2:0:0:0:
256,192,185566,12,0,188472,0:0:0:0:
283,360,188566,6,0,P|321:321|378:322,1,112.500004291535,4|0,0:0|0:0,0:0:0:0:
444,366,188941,1,2,0:2:0:0:
444,366,189128,1,0,0:0:0:0:
445,280,189316,1,2,0:2:0:0:
445,280,189503,1,0,0:0:0:0:
289,192,189691,6,0,P|262:196|227:206,2,59.9999981689454,8|2|2,0:0|0:2|0:2,0:0:0:0:
371,131,190628,1,8,0:0:0:0:
376,124,190722,1,8,0:0:0:0:
381,117,190816,1,2,0:2:0:0:
351,20,191003,2,0,P|338:49|318:73,1,50,8|0,0:0|0:0,0:0:0:0:
308,70,191341,1,0,0:0:0:0:
182,46,191566,6,0,P|169:4|156:-15,2,50,2|0|2,0:2|0:0|0:2,0:0:0:0:
146,110,192128,1,0,0:0:0:0:
19,65,192316,5,2,0:2:0:0:
96,37,192503,1,0,0:0:0:0:
3,160,192691,1,8,0:0:0:0:
195,242,193066,6,0,L|88:227,1,100,2|2,0:2|0:2,0:0:0:0:
86,222,193628,1,0,0:0:0:0:
131,153,193816,1,2,0:2:0:0:
150,374,194003,2,0,P|133:336|123:317,1,50,8|2,0:0|0:2,0:0:0:0:
56,294,194378,1,0,0:0:0:0:
262,363,194566,6,0,L|315:357,1,50,4|0,0:1|0:0,0:0:0:0:
337,278,194941,2,0,L|390:284,1,50,2|0,0:2|0:0,0:0:0:0:
444,350,195316,1,2,0:2:0:0:
444,350,195503,1,0,0:0:0:0:
496,243,195691,2,0,P|486:186|480:151,1,75,8|0,0:0|0:0,0:0:0:0:
462,147,196066,5,2,0:2:0:0:
462,139,196159,1,0,0:0:0:0:
463,131,196253,1,0,0:0:0:0:
463,123,196347,1,0,0:0:0:0:
487,94,196441,5,2,0:2:0:0:
462,88,196534,1,0,0:0:0:0:
437,82,196628,1,0,0:0:0:0:
412,75,196722,1,0,0:0:0:0:
377,95,196816,5,2,0:2:0:0:
352,89,196909,1,0,0:0:0:0:
327,83,197003,1,0,0:0:0:0:
302,76,197097,1,0,0:0:0:0:
263,44,197191,5,2,0:2:0:0:
271,55,197284,1,0,0:0:0:0:
275,69,197378,1,0,0:0:0:0:
275,84,197472,1,0,0:0:0:0:
215,148,197566,6,0,P|178:127|115:126,1,100,2|2,0:2|0:2,0:0:0:0:
66,200,198128,1,0,0:0:0:0:
66,200,198316,2,0,P|81:232|89:267,1,50,2|0,0:2|0:0,0:0:0:0:
288,257,198691,2,0,B|246:250|246:250|243:254|243:254|176:244,1,100,8|2,0:0|0:2,0:0:0:0:
184,263,199441,5,2,0:2:0:0:
141,337,199628,1,0,0:0:0:0:
219,381,199816,5,2,0:0:0:0:
271,198,200003,2,0,L|281:263,1,50,8|2,0:0|0:2,0:0:0:0:
350,288,200341,1,0,0:0:0:0:
512,330,200566,6,0,P|452:345|397:365,1,112.500004291535,4|0,0:0|0:0,0:0:0:0:
421,242,200941,2,0,P|430:197|439:177,1,50
351,166,201316,2,0,P|342:211|333:231,1,50,2|0,0:2|0:0,0:0:0:0:
175,176,201691,6,0,P|228:154|272:172,2,100,8|2|2,0:0|0:2|0:2,0:0:0:0:
82,243,202628,1,8,0:0:0:0:
73,238,202722,1,8,0:0:0:0:
65,235,202816,1,2,0:2:0:0:
103,365,203003,2,0,P|115:320|121:302,1,50,8|2,0:0|0:2,0:0:0:0:
166,258,203378,1,0,0:0:0:0:
314,357,203566,6,0,P|266:341|211:328,1,100,2|2,0:2|0:2,0:0:0:0:
208,334,204128,1,0,0:0:0:0:
206,168,204316,2,0,P|227:191|240:211,1,50,2|8,0:2|0:0,0:0:0:0:
32,304,204691,1,8,0:0:0:0:
122,60,205066,6,0,B|150:47|178:63|163:68|190:91|222:82,1,100,2|2,0:2|0:2,0:0:0:0:
328,8,205628,1,8,0:0:0:0:
321,3,205722,1,8,0:0:0:0:
313,0,205816,1,2,0:2:0:0:
301,127,206003,2,0,P|294:92|288:73,1,50,8|2,0:0|0:2,0:0:0:0:
244,16,206378,1,0,0:0:0:0:
481,47,206566,6,0,P|440:56|389:70,1,75,4|0,0:1|0:0,0:0:0:0:
389,92,206941,2,0,L|382:141,1,50,2|0,0:2|0:0,0:0:0:0:
448,200,207316,2,0,L|455:249,1,50,2|0,0:2|0:0,0:0:0:0:
354,318,207691,6,0,P|327:295|243:294,1,100,10|2,0:2|0:2,0:0:0:0:
246,306,208253,1,0,0:0:0:0:
174,201,208441,2,0,P|197:180|225:175,1,50,2|8,0:2|0:0,0:0:0:0:
249,178,208722,1,8,0:0:0:0:
249,178,208816,1,2,0:2:0:0:
295,37,209003,2,0,L|288:108,1,50,8|2,0:0|0:2,0:0:0:0:
327,162,209378,1,0,0:0:0:0:
180,53,209566,6,0,B|131:66|131:66|129:70|129:70|70:85,1,100,2|0,0:2|0:0,0:0:0:0:
20,155,210128,1,8,0:0:0:0:
34,161,210316,2,0,P|52:185|68:213,1,50,2|0,0:2|0:0,0:0:0:0:
5,330,210691,2,0,P|42:312|81:300,1,75,10|0,0:2|0:0,0:0:0:0:
107,297,211066,6,0,L|124:358,1,50,2|0,0:2|0:0,0:0:0:0:
241,220,211441,1,2,0:2:0:0:
126,282,211628,1,0,0:0:0:0:
227,338,211816,5,2,0:2:0:0:
152,179,212003,2,0,L|186:171,1,25,8|0,0:0|0:0,0:0:0:0:
307,113,212191,6,0,L|225:97,1,75,2|0,0:0|0:0,0:0:0:0:
77,15,212566,6,0,P|112:62|179:194,1,200,4|0,0:0|0:0,0:0:0:0:
193,193,212847,6,0,P|150:103|93:21,1,200,4|0,0:0|0:0,0:0:0:0:
107,26,213128,6,0,P|142:73|209:205,1,200,4|0,0:0|0:0,0:0:0:0:
105,289,213691,6,1,B|94:280|83:288|83:288|76:312|52:337|52:337|234:216|234:216|240:216|240:216|403:105|403:105|454:133|512:102|512:102|448:148|396:107,1,675.000002574921,12|0,0:1|0:0,0:0:0:0:
447,39,214274,6,0,P|449:18|450:40,1,66.6666692097983,8|0,0:0|0:0,0:0:0:0:
364,110,214548,6,0,P|354:91|367:109,1,64.2857167380198,8|0,0:0|0:0,0:0:0:0:
335,211,214816,6,0,P|317:199|337:208,1,64.2857167380198,8|0,0:0|0:0,0:0:0:0:
365,307,215097,6,0,P|339:307|365:303,1,75.0000028610231,8|0,0:0|0:0,0:0:0:0:
448,366,215378,6,0,P|434:374|447:363,1,37.5000014305115,8|0,0:0|0:0,0:0:0:0:
487,272,215566,6,0,P|423:287|310:331,1,150,4|0,0:2|0:0,0:0:0:0:
283,208,215941,2,0,P|305:218|326:242,1,50,2|0,0:0|0:0,0:0:0:0:
219,347,216128,6,0,B|269:368|269:368|301:288|301:288|299:284|299:284|339:189|339:189|411:212,1,300,8|0,0:0|0:0,0:0:0:0:
465,222,216503,2,0,L|488:143,1,50,8|0,0:0|0:0,0:0:0:0:
417,125,216691,2,0,L|440:46,1,50,8|0,0:0|0:0,0:0:0:0:
388,204,216878,6,0,B|339:189|339:189|299:284|299:284|301:288|301:288|269:368|269:368|219:347,1,300,2|0,0:2|0:0,0:0:0:0:
146,312,217253,1,8,0:0:0:0:
202,208,217441,2,0,L|281:185,1,50,2|0,0:0|0:0,0:0:0:0:
156,143,217628,2,0,L|235:120,1,50
118,34,217816,5,8,0:0:0:0:
60,32,217909,1,8,0:0:0:0:
28,72,218003,1,0,0:0:0:0:
36,105,218097,1,0,0:0:0:0:
54,118,218191,1,8,0:0:0:0:
96,142,218284,1,8,0:0:0:0:
99,187,218378,1,8,0:0:0:0:
76,212,218472,1,8,0:0:0:0:
9,194,218566,5,4,0:2:0:0:
57,184,218659,1,0,0:0:0:0:
106,174,218753,1,0,0:0:0:0:
307,296,218941,5,8,0:0:0:0:
304,315,219034,1,8,0:0:0:0:
250,384,219128,5,8,0:0:0:0:
244,353,219221,1,8,0:0:0:0:
176,285,219316,5,8,0:0:0:0:
166,333,219409,1,8,0:0:0:0:
390,378,219597,1,8,0:0:0:0:
448,306,219691,5,8,0:0:0:0:
415,293,219784,1,8,0:0:0:0:
369,233,219878,5,8,0:0:0:0:
408,217,219971,1,8,0:0:0:0:
456,157,220066,5,8,0:0:0:0:
405,136,220159,1,8,0:0:0:0:
282,0,220347,5,8,0:0:0:0:
268,100,220441,1,8,0:0:0:0:
287,112,220628,5,0,0:0:0:0:
303,108,220722,1,0,0:0:0:0:
345,31,220816,5,8,0:0:0:0:
282,0,220909,1,8,0:0:0:0:
255,64,221003,1,8,0:0:0:0:
318,93,221097,1,0,0:0:0:0:
327,223,221191,5,8,0:0:0:0:
262,249,221284,1,8,0:0:0:0:
207,204,221378,1,0,0:0:0:0:
209,191,221472,1,0,0:0:0:0:
134,123,221566,5,12,0:1:0:0:
209,177,221659,1,8,0:0:0:0:
148,247,221753,1,8,0:0:0:0:
59,20,221941,5,2,0:2:0:0:
18,83,222034,1,8,0:0:0:0:
58,148,222128,1,0,0:0:0:0:
30,219,222222,1,0,0:0:0:0:
77,297,222316,5,8,0:0:0:0:
160,267,222409,1,8,0:0:0:0:
248,384,222597,5,8,0:0:0:0:
313,307,222691,5,8,0:0:0:0:
321,341,222784,1,8,0:0:0:0:
386,383,222878,5,8,0:0:0:0:
391,362,222972,1,8,0:0:0:0:
485,308,223066,5,4,0:2:0:0:
483,298,223441,1,2,0:0:0:0:
438,51,223816,5,8,0:0:0:0:
169,23,224003,5,8,0:0:0:0:
193,110,224097,1,8,0:0:0:0:
263,158,224191,5,10,0:0:0:0:
239,245,224285,1,8,0:0:0:0:
174,310,224378,6,0,B|114:336|114:336|181:270|181:270|246:302|246:302|250:305|250:305|370:283,1,300,4|0,0:0|0:0,0:0:0:0:
398,352,224753,6,0,B|252:333|252:333|249:330|249:330|71:304,1,300,4|0,0:1|0:0,0:0:0:0:
43,245,225128,5,12,0:1:0:0:
348,127,225315,1,0,0:0:0:0:
366,134,225409,1,0,0:0:0:0:
379,141,225503,1,4,0:1:0:0:
392,149,225596,1,0,0:0:0:0:
303,213,225690,6,0,B|320:250|372:259|372:259|412:201|398:97|325:49|276:77,1,300,4|0,0:0|0:0,0:0:0:0:
260,1,226065,6,0,B|254:57|156:91|110:38|160:5|48:-22|-2:57,1,300,4|0,0:1|0:0,0:0:0:0:
22,164,226440,6,0,P|207:124|336:100,1,300,4|0,0:2|0:0,0:0:0:0:
417,126,226815,6,0,B|475:116|533:218|404:305|279:285|337:163,1,300,4|0,0:0|0:0,0:0:0:0:
324,17,227190,5,8,0:0:0:0:
255,305,227378,1,8,0:0:0:0:
198,291,227471,1,8,0:0:0:0:
138,277,227565,1,8,0:0:0:0:
84,266,227659,1,8,0:0:0:0:
171,374,227753,6,0,B|220:336|220:336|181:255|181:255|176:255|176:255|137:182|137:182|183:124,1,300,4|0,0:2|0:0,0:0:0:0:
207,63,228128,6,0,B|256:90|256:90|212:170|212:170|128:125|128:125|182:38,1,300,4|0,0:0|0:0,0:0:0:0:
163,1,228503,5,12,0:1:0:0:
318,161,228690,1,8,0:0:0:0:
329,156,228784,1,8,0:0:0:0:
341,151,228878,1,8,0:0:0:0:
354,146,228971,1,8,0:0:0:0:
369,63,229065,6,0,B|327:26|327:26|400:8|400:8|363:200,1,300,4|0,0:0|0:0,0:0:0:0:
486,355,229440,1,2,0:0:0:0:
512,313,229533,1,0,0:0:0:0:
502,263,229627,1,0,0:0:0:0:
459,236,229721,1,0,0:0:0:0:
400,314,229815,5,2,0:0:0:0:
373,357,229909,1,0,0:0:0:0:
323,367,230003,1,0,0:0:0:0:
281,341,230096,1,0,0:0:0:0:
259,247,230190,6,0,B|253:294|253:294|256:298|256:298|251:354,1,100,8|0,0:0|0:0,0:0:0:0:
157,210,230377,2,0,B|151:162|151:162|154:159|154:159|149:103,1,100,8|0,0:0|0:0,0:0:0:0:
260,8,230565,1,2,0:0:0:0:
307,23,230658,1,0,0:0:0:0:
295,71,230752,1,0,0:0:0:0:
246,59,230846,1,0,0:0:0:0:
161,0,230940,6,0,L|43:31,1,100,2|0,0:0|0:0,0:0:0:0:
0,251,231127,1,0,0:0:0:0:
48,263,231221,1,0,0:0:0:0:
96,273,231315,1,2,0:0:0:0:
143,286,231408,1,0,0:0:0:0:
166,357,231502,5,0,0:0:0:0:
176,354,231596,1,0,0:0:0:0:
219,258,231690,5,8,0:0:0:0:
296,239,231783,1,8,0:0:0:0:
332,313,231877,5,8,0:0:0:0:
409,332,231970,1,8,0:0:0:0:
507,273,232065,6,0,B|531:241|517:205|491:188|457:184|424:215|405:267|410:316|445:351|468:374|497:391,1,300,4|0,0:0|0:0,0:0:0:0:
512,278,232440,2,0,B|402:302|402:302|402:305|402:305|215:346,1,300,4|0,0:2|0:0,0:0:0:0:
118,112,232815,6,0,B|176:83|176:83|165:149|165:149|161:150|161:150|144:244,1,200,4|0,0:1|0:0,0:0:0:0:
30,375,233190,6,0,B|-21:358|-26:295|10:259|46:254|75:269|75:269|82:259|82:259|101:285|148:317|197:268,1,300,4|0,0:0|0:0,0:0:0:0:
230,235,233565,5,8,0:0:0:0:
32,80,233752,5,8,0:0:0:0:
76,14,233846,1,8,0:0:0:0:
151,28,233939,1,8,0:0:0:0:
151,106,234033,1,8,0:0:0:0:
84,138,234128,6,0,B|18:113|18:113|274:73,1,300,4|0,0:0|0:0,0:0:0:0:
334,24,234503,2,0,B|375:20|447:58|382:209|317:191|250:201|247:140,1,300,4|0,0:2|0:0,0:0:0:0:
245,60,234878,5,8,0:0:0:0:
509,250,235065,1,8,0:0:0:0:
450,230,235159,1,8,0:0:0:0:
386,212,235253,1,8,0:0:0:0:
319,190,235346,1,8,0:0:0:0:
249,167,235440,6,0,B|301:143|301:143|473:215|473:215|558:177,1,300,4|0,0:0|0:0,0:0:0:0:
438,297,235815,1,8,0:0:0:0:
373,320,235909,1,8,0:0:0:0:
308,340,236003,1,8,0:0:0:0:
242,360,236096,1,8,0:0:0:0:
216,126,237690,6,0,B|175:74|175:74|256:122|256:122|242:193|242:193|240:198|240:198|292:308,1,300,4|0,0:1|0:0,0:0:0:0:
215,346,238065,6,0,B|234:200|234:200|232:196|232:196|253:17,1,300,4|0,0:2|0:0,0:0:0:0:
333,11,238440,5,4,0:0:0:0:
383,9,238533,1,0,0:0:0:0:
413,44,238627,1,0,0:0:0:0:
409,89,238721,1,0,0:0:0:0:
357,137,238815,5,2,0:0:0:0:
367,184,238908,1,0,0:0:0:0:
407,208,239002,1,0,0:0:0:0:
449,198,239096,1,0,0:0:0:0:
475,122,239190,5,10,0:0:0:0:
427,139,239283,1,0,0:0:0:0:
383,157,239377,1,0,0:0:0:0:
346,182,239471,1,0,0:0:0:0:
305,208,239565,2,0,P|321:175|339:155,1,50,2|0,0:0|0:0,0:0:0:0:
240,286,239752,5,0,0:0:0:0:
209,266,239846,1,0,0:0:0:0:
177,254,239940,1,2,0:0:0:0:
140,247,240033,1,0,0:0:0:0:
61,292,240127,5,0,0:0:0:0:
91,270,240221,1,0,0:0:0:0:
114,237,240315,1,2,0:0:0:0:
122,200,240408,1,0,0:0:0:0:
83,124,240502,5,0,0:0:0:0:
54,65,240596,1,0,0:0:0:0:
87,5,240690,1,10,0:0:0:0:
155,2,240783,1,0,0:0:0:0:
204,47,240877,2,0,P|176:88|166:111,1,50
238,177,241065,5,2,0:0:0:0:
297,156,241158,1,0,0:0:0:0:
356,150,241252,1,0,0:0:0:0:
413,162,241346,1,0,0:0:0:0:
479,216,241440,5,2,0:0:0:0:
459,231,241533,1,0,0:0:0:0:
446,251,241627,1,0,0:0:0:0:
434,270,241721,1,0,0:0:0:0:
374,317,241815,5,2,0:0:0:0:
384,324,241908,1,0,0:0:0:0:
390,334,242002,1,0,0:0:0:0:
396,343,242096,1,0,0:0:0:0:
473,383,242190,6,0,B|401:151|401:151|436:54,1,300,10|0,0:0|0:0,0:0:0:0:
512,30,242565,5,8,0:0:0:0:
459,83,242658,1,8,0:0:0:0:
388,55,242752,1,8,0:0:0:0:
317,17,242846,1,8,0:0:0:0:
250,58,242940,6,0,L|532:17,1,225.000008583069,8|0,0:0|0:0,0:0:0:0:
488,124,243315,2,0,P|453:178|414:72,1,225.000008583069,8|0,0:0|0:0,0:0:0:0:
464,42,243690,6,0,P|440:145|399:348,1,300,4|0,0:2|0:0,0:0:0:0:
478,381,244065,2,0,B|521:382|600:331|483:185|381:318|427:340|391:386|302:376,1,300,4|0,0:1|0:0,0:0:0:0:
228,293,244440,5,12,0:0:0:0:
199,249,244533,1,0,0:0:0:0:
200,196,244627,1,0,0:0:0:0:
237,158,244721,1,0,0:0:0:0:
288,148,244815,1,2,0:0:0:0:
335,169,244908,1,0,0:0:0:0:
352,218,245002,2,0,P|340:252|326:299,1,75.0000028610231
181,368,245190,5,2,0:0:0:0:
151,334,245283,1,0,0:0:0:0:
106,327,245377,1,0,0:0:0:0:
62,339,245471,1,0,0:0:0:0:
19,280,245565,5,2,0:0:0:0:
40,240,245658,1,0,0:0:0:0:
81,223,245752,1,0,0:0:0:0:
125,231,245846,1,0,0:0:0:0:
206,174,245940,5,10,0:0:0:0:
187,137,246033,1,0,0:0:0:0:
206,116,246127,1,0,0:0:0:0:
189,95,246221,1,0,0:0:0:0:
195,56,246315,5,2,0:0:0:0:
234,22,246408,1,0,0:0:0:0:
287,34,246502,1,0,0:0:0:0:
315,75,246596,1,0,0:0:0:0:
346,102,246690,1,2,0:0:0:0:
377,99,246783,1,0,0:0:0:0:
425,30,246877,5,0,0:0:0:0:
386,68,246971,1,0,0:0:0:0:
396,121,247065,1,2,0:0:0:0:
420,143,247158,1,0,0:0:0:0:
443,163,247252,1,0,0:0:0:0:
446,186,247346,1,0,0:0:0:0:
398,254,247440,5,10,0:0:0:0:
368,236,247533,1,0,0:0:0:0:
360,203,247627,1,0,0:0:0:0:
379,173,247721,1,0,0:0:0:0:
480,124,247815,5,10,0:0:0:0:
464,201,247908,1,8,0:0:0:0:
449,278,248002,1,8,0:0:0:0:
429,352,248096,1,8,0:0:0:0:
474,294,248190,6,0,L|447:157,1,112.500004291535,8|0,0:0|0:0,0:0:0:0:
386,126,248565,5,8,0:0:0:0:
376,116,248658,1,8,0:0:0:0:
398,38,248752,5,8,0:0:0:0:
408,28,248845,1,8,0:0:0:0:
307,0,248940,6,0,B|278:40|278:40|304:114,1,100,12|0,0:1|0:0,0:0:0:0:
468,116,249127,2,0,B|497:76|497:76|471:2,1,100,8|0,0:0|0:0,0:0:0:0:
266,273,249315,5,8,0:0:0:0:
190,295,249408,1,8,0:0:0:0:
123,252,249502,1,8,0:0:0:0:
111,172,249596,1,8,0:0:0:0:
124,166,249690,6,0,P|170:155|225:146,1,100,4|0,0:1|0:0,0:0:0:0:
286,365,249877,2,0,P|335:373|383:384,1,100,4|0,0:2|0:0,0:0:0:0:
512,222,250065,6,0,B|465:235|465:235|464:239|464:239|404:256,1,112.500004291535,4|0,0:0|0:0,0:0:0:0:
344,203,250440,6,0,B|315:166|329:126|329:126|334:148|362:161,1,112.500004291535,4|0,0:0|0:0,0:0:0:0:
394,4,250815,5,12,0:1:0:0:
451,51,250908,1,0,0:0:0:0:
435,124,251002,1,0,0:0:0:0:
365,153,251096,1,0,0:0:0:0:
293,73,251190,5,2,0:0:0:0:
220,90,251283,1,0,0:0:0:0:
196,161,251377,1,0,0:0:0:0:
232,226,251471,1,0,0:0:0:0:
343,326,251565,5,10,0:0:0:0:
367,287,251658,1,0,0:0:0:0:
353,238,251752,1,0,0:0:0:0:
311,226,251846,1,0,0:0:0:0:
241,305,251940,5,2,0:0:0:0:
191,316,252033,1,0,0:0:0:0:
147,330,252127,1,0,0:0:0:0:
106,348,252221,1,0,0:0:0:0:
25,304,252315,5,2,0:0:0:0:
2,271,252408,1,0,0:0:0:0:
21,237,252502,1,0,0:0:0:0:
56,235,252596,1,0,0:0:0:0:
129,194,252690,5,2,0:0:0:0:
151,150,252783,1,0,0:0:0:0:
125,108,252877,1,0,0:0:0:0:
83,109,252971,1,0,0:0:0:0:
0,27,253065,5,10,0:0:0:0:
53,18,253158,1,0,0:0:0:0:
107,10,253252,1,0,0:0:0:0:
161,0,253346,1,0,0:0:0:0:
247,47,253440,5,2,0:0:0:0:
226,93,253533,1,0,0:0:0:0:
246,136,253627,1,0,0:0:0:0:
228,175,253721,1,0,0:0:0:0:
278,238,253815,5,2,0:0:0:0:
289,216,253908,1,0,0:0:0:0:
336,184,254002,1,0,0:0:0:0:
404,206,254096,1,0,0:0:0:0:
451,281,254190,5,2,0:0:0:0:
406,219,254283,1,0,0:0:0:0:
425,154,254377,1,0,0:0:0:0:
489,134,254471,1,0,0:0:0:0:
512,53,254565,5,10,0:0:0:0:
488,10,254658,1,0,0:0:0:0:
428,4,254752,1,0,0:0:0:0:
387,64,254846,1,0,0:0:0:0:
415,135,254940,5,10,0:0:0:0:
337,145,255033,1,8,0:0:0:0:
260,155,255127,1,8,0:0:0:0:
181,162,255221,1,8,0:0:0:0:
173,149,255315,6,0,B|177:84|177:84|175:82|175:82|181:-18,1,150,8|0,0:0|0:0,0:0:0:0:
1,41,255690,6,0,B|-46:68|-28:127|9:149|53:132|67:109,1,150,8|0,0:0|0:0,0:0:0:0:
327,172,256065,6,0,P|307:225|281:312,1,125,4|0,0:1|0:0,0:0:0:0:
51,110,256440,6,0,P|256:44|324:20,1,225.000008583069,4|0,0:2|0:0,0:0:0:0:
280,52,256815,5,12,0:0:0:0:
327,16,256908,1,0,0:0:0:0:
380,30,257002,1,0,0:0:0:0:
395,84,257096,1,0,0:0:0:0:
435,117,257190,1,2,0:0:0:0:
486,105,257283,1,0,0:0:0:0:
500,51,257377,5,0,0:0:0:0:
433,76,257471,1,0,0:0:0:0:
365,102,257565,5,2,0:0:0:0:
309,61,257658,1,0,0:0:0:0:
243,73,257752,1,0,0:0:0:0:
212,134,257846,1,0,0:0:0:0:
240,196,257940,1,2,0:0:0:0:
218,261,258033,1,0,0:0:0:0:
150,286,258127,2,0,P|116:261|106:218,1,75.0000028610231
306,152,258315,6,0,P|321:182|333:217,2,50.0000019073487,10|0|0,0:0|0:0|0:0,0:0:0:0:
404,207,258502,6,0,P|393:238|377:272,2,50.0000019073487
308,271,258690,6,0,P|293:301|281:336,2,50.0000019073487,2|0|0,0:0|0:0|0:0,0:0:0:0:
210,326,258877,6,0,P|220:357|236:391,2,50.0000019073487
165,244,259065,5,2,0:0:0:0:
151,234,259127,1,0,0:0:0:0:
136,229,259190,1,0,0:0:0:0:
120,229,259252,1,0,0:0:0:0:
107,232,259315,1,0,0:0:0:0:
95,237,259377,1,0,0:0:0:0:
83,248,259440,6,0,P|58:268|19:273,5,50.0000019073487,2|0|0|0|0|0,0:0|0:0|0:0|0:0|0:0|0:0,0:0:0:0:
20,157,259815,5,10,0:0:0:0:
72,170,259908,1,0,0:0:0:0:
118,183,260002,1,0,0:0:0:0:
165,199,260096,1,0,0:0:0:0:
211,262,260190,5,10,0:0:0:0:
281,239,260283,1,8,0:0:0:0:
348,212,260377,1,8,0:0:0:0:
412,177,260471,1,8,0:0:0:0:
476,143,260565,6,0,B|526:190|526:190|273:136,1,300,8|0,0:0|0:0,0:0:0:0:
245,91,260940,1,8,0:0:0:0:
240,79,261033,1,8,0:0:0:0:
235,67,261127,1,8,0:0:0:0:
230,56,261221,1,8,0:0:0:0:
224,44,261315,6,0,L|204:162,1,100,12|0,0:1|0:0,0:0:0:0:
307,103,261502,2,0,L|287:221,1,100,12|0,0:1|0:0,0:0:0:0:
255,378,261690,5,8,0:0:0:0:
239,308,261783,1,8,0:0:0:0:
180,268,261877,1,8,0:0:0:0:
110,270,261971,1,8,0:0:0:0:
43,302,262065,5,4,0:2:0:0:
78,238,262158,1,0,0:0:0:0:
64,162,262252,2,0,P|43:148|-3:146,2,50.0000019073487,2|0|0,0:0|0:0|0:0,0:0:0:0:
141,185,262440,5,4,0:0:0:0:
256,192,262502,12,0,265627,2:0:0:0:
444,333,268252,6,0,L|330:313,1,100,4|0,0:2|0:0,0:0:0:0:
227,15,270690,6,0,P|211:27|201:39,3,25,0|0|0|0,2:0|2:0|2:0|2:0,2:0:0:0:
258,94,271065,2,0,P|250:112|248:128,3,29.9999990844727,0|0|0|0,2:0|2:0|2:0|2:0,2:0:0:0:
300,189,271440,5,0,2:0:0:0:
328,226,271533,1,0,2:0:0:0:
329,273,271627,1,0,2:0:0:0:
306,307,271721,1,0,2:0:0:0:
267,321,271815,1,0,2:0:0:0:
247,305,271908,1,0,2:0:0:0:
233,297,272002,1,0,2:0:0:0:
216,291,272096,1,0,2:0:0:0:
201,290,272190,1,0,2:0:0:0:
188,292,272283,1,0,2:0:0:0:
177,298,272377,1,0,2:0:0:0:
379,373,272715,5,0,0:0:0:0:
384,367,272790,1,0,0:0:0:0:
389,360,272865,1,0,0:0:0:0:
394,355,272940,5,10,0:0:0:0:
304,265,273127,1,8,0:0:0:0:
394,176,273315,1,8,0:0:0:0:
483,265,273502,1,8,0:0:0:0:
94,305,273690,5,2,0:0:0:0:
142,30,273877,1,4,0:1:0:0:
417,78,274065,1,4,0:0:0:0:
369,353,274252,1,4,0:2:0:0:
210,103,274440,6,0,B|226:83|221:47|221:47|214:80|182:97|182:97|201:173|201:173|204:175|204:175|235:307,1,300,4|0,0:0|0:0,0:0:0:0:
310,302,274815,1,2,0:2:0:0:
313,293,274877,1,2,0:2:0:0:
319,286,274940,1,2,0:2:0:0:
326,282,275002,1,2,0:2:0:0:
335,279,275065,1,2,0:2:0:0:
342,278,275127,1,2,0:2:0:0:
350,279,275190,2,0,B|359:299|371:310|371:310|360:322|352:363,3,66.6666666666667,12|2|2|2,0:1|0:2|0:2|0:2,0:0:0:0:
237,384,275565,6,0,P|132:370|8:357,1,225.000008583069,4|0,0:1|0:0,0:0:0:0:
5,342,275940,1,4,0:1:0:0:
114,18,276127,6,0,P|72:33|13:47,1,75.0000028610231
3,115,276315,2,0,P|18:157|32:216,1,75.0000028610231,4|0,0:1|0:0,0:0:0:0:
100,226,276502,2,0,P|142:211|201:197,1,75.0000028610231
199,70,276690,6,0,B|226:56|226:56|382:109|382:109|421:90,1,225.000008583069,12|0,0:1|0:0,0:0:0:0:
493,110,277065,2,0,B|500:58|500:58|461:30,2,100.000003814697,4|2|2,0:1|0:2|0:2,0:0:0:0:
414,292,277440,6,0,P|462:267|497:258,1,75.0000028610231,4|0,0:0|0:0,0:0:0:0:
510,335,277627,2,0,P|474:347|442:365,1,75.0000028610231
363,224,277815,2,0,B|365:191|338:167|296:169|262:220|269:271|320:323|380:328,1,225.000008583069,4|0,0:1|0:0,0:0:0:0:
512,193,278190,6,0,P|463:176|432:167,1,75.0000028610231,12|0,0:1|0:0,0:0:0:0:
382,20,278377,2,0,P|333:37|302:46,1,75.0000028610231
124,162,278565,2,0,B|181:192|181:192|188:119|188:119|191:117|191:117|203:14,1,225.000008583069,4|0,0:1|0:0,0:0:0:0:
0,29,278940,6,0,L|21:140,1,75.0000028610231,4|0,0:1|0:0,0:0:0:0:
158,271,279127,2,0,L|137:382,1,75.0000028610231
1,364,279315,2,0,B|-24:350|-19:315|-5:295|20:285|60:283|94:304|117:337|153:393,1,225.000008583069,4|0,0:1|0:0,0:0:0:0:
266,135,279690,6,0,L|248:248,1,75.0000028610231,12|0,0:1|0:0,0:0:0:0:
368,373,279877,2,0,B|367:333|391:304|391:304|360:278|361:231,1,150.000005722046,0|4,0:0|0:1,0:0:0:0:
445,222,280252,2,0,P|462:227|440:226,1,75.0000028610231
225,336,280440,6,0,P|265:324|300:315,1,75.0000028610231,4|0,0:0|0:0,0:0:0:0:
418,144,280627,2,0,P|381:134|345:123,1,75.0000028610231
99,22,280815,6,0,P|105:59|121:104,1,75.0000028610231,4|0,0:1|0:0,0:0:0:0:
194,77,281002,2,0,P|188:40|172:-5,1,75.0000028610231
14,176,281190,6,0,B|95:192|95:192|95:196|95:196|251:228,1,225.000008583069,12|0,0:1|0:0,0:0:0:0:
410,69,281565,2,0,B|445:49|415:-12|382:-17|344:-31|300:-11|285:11|305:48,1,225.000008583069,4|0,0:1|0:0,0:0:0:0:
444,274,281940,6,0,P|483:254|514:242,1,75.0000028610231,4|0,0:0|0:0,0:0:0:0:
474,158,282127,2,0,P|435:178|404:190,1,75.0000028610231
366,384,282315,6,0,L|374:305,1,75.0000028610231,4|0,0:1|0:0,0:0:0:0:
307,228,282502,2,0,L|299:307,1,75.0000028610231
237,374,282690,6,0,B|205:328|205:328|25:383,1,225.000008583069,12|0,0:1|0:0,0:0:0:0:
0,255,283065,2,0,B|-10:214|31:194|74:202|105:244|94:292|29:379,1,225.000008583069,4|0,0:1|0:0,0:0:0:0:
259,148,283440,6,0,P|183:98|101:87,1,150.000005722046,4|0,0:0|0:0,0:0:0:0:
159,7,283815,2,0,P|231:24|291:68,1,150.000005722046,4|0,0:1|0:0,0:0:0:0:
366,381,284190,6,0,P|442:331|524:320,1,150.000005722046,4|0,0:1|0:0,0:0:0:0:
466,240,284565,2,0,P|393:257|333:301,1,150.000005722046,4|0,0:1|0:0,0:0:0:0:
116,157,284940,6,0,B|125:224|125:224|127:227|127:227|140:328,1,150.000005722046,4|0,0:0|0:0,0:0:0:0:
27,105,285315,2,0,B|36:172|36:172|38:175|38:175|51:276,1,150.000005722046,4|0,0:1|0:0,0:0:0:0:
463,39,285690,6,0,B|482:42|509:60|509:60|487:9|412:-12|326:17,1,200,12|0,0:1|0:0,0:0:0:0:
208,346,286065,2,0,B|195:360|166:375|166:375|221:381|277:327|295:238,1,200,12|0,0:1|0:0,0:0:0:0:
93,19,286440,5,8,0:0:0:0:
417,141,286627,1,8,0:0:0:0:
49,209,286815,1,8,0:0:0:0:
391,338,287002,1,8,0:0:0:0:
110,352,287190,5,8,0:0:0:0:
222,32,287377,1,8,0:0:0:0:
268,362,287565,1,8,0:0:0:0:
401,68,287752,2,0,L|346:201,1,100,12|0,0:2|0:0,0:0:0:0:
381,333,288690,6,0,B|403:345|418:375|418:375|449:337|517:339|517:339|448:218|340:238|340:238|339:242|339:242|274:367|150:368|136:356|136:356|168:325|185:268,1,700,12|0,0:1|0:0,0:0:0:0:
144,228,289440,1,4,0:0:0:0:
49,281,289627,6,0,L|33:231,1,37.5000014305115
114,320,289815,2,4,L|165:331,1,37.5000014305115,4|4,0:1|0:1,0:1:0:0:
46,357,290002,2,0,L|10:395,1,37.5000014305115
261,192,290190,6,0,L|301:140,1,50,12|0,0:1|0:0,0:0:0:0:
264,284,290378,2,0,L|288:344,1,50
178,240,290565,2,0,L|113:230,1,50,4|0,0:1|0:0,0:0:0:0:
261,192,290752,2,0,L|301:140,1,50
347,88,290940,1,4,0:0:0:0:
133,16,291127,6,0,B|142:56|142:56|146:60|146:60|160:130,1,75.0000028610231
220,33,291315,2,0,B|229:73|229:73|233:77|233:77|247:147,1,75.0000028610231,4|0,0:1|0:0,0:0:0:0:
306,50,291502,2,0,B|315:90|315:90|319:94|319:94|333:164,1,75.0000028610231
505,326,291690,6,0,B|493:275|493:275|488:270|488:270|470:181,1,100,12|0,0:1|0:0,0:0:0:0:
394,304,291878,2,0,B|382:253|382:253|377:248|377:248|359:159,1,100
285,282,292065,2,0,B|273:231|273:231|268:226|268:226|250:137,1,100,4|0,0:1|0:0,0:0:0:0:
175,345,292252,1,0,0:0:0:0:
426,147,292440,5,12,0:0:0:0:
106,282,292627,1,8,0:0:0:0:
261,49,292815,1,8,0:0:0:0:
376,343,293002,1,8,0:0:0:0:
126,162,293190,1,8,0:0:0:0:
277,211,293377,5,8,0:0:0:0:
230,278,293565,2,0,L|220:343,1,37.5000014305115,2|0,0:0|0:0,0:0:0:0:
372,71,293752,5,8,0:0:0:0:
155,364,293940,6,0,L|121:375,1,35,4|0,0:2|0:0,0:0:0:0:
47,290,294690,6,0,B|-17:161|-17:161|513:342,1,700,12|0,0:1|0:0,0:0:0:0:
510,341,295440,6,0,P|421:354|279:390,1,225.000008583069,4|0,0:0|0:0,0:0:0:0:
267,307,295815,2,0,P|375:278|487:262,1,225.000008583069,4|0,0:1|0:0,0:0:0:0:
505,152,296190,6,0,P|458:45|366:71,1,225.000008583069,12|0,0:1|0:0,0:0:0:0:
329,132,296565,2,0,P|376:239|468:213,1,225.000008583069,4|0,0:1|0:0,0:0:0:0:
421,120,296940,6,0,L|175:165,1,225.000008583069,4|0,0:0|0:0,0:0:0:0:
231,73,297315,2,0,L|-15:118,1,225.000008583069,4|0,0:1|0:0,0:0:0:0:
20,2,297690,6,0,B|98:118|98:118|15:255,1,300,4|0,0:1|0:0,0:0:0:0:
290,384,298065,2,0,B|212:268|212:268|295:131,1,300,12|0,0:1|0:0,0:0:0:0:
350,54,298440,5,6,0:0:0:0:
256,192,298533,12,0,301440,2:0:0:0:
188,3,304440,5,6,0:0:0:0:
111,22,304533,1,8,0:0:0:0:
58,82,304627,1,2,0:0:0:0:
52,162,304721,1,8,0:0:0:0:
92,231,304815,1,2,0:0:0:0:
168,252,304908,1,8,0:0:0:0:
238,214,305002,1,2,0:0:0:0:
272,141,305096,1,8,0:0:0:0:
337,95,305190,1,2,0:0:0:0:
416,100,305283,1,8,0:0:0:0:
481,145,305377,1,2,0:0:0:0:
501,222,305471,1,8,0:0:0:0:
481,299,305565,1,2,0:0:0:0:
421,351,305658,1,8,0:0:0:0:
342,366,305752,1,2,0:0:0:0:
276,320,305846,1,8,0:0:0:0:
241,247,305940,5,2,0:0:0:0:
270,178,306033,1,8,0:0:0:0:
338,162,306127,1,2,0:0:0:0:
388,203,306221,1,8,0:0:0:0:
394,262,306315,1,2,0:0:0:0:
358,303,306408,1,8,0:0:0:0:
308,306,306502,1,2,0:0:0:0:
273,272,306596,1,8,0:0:0:0:
272,232,306690,1,2,0:0:0:0:
296,203,306783,1,8,0:0:0:0:
331,203,306877,1,2,0:0:0:0:
349,229,306971,1,8,0:0:0:0:
342,254,307065,1,2,0:0:0:0:
319,262,307158,1,8,0:0:0:0:
307,257,307252,1,2,0:0:0:0:
304,245,307346,1,8,0:0:0:0:
309,238,307440,5,6,0:0:0:0:
364,192,307533,1,8,0:0:0:0:
430,218,307627,1,2,0:0:0:0:
442,274,307721,1,8,0:0:0:0:
416,311,307815,2,0,P|379:291|336:277,1,75.0000028610231,2|8,0:0|0:0,0:0:0:0:
86,3,308002,5,4,0:1:0:0:
29,50,308096,1,8,0:0:0:0:
38,125,308190,1,2,0:0:0:0:
94,161,308283,1,8,0:0:0:0:
134,154,308377,2,0,P|149:122|178:78,1,75.0000028610231,2|8,0:0|0:0,0:0:0:0:
373,7,308565,5,4,0:2:0:0:
402,4,308658,1,8,0:0:0:0:
424,21,308752,2,0,B|431:57|431:57|397:96,1,75.0000028610231,2|8,0:0|0:0,0:0:0:0:
248,356,308940,5,6,0:0:0:0:
254,281,309033,1,8,0:0:0:0:
226,211,309127,1,2,0:0:0:0:
170,160,309221,1,8,0:0:0:0:
101,158,309315,1,2,0:0:0:0:
57,186,309408,1,8,0:0:0:0:
52,219,309502,2,0,P|65:255|80:312,1,75.0000028610231,2|8,0:0|0:0,0:0:0:0:
253,379,309690,5,8,0:0:0:0:
318,367,309783,1,8,0:0:0:0:
384,355,309877,1,8,0:0:0:0:
450,344,309971,1,8,0:0:0:0:
512,284,310065,5,8,0:0:0:0:
465,222,310158,1,8,0:0:0:0:
406,273,310252,2,0,L|303:252,1,75.0000028610231,8|8,0:0|0:0,0:0:0:0:
145,227,310440,5,6,0:0:0:0:
88,178,310533,1,8,0:0:0:0:
92,102,310627,1,2,0:0:0:0:
140,44,310721,1,8,0:0:0:0:
214,35,310815,1,2,0:0:0:0:
282,62,310908,1,8,0:0:0:0:
319,127,311002,1,2,0:0:0:0:
323,202,311096,1,8,0:0:0:0:
376,254,311190,1,2,0:0:0:0:
449,263,311283,1,8,0:0:0:0:
506,214,311377,1,2,0:0:0:0:
506,138,311471,1,8,0:0:0:0:
460,87,311565,5,2,0:0:0:0:
404,74,311658,1,8,0:0:0:0:
351,98,311752,1,2,0:0:0:0:
331,151,311846,1,8,0:0:0:0:
342,202,311940,1,2,0:0:0:0:
334,255,312033,1,8,0:0:0:0:
292,291,312127,1,2,0:0:0:0:
237,298,312221,1,8,0:0:0:0:
189,275,312315,1,2,0:0:0:0:
171,226,312408,1,8,0:0:0:0:
180,174,312502,1,2,0:0:0:0:
215,132,312596,1,8,0:0:0:0:
219,79,312690,1,2,0:0:0:0:
192,34,312783,1,8,0:0:0:0:
146,20,312877,1,2,0:0:0:0:
100,36,312971,1,8,0:0:0:0:
82,74,313065,1,2,0:0:0:0:
89,112,313158,1,8,0:0:0:0:
110,128,313252,1,2,0:0:0:0:
127,131,313346,1,8,0:0:0:0:
140,126,313440,5,2,0:0:0:0:
135,131,313533,1,8,0:0:0:0:
130,137,313627,1,2,0:0:0:0:
126,143,313721,1,8,0:0:0:0:
122,149,313815,1,2,0:0:0:0:
119,155,313908,1,8,0:0:0:0:
116,162,314002,1,2,0:0:0:0:
114,169,314096,1,8,0:0:0:0:
126,194,314190,5,2,0:0:0:0:
131,199,314283,1,8,0:0:0:0:
136,205,314377,1,2,0:0:0:0:
140,211,314471,1,8,0:0:0:0:
144,217,314565,1,2,0:0:0:0:
147,223,314658,1,8,0:0:0:0:
150,230,314752,1,2,0:0:0:0:
152,237,314846,1,8,0:0:0:0:
154,249,314940,6,0,P|177:194|199:163,1,75.0000028610231,2|8,0:0|0:0,0:0:0:0:
346,272,315127,1,8,0:0:0:0:
367,345,315221,1,8,0:0:0:0:
296,373,315315,2,0,L|180:342,1,75.0000028610231,4|0,0:2|0:0,0:0:0:0:
28,261,315502,5,8,0:0:0:0:
47,184,315596,1,8,0:0:0:0:
117,233,315690,1,4,0:0:0:0:
158,193,315783,1,0,0:0:0:0:
206,173,315877,1,8,0:0:0:0:
254,182,315971,1,8,0:0:0:0:
292,213,316065,6,0,P|271:268|262:302,1,75.0000028610231,4|0,0:1|0:0,0:0:0:0:
183,375,316252,2,0,P|171:339|157:304,1,75.0000028610231
62,179,316440,5,4,0:0:0:0:
63,171,316533,1,0,0:0:0:0:
64,163,316627,1,0,0:0:0:0:
65,155,316721,1,0,0:0:0:0:
70,127,316815,5,2,0:0:0:0:
100,85,316908,1,0,0:0:0:0:
151,74,317002,1,0,0:0:0:0:
195,102,317096,1,0,0:0:0:0:
218,149,317190,1,10,0:0:0:0:
262,180,317283,1,0,0:0:0:0:
310,174,317377,1,0,0:0:0:0:
337,145,317471,1,0,0:0:0:0:
338,114,317565,1,2,0:0:0:0:
320,95,317658,1,0,0:0:0:0:
304,94,317752,1,0,0:0:0:0:
293,102,317846,1,0,0:0:0:0:
297,116,317940,5,2,0:0:0:0:
310,118,318033,1,0,0:0:0:0:
324,121,318127,1,0,0:0:0:0:
338,124,318221,1,0,0:0:0:0:
352,127,318315,1,2,0:0:0:0:
365,130,318408,1,0,0:0:0:0:
379,133,318502,1,0,0:0:0:0:
393,136,318596,1,0,0:0:0:0:
457,87,318690,5,10,0:0:0:0:
482,120,318783,1,0,0:0:0:0:
477,158,318877,1,0,0:0:0:0:
451,186,318971,1,0,0:0:0:0:
375,217,319065,5,2,0:0:0:0:
336,283,319158,1,0,0:0:0:0:
396,332,319252,2,0,P|437:320|477:314,1,75.0000028610231
213,180,319440,6,0,L|233:292,1,75.0000028610231,12|0,0:0|0:0,0:0:0:0:
19,376,319627,1,8,0:0:0:0:
9,357,319721,2,0,P|32:339|86:322,1,75.0000028610231
92,183,319908,1,8,0:0:0:0:
102,164,320002,2,0,P|79:146|25:129,1,75.0000028610231,4|0,0:0|0:0,0:0:0:0:
151,0,320190,5,8,0:0:0:0:
214,38,320283,1,8,0:0:0:0:
173,103,320377,1,8,0:0:0:0:
110,62,320471,1,8,0:0:0:0:
164,0,320565,5,8,0:0:0:0:
180,7,320658,1,8,0:0:0:0:
235,58,320752,5,8,0:0:0:0:
251,51,320845,1,8,0:0:0:0:
332,7,320940,6,0,P|322:55|314:97,1,75.0000028610231,4|0,0:0|0:0,0:0:0:0:
258,163,321127,2,0,P|268:211|276:253,1,75.0000028610231
434,304,321315,1,0,0:0:0:0:
442,296,321408,1,8,0:0:0:0:
442,285,321502,1,0,0:0:0:0:
434,274,321596,1,8,0:0:0:0:
362,260,321690,5,4,0:0:0:0:
311,326,321783,1,8,0:0:0:0:
377,377,321877,2,0,P|428:357|463:351,1,75.0000028610231
447,52,322065,5,4,0:2:0:0:
506,130,322158,1,8,0:0:0:0:
425,177,322252,1,8,0:0:0:0:
369,102,322346,1,8,0:0:0:0:
443,62,322440,6,0,B|469:48|477:0|477:0|514:54|522:153|486:171|486:171|482:169|482:169|483:180|427:194|417:252|437:280|445:292|445:292|454:271|485:260|485:260|461:237|463:229|463:229|395:214|355:244,1,600.000022888185,6|0,0:0|0:0,0:0:0:0:
174,11,323940,5,8,0:0:0:0:
137,103,324033,1,8,0:0:0:0:
150,109,324221,5,8,0:0:0:0:
177,195,324315,1,8,0:0:0:0:
164,211,324502,5,0,0:0:0:0:
142,205,324596,1,0,0:0:0:0:
74,155,324690,5,10,0:0:0:0:
13,211,324783,1,8,0:0:0:0:
60,280,324877,1,0,0:0:0:0:
74,268,324971,1,0,0:0:0:0:
143,217,325065,5,12,0:1:0:0:
206,276,325158,1,8,0:0:0:0:
152,343,325252,1,8,0:0:0:0:
315,374,325440,5,4,0:0:0:0:
387,354,325533,1,0,0:0:0:0:
457,332,325627,1,0,0:0:0:0:
467,337,325815,5,2,0:0:0:0:
392,311,325908,1,0,0:0:0:0:
321,284,326002,1,0,0:0:0:0:
456,232,326190,5,10,0:0:0:0:
467,221,326283,1,0,0:0:0:0:
364,182,326471,5,0,0:0:0:0:
353,171,326564,1,2,0:0:0:0:
363,124,326658,1,0,0:0:0:0:
376,77,326752,1,0,0:0:0:0:
329,16,326846,5,8,0:0:0:0:
266,62,326940,1,2,0:0:0:0:
313,120,327033,1,0,0:0:0:0:
174,34,327221,5,0,0:0:0:0:
165,39,327314,1,2,0:0:0:0:
122,102,327408,1,8,0:0:0:0:
163,164,327502,1,0,0:0:0:0:
175,171,327596,1,0,0:0:0:0:
246,160,327690,5,2,0:0:0:0:
292,189,327783,1,0,0:0:0:0:
306,239,327877,1,0,0:0:0:0:
287,285,327971,1,0,0:0:0:0:
242,307,328065,5,2,0:0:0:0:
159,299,328158,1,8,0:0:0:0:
125,373,328252,1,0,0:0:0:0:
7,157,328440,5,4,0:0:0:0:
55,141,328533,1,0,0:0:0:0:
103,126,328627,1,0,0:0:0:0:
111,116,328815,5,2,0:0:0:0:
162,130,328908,1,0,0:0:0:0:
207,147,329002,1,0,0:0:0:0:
256,168,329096,1,0,0:0:0:0:
306,186,329190,5,10,0:0:0:0:
277,93,329283,1,0,0:0:0:0:
408,12,329471,5,0,0:0:0:0:
402,18,329565,1,2,0:0:0:0:
411,63,329658,1,0,0:0:0:0:
419,109,329752,1,0,0:0:0:0:
428,158,329846,5,8,0:0:0:0:
493,98,329940,1,2,0:0:0:0:
420,50,330033,1,0,0:0:0:0:
323,226,330221,5,0,0:0:0:0:
337,234,330315,1,2,0:0:0:0:
461,330,330502,5,0,0:0:0:0:
447,338,330596,1,0,0:0:0:0:
385,374,330690,5,10,0:0:0:0:
346,335,330783,1,0,0:0:0:0:
291,330,330877,1,0,0:0:0:0:
245,357,330971,1,0,0:0:0:0:
198,375,331065,5,2,0:0:0:0:
188,321,331158,1,0,0:0:0:0:
179,267,331252,1,0,0:0:0:0:
136,31,331440,5,4,0:0:0:0:
185,50,331533,1,0,0:0:0:0:
214,95,331627,1,0,0:0:0:0:
352,138,331815,5,2,0:0:0:0:
303,157,331908,1,0,0:0:0:0:
274,202,332002,1,0,0:0:0:0:
190,274,332190,5,10,0:0:0:0:
199,287,332283,1,0,0:0:0:0:
306,327,332471,5,0,0:0:0:0:
296,339,332565,1,2,0:0:0:0:
284,291,332658,1,0,0:0:0:0:
268,238,332752,1,0,0:0:0:0:
248,188,332846,5,8,0:0:0:0:
339,230,332940,1,2,0:0:0:0:
304,318,333033,1,0,0:0:0:0:
400,375,333221,5,0,0:0:0:0:
412,366,333315,1,2,0:0:0:0:
468,313,333408,5,8,0:0:0:0:
441,278,333502,1,0,0:0:0:0:
446,229,333596,1,0,0:0:0:0:
491,162,333690,5,10,0:0:0:0:
511,120,333783,1,0,0:0:0:0:
491,78,333877,1,0,0:0:0:0:
446,58,333971,1,0,0:0:0:0:
404,74,334065,5,2,0:0:0:0:
434,151,334158,1,8,0:0:0:0:
512,132,334252,1,0,0:0:0:0:
328,22,334440,5,4,0:0:0:0:
294,34,334533,1,0,0:0:0:0:
261,48,334627,1,0,0:0:0:0:
240,62,334815,5,2,0:0:0:0:
197,51,334908,1,0,0:0:0:0:
151,38,335002,1,0,0:0:0:0:
104,22,335096,1,0,0:0:0:0:
58,8,335190,5,10,0:0:0:0:
100,151,335283,1,0,0:0:0:0:
16,269,335471,5,0,0:0:0:0:
28,257,335565,1,2,0:0:0:0:
75,270,335658,1,0,0:0:0:0:
119,287,335752,1,0,0:0:0:0:
170,304,335846,5,8,0:0:0:0:
99,361,335940,1,2,0:0:0:0:
24,318,336033,1,0,0:0:0:0:
243,208,336221,5,0,0:0:0:0:
250,218,336315,1,2,0:0:0:0:
345,350,336502,5,0,0:0:0:0:
352,340,336596,1,0,0:0:0:0:
360,327,336690,6,0,B|410:338|410:338|413:342|413:342|482:357,1,100,12|0,0:1|0:0,0:0:0:0:
179,220,336877,2,0,B|129:231|129:231|126:235|126:235|57:250,1,100,12|0,0:1|0:0,0:0:0:0:
364,163,337065,5,2,0:0:0:0:
370,147,337158,1,8,0:0:0:0:
274,85,337252,5,0,0:0:0:0:
268,69,337345,1,0,0:0:0:0:
335,1,337440,6,0,P|380:13|448:33,1,75.0000028610231,4|8,0:2|0:0,0:0:0:0:
496,81,337627,1,8,0:0:0:0:
458,96,337721,1,8,0:0:0:0:
435,117,337815,1,8,0:0:0:0:
422,144,337908,1,8,0:0:0:0:
416,167,338002,1,8,0:0:0:0:
417,184,338096,1,8,0:0:0:0:
352,236,338190,6,0,P|305:222|258:209,1,75.0000028610231,8|8,0:0|0:0,0:0:0:0:
157,156,338377,1,8,0:0:0:0:
117,186,338471,1,8,0:0:0:0:
114,226,338565,1,8,0:0:0:0:
137,254,338658,1,8,0:0:0:0:
166,260,338752,1,8,0:0:0:0:
178,248,338846,1,8,0:0:0:0:
176,236,338940,5,2,0:2:0:0:
134,217,339033,1,0,0:0:0:0:
92,245,339127,1,8,0:0:0:0:
96,294,339221,1,0,0:0:0:0:
123,318,339315,1,8,0:0:0:0:
126,359,339408,1,0,0:0:0:0:
109,376,339502,1,8,0:0:0:0:
95,378,339596,1,0,0:0:0:0:
88,370,339690,5,0,0:0:0:0:
132,300,339783,2,0,L|226:324,1,75.0000028610231,8|8,0:0|0:0,0:0:0:0:
294,372,339971,1,8,0:0:0:0:
300,358,340065,5,8,0:0:0:0:
333,329,340158,1,8,0:0:0:0:
378,332,340252,1,8,0:0:0:0:
406,360,340346,1,8,0:0:0:0:
405,378,340440,6,0,P|435:352|474:328,1,75.0000028610231,4|0,0:1|0:0,0:0:0:0:
439,146,340627,1,8,0:0:0:0:
397,128,340721,1,8,0:0:0:0:
352,113,340815,1,8,0:0:0:0:
317,101,340908,1,8,0:0:0:0:
279,89,341002,1,8,0:0:0:0:
250,76,341096,1,8,0:0:0:0:
190,128,341190,5,0,0:0:0:0:
160,78,341283,1,0,0:0:0:0:
173,33,341377,1,8,0:0:0:0:
205,17,341471,1,8,0:0:0:0:
230,25,341565,1,8,0:0:0:0:
238,44,341658,1,8,0:0:0:0:
232,57,341752,1,8,0:0:0:0:
222,60,341846,1,8,0:0:0:0:
210,50,341940,6,0,P|168:37|137:36,1,50,8|8,0:0|0:0,0:0:0:0:
141,120,342127,2,0,P|165:124|188:133,1,50,8|8,0:0|0:0,0:0:0:0:
246,194,342315,1,8,0:0:0:0:
250,218,342408,1,8,0:0:0:0:
255,242,342502,1,8,0:0:0:0:
259,266,342596,1,8,0:0:0:0:
287,286,342690,5,8,0:0:0:0:
284,298,342783,1,8,0:0:0:0:
282,310,342877,1,8,0:0:0:0:
280,323,342971,1,8,0:0:0:0:
253,338,343065,5,8,0:0:0:0:
254,343,343158,1,8,0:0:0:0:
255,350,343252,1,8,0:0:0:0:
256,356,343346,1,8,0:0:0:0:
335,384,343440,5,4,0:0:0:0:
382,359,343533,1,8,0:0:0:0:
399,313,343627,1,8,0:0:0:0:
382,267,343721,1,8,0:0:0:0:
338,235,343815,1,8,0:0:0:0:
324,191,343908,1,8,0:0:0:0:
344,157,344002,1,8,0:0:0:0:
370,149,344096,1,8,0:0:0:0:
382,159,344190,6,0,P|369:199|360:237,1,75.0000028610231,8|8,0:0|0:0,0:0:0:0:
202,22,344377,1,8,0:0:0:0:
207,14,344471,2,0,L|326:41,1,75.0000028610231,8|8,0:0|0:0,0:0:0:0:
373,134,344658,1,8,0:0:0:0:
378,142,344752,2,0,L|497:115,1,75.0000028610231,8|8,0:0|0:0,0:0:0:0:
203,255,344940,5,2,0:2:0:0:
174,209,345033,1,0,0:0:0:0:
129,195,345127,1,8,0:0:0:0:
82,205,345221,1,8,0:0:0:0:
50,233,345315,1,8,0:0:0:0:
44,273,345408,1,8,0:0:0:0:
59,297,345502,1,8,0:0:0:0:
77,302,345596,1,8,0:0:0:0:
91,297,345690,5,8,0:0:0:0:
129,263,345783,1,0,0:0:0:0:
182,259,345877,1,8,0:0:0:0:
220,294,345971,1,8,0:0:0:0:
240,337,346065,1,8,0:0:0:0:
282,353,346158,1,8,0:0:0:0:
311,346,346252,1,8,0:0:0:0:
326,327,346346,1,8,0:0:0:0:
344,247,346440,5,4,0:0:0:0:
290,209,346533,1,0,0:0:0:0:
288,152,346627,1,8,0:0:0:0:
315,112,346721,1,8,0:0:0:0:
353,98,346815,1,8,0:0:0:0:
383,110,346908,1,8,0:0:0:0:
391,128,347002,1,8,0:0:0:0:
388,142,347096,1,8,0:0:0:0:
381,149,347190,5,8,0:0:0:0:
346,107,347283,1,8,0:0:0:0:
299,104,347377,1,8,0:0:0:0:
257,132,347471,1,8,0:0:0:0:
246,201,347565,6,0,P|258:242|270:292,1,50,8|8,0:0|0:0,0:0:0:0:
315,312,347752,2,0,P|325:275|335:239,1,50,8|8,0:0|0:0,0:0:0:0:
211,62,347940,5,8,0:0:0:0:
160,46,348033,1,0,0:0:0:0:
110,58,348127,1,8,0:0:0:0:
83,82,348221,1,8,0:0:0:0:
83,106,348315,1,8,0:0:0:0:
91,114,348408,1,8,0:0:0:0:
148,160,348502,5,8,0:0:0:0:
166,198,348596,1,0,0:0:0:0:
153,236,348690,1,8,0:0:0:0:
78,261,348783,5,8,0:0:0:0:
60,299,348877,1,8,0:0:0:0:
73,337,348971,1,8,0:0:0:0:
146,376,349065,5,8,0:0:0:0:
158,368,349158,1,8,0:0:0:0:
232,360,349252,5,8,0:0:0:0:
244,368,349345,1,8,0:0:0:0:
343,381,349440,5,10,0:2:0:0:
385,307,349533,1,10,0:2:0:0:
321,254,349627,2,0,P|273:266|236:276,1,75.0000028610231,10|0,0:2|0:0,0:0:0:0:
447,31,349815,5,10,0:2:0:0:
493,107,349908,1,10,0:2:0:0:
409,126,350002,2,0,P|361:103|332:92,1,75.0000028610231,10|0,0:2|0:0,0:0:0:0:
465,333,350190,5,8,0:0:0:0:
493,241,350283,1,8,0:0:0:0:
501,234,350471,5,0,0:0:0:0:
466,197,350565,1,8,0:0:0:0:
413,201,350658,1,8,0:0:0:0:
383,233,350752,1,8,0:0:0:0:
385,262,350846,1,8,0:0:0:0:
397,273,350940,5,8,0:0:0:0:
302,306,351033,1,8,0:0:0:0:
295,322,351221,5,8,0:0:0:0:
200,289,351314,1,8,0:0:0:0:
191,304,351502,5,0,0:0:0:0:
183,319,351596,1,0,0:0:0:0:
119,365,351690,5,12,0:1:0:0:
59,308,351783,1,0,0:0:0:0:
103,236,351877,1,0,0:0:0:0:
211,210,351971,5,12,0:1:0:0:
271,153,352064,1,0,0:0:0:0:
227,81,352158,1,0,0:0:0:0:
114,135,352252,6,0,B|75:135|49:117|49:117|30:146|-8:167|-8:167|181:129|181:129|183:133|183:133|343:101|343:101|291:134|277:174,1,600,14|0,0:0|2:0,0:0:0:0:
