osu file format v14

[General]
AudioFilename: audio.mp3
AudioLeadIn: 0
PreviewTime: 112109
Countdown: 0
SampleSet: Soft
StackLeniency: 0.7
Mode: 0
LetterboxInBreaks: 0
WidescreenStoryboard: 0

[Editor]
Bookmarks: 57174,84509,92309,112409,119609,126809,134009,141209,143009,145709,173309,187709,202159,215554,222252,228949,242345,249042,255740,257414,271647,284205,296763,298438,315182,316717,329693,336391,341972,351740,355647,364577,368205,372670,386065,399460,439646,466436,484407,491007,538182
DistanceSpacing: 0.2
BeatDivisor: 4
GridSize: 4
TimelineZoom: 1.4

[Metadata]
Title:Consciousness (Pt.1 & Pt.2)
TitleUnicode:Consciousness (Pt.1 & Pt.2)
Artist:Persefone
ArtistUnicode:Persefone
Creator:Alvieee
Version:Enlighten
Source:
Tags:marathon
BeatmapID:1558848
BeatmapSetID:738639

[Difficulty]
HPDrainRate:6.2
CircleSize:4
OverallDifficulty:9.5
ApproachRate:9.6
SliderMultiplier:1.6
SliderTickRate:1

[Events]
//Background and Video events
0,0,"bg.jpg",0,0
//Break Periods
2,173509,186809
2,271847,274766
2,277707,280626
//Storyboard Layer 0 (Background)
//Storyboard Layer 1 (Fail)
//Storyboard Layer 2 (Pass)
//Storyboard Layer 3 (Foreground)
//Storyboard Sound Samples

[TimingPoints]
57175,303.030303030303,3,2,1,15,1,0
58993,-133.333333333333,3,2,1,15,0,0
59447,-153.846153846153,3,2,1,15,0,0
59902,-181.818181818181,3,2,1,15,0,0
60356,-200,3,2,1,15,0,0
62478,-200,3,2,1,5,0,0
62609,300,3,2,1,60,1,0
64409,300,3,2,1,35,1,0
92309,-100,3,2,1,50,0,0
112409,300,3,2,1,40,1,0
119609,-66.6666666666667,3,2,1,40,0,0
141209,-66.6666666666667,3,2,1,60,0,0
145709,-133.333333333333,3,2,1,60,0,0
152309,300,3,2,1,60,1,0
152309,-133.333333333333,3,2,1,60,0,0
166109,300,3,2,1,60,1,0
166109,-133.333333333333,3,2,1,60,0,0
187709,-133.333333333333,3,2,1,30,0,0
201209,-200,3,2,1,15,0,0
202034,-200,3,2,1,5,0,0
202159,279.06976744186,3,2,1,60,1,1
202159,-66.6666666666667,3,2,1,60,0,1
215554,-66.6666666666667,3,2,1,70,0,1
246531,-100,3,2,1,60,0,1
249042,-66.6666666666667,3,2,1,60,0,1
255740,-100,3,2,1,60,0,0
284205,-66.6666666666667,3,2,1,60,0,1
286996,-100,3,2,1,60,0,1
287554,-83.3333333333333,3,2,1,60,0,1
293693,-66.6666666666667,3,2,1,60,0,1
298438,-100,3,2,1,60,0,0
317135,-76.9230769230769,3,2,1,60,0,0
322717,-100,3,2,1,60,0,0
328019,-76.9230769230769,3,2,1,60,0,0
334438,-66.6666666666667,3,2,1,60,0,0
340298,-100,3,2,1,60,0,0
341135,-83.3333333333333,3,2,1,60,0,0
341972,-66.6666666666667,3,2,1,60,0,0
352647,-200,3,2,1,60,0,0
353972,-66.6666666666667,3,2,1,60,0,0
355647,279.06976744186,4,2,1,60,1,0
355647,-66.6666666666667,3,2,1,60,0,1
360112,-90.9090909090909,3,2,1,60,0,1
364577,-100,3,2,1,60,0,0
366809,-66.6666666666667,3,2,1,60,0,0
368205,279.06976744186,4,2,1,60,1,0
368205,-76.9230769230769,3,2,1,60,0,0
381600,-100,3,2,1,60,0,0
384670,-83.3333333333333,3,2,1,60,0,0
386065,-66.6666666666667,3,2,1,60,0,1
399460,279.06976744186,3,2,1,60,1,0
412855,-83.3333333333333,3,2,1,60,0,0
466436,-100,3,2,1,60,0,0
467307,300,3,2,1,60,1,0

[Colours]
Combo1 : 255,128,192
Combo2 : 0,128,255
Combo3 : 181,125,255

[HitObjects]
372,144,57174,6,0,P|376:204|348:244,1,80,0|0,1:0|1:0,1:0:0:0:
296,288,57478,1,0,1:0:0:0:
224,220,57629,1,0,1:0:0:0:
200,312,57781,1,0,1:0:0:0:
252,124,57932,5,0,1:0:0:0:
188,52,58084,1,0,1:0:0:0:
280,28,58235,1,0,1:0:0:0:
160,148,58387,5,0,1:0:0:0:
224,220,58538,1,0,1:0:0:0:
288,292,58690,1,0,1:0:0:0:
320,200,58841,1,0,1:0:0:0:
128,240,58993,6,0,P|100:304|104:360,1,120.000004577637,0|0,1:0|1:0,1:0:0:0:
120,212,59447,2,0,P|80:269|72:320,1,103.999995239258,0|0,1:0|1:0,1:0:0:0:
120,192,59902,2,0,P|68:239|56:272,1,88.000002685547,0|0,1:0|1:0,1:0:0:0:
124,172,60356,2,0,P|63:207|48:228,1,80,0|0,1:0|1:0,1:0:0:0:
132,156,60811,6,0,B|92:160|60:180|60:180|35:56|216:2|284:104|284:104|280:136|296:157,1,440,0|0,1:0|1:0,1:0:0:0:
304,155,62609,5,0,2:0:0:0:
364,108,62909,5,0,2:0:0:0:
244,204,63059,1,0,2:0:0:0:
296,56,63209,1,0,2:0:0:0:
316,252,63359,1,0,2:0:0:0:
232,0,63509,5,0,2:0:0:0:
172,156,63659,2,0,L|141:239,1,80,0|0,2:0|2:0,2:0:0:0:
164,72,63959,1,0,2:0:0:0:
56,208,64109,1,0,2:0:0:0:
244,104,64259,1,0,2:0:0:0:
72,124,64409,5,0,2:0:0:0:
56,208,64559,1,0,2:0:0:0:
40,288,64709,1,0,2:0:0:0:
120,264,64859,1,0,2:0:0:0:
184,320,65009,1,0,2:0:0:0:
56,208,65159,5,0,2:0:0:0:
140,176,65309,2,0,L|236:140,1,80,0|0,2:0|2:0,2:0:0:0:
368,80,65609,5,0,2:0:0:0:
328,156,65759,1,0,2:0:0:0:
376,228,65909,1,0,2:0:0:0:
412,8,66059,1,0,2:0:0:0:
492,160,66209,6,0,B|471:247|471:247|396:288,1,160,0|0,2:0|2:0,2:0:0:0:
468,162,66659,2,0,B|424:231|424:231|344:244,1,160,0|0,2:0|2:0,2:0:0:0:
284,80,67109,1,0,2:0:0:0:
284,80,67259,2,0,L|112:104,1,160,0|0,2:0|2:0,2:0:0:0:
96,112,68009,6,0,P|68:160|128:264,1,160,0|0,2:0|2:0,2:0:0:0:
88,88,68459,2,0,P|44:128|56:248,1,160
172,64,68909,6,0,L|332:72,1,160
148,144,69359,2,0,L|308:152,1,160
332,152,69809,5,0,0:0:0:0:
492,264,69959,2,0,L|332:272,1,160
308,276,70409,1,0,0:0:0:0:
132,256,70559,1,0,0:0:0:0:
312,196,70709,6,0,L|152:176,1,160
128,172,71159,1,0,0:0:0:0:
316,108,71309,1,0,0:0:0:0:
108,152,71459,1,0,0:0:0:0:
312,84,71609,5,0,0:0:0:0:
224,72,71759,1,0,0:0:0:0:
136,56,71909,1,0,0:0:0:0:
208,160,72059,1,0,0:0:0:0:
196,248,72209,1,0,0:0:0:0:
92,352,72359,5,0,0:0:0:0:
104,264,72509,1,0,0:0:0:0:
196,248,72659,1,0,0:0:0:0:
276,284,72809,5,0,0:0:0:0:
364,268,72959,1,0,0:0:0:0:
208,160,73109,5,0,0:0:0:0:
296,172,73259,1,0,0:0:0:0:
384,48,73409,6,0,L|208:64,1,160
404,72,73859,2,0,L|244:120,1,160
424,84,74309,2,0,L|272:168,1,160
440,92,74759,2,0,L|316:200,1,160
300,216,75209,5,0,0:0:0:0:
72,92,75359,2,0,L|196:200,1,160
172,316,75809,1,0,0:0:0:0:
300,216,75959,1,0,0:0:0:0:
68,140,76109,6,0,L|212:216,1,160
148,88,76559,2,0,L|292:164,1,160
420,224,77009,5,0,0:0:0:0:
352,96,77159,1,0,0:0:0:0:
332,232,77309,1,0,0:0:0:0:
440,88,77459,1,0,0:0:0:0:
316,252,77609,1,0,0:0:0:0:
492,20,77909,5,0,0:0:0:0:
300,276,78209,1,0,0:0:0:0:
480,40,78509,1,0,0:0:0:0:
356,204,78659,1,0,0:0:0:0:
488,128,78809,5,0,0:0:0:0:
328,120,78959,1,0,0:0:0:0:
456,212,79109,1,0,0:0:0:0:
428,296,79259,1,0,0:0:0:0:
488,128,79409,1,0,0:0:0:0:
456,212,79559,1,0,0:0:0:0:
256,304,79709,5,0,0:0:0:0:
288,220,79859,2,0,B|300:168|284:128|284:128|240:128|208:100,1,160
272,48,80459,1,0,0:0:0:0:
120,216,80609,6,0,P|72:144|84:60,1,160
116,244,81059,2,0,P|36:184|24:112,1,160
120,268,81509,2,0,B|68:272|40:256|40:256|44:344|108:352|140:352|140:352|208:304|296:344,1,400
376,380,82409,5,0,0:0:0:0:
448,332,82559,1,0,0:0:0:0:
336,196,82709,5,0,0:0:0:0:
416,156,82859,1,0,0:0:0:0:
252,232,83009,5,0,0:0:0:0:
180,180,83159,1,0,0:0:0:0:
324,284,83309,5,0,0:0:0:0:
244,316,83459,1,0,0:0:0:0:
172,268,83609,1,0,0:0:0:0:
92,300,83759,1,0,0:0:0:0:
252,232,83909,5,0,0:0:0:0:
100,216,84059,1,0,0:0:0:0:
332,196,84209,1,0,0:0:0:0:
108,128,84359,1,0,0:0:0:0:
416,160,84509,1,4,0:0:0:0:
256,192,84584,12,0,87809,0:0:0:0:
216,84,88109,6,0,P|256:76|308:88,1,80
256,192,88409,1,0,0:0:0:0:
384,72,88559,1,0,0:0:0:0:
296,268,88709,5,0,0:0:0:0:
464,96,88859,1,0,0:0:0:0:
316,248,89009,1,0,0:0:0:0:
480,76,89159,5,0,0:0:0:0:
392,176,89309,1,0,0:0:0:0:
500,56,89459,1,0,0:0:0:0:
236,40,89609,5,0,0:0:0:0:
316,112,89759,1,0,0:0:0:0:
80,284,89909,1,4,0:0:0:0:
56,300,90209,5,0,0:0:0:0:
392,176,90359,1,4,0:0:0:0:
416,160,90659,5,0,0:0:0:0:
204,128,90809,1,0,0:0:0:0:
157,143,90884,1,0,0:0:0:0:
134,186,90959,1,0,0:0:0:0:
151,232,91034,1,0,0:0:0:0:
196,249,91109,1,0,0:0:0:0:
243,232,91184,1,0,0:0:0:0:
291,220,91259,1,0,0:0:0:0:
341,224,91334,1,0,0:0:0:0:
385,246,91409,5,0,0:0:0:0:
256,48,91559,1,0,0:0:0:0:
300,124,91709,1,0,0:0:0:0:
316,148,92009,5,0,0:0:0:0:
92,44,92159,1,0,0:0:0:0:
332,172,92309,5,0,0:0:0:0:
248,196,92459,1,0,0:0:0:0:
164,216,92609,1,0,0:0:0:0:
224,280,92759,1,0,0:0:0:0:
248,196,92909,1,0,0:0:0:0:
200,364,93059,5,0,0:0:0:0:
288,348,93209,2,0,P|324:312|328:264,1,80
164,216,93509,5,0,0:0:0:0:
188,132,93659,1,0,0:0:0:0:
272,112,93809,1,0,0:0:0:0:
344,164,93959,1,0,0:0:0:0:
372,300,94109,6,0,P|412:244|516:236,1,160
348,316,94559,2,0,P|368:248|468:188,1,160
256,244,95009,6,0,L|96:220,1,160
250,156,95459,2,0,L|410:132,1,160
416,272,95909,6,0,P|444:224|384:120,1,160
424,296,96359,2,0,P|468:256|456:136,1,160
340,320,96809,6,0,L|180:312,1,160
364,240,97259,2,0,L|204:232,1,160
180,232,97709,5,0,0:0:0:0:
20,120,97859,2,0,P|96:144|180:112,1,160
169,119,98459,1,0,0:0:0:0:
408,180,98609,6,0,P|332:204|248:172,1,160
332,104,99059,1,0,0:0:0:0:
208,252,99209,1,0,0:0:0:0:
316,124,99359,1,0,0:0:0:0:
188,272,99509,5,0,0:0:0:0:
116,224,99659,1,0,0:0:0:0:
44,172,99809,1,0,0:0:0:0:
124,136,99959,1,0,0:0:0:0:
52,84,100109,1,0,0:0:0:0:
196,188,100259,5,0,0:0:0:0:
36,260,100409,1,0,0:0:0:0:
100,324,100559,1,0,0:0:0:0:
184,300,100709,1,0,0:0:0:0:
268,272,100859,1,0,0:0:0:0:
340,324,101009,1,0,0:0:0:0:
420,288,101159,1,0,0:0:0:0:
288,184,101309,6,0,L|116:204,1,160
32,96,101759,2,0,L|196:112,1,160
304,8,102209,6,0,L|136:28,1,160
32,96,102659,2,0,L|196:112,1,160
216,116,103109,5,0,0:0:0:0:
446,165,103259,2,0,L|274:185,1,160
208,300,103709,1,0,0:0:0:0:
360,300,103859,1,0,0:0:0:0:
160,228,104009,6,0,P|152:144|196:88,1,160
148,256,104459,2,0,P|108:188|124:96,1,160
148,280,104909,5,0,0:0:0:0:
240,176,105059,1,0,0:0:0:0:
224,308,105209,1,0,0:0:0:0:
243,154,105359,1,0,0:0:0:0:
220,331,105509,1,0,0:0:0:0:
164,124,105659,1,0,0:0:0:0:
300,360,105809,1,0,0:0:0:0:
124,48,106109,5,0,0:0:0:0:
260,288,106259,1,0,0:0:0:0:
88,168,106409,1,0,0:0:0:0:
320,220,106559,1,0,0:0:0:0:
24,228,106709,5,0,0:0:0:0:
92,284,106859,1,0,0:0:0:0:
208,148,107009,5,0,0:0:0:0:
152,216,107159,1,0,0:0:0:0:
80,28,107309,5,0,0:0:0:0:
144,88,107459,1,0,0:0:0:0:
328,20,107609,5,0,0:0:0:0:
268,84,107759,1,0,0:0:0:0:
276,204,107909,1,0,0:0:0:0:
332,144,108059,1,0,0:0:0:0:
328,272,108209,1,0,0:0:0:0:
192,212,108359,1,0,0:0:0:0:
408,192,108509,6,0,B|460:188|488:204|488:204|484:116|420:108|388:108|388:108|320:156|232:116,1,400
172,40,109409,2,0,P|110:83|84:180,1,160
360,268,109859,5,0,0:0:0:0:
328,300,109934,1,0,0:0:0:0:
280,308,110009,1,0,0:0:0:0:
232,296,110084,1,0,0:0:0:0:
184,284,110159,1,0,0:0:0:0:
136,292,110234,1,0,0:0:0:0:
96,316,110309,5,0,0:0:0:0:
100,140,110459,1,0,0:0:0:0:
176,188,110609,1,0,0:0:0:0:
96,228,110759,1,0,0:0:0:0:
260,152,110909,5,0,0:0:0:0:
252,244,111059,1,0,0:0:0:0:
188,100,111209,2,0,P|232:64|272:60,1,80
428,112,111509,2,0,P|384:148|344:152,1,80
164,92,111809,5,0,0:0:0:0:
384,224,111959,1,0,0:0:0:0:
136,192,112109,1,0,0:0:0:0:
288,156,112259,1,0,0:0:0:0:
20,224,112409,5,4,0:0:0:0:
296,332,112559,1,0,0:0:0:0:
112,268,112709,1,0,0:0:0:0:
280,248,112859,1,0,0:0:0:0:
128,352,113009,1,0,0:0:0:0:
260,264,113159,1,0,0:0:0:0:
76,96,113309,5,0,0:0:0:0:
112,268,113459,1,0,0:0:0:0:
168,92,113609,1,0,0:0:0:0:
36,216,113759,1,0,0:0:0:0:
216,168,113909,1,0,0:0:0:0:
60,208,114059,1,0,0:0:0:0:
224,24,114209,5,0,0:0:0:0:
268,244,114359,1,0,0:0:0:0:
168,92,114509,1,0,0:0:0:0:
328,176,114659,1,0,0:0:0:0:
160,180,114809,1,0,0:0:0:0:
304,180,114959,1,0,0:0:0:0:
136,12,115109,5,0,0:0:0:0:
232,228,115259,1,0,0:0:0:0:
216,60,115409,1,0,0:0:0:0:
160,180,115559,1,0,0:0:0:0:
300,96,115709,1,0,0:0:0:0:
184,168,115859,1,0,0:0:0:0:
444,148,116009,5,4,0:0:0:0:
216,60,116159,1,0,0:0:0:0:
368,192,116309,1,0,0:0:0:0:
296,20,116459,1,0,0:0:0:0:
280,188,116609,1,0,0:0:0:0:
294,44,116759,1,0,0:0:0:0:
416,264,116909,5,4,0:0:0:0:
204,144,117059,1,0,0:0:0:0:
400,180,117209,1,0,0:0:0:0:
216,228,117359,1,0,0:0:0:0:
384,96,117509,1,0,0:0:0:0:
236,212,117659,1,0,0:0:0:0:
464,124,117809,5,0,0:0:0:0:
260,128,117959,1,0,0:0:0:0:
448,208,118109,1,0,0:0:0:0:
316,68,118259,1,0,0:0:0:0:
372,252,118409,1,0,0:0:0:0:
324,92,118559,1,0,0:0:0:0:
472,316,118709,5,0,0:0:0:0:
288,192,118859,1,0,0:0:0:0:
472,316,119009,1,0,0:0:0:0:
256,276,119159,1,0,0:0:0:0:
468,228,119309,1,0,0:0:0:0:
228,284,119459,1,0,0:0:0:0:
464,136,119609,6,0,P|416:112|340:120,1,120.000004577637,4|0,0:0|0:0,0:0:0:0:
380,308,119909,2,0,P|404:240|388:188,1,120.000004577637
272,48,120209,1,0,0:0:0:0:
160,156,120359,1,0,0:0:0:0:
380,308,120509,6,0,P|304:252|260:256,1,120.000004577637,4|0,0:0|0:0,0:0:0:0:
92,260,120809,2,0,P|180:244|212:200,1,120.000004577637
272,48,121109,2,0,P|184:64|152:108,1,120.000004577637
92,260,121409,6,0,P|80:184|36:152,1,120.000004577637
240,128,121709,2,0,P|216:184|232:248,1,120.000004577637
400,324,122009,1,0,0:0:0:0:
326,189,122159,1,0,0:0:0:0:
104,356,122309,6,0,P|144:280|132:232,1,120.000004577637
326,189,122609,2,0,P|246:213|222:253,1,120.000004577637
416,268,122909,2,0,P|452:188|432:136,1,120.000004577637
332,316,123209,6,0,P|380:356|448:360,1,120.000004577637,4|0,0:0|0:0,0:0:0:0:
352,192,123509,2,0,P|296:156|228:160,1,120.000004577637
208,292,123809,1,0,0:0:0:0:
136,156,123959,1,0,0:0:0:0:
380,184,124109,6,0,P|336:120|276:96,1,120.000004577637,4|0,0:0|0:0,0:0:0:0:
196,264,124409,2,0,P|276:224|288:192,1,120.000004577637
156,60,124709,2,0,P|176:152|212:176,1,120.000004577637
412,184,125009,6,0,P|400:120|356:76,1,120.000004577637
228,216,125309,2,0,P|240:280|284:324,1,120.000004577637
363,80,125609,1,0,0:0:0:0:
240,132,125759,1,0,0:0:0:0:
440,192,125909,6,0,P|460:132|440:68,1,120.000004577637
280,54,126209,1,0,0:0:0:0:
346,209,126359,1,0,0:0:0:0:
240,132,126509,1,0,0:0:0:0:
336,291,126659,1,0,0:0:0:0:
431,125,126809,5,4,0:0:0:0:
216,52,126959,1,0,0:0:0:0:
431,125,127109,1,0,0:0:0:0:
232,136,127259,1,0,0:0:0:0:
384,32,127409,1,0,0:0:0:0:
252,120,127559,1,0,0:0:0:0:
436,288,127709,5,4,0:0:0:0:
400,116,127859,1,0,0:0:0:0:
344,292,128009,1,0,0:0:0:0:
476,168,128159,1,0,0:0:0:0:
296,216,128309,1,0,0:0:0:0:
452,176,128459,1,0,0:0:0:0:
288,360,128609,5,0,0:0:0:0:
244,140,128759,1,0,0:0:0:0:
344,292,128909,1,0,0:0:0:0:
184,208,129059,1,0,0:0:0:0:
352,204,129209,1,0,0:0:0:0:
208,204,129359,1,0,0:0:0:0:
376,372,129509,5,0,0:0:0:0:
280,156,129659,1,0,0:0:0:0:
296,324,129809,1,0,0:0:0:0:
352,204,129959,1,0,0:0:0:0:
212,288,130109,1,0,0:0:0:0:
328,216,130259,1,0,0:0:0:0:
68,236,130409,5,4,0:0:0:0:
296,324,130559,1,0,0:0:0:0:
144,192,130709,1,0,0:0:0:0:
216,364,130859,1,0,0:0:0:0:
232,196,131009,1,0,0:0:0:0:
218,340,131159,1,0,0:0:0:0:
96,120,131309,5,4,0:0:0:0:
308,240,131459,1,0,0:0:0:0:
112,204,131609,1,0,0:0:0:0:
296,156,131759,1,0,0:0:0:0:
128,288,131909,1,0,0:0:0:0:
276,172,132059,1,0,0:0:0:0:
48,260,132209,5,0,0:0:0:0:
252,256,132359,1,0,0:0:0:0:
64,176,132509,1,0,0:0:0:0:
196,316,132659,1,0,0:0:0:0:
140,132,132809,1,0,0:0:0:0:
188,292,132959,1,0,0:0:0:0:
40,68,133109,5,0,0:0:0:0:
224,192,133259,1,0,0:0:0:0:
40,68,133409,1,0,0:0:0:0:
256,108,133559,1,0,0:0:0:0:
44,156,133709,1,0,0:0:0:0:
284,100,133859,1,0,0:0:0:0:
48,248,134009,6,0,P|96:272|172:264,1,120.000004577637,4|0,0:0|0:0,0:0:0:0:
132,76,134309,2,0,P|108:144|124:196,1,120.000004577637
240,336,134609,1,0,0:0:0:0:
276,216,134759,1,0,0:0:0:0:
132,76,134909,6,0,P|208:132|252:128,1,120.000004577637,4|0,0:0|0:0,0:0:0:0:
420,124,135209,2,0,P|332:140|300:184,1,120.000004577637
240,336,135509,2,0,P|328:320|360:276,1,120.000004577637
420,124,135809,6,0,P|432:200|476:232,1,120.000004577637
272,256,136109,2,0,P|296:200|280:136,1,120.000004577637
112,60,136409,1,0,0:0:0:0:
186,195,136559,1,0,0:0:0:0:
408,28,136709,6,0,P|368:104|380:152,1,120.000004577637
186,195,137009,2,0,P|266:171|290:131,1,120.000004577637
96,116,137309,2,0,P|60:196|80:248,1,120.000004577637
180,68,137609,6,0,P|132:28|64:24,1,120.000004577637,4|0,0:0|0:0,0:0:0:0:
160,192,137909,2,0,P|216:228|284:224,1,120.000004577637
424,196,138209,1,0,0:0:0:0:
316,120,138359,1,0,0:0:0:0:
132,200,138509,6,0,P|176:264|236:288,1,120.000004577637,4|0,0:0|0:0,0:0:0:0:
316,120,138809,2,0,P|236:160|224:192,1,120.000004577637
356,324,139109,2,0,P|336:232|300:208,1,120.000004577637
100,200,139409,6,0,P|112:264|156:308,1,120.000004577637
284,168,139709,2,0,P|272:104|228:60,1,120.000004577637
232,256,140009,1,0,0:0:0:0:
376,148,140159,1,0,0:0:0:0:
72,192,140309,6,0,P|52:252|72:316,1,120.000004577637,4|0,0:0|0:0,0:0:0:0:
232,256,140609,2,0,P|252:196|232:132,1,120.000004577637
72,48,140909,2,0,P|115:77|188:76,1,120.000004577637
368,36,141209,5,0,0:0:0:0:
411,68,141284,1,0,0:0:0:0:
435,116,141359,1,0,0:0:0:0:
446,168,141434,1,0,0:0:0:0:
441,221,141509,1,0,0:0:0:0:
256,168,141659,1,0,0:0:0:0:
456,304,141809,1,0,0:0:0:0:
192,232,141959,1,0,0:0:0:0:
435,116,142109,5,0,0:0:0:0:
376,300,142259,1,0,0:0:0:0:
192,232,142409,1,0,0:0:0:0:
464,208,142559,5,0,0:0:0:0:
284,268,142709,1,0,0:0:0:0:
224,84,142859,1,0,0:0:0:0:
376,300,143009,5,0,0:0:0:0:
212,60,143159,1,0,0:0:0:0:
480,304,143309,1,0,0:0:0:0:
108,72,143459,1,0,0:0:0:0:
476,204,143609,1,0,0:0:0:0:
8,80,143759,1,0,0:0:0:0:
476,104,143909,5,0,0:0:0:0:
4,184,144059,2,0,L|64:192,1,60.0000022888184
380,228,144209,1,0,0:0:0:0:
40,272,144359,1,0,0:0:0:0:
340,140,144509,1,0,0:0:0:0:
16,284,144659,1,0,0:0:0:0:
368,316,144809,5,4,0:0:0:0:
36,192,144959,1,0,0:0:0:0:
288,368,145109,1,0,0:0:0:0:
84,108,145259,5,4,0:0:0:0:
268,344,145409,1,0,0:0:0:0:
128,24,145559,1,0,0:0:0:0:
176,352,145709,6,0,B|107:358|74:274|112:224|112:224|80:192|80:140|80:140|68:192|20:216,1,360.000013732911,4|0,0:0|0:0,0:0:0:0:
30,210,147509,6,0,P|74:146|78:86,1,120.000004577637
28,238,147959,2,0,P|100:202|124:158,1,120.000004577637
16,262,148409,1,0,0:0:0:0:
16,262,149309,6,0,B|56:334|164:338|220:274|220:274|236:314|268:326|268:326|288:302|324:294,1,360.000013732911
308,298,151109,6,0,P|264:234|260:174,1,120.000004577637
308,326,151559,2,0,P|236:290|212:246,1,120.000004577637
320,350,152009,1,0,0:0:0:0:
188,174,152159,1,0,0:0:0:0:
448,284,152309,6,0,B|480:248|468:200|468:200|416:156|432:88|432:88|376:136|308:100|308:100|320:124|312:136,1,360.000013732911
312,110,154109,6,0,L|192:124,1,120.000004577637
48,188,154559,2,0,L|168:202,1,120.000004577637
336,96,155009,1,0,0:0:0:0:
336,96,155909,6,0,B|368:156|318:202|318:202|256:256|269:327|269:327|256:264|204:224,1,360.000013732911
221,239,157709,6,0,P|193:235|173:239,3,30.0000011444092
282,198,158009,2,0,P|262:178|238:170,3,30.0000011444092
354,206,158309,2,0,P|354:178|346:150,3,30.0000011444092
418,246,158609,6,0,P|446:206|446:170,1,60.0000022888184
372,68,158909,2,0,P|400:108|416:116,1,60.0000022888184
460,24,159209,1,0,0:0:0:0:
500,128,159359,1,0,0:0:0:0:
292,28,159509,6,0,B|208:24|136:112|160:188|160:188|176:160|212:144,1,300.000011444092
376,144,160409,1,0,0:0:0:0:
376,144,161309,6,0,L|360:280,1,120.000004577637
488,356,161759,2,0,L|472:220,1,120.000004577637
360,124,162209,1,0,0:0:0:0:
360,124,163109,6,0,B|368:220|296:272|296:272|248:200|248:200|232:256|168:280,1,360.000013732911
180,274,164909,6,0,L|196:138,1,120.000004577637
68,62,165359,2,0,L|84:198,1,120.000004577637
196,294,165809,1,0,0:0:0:0:
24,248,165959,1,0,0:0:0:0:
272,248,166109,6,0,B|336:208|324:140|324:140|312:72|329:46|329:46|368:80|360:136,1,300.000011444092
236,160,167009,1,0,0:0:0:0:
236,160,167909,6,0,P|188:212|180:264,1,120.000004577637
244,132,168359,2,0,P|180:148|140:192,1,120.000004577637
264,112,168809,1,0,0:0:0:0:
264,112,169709,6,0,B|196:80|135:127|135:127|152:228|73:250|73:250|72:220,1,300.000011444092
64,52,170609,1,0,0:0:0:0:
64,52,171509,5,0,0:0:0:0:
92,60,171809,1,0,0:0:0:0:
92,60,172259,5,0,0:0:0:0:
73,241,172409,1,0,0:0:0:0:
73,241,173009,5,0,0:0:0:0:
96,36,173159,1,0,0:0:0:0:
70,268,173309,1,0,0:0:0:0:
236,184,187709,6,0,B|240:248|216:304|216:304|236:328|244:360,2,180.000006866455
304,136,188909,1,0,0:0:0:0:
388,104,189209,1,0,0:0:0:0:
464,152,189509,1,0,0:0:0:0:
456,240,189809,5,0,0:0:0:0:
388,104,189959,1,0,0:0:0:0:
372,228,190109,1,0,0:0:0:0:
476,116,190259,1,0,0:0:0:0:
316,296,190409,1,0,0:0:0:0:
296,320,190709,5,0,0:0:0:0:
188,316,190859,1,0,0:0:0:0:
128,220,191009,1,0,0:0:0:0:
172,120,191159,1,0,0:0:0:0:
128,220,191309,5,0,0:0:0:0:
196,136,191459,1,0,0:0:0:0:
304,160,191609,1,0,0:0:0:0:
128,220,191759,5,0,0:0:0:0:
216,156,191909,1,0,0:0:0:0:
320,184,192059,1,0,0:0:0:0:
112,128,192209,1,0,0:0:0:0:
84,120,192509,5,0,0:0:0:0:
68,128,192584,1,0,0:0:0:0:
52,136,192659,1,0,0:0:0:0:
24,232,192809,1,0,0:0:0:0:
76,320,192959,1,0,0:0:0:0:
192,200,193109,5,0,0:0:0:0:
180,304,193259,1,0,0:0:0:0:
76,320,193409,1,0,0:0:0:0:
24,232,193559,1,0,0:0:0:0:
96,144,193709,1,0,0:0:0:0:
76,320,193859,1,0,0:0:0:0:
192,200,194009,2,0,B|240:180|260:224|312:192,1,120.000004577637
268,108,194459,5,0,0:0:0:0:
372,108,194609,1,0,0:0:0:0:
420,196,194759,1,0,0:0:0:0:
244,92,194909,1,2,0:0:0:0:
220,76,195209,5,0,0:0:0:0:
396,180,195359,1,0,0:0:0:0:
228,168,195509,1,0,0:0:0:0:
384,88,195659,1,0,0:0:0:0:
200,184,195809,1,0,0:0:0:0:
172,200,196109,5,0,0:0:0:0:
356,104,196259,1,0,0:0:0:0:
260,236,196409,1,0,0:0:0:0:
268,72,196559,1,0,0:0:0:0:
260,264,196709,1,0,0:0:0:0:
260,292,197009,5,0,0:0:0:0:
268,100,197159,1,0,0:0:0:0:
340,244,197309,1,0,0:0:0:0:
192,152,197459,1,0,0:0:0:0:
364,260,197609,1,0,0:0:0:0:
388,276,197909,5,0,0:0:0:0:
464,200,198059,1,0,0:0:0:0:
444,96,198209,1,0,0:0:0:0:
352,48,198359,1,0,0:0:0:0:
304,220,198509,5,0,0:0:0:0:
388,276,198659,1,0,0:0:0:0:
464,200,198809,1,0,0:0:0:0:
276,224,198959,1,0,0:0:0:0:
492,192,199109,1,0,0:0:0:0:
152,240,199409,1,0,0:0:0:0:
124,248,199709,5,0,0:0:0:0:
304,216,199859,1,0,0:0:0:0:
96,256,200009,1,0,0:0:0:0:
332,208,200159,1,0,0:0:0:0:
100,160,200309,5,0,0:0:0:0:
96,256,200459,1,0,0:0:0:0:
152,312,200609,1,0,0:0:0:0:
192,320,200759,1,0,0:0:0:0:
224,316,200909,1,0,0:0:0:0:
248,304,201059,1,0,0:0:0:0:
260,288,201209,2,0,B|284:240|356:244|356:244|432:252|464:200,1,220
464,196,202159,5,0,0:0:0:0:
140,176,202298,1,0,0:0:0:0:
431,99,202438,2,0,B|375:71|375:71|315:83,1,120
140,176,202717,2,0,B|196:204|196:204|256:192,1,120
168,48,202996,5,0,0:0:0:0:
312,292,203135,1,0,0:0:0:0:
152,28,203275,2,0,B|96:56|96:56|72:128,1,120.000004577637
104,328,203554,2,0,B|96:261|96:261|24:208,1,120.000004577637
224,116,203833,5,0,0:0:0:0:
416,328,203972,1,0,0:0:0:0:
448,48,204112,2,0,B|464:110|464:110|436:168,1,120.000004577637
312,320,204391,2,0,B|296:260|296:260|324:200,1,120.000004577637
344,56,204670,5,0,0:0:0:0:
200,284,204810,1,0,0:0:0:0:
360,32,204949,2,0,B|382:88|382:88|356:156,1,120.000004577637
312,320,205228,2,0,B|289:260|289:260|316:196,1,120.000004577637
144,120,205507,5,0,0:0:0:0:
432,248,205647,1,0,0:0:0:0:
95,314,205786,2,0,B|145:272|145:272|159:214,1,120.000004577637
356,212,206065,2,0,B|297:188|297:188|240:204,1,120.000004577637
48,164,206345,5,0,0:0:0:0:
320,320,206484,1,0,0:0:0:0:
24,144,206624,2,0,B|88:160|88:160|156:136,1,120.000004577637
340,200,206903,2,0,B|278:183|278:183|208:208,1,120.000004577637
452,232,207182,5,0,0:0:0:0:
116,256,207321,1,0,0:0:0:0:
384,44,207461,2,0,B|416:104|416:104|396:172,1,120.000004577637
432,332,207740,2,0,B|382:296|382:296|312:300,1,120.000004577637
116,256,208019,5,0,0:0:0:0:
436,136,208159,1,0,0:0:0:0:
88,268,208298,2,0,B|141:300|141:300|209:297,1,120.000004577637
356,152,208577,2,0,B|296:146|296:146|236:166,1,120.000004577637
120,80,208856,5,0,0:0:0:0:
368,264,208996,1,0,0:0:0:0:
68,180,209135,2,0,L|53:299,1,120.000004577637
288,332,209414,2,0,L|273:212,1,120.000004577637
48,336,209693,5,0,0:0:0:0:
408,324,209833,1,0,0:0:0:0:
20,344,209972,2,0,B|84:324|84:324|156:348,1,120.000004577637
452,188,210252,2,0,L|324:212,1,120.000004577637
272,40,210531,5,0,0:0:0:0:
216,328,210670,1,0,0:0:0:0:
140,28,210810,2,0,B|163:91|163:91|148:168,1,120.000004577637
340,332,211089,2,0,L|304:208,1,120.000004577637
392,48,211368,5,0,0:0:0:0:
456,328,211507,1,0,0:0:0:0:
384,20,211647,2,0,B|327:50|327:50|304:108,1,120.000004577637
208,256,211926,2,0,L|180:132,1,120.000004577637
384,168,212205,5,0,0:0:0:0:
40,336,212345,1,0,0:0:0:0:
420,304,212484,2,0,B|356:288|356:288|300:316,1,120.000004577637
88,260,212763,2,0,L|208:204,1,120.000004577637
104,52,213042,5,0,0:0:0:0:
268,312,213182,1,0,0:0:0:0:
88,28,213321,2,0,B|152:40|152:40|228:20,1,120.000004577637
400,140,213600,2,0,L|272:108,1,120.000004577637
64,152,213879,5,0,0:0:0:0:
360,20,214019,1,0,0:0:0:0:
160,188,214158,1,0,0:0:0:0:
264,4,214298,1,0,0:0:0:0:
256,220,214438,1,0,0:0:0:0:
164,20,214577,1,0,0:0:0:0:
160,160,214717,5,0,0:0:0:0:
268,32,214856,1,0,0:0:0:0:
256,192,214996,1,0,0:0:0:0:
164,48,215135,1,0,0:0:0:0:
160,248,215275,1,0,0:0:0:0:
164,20,215414,1,0,0:0:0:0:
160,336,215554,5,0,0:0:0:0:
68,48,215693,1,0,0:0:0:0:
256,304,215833,1,0,0:0:0:0:
32,136,215972,1,0,0:0:0:0:
304,220,216112,1,0,0:0:0:0:
52,232,216252,1,0,0:0:0:0:
272,116,216391,6,0,P|212:96|156:116,1,120.000004577637
52,232,216670,2,0,P|112:252|168:232,1,120.000004577637
296,96,216949,2,0,P|244:60|184:64,1,120.000004577637
28,248,217228,5,0,0:0:0:0:
336,260,217368,1,0,0:0:0:0:
36,108,217507,1,0,0:0:0:0:
372,152,217647,1,0,0:0:0:0:
12,96,217786,1,0,0:0:0:0:
312,248,217926,1,0,0:0:0:0:
24,216,218065,6,0,P|16:272|48:328,1,120.000004577637
196,188,218345,2,0,P|204:132|172:76,1,120.000004577637
36,244,218624,2,0,P|52:304|112:336,1,120.000004577637
428,272,218903,5,0,0:0:0:0:
108,120,219042,1,0,0:0:0:0:
452,284,219182,5,0,0:0:0:0:
84,140,219321,1,0,0:0:0:0:
480,300,219461,5,0,0:0:0:0:
64,160,219600,1,0,0:0:0:0:
508,316,219740,6,0,L|368:332,1,120.000004577637
184,200,220019,1,0,0:0:0:0:
380,290,220158,1,0,0:0:0:0:
112,336,220298,2,0,P|44:292|36:236,1,120.000004577637
303,213,220577,6,0,P|371:257|379:313,1,120.000004577637
104,176,220856,2,0,P|120:112|192:72,1,120.000004577637
422,199,221135,2,0,L|282:215,1,120.000004577637
160,79,221414,6,0,L|300:95,1,120.000004577637
364,268,221693,1,0,0:0:0:0:
56,300,221833,1,0,0:0:0:0:
380,288,221972,1,0,0:0:0:0:
68,176,222112,1,0,0:0:0:0:
392,304,222252,5,0,0:0:0:0:
80,36,222392,1,0,0:0:0:0:
444,204,222531,2,0,L|459:85,1,120.000004577637
224,52,222810,2,0,L|239:172,1,120.000004577637
464,48,223089,5,0,0:0:0:0:
200,280,223229,1,0,0:0:0:0:
492,40,223368,2,0,B|356:30,1,120.000004577637
60,196,223648,2,0,L|188:172,1,120.000004577637
240,360,223927,5,0,0:0:0:0:
304,52,224066,1,0,0:0:0:0:
372,356,224206,2,0,B|387:221,1,120.000004577637
172,52,224485,2,0,L|208:176,1,120.000004577637
120,336,224764,5,0,0:0:0:0:
44,52,224903,1,0,0:0:0:0:
128,363,225043,2,0,B|154:226,1,120.000004577637
311,90,225322,2,0,L|333:216,1,120.000004577637
52,236,225601,5,0,0:0:0:0:
396,28,225741,1,0,0:0:0:0:
92,80,225880,2,0,B|154:92|154:92|212:68,1,120.000004577637
424,124,226159,2,0,L|304:180,1,120.000004577637
408,332,226438,5,0,0:0:0:0:
252,48,226578,1,0,0:0:0:0:
424,356,226717,2,0,B|366:342|366:342|284:364,1,120.000004577637
112,244,226996,2,0,L|240:276,1,120.000004577637
480,216,227275,5,0,0:0:0:0:
444,224,227345,1,0,0:0:0:0:
408,232,227414,1,0,0:0:0:0:
372,240,227484,1,0,0:0:0:0:
336,248,227554,1,0,0:0:0:0:
376,68,227693,1,0,0:0:0:0:
256,264,227833,1,0,0:0:0:0:
392,44,227972,1,0,0:0:0:0:
240,288,228112,5,0,0:0:0:0:
280,32,228252,1,0,0:0:0:0:
336,324,228391,1,0,0:0:0:0:
200,80,228531,1,0,0:0:0:0:
316,300,228670,1,0,0:0:0:0:
216,104,228810,1,0,0:0:0:0:
372,232,228949,6,0,P|404:296|388:356,1,120.000004577637
288,372,229228,1,0,0:0:0:0:
112,160,229368,6,0,P|80:224|96:284,1,120.000004577637
196,300,229647,1,0,0:0:0:0:
372,88,229786,6,0,P|404:152|388:212,1,120.000004577637
288,228,230065,1,0,0:0:0:0:
116,12,230205,6,0,P|84:76|100:136,1,120.000004577637
200,152,230484,1,0,0:0:0:0:
484,68,230624,6,0,L|352:52,1,120.000004577637
248,40,230903,1,0,0:0:0:0:
20,196,231042,6,0,L|152:180,1,120.000004577637
256,168,231321,1,0,0:0:0:0:
492,316,231461,6,0,L|360:300,1,120.000004577637
256,288,231740,1,0,0:0:0:0:
8,168,231879,6,0,L|140:152,1,120.000004577637
244,140,232158,1,0,0:0:0:0:
432,28,232298,6,0,P|456:88|432:160,1,120.000004577637
332,168,232577,1,0,0:0:0:0:
156,48,232717,6,0,P|96:24|24:48,1,120.000004577637
16,148,232996,1,0,0:0:0:0:
120,352,233135,6,0,P|96:292|120:220,1,120.000004577637
220,212,233414,1,0,0:0:0:0:
448,348,233554,6,0,P|472:288|448:216,1,120.000004577637
348,208,233833,1,0,0:0:0:0:
104,372,233972,6,0,P|68:320|80:244,1,120.000004577637
368,192,234252,1,0,0:0:0:0:
232,120,234391,1,0,0:0:0:0:
232,276,234531,1,0,0:0:0:0:
232,92,234670,1,0,0:0:0:0:
452,232,234810,5,0,0:0:0:0:
204,280,234949,1,0,0:0:0:0:
480,224,235089,1,0,0:0:0:0:
180,192,235228,1,0,0:0:0:0:
464,312,235368,1,0,0:0:0:0:
152,104,235507,1,0,0:0:0:0:
96,332,235647,6,0,P|64:268|80:208,1,120.000004577637
180,192,235926,1,0,0:0:0:0:
400,224,236066,6,0,P|432:160|416:100,1,120.000004577637
316,84,236345,1,0,0:0:0:0:
140,296,236484,6,0,P|108:232|124:172,1,120.000004577637
224,156,236763,1,0,0:0:0:0:
396,372,236903,6,0,P|428:308|412:248,1,120.000004577637
312,232,237182,1,0,0:0:0:0:
28,316,237322,6,0,L|160:332,1,120.000004577637
264,344,237601,1,0,0:0:0:0:
492,188,237740,6,0,L|360:204,1,120.000004577637
256,216,238019,1,0,0:0:0:0:
20,68,238159,6,0,L|152:84,1,120.000004577637
256,96,238438,1,0,0:0:0:0:
504,216,238577,6,0,L|372:232,1,120.000004577637
268,244,238856,1,0,0:0:0:0:
80,356,238996,6,0,P|56:296|80:224,1,120.000004577637
180,216,239275,1,0,0:0:0:0:
356,336,239415,6,0,P|416:360|488:336,1,120.000004577637
496,236,239694,1,0,0:0:0:0:
392,32,239833,6,0,P|416:92|392:164,1,120.000004577637
292,172,240112,1,0,0:0:0:0:
64,36,240252,6,0,P|40:96|64:168,1,120.000004577637
164,176,240531,1,0,0:0:0:0:
408,12,240670,5,0,0:0:0:0:
416,68,240740,1,0,0:0:0:0:
456,104,240810,1,0,0:0:0:0:
420,104,240879,1,0,0:0:0:0:
384,136,240949,1,0,0:0:0:0:
416,160,241019,1,0,0:0:0:0:
440,196,241089,1,0,0:0:0:0:
452,236,241158,1,0,0:0:0:0:
452,280,241228,1,0,0:0:0:0:
432,316,241298,1,0,0:0:0:0:
400,344,241368,1,0,0:0:0:0:
360,356,241438,1,0,0:0:0:0:
288,348,241507,5,0,0:0:0:0:
312,296,241577,1,0,0:0:0:0:
368,272,241647,1,0,0:0:0:0:
324,272,241717,1,0,0:0:0:0:
288,252,241786,1,0,0:0:0:0:
256,224,241856,1,0,0:0:0:0:
216,208,241926,1,0,0:0:0:0:
172,212,241996,1,0,0:0:0:0:
124,248,242065,1,0,0:0:0:0:
116,188,242135,1,0,0:0:0:0:
156,140,242205,1,0,0:0:0:0:
216,132,242275,1,0,0:0:0:0:
272,152,242345,6,0,L|340:156,2,60.0000022888184
204,292,242624,1,0,0:0:0:0:
304,68,242763,6,0,L|372:64,2,60.0000022888184
192,316,243042,1,0,0:0:0:0:
412,248,243182,6,0,L|480:244,2,60.0000022888184
180,344,243461,1,0,0:0:0:0:
392,160,243600,6,0,L|460:156,2,60.0000022888184
120,284,243879,1,0,0:0:0:0:
240,152,244019,5,0,0:0:0:0:
248,112,244089,1,0,0:0:0:0:
240,72,244158,1,0,0:0:0:0:
80,212,244298,1,0,0:0:0:0:
304,236,244438,5,0,0:0:0:0:
336,212,244507,1,0,0:0:0:0:
356,176,244577,1,0,0:0:0:0:
160,212,244717,1,0,0:0:0:0:
416,256,244856,5,0,0:0:0:0:
424,296,244926,1,0,0:0:0:0:
412,336,244996,1,0,0:0:0:0:
256,176,245135,1,0,0:0:0:0:
96,256,245275,5,0,0:0:0:0:
88,296,245345,1,0,0:0:0:0:
100,336,245415,1,0,0:0:0:0:
256,152,245554,1,0,0:0:0:0:
256,344,245693,5,0,0:0:0:0:
256,124,245833,1,0,0:0:0:0:
284,344,245972,5,0,0:0:0:0:
256,96,246112,1,0,0:0:0:0:
312,344,246252,5,0,0:0:0:0:
256,64,246391,1,0,0:0:0:0:
340,344,246531,6,0,B|416:312|416:312|444:212,1,160
464,124,246949,2,0,L|304:108,1,160
184,96,247368,6,0,B|212:172|212:172|176:246,1,160
95,321,247786,2,0,L|59:158,1,160
40,64,248205,6,0,B|124:88|124:88|196:56,1,160
304,16,248624,1,0,0:0:0:0:
232,208,248763,1,0,0:0:0:0:
336,12,248903,1,0,0:0:0:0:
220,236,249042,5,0,0:0:0:0:
460,56,249182,1,0,0:0:0:0:
324,320,249321,1,0,0:0:0:0:
248,28,249461,1,0,0:0:0:0:
408,280,249600,1,0,0:0:0:0:
180,84,249740,1,0,0:0:0:0:
456,196,249879,6,0,L|316:208,1,120.000004577637
44,128,250158,1,0,0:0:0:0:
344,92,250298,1,0,0:0:0:0:
68,216,250438,1,0,0:0:0:0:
292,16,250577,1,0,0:0:0:0:
88,300,250717,5,0,0:0:0:0:
192,8,250856,1,0,0:0:0:0:
180,312,250996,1,0,0:0:0:0:
192,32,251135,1,0,0:0:0:0:
180,336,251275,1,0,0:0:0:0:
292,56,251414,1,0,0:0:0:0:
280,296,251554,6,0,L|408:300,1,120.000004577637
452,52,251833,1,0,0:0:0:0:
204,216,251972,1,0,0:0:0:0:
452,140,252112,1,0,0:0:0:0:
208,128,252252,1,0,0:0:0:0:
452,228,252391,5,0,0:0:0:0:
124,84,252531,1,0,0:0:0:0:
452,140,252670,1,0,0:0:0:0:
124,172,252810,1,0,0:0:0:0:
452,52,252949,1,0,0:0:0:0:
124,264,253089,1,0,0:0:0:0:
476,32,253228,6,0,L|336:16,1,120.000004577637
124,172,253507,1,0,0:0:0:0:
376,340,253647,1,0,0:0:0:0:
192,108,253786,1,0,0:0:0:0:
416,260,253926,1,0,0:0:0:0:
104,44,254065,5,0,0:0:0:0:
444,168,254205,1,0,0:0:0:0:
84,136,254345,1,0,0:0:0:0:
436,72,254484,1,0,0:0:0:0:
108,228,254624,1,0,0:0:0:0:
360,12,254763,1,0,0:0:0:0:
172,296,254903,5,4,0:0:0:0:
344,36,255042,1,0,0:0:0:0:
52,152,255182,1,4,0:0:0:0:
424,92,255321,1,0,0:0:0:0:
24,156,255461,1,4,0:0:0:0:
452,88,255600,1,0,0:0:0:0:
176,208,255740,5,0,0:0:0:0:
332,184,255879,1,0,0:0:0:0:
168,296,256019,1,0,0:0:0:0:
384,256,256158,1,0,0:0:0:0:
184,116,256298,1,0,0:0:0:0:
344,336,256438,1,0,0:0:0:0:
168,92,256577,5,0,0:0:0:0:
264,232,256717,1,0,0:0:0:0:
84,124,256856,1,0,0:0:0:0:
312,156,256996,1,0,0:0:0:0:
64,212,257135,1,0,0:0:0:0:
368,80,257275,1,0,0:0:0:0:
120,284,257414,6,0,B|168:348|168:348|232:360|244:288|330:322|330:322|364:288|416:300,1,320
512,316,258112,1,0,0:0:0:0:
304,236,258252,6,0,P|256:236|220:248,1,80
432,132,258531,2,0,P|480:132|516:144,1,80
280,80,258810,2,0,P|280:32|292:-4,1,80
304,236,259089,5,0,0:0:0:0:
360,48,259228,1,0,0:0:0:0:
368,32,259298,1,0,0:0:0:0:
380,20,259368,1,0,0:0:0:0:
510,141,259507,1,0,0:0:0:0:
292,160,259647,2,0,P|244:152|212:120,1,80
212,120,259856,1,0,0:0:0:0:
208,104,259926,5,0,0:0:0:0:
136,276,260065,1,0,0:0:0:0:
120,80,260205,1,0,0:0:0:0:
224,296,260345,1,0,0:0:0:0:
212,80,260484,1,0,0:0:0:0:
128,296,260624,1,0,0:0:0:0:
304,76,260763,6,0,B|340:64|348:32|348:32|340:128|432:116|424:220,1,240
422,183,261461,1,0,0:0:0:0:
256,160,261600,6,0,B|216:148|216:148|176:168,1,80
344,304,261879,2,0,B|384:316|384:316|424:296,1,80
184,308,262158,2,0,B|172:348|172:348|192:388,1,80
256,160,262438,5,0,0:0:0:0:
96,276,262577,1,0,0:0:0:0:
56,272,262647,1,0,0:0:0:0:
16,268,262717,1,0,0:0:0:0:
276,144,262856,1,0,0:0:0:0:
24,184,262996,1,0,0:0:0:0:
300,128,263135,1,0,0:0:0:0:
136,344,263275,5,0,0:0:0:0:
216,88,263414,1,0,0:0:0:0:
212,56,263484,1,0,0:0:0:0:
208,24,263554,1,0,0:0:0:0:
232,276,263693,1,0,0:0:0:0:
368,48,263833,1,0,0:0:0:0:
200,192,263972,1,0,0:0:0:0:
400,132,264112,5,0,0:0:0:0:
116,212,264252,1,0,0:0:0:0:
484,108,264391,1,0,0:0:0:0:
152,112,264531,2,0,P|52:124|16:184,1,160
200,192,264949,6,0,P|236:152|244:116,1,80
36,248,265228,1,0,0:0:0:0:
364,224,265368,1,0,0:0:0:0:
16,268,265507,2,0,L|96:280,1,80
243,127,265786,5,0,0:0:0:0:
236,340,265926,1,0,0:0:0:0:
224,312,265996,1,0,0:0:0:0:
212,284,266065,1,0,0:0:0:0:
260,44,266205,1,0,0:0:0:0:
292,256,266345,2,0,L|324:336,1,80
128,180,266624,5,0,0:0:0:0:
252,68,266763,1,0,0:0:0:0:
276,236,266903,1,0,0:0:0:0:
156,84,267042,1,0,0:0:0:0:
316,144,267182,1,0,0:0:0:0:
188,248,267321,1,0,0:0:0:0:
264,28,267461,6,0,B|352:20|352:20|408:72,1,160
460,144,267879,2,0,L|448:308,1,160
368,256,268298,6,0,P|300:240|272:248,1,80
108,324,268577,2,0,P|176:340|204:332,1,80
388,240,268856,2,0,P|340:204|304:200,1,80
88,340,269135,5,0,0:0:0:0:
148,357,269228,1,0,0:0:0:0:
208,336,269321,1,0,0:0:0:0:
245,285,269414,1,0,0:0:0:0:
246,222,269507,1,0,0:0:0:0:
210,170,269600,1,0,0:0:0:0:
120,120,269693,5,0,0:0:0:0:
114,183,269786,1,0,0:0:0:0:
147,237,269879,1,0,0:0:0:0:
204,262,269972,1,0,0:0:0:0:
267,250,270065,1,0,0:0:0:0:
311,205,270158,1,0,0:0:0:0:
344,112,270252,5,0,0:0:0:0:
404,94,270345,1,0,0:0:0:0:
464,115,270438,1,0,0:0:0:0:
501,166,270531,1,0,0:0:0:0:
502,229,270624,1,0,0:0:0:0:
466,281,270717,1,0,0:0:0:0:
368,308,270810,5,0,0:0:0:0:
310,280,270903,1,0,0:0:0:0:
252,253,270996,1,0,0:0:0:0:
196,280,271089,1,0,0:0:0:0:
140,312,271182,1,0,0:0:0:0:
84,284,271275,1,0,0:0:0:0:
28,256,271368,1,0,0:0:0:0:
80,220,271461,1,0,0:0:0:0:
136,188,271554,1,0,0:0:0:0:
192,156,271647,1,0,0:0:0:0:
136,124,275275,6,0,L|240:132,1,80
400,216,275554,2,0,L|220:232,1,160
116,104,275972,2,0,L|212:96,1,80
336,324,276252,2,0,L|168:308,1,160
76,224,276670,5,0,0:0:0:0:
180,208,276810,1,0,0:0:0:0:
284,188,276949,1,0,0:0:0:0:
212,112,277089,1,0,0:0:0:0:
320,88,277228,1,0,0:0:0:0:
284,188,277368,1,0,0:0:0:0:
356,260,277507,1,0,0:0:0:0:
376,124,281135,6,0,L|272:132,1,80
112,216,281414,2,0,L|292:232,1,160
396,104,281832,2,0,L|300:96,1,80
176,324,282112,2,0,L|344:308,1,160
288,200,282530,5,0,0:0:0:0:
384,208,282670,1,0,0:0:0:0:
440,128,282809,1,0,0:0:0:0:
404,32,282949,1,0,0:0:0:0:
264,96,283088,1,0,0:0:0:0:
288,200,283228,1,0,0:0:0:0:
108,188,283367,5,0,0:0:0:0:
84,288,283507,1,0,0:0:0:0:
240,352,283647,5,0,0:0:0:0:
224,248,283786,1,0,0:0:0:0:
408,216,283926,5,0,0:0:0:0:
400,324,284065,1,0,0:0:0:0:
312,148,284205,5,0,0:0:0:0:
168,276,284345,2,0,P|248:300|296:284,1,120.000004577637
316,124,284624,2,0,P|256:168|240:224,1,120.000004577637
412,256,284903,1,0,0:0:0:0:
380,60,285042,6,0,P|312:40|248:64,1,120.000004577637
396,236,285321,1,0,0:0:0:0:
241,208,285461,1,0,0:0:0:0:
428,236,285600,6,0,P|448:168|432:132,2,80.0000030517579
216,220,285879,1,0,0:0:0:0:
199,243,285972,1,0,0:0:0:0:
193,277,286065,1,0,0:0:0:0:
194,304,286158,2,0,P|204:341|238:376,2,80.0000030517579
168,136,286438,5,0,0:0:0:0:
152,116,286531,1,0,0:0:0:0:
132,104,286624,1,0,0:0:0:0:
104,100,286717,2,0,P|52:100|24:84,2,80.0000030517579
232,48,286996,6,0,B|272:12|328:32|328:32|344:92|416:108|456:80,1,240
480,160,287554,2,0,P|444:216|444:276,1,95.9999970703126
296,344,287833,6,0,P|224:320|196:280,1,95.9999970703126
328,32,288112,2,0,P|352:104|336:176,1,143.999995605469
272,224,288391,1,0,0:0:0:0:
240,230,288484,1,0,0:0:0:0:
214,249,288577,1,0,0:0:0:0:
187,283,288670,5,0,0:0:0:0:
170,255,288763,1,0,0:0:0:0:
170,223,288856,1,0,0:0:0:0:
179,179,288949,5,0,0:0:0:0:
143,193,289042,1,0,0:0:0:0:
113,217,289135,1,0,0:0:0:0:
84,256,289228,5,0,0:0:0:0:
72,212,289321,1,0,0:0:0:0:
75,167,289414,1,0,0:0:0:0:
93,126,289507,1,0,0:0:0:0:
128,99,289600,1,0,0:0:0:0:
171,86,289693,1,0,0:0:0:0:
215,88,289786,1,0,0:0:0:0:
279,112,289879,5,0,0:0:0:0:
329,116,289972,1,0,0:0:0:0:
389,95,290065,5,0,0:0:0:0:
359,144,290158,1,0,0:0:0:0:
359,202,290252,1,0,0:0:0:0:
384,253,290345,1,0,0:0:0:0:
434,281,290438,1,0,0:0:0:0:
491,274,290531,1,0,0:0:0:0:
506,218,290624,1,0,0:0:0:0:
458,185,290717,1,0,0:0:0:0:
402,199,290810,1,0,0:0:0:0:
363,241,290903,1,0,0:0:0:0:
346,296,290996,1,0,0:0:0:0:
302,333,291089,1,0,0:0:0:0:
244,339,291182,1,0,0:0:0:0:
190,318,291275,1,0,0:0:0:0:
155,271,291368,1,0,0:0:0:0:
150,213,291461,6,0,P|140:170|103:141,1,63.9999980468751
172,24,291647,2,0,P|182:67|219:96,1,63.9999980468751
65,163,291833,6,0,P|148:140|161:124,1,63.9999980468751
280,148,292019,2,0,P|356:161|374:178,1,63.9999980468751
392,180,292205,1,0,0:0:0:0:
420,232,292298,5,0,0:0:0:0:
364,232,292391,1,0,0:0:0:0:
316,260,292484,1,0,0:0:0:0:
296,312,292577,5,0,0:0:0:0:
348,292,292670,1,0,0:0:0:0:
404,300,292763,1,0,0:0:0:0:
448,336,292856,5,0,0:0:0:0:
504,120,292996,1,0,0:0:0:0:
464,240,293135,1,0,0:0:0:0:
436,60,293275,1,0,0:0:0:0:
468,264,293414,1,0,0:0:0:0:
440,80,293554,1,0,0:0:0:0:
360,368,293693,6,0,P|288:369|225:331,1,120.000004577637
40,220,293972,6,0,P|148:264|296:248,1,240.000009155274
292,250,294345,1,0,0:0:0:0:
312,238,294438,1,0,0:0:0:0:
330,222,294531,1,0,0:0:0:0:
343,201,294624,1,0,0:0:0:0:
351,178,294717,1,0,0:0:0:0:
382,158,294810,5,0,0:0:0:0:
381,134,294903,1,0,0:0:0:0:
371,111,294996,1,0,0:0:0:0:
330,104,295089,5,0,0:0:0:0:
314,102,295182,1,0,0:0:0:0:
298,96,295275,1,0,0:0:0:0:
284,88,295368,1,0,0:0:0:0:
272,76,295461,1,0,0:0:0:0:
261,63,295554,1,0,0:0:0:0:
246,56,295647,1,0,0:0:0:0:
230,56,295740,1,0,0:0:0:0:
218,66,295833,1,0,0:0:0:0:
244,136,295926,5,0,0:0:0:0:
228,156,296019,1,0,0:0:0:0:
208,172,296112,1,0,0:0:0:0:
180,184,296205,1,0,0:0:0:0:
148,188,296298,1,0,0:0:0:0:
108,180,296391,1,0,0:0:0:0:
76,156,296484,1,0,0:0:0:0:
60,112,296577,1,0,0:0:0:0:
80,68,296670,1,0,0:0:0:0:
144,11,296763,5,0,0:0:0:0:
190,66,296856,1,0,0:0:0:0:
193,137,296949,1,0,0:0:0:0:
135,179,297042,1,0,0:0:0:0:
96,239,297135,1,0,0:0:0:0:
111,309,297228,1,0,0:0:0:0:
162,358,297321,1,0,0:0:0:0:
233,353,297414,1,0,0:0:0:0:
286,305,297507,1,0,0:0:0:0:
291,233,297600,1,0,0:0:0:0:
247,175,297693,1,0,0:0:0:0:
253,103,297786,1,0,0:0:0:0:
303,52,297879,1,0,0:0:0:0:
374,44,297972,1,0,0:0:0:0:
438,79,298065,1,0,0:0:0:0:
457,148,298158,1,0,0:0:0:0:
434,217,298252,1,0,0:0:0:0:
368,247,298345,1,0,0:0:0:0:
291,233,298438,6,0,P|219:201|123:253,1,160
108,312,298856,2,0,P|40:328|84:268,1,160
64,172,299275,2,0,P|92:104|68:16,1,160
380,272,299833,6,0,P|348:200|400:104,1,160
459,89,300251,2,0,P|475:21|415:65,1,160
319,45,300670,2,0,P|232:72|163:49,1,160
28,232,301228,6,0,L|200:212,1,160
268,344,301647,2,0,L|96:324,1,160
186,213,302065,2,0,L|358:193,1,160
388,192,302484,1,0,0:0:0:0:
136,64,302624,6,0,L|294:82,1,160
428,112,303042,2,0,P|476:176|440:268,1,160
420,88,303461,2,0,P|484:128|512:212,1,160
288,336,304019,6,0,L|188:324,1,80
384,344,304298,1,0,0:0:0:0:
344,212,304438,1,0,0:0:0:0:
288,336,304577,1,0,0:0:0:0:
480,352,304717,1,0,0:0:0:0:
444,220,304856,1,0,0:0:0:0:
474,334,304996,1,0,0:0:0:0:
440,202,305135,1,0,0:0:0:0:
392,324,305275,1,0,0:0:0:0:
436,180,305414,6,0,B|428:160|412:144|412:144|360:168|288:140,1,160
256,120,305833,1,0,0:0:0:0:
80,216,305972,2,0,P|120:204|176:212,1,80
268,344,306252,2,0,P|236:312|228:272,1,80
256,120,306531,2,0,P|256:64|236:32,1,80
48,248,306810,6,0,P|88:236|144:244,1,80
280,100,307089,2,0,P|280:44|260:12,1,80
92,116,307368,2,0,P|92:172|112:204,1,80
76,24,307647,2,0,P|36:40|8:76,1,80
216,143,307926,2,0,P|256:127|284:91,1,80
292,80,308135,1,0,0:0:0:0:
304,56,308205,6,0,P|356:36|460:76,1,160
480,168,308624,2,0,P|380:172|344:224,1,160
272,304,309042,2,0,L|232:148,1,160
232,149,309600,5,0,0:0:0:0:
198,133,309693,1,0,0:0:0:0:
155,129,309786,1,0,0:0:0:0:
113,136,309879,1,0,0:0:0:0:
77,159,309972,1,0,0:0:0:0:
54,195,310065,1,0,0:0:0:0:
50,264,310158,5,0,0:0:0:0:
23,230,310252,1,0,0:0:0:0:
10,189,310345,1,0,0:0:0:0:
18,119,310438,5,0,0:0:0:0:
60,119,310531,1,0,0:0:0:0:
100,106,310624,1,0,0:0:0:0:
133,79,310717,1,0,0:0:0:0:
164,49,310810,1,0,0:0:0:0:
205,37,310903,1,0,0:0:0:0:
278,40,310996,5,0,0:0:0:0:
246,68,311089,1,0,0:0:0:0:
230,107,311182,1,0,0:0:0:0:
234,149,311275,1,0,0:0:0:0:
255,185,311368,1,0,0:0:0:0:
288,211,311461,1,0,0:0:0:0:
359,220,311554,5,0,0:0:0:0:
329,189,311647,1,0,0:0:0:0:
325,146,311740,1,0,0:0:0:0:
341,71,311833,5,0,0:0:0:0:
378,90,311926,1,0,0:0:0:0:
403,124,312019,1,0,0:0:0:0:
419,163,312112,2,0,P|422:192|412:232,2,53.3333333333333
372,319,312391,5,0,0:0:0:0:
368,292,312461,1,0,0:0:0:0:
356,268,312531,1,0,0:0:0:0:
340,248,312600,1,0,0:0:0:0:
316,232,312670,1,0,0:0:0:0:
288,224,312740,1,0,0:0:0:0:
260,224,312810,1,0,0:0:0:0:
232,232,312879,1,0,0:0:0:0:
204,232,312949,1,0,0:0:0:0:
176,224,313019,1,0,0:0:0:0:
156,204,313089,1,0,0:0:0:0:
144,180,313158,1,0,0:0:0:0:
144,152,313228,1,0,0:0:0:0:
152,124,313298,1,0,0:0:0:0:
148,96,313368,1,0,0:0:0:0:
140,68,313438,1,0,0:0:0:0:
120,48,313507,1,0,0:0:0:0:
108,76,313577,1,0,0:0:0:0:
88,100,313647,1,0,0:0:0:0:
60,116,313717,1,0,0:0:0:0:
36,120,313786,5,0,0:0:0:0:
40,148,313856,1,0,0:0:0:0:
44,176,313926,1,0,0:0:0:0:
44,204,313996,1,0,0:0:0:0:
36,232,314065,1,0,0:0:0:0:
32,256,314135,1,0,0:0:0:0:
36,284,314205,1,0,0:0:0:0:
48,308,314275,1,0,0:0:0:0:
64,324,314345,1,0,0:0:0:0:
88,332,314414,1,0,0:0:0:0:
112,328,314484,1,0,0:0:0:0:
132,316,314554,1,0,0:0:0:0:
148,300,314624,6,0,B|177:315|217:299|217:299|269:275|321:283|365:319|365:319|353:271|377:231,1,320
217,264,316158,6,0,L|129:268,1,80
296,260,316438,2,0,L|208:264,1,80
20,152,316717,1,0,0:0:0:0:
64,156,316787,1,0,0:0:0:0:
108,160,316856,1,0,0:0:0:0:
272,172,316996,1,0,0:0:0:0:
76,40,317135,6,0,L|188:28,1,103.999995239258
316,16,317414,1,0,0:0:0:0:
92,120,317554,2,0,L|204:108,1,103.999995239258
228,112,317763,1,0,0:0:0:0:
260,116,317833,1,0,0:0:0:0:
456,184,317972,6,0,L|316:192,1,103.999995239258
212,280,318252,1,0,0:0:0:0:
260,116,318391,1,0,0:0:0:0:
56,208,318531,1,0,0:0:0:0:
96,212,318600,1,0,0:0:0:0:
136,216,318670,1,0,0:0:0:0:
48,48,318810,5,0,0:0:0:0:
72,312,318949,1,0,0:0:0:0:
224,220,319089,1,0,0:0:0:0:
244,216,319158,1,0,0:0:0:0:
264,212,319228,1,0,0:0:0:0:
408,324,319368,6,0,P|428:272|415:216,1,103.999995239258
348,44,319647,2,0,P|328:96|340:151,1,103.999995239258
356,168,319926,1,0,0:0:0:0:
120,120,320065,6,0,L|240:128,1,103.999995239258
16,113,320345,2,0,L|136:121,1,103.999995239258
316,304,320624,1,0,0:0:0:0:
280,308,320693,1,0,0:0:0:0:
244,312,320763,1,0,0:0:0:0:
100,224,320903,1,0,0:0:0:0:
400,292,321042,6,0,L|284:268,1,103.999995239258
400,116,321321,2,0,L|516:92,1,103.999995239258
200,32,321600,1,0,0:0:0:0:
204,68,321670,1,0,0:0:0:0:
208,104,321740,1,0,0:0:0:0:
336,248,321879,1,0,0:0:0:0:
144,180,322019,1,0,0:0:0:0:
336,156,322158,5,0,0:0:0:0:
390,172,322251,1,0,0:0:0:0:
424,218,322344,1,0,0:0:0:0:
426,274,322437,1,0,0:0:0:0:
394,322,322530,1,0,0:0:0:0:
341,342,322623,1,0,0:0:0:0:
286,327,322717,6,0,B|228:296|172:324|172:324|104:364|40:308,2,240
112,224,323693,1,0,0:0:0:0:
324,236,323833,5,0,0:0:0:0:
344,228,323903,1,0,0:0:0:0:
364,220,323972,1,0,0:0:0:0:
140,108,324112,2,0,L|48:136,1,80
208,280,324391,2,0,L|300:308,1,80
52,236,324670,1,0,0:0:0:0:
296,88,324810,6,0,L|219:64,1,80
372,111,325089,2,0,L|295:87,1,80
300,296,325368,1,0,0:0:0:0:
336,280,325438,1,0,0:0:0:0:
372,264,325507,1,0,0:0:0:0:
192,340,325647,1,0,0:0:0:0:
472,212,325786,6,0,L|380:184,1,80
260,144,326065,1,0,0:0:0:0:
64,312,326205,2,0,L|92:220,1,80
100,196,326414,1,0,0:0:0:0:
112,156,326484,1,0,0:0:0:0:
192,356,326624,6,0,L|220:264,1,80
260,144,326903,1,0,0:0:0:0:
356,232,327042,1,0,0:0:0:0:
164,52,327182,1,0,0:0:0:0:
124,56,327252,1,0,0:0:0:0:
84,60,327321,1,0,0:0:0:0:
296,16,327461,5,0,0:0:0:0:
228,264,327600,1,0,0:0:0:0:
396,96,327740,1,0,0:0:0:0:
416,100,327810,1,0,0:0:0:0:
436,104,327879,1,0,0:0:0:0:
260,144,328019,2,0,P|228:188|224:240,1,103.999995239258
348,360,328298,6,0,P|404:300|396:160,1,207.999990478516
256,112,328717,2,0,P|208:140|184:184,1,103.999995239258
264,80,328996,2,0,P|196:92|160:136,1,103.999995239258
408,180,329275,5,0,0:0:0:0:
232,264,329414,1,0,0:0:0:0:
352,52,329554,1,0,0:0:0:0:
320,304,329693,5,0,0:0:0:0:
376,296,329786,1,0,0:0:0:0:
416,256,329879,1,0,0:0:0:0:
423,199,329972,1,0,0:0:0:0:
394,150,330065,1,0,0:0:0:0:
342,129,330158,1,0,0:0:0:0:
287,144,330252,2,0,P|224:176|172:160,1,103.999995239258
104,72,330531,5,0,0:0:0:0:
47,79,330624,1,0,0:0:0:0:
7,119,330717,1,0,0:0:0:0:
0,176,330810,1,0,0:0:0:0:
29,225,330903,1,0,0:0:0:0:
81,246,330996,1,0,0:0:0:0:
136,231,331089,5,0,0:0:0:0:
36,344,331228,1,0,0:0:0:0:
192,160,331368,1,0,0:0:0:0:
124,332,331507,1,0,0:0:0:0:
108,128,331647,1,0,0:0:0:0:
212,360,331786,5,0,0:0:0:0:
280,136,331926,1,0,0:0:0:0:
300,384,332065,1,0,0:0:0:0:
268,48,332205,5,0,0:0:0:0:
324,56,332298,1,0,0:0:0:0:
360,96,332391,1,0,0:0:0:0:
356,184,332484,5,0,0:0:0:0:
404,212,332577,1,0,0:0:0:0:
460,204,332670,1,0,0:0:0:0:
492,284,332763,5,0,0:0:0:0:
440,308,332856,1,0,0:0:0:0:
416,360,332949,1,0,0:0:0:0:
364,376,333042,1,0,0:0:0:0:
308,368,333135,1,0,0:0:0:0:
264,332,333228,1,0,0:0:0:0:
244,280,333321,5,0,0:0:0:0:
200,316,333414,1,0,0:0:0:0:
144,316,333507,1,0,0:0:0:0:
100,280,333600,1,0,0:0:0:0:
92,224,333693,1,0,0:0:0:0:
116,176,333786,1,0,0:0:0:0:
168,156,333879,5,0,0:0:0:0:
196,188,333972,1,0,0:0:0:0:
236,200,334065,1,0,0:0:0:0:
276,192,334158,1,0,0:0:0:0:
304,160,334252,1,0,0:0:0:0:
340,144,334345,1,0,0:0:0:0:
380,148,334438,6,0,P|448:176|468:228,1,120.000004577637
312,344,334717,2,0,P|328:280|388:256,1,120.000004577637
260,120,334996,2,0,P|244:184|184:208,1,120.000004577637
56,116,335275,1,0,0:0:0:0:
288,40,335414,6,0,B|382:36|382:36|472:60,1,180.000006866455
512,93,335693,2,0,B|419:83|419:83|327:111,1,180.000006866455
316,164,335972,5,0,0:0:0:0:
80,32,336112,1,0,0:0:0:0:
232,304,336252,1,0,0:0:0:0:
272,76,336391,5,0,0:0:0:0:
136,288,336531,1,0,0:0:0:0:
316,164,336670,1,0,0:0:0:0:
88,204,336810,1,0,0:0:0:0:
344,156,336949,5,0,0:0:0:0:
116,200,337089,1,0,0:0:0:0:
308,60,337228,1,0,0:0:0:0:
152,292,337368,1,0,0:0:0:0:
320,36,337507,5,0,0:0:0:0:
256,312,337647,1,0,0:0:0:0:
336,8,337786,1,0,0:0:0:0:
336,248,337926,1,0,0:0:0:0:
200,40,338065,5,0,0:0:0:0:
236,232,338205,1,0,0:0:0:0:
304,56,338345,2,0,L|436:80,1,120.000004577637
236,232,338624,2,0,L|104:208,1,120.000004577637
320,332,338903,2,0,L|452:308,1,120.000004577637
60,288,339182,1,0,0:0:0:0:
324,188,339321,6,0,P|352:124|332:68,1,120.000004577637
116,148,339600,2,0,P|160:216|216:224,1,120.000004577637
376,92,339879,2,0,P|332:24|272:16,1,120.000004577637
156,244,340158,1,0,0:0:0:0:
448,188,340298,6,0,B|388:224|328:196|328:196|244:152|188:200,1,240
218,181,341135,6,0,B|152:216|168:288|168:288|220:240|280:272|280:272|312:288|336:276,1,287.999991210938
315,281,341972,6,0,P|384:252|400:192,1,120.000004577637
400,192,342182,1,0,0:0:0:0:
392,168,342252,1,0,0:0:0:0:
264,80,342391,1,0,0:0:0:0:
448,88,342531,2,0,P|488:148|484:204,1,120.000004577637
356,56,342810,1,0,0:0:0:0:
487,193,342949,6,0,P|432:264|392:272,1,120.000004577637
448,88,343228,2,0,P|488:148|484:204,1,120.000004577637
328,48,343507,1,0,0:0:0:0:
272,272,343647,1,0,0:0:0:0:
208,50,343786,1,0,0:0:0:0:
368,208,343926,6,0,B|336:160|264:152|224:176|224:176|184:200|104:188,1,240.000009155274
380,288,344345,2,0,P|432:260|444:184,1,120.000004577637
148,192,344624,1,0,0:0:0:0:
448,204,344763,6,0,B|448:140|395:114|395:114|352:96|348:40|348:40|320:64|320:88,1,240.000009155274
368,208,345182,2,0,P|388:260|460:284,1,120.000004577637
272,128,345461,2,0,P|200:144|164:188,1,120.000004577637
144,340,345740,2,0,P|216:324|252:280,2,120.000004577637
48,104,346158,5,0,0:0:0:0:
104,112,346252,1,0,0:0:0:0:
152,144,346345,1,0,0:0:0:0:
168,196,346438,1,0,0:0:0:0:
164,252,346531,2,0,P|116:320|88:328,1,80.0000030517579
176,52,346717,5,0,0:0:0:0:
224,20,346810,1,0,0:0:0:0:
280,12,346903,1,0,0:0:0:0:
336,24,346996,1,0,0:0:0:0:
384,56,347089,1,0,0:0:0:0:
404,108,347182,5,0,0:0:0:0:
340,93,347275,1,0,0:0:0:0:
279,119,347368,1,0,0:0:0:0:
246,175,347461,1,0,0:0:0:0:
251,240,347554,1,0,0:0:0:0:
295,289,347647,2,0,P|356:316|408:304,1,80.0000030517579
120,60,347833,5,0,0:0:0:0:
144,120,347926,2,0,P|108:216|88:224,1,80.0000030517579
396,236,348112,5,0,0:0:0:0:
448,220,348205,1,0,0:0:0:0:
480,176,348298,1,0,0:0:0:0:
488,112,348391,5,0,0:0:0:0:
440,156,348484,1,0,0:0:0:0:
376,168,348577,1,0,0:0:0:0:
316,152,348670,1,0,0:0:0:0:
264,112,348763,1,0,0:0:0:0:
244,52,348856,1,0,0:0:0:0:
196,8,348949,1,0,0:0:0:0:
132,4,349042,1,0,0:0:0:0:
80,40,349135,1,0,0:0:0:0:
68,104,349228,1,0,0:0:0:0:
104,156,349321,1,0,0:0:0:0:
164,176,349414,1,0,0:0:0:0:
228,140,349507,5,0,0:0:0:0:
188,200,349600,1,0,0:0:0:0:
200,272,349693,1,0,0:0:0:0:
252,324,349786,1,0,0:0:0:0:
320,340,349879,1,0,0:0:0:0:
388,316,349972,1,0,0:0:0:0:
420,252,350065,5,0,0:0:0:0:
348,260,350158,1,0,0:0:0:0:
276,240,350252,1,0,0:0:0:0:
240,176,350345,1,0,0:0:0:0:
256,104,350438,1,0,0:0:0:0:
308,52,350531,1,0,0:0:0:0:
388,40,350624,5,0,0:0:0:0:
360,116,350717,1,0,0:0:0:0:
288,148,350810,1,0,0:0:0:0:
208,144,350903,1,0,0:0:0:0:
132,112,350996,1,0,0:0:0:0:
52,124,351089,1,0,0:0:0:0:
8,200,351182,5,0,0:0:0:0:
28,288,351275,1,0,0:0:0:0:
108,324,351368,1,0,0:0:0:0:
192,304,351461,1,0,0:0:0:0:
264,252,351554,1,0,0:0:0:0:
348,232,351647,1,0,0:0:0:0:
432,256,351740,2,0,B|484:272|508:296|508:296|480:356|396:336|396:336|332:320|288:360,1,320.000012207032
304,320,352647,6,0,B|252:329|228:371|228:371|213:337|165:322|165:322|96:299|62:232|96:172,1,360
144,108,353972,5,0,0:0:0:0:
169,123,354042,1,0,0:0:0:0:
198,130,354112,2,0,P|245:131|271:117,1,60.0000022888184
318,58,354252,6,0,P|319:11|305:-15,1,60.0000022888184
373,128,354391,5,0,0:0:0:0:
353,150,354461,1,0,0:0:0:0:
345,179,354531,2,0,P|345:242|354:259,1,60.0000022888184
433,338,354670,5,0,0:0:0:0:
404,328,354740,1,0,0:0:0:0:
373,326,354810,2,0,P|315:346|303:360,1,60.0000022888184
194,334,354949,5,0,0:0:0:0:
168,317,355019,1,0,0:0:0:0:
150,292,355089,1,0,0:0:0:0:
138,264,355158,1,0,0:0:0:0:
135,233,355228,1,0,0:0:0:0:
142,203,355298,1,0,0:0:0:0:
162,172,355368,1,0,0:0:0:0:
170,137,355438,1,0,0:0:0:0:
168,101,355507,1,0,0:0:0:0:
152,68,355577,1,0,0:0:0:0:
120,49,355647,6,0,P|76:108|92:167,1,120.000004577637
243,238,355926,1,0,0:0:0:0:
234,34,356065,1,0,0:0:0:0:
340,227,356205,1,0,0:0:0:0:
246,52,356344,1,0,0:0:0:0:
242,258,356484,1,0,0:0:0:0:
349,67,356623,6,0,P|418:82|464:148,1,120.000004577637
224,140,356902,1,0,0:0:0:0:
428,232,357042,1,0,0:0:0:0:
200,128,357181,1,0,0:0:0:0:
372,308,357321,1,0,0:0:0:0:
312,120,357460,1,0,0:0:0:0:
280,296,357600,1,0,0:0:0:0:
280,296,357879,5,0,0:0:0:0:
259,266,357949,1,0,0:0:0:0:
233,240,358019,1,0,0:0:0:0:
201,223,358088,1,0,0:0:0:0:
165,219,358158,1,0,0:0:0:0:
129,222,358228,1,0,0:0:0:0:
96,237,358298,1,0,0:0:0:0:
69,260,358367,1,0,0:0:0:0:
49,290,358437,5,0,0:0:0:0:
36,255,358507,1,0,0:0:0:0:
38,218,358577,1,0,0:0:0:0:
48,183,358647,1,0,0:0:0:0:
74,151,358716,5,0,0:0:0:0:
45,119,358786,1,0,0:0:0:0:
35,77,358856,1,0,0:0:0:0:
35,34,358926,1,0,0:0:0:0:
57,0,358995,5,0,0:0:0:0:
81,34,359065,1,0,0:0:0:0:
114,59,359135,1,0,0:0:0:0:
153,74,359205,1,0,0:0:0:0:
194,80,359274,1,0,0:0:0:0:
236,76,359344,1,0,0:0:0:0:
275,61,359414,1,0,0:0:0:0:
316,53,359484,1,0,0:0:0:0:
350,62,359553,1,0,0:0:0:0:
379,82,359623,1,0,0:0:0:0:
399,112,359693,1,0,0:0:0:0:
401,148,359763,1,0,0:0:0:0:
390,176,359833,1,0,0:0:0:0:
369,197,359902,1,0,0:0:0:0:
340,206,359972,1,0,0:0:0:0:
316,202,360042,1,0,0:0:0:0:
296,188,360112,6,0,P|242:162|119:222,1,176.000005371094
229,302,360670,2,0,B|305:349|368:308|368:308|428:269|509:311,1,264.000008056641
431,381,361228,5,0,0:0:0:0:
427,203,361367,2,0,P|446:157|461:145,2,44.0000013427735
430,356,361647,1,0,0:0:0:0:
330,191,361786,1,0,0:0:0:0:
170,338,361926,5,0,0:0:0:0:
378,272,362065,1,0,0:0:0:0:
125,254,362205,1,0,0:0:0:0:
477,276,362344,6,0,B|491:229|478:186|478:186|427:157|418:95,1,176.000005371094
338,32,362763,6,0,P|309:112|343:200,1,176.000005371094
335,312,363181,6,0,P|229:225|216:175,1,176.000005371094
150,89,363600,6,0,B|141:134|113:159|113:159|87:183|97:238|97:238|133:261|135:313,1,220.000006713867
52,307,364019,5,0,0:0:0:0:
460,225,364298,1,0,0:0:0:0:
62,90,364577,5,0,0:0:0:0:
85,74,364647,1,0,0:0:0:0:
110,62,364716,1,0,0:0:0:0:
137,58,364786,1,0,0:0:0:0:
165,59,364856,1,0,0:0:0:0:
190,70,364926,1,0,0:0:0:0:
214,83,364995,1,0,0:0:0:0:
234,102,365065,1,0,0:0:0:0:
257,116,365135,1,0,0:0:0:0:
284,121,365205,1,0,0:0:0:0:
311,120,365274,2,0,P|355:106|369:92,1,40
451,27,365414,5,0,0:0:0:0:
435,50,365484,1,0,0:0:0:0:
428,76,365553,1,0,0:0:0:0:
428,104,365623,1,0,0:0:0:0:
438,129,365693,1,0,0:0:0:0:
452,152,365763,1,0,0:0:0:0:
463,177,365833,1,0,0:0:0:0:
463,204,365902,1,0,0:0:0:0:
457,231,365972,1,0,0:0:0:0:
444,256,366042,1,0,0:0:0:0:
429,280,366112,1,0,0:0:0:0:
420,306,366181,1,0,0:0:0:0:
420,334,366251,1,0,0:0:0:0:
400,313,366321,1,0,0:0:0:0:
374,301,366391,2,0,P|335:290|313:290,1,40
228,299,366530,5,0,0:0:0:0:
201,309,366600,1,0,0:0:0:0:
172,309,366670,1,0,0:0:0:0:
144,302,366740,1,0,0:0:0:0:
120,286,366809,6,0,P|86:241|88:182,1,80.0000030517579
175,62,366995,2,0,P|209:107|206:163,1,80.0000030517579
59,264,367181,6,0,P|54:191|86:152,1,80.0000030517579
241,74,367367,2,0,P|246:147|215:185,1,80.0000030517579
17,207,367553,6,0,P|74:135|115:130,1,80.0000030517579
291,122,367740,2,0,P|234:194|202:201,1,80.0000030517579
10,137,367926,1,0,0:0:0:0:
483,136,368205,6,0,P|411:171|381:165,2,69.3333301595054
352,224,368484,2,0,P|424:259|454:253,2,69.3333301595054
338,136,368763,1,0,0:0:0:0:
295,112,368856,1,0,0:0:0:0:
246,107,368949,1,0,0:0:0:0:
199,121,369042,2,0,P|150:152|126:231,1,138.666660319011
152,304,369321,5,0,0:0:0:0:
360,272,369460,2,0,P|380:284|408:288,2,51.999997619629
184,100,369739,1,0,0:0:0:0:
156,276,369879,1,0,0:0:0:0:
272,144,370018,1,0,0:0:0:0:
96,204,370158,1,0,0:0:0:0:
296,136,370298,1,0,0:0:0:0:
40,124,370437,6,0,B|8:176|8:176|20:328,1,207.999990478516
168,364,370856,2,0,L|176:308,1,51.999997619629
188,192,370995,1,0,0:0:0:0:
308,300,371135,1,0,0:0:0:0:
168,172,371274,1,0,0:0:0:0:
148,152,371553,5,0,0:0:0:0:
408,256,371693,1,0,0:0:0:0:
96,236,371832,1,0,0:0:0:0:
372,164,371972,1,0,0:0:0:0:
336,174,372042,1,0,0:0:0:0:
292,188,372111,5,0,0:0:0:0:
317,143,372180,1,0,0:0:0:0:
362,117,372250,1,0,0:0:0:0:
413,117,372320,1,0,0:0:0:0:
458,142,372390,1,0,0:0:0:0:
485,186,372459,1,0,0:0:0:0:
486,237,372529,1,0,0:0:0:0:
462,282,372599,1,0,0:0:0:0:
418,310,372669,5,0,0:0:0:0:
476,52,372809,1,0,0:0:0:0:
336,268,372949,5,0,0:0:0:0:
372,24,373088,1,0,0:0:0:0:
240,264,373228,5,0,0:0:0:0:
264,16,373367,1,0,0:0:0:0:
360,224,373507,5,0,0:0:0:0:
148,48,373646,1,0,0:0:0:0:
400,128,373786,5,0,0:0:0:0:
132,160,373925,1,0,0:0:0:0:
356,20,374065,5,0,0:0:0:0:
188,256,374205,1,0,0:0:0:0:
248,12,374344,5,0,0:0:0:0:
308,284,374484,1,0,0:0:0:0:
256,40,374623,5,0,0:0:0:0:
316,308,374763,1,0,0:0:0:0:
356,20,374902,5,0,0:0:0:0:
64,324,375321,5,0,0:0:0:0:
492,216,375739,5,0,0:0:0:0:
20,148,376158,5,0,0:0:0:0:
408,64,376577,5,0,0:0:0:0:
408,80,376646,1,0,0:0:0:0:
408,96,376716,1,0,0:0:0:0:
408,112,376786,1,0,0:0:0:0:
408,128,376856,1,0,0:0:0:0:
144,332,377135,5,0,0:0:0:0:
99,298,377228,1,0,0:0:0:0:
82,246,377321,1,0,0:0:0:0:
92,191,377414,1,0,0:0:0:0:
126,147,377507,1,0,0:0:0:0:
179,133,377600,1,0,0:0:0:0:
233,141,377693,5,0,0:0:0:0:
280,104,377786,1,0,0:0:0:0:
336,92,377879,1,0,0:0:0:0:
388,112,377972,1,0,0:0:0:0:
420,160,378065,1,0,0:0:0:0:
420,216,378158,1,0,0:0:0:0:
392,264,378251,5,0,0:0:0:0:
364,216,378344,1,0,0:0:0:0:
368,160,378437,1,0,0:0:0:0:
400,116,378530,1,0,0:0:0:0:
346,120,378623,1,0,0:0:0:0:
294,100,378716,1,0,0:0:0:0:
264,55,378809,5,0,0:0:0:0:
248,108,378902,1,0,0:0:0:0:
212,148,378995,1,0,0:0:0:0:
160,164,379088,1,0,0:0:0:0:
208,192,379181,1,0,0:0:0:0:
236,240,379274,1,0,0:0:0:0:
240,296,379367,2,0,P|232:348|200:380,1,69.3333301595054
44,64,379646,5,0,0:0:0:0:
92,36,379739,1,0,0:0:0:0:
148,24,379832,1,0,0:0:0:0:
204,24,379925,1,0,0:0:0:0:
256,36,380018,1,0,0:0:0:0:
300,68,380111,1,0,0:0:0:0:
348,96,380205,1,0,0:0:0:0:
404,100,380298,1,0,0:0:0:0:
456,84,380391,1,0,0:0:0:0:
492,44,380484,5,0,0:0:0:0:
476,84,380577,1,0,0:0:0:0:
472,124,380670,1,0,0:0:0:0:
480,164,380763,1,0,0:0:0:0:
500,200,380856,1,0,0:0:0:0:
508,240,380949,1,0,0:0:0:0:
504,280,381042,6,0,P|464:340|416:348,1,103.999995239258
288,192,381321,2,0,P|376:236|384:276,1,103.999995239258
208,328,381600,6,0,L|128:336,2,53.3333333333333
72,204,381879,2,0,L|148:216,2,53.3333333333333
208,76,382158,2,0,L|128:84,2,53.3333333333333
48,204,382437,5,0,0:0:0:0:
52,228,382507,1,0,0:0:0:0:
56,252,382577,1,0,0:0:0:0:
60,276,382646,1,0,0:0:0:0:
64,296,382716,2,0,L|76:368,2,53.3333333333333
196,212,382995,2,0,L|184:284,2,53.3333333333333
312,296,383274,5,0,0:0:0:0:
316,272,383344,1,0,0:0:0:0:
320,248,383414,1,0,0:0:0:0:
324,224,383484,1,0,0:0:0:0:
328,192,383553,1,0,0:0:0:0:
320,160,383623,1,0,0:0:0:0:
308,128,383693,1,0,0:0:0:0:
300,96,383763,1,0,0:0:0:0:
288,64,383832,6,0,P|232:32|136:64,1,160
172,272,384251,2,0,P|220:216|208:128,1,160
72,232,384670,2,0,P|62:295|148:388,1,191.999994140625
300,144,385088,2,0,P|244:112|116:164,1,191.999994140625
240,364,385507,5,0,0:0:0:0:
468,68,385786,1,0,0:0:0:0:
44,68,386065,5,0,0:0:0:0:
22,136,386158,1,0,0:0:0:0:
42,204,386251,1,0,0:0:0:0:
97,250,386344,1,0,0:0:0:0:
168,255,386437,2,0,P|213:243|246:193,1,80.0000030517579
261,51,386623,5,0,0:0:0:0:
328,26,386716,2,0,P|406:34|425:51,1,80.0000030517579
353,191,386902,5,0,0:0:0:0:
339,261,386995,2,0,P|352:336|375:360,1,80.0000030517579
479,144,387181,5,0,0:0:0:0:
448,78,387274,1,0,0:0:0:0:
381,49,387367,1,0,0:0:0:0:
309,53,387460,1,0,0:0:0:0:
252,97,387553,1,0,0:0:0:0:
224,163,387646,1,0,0:0:0:0:
183,222,387739,1,0,0:0:0:0:
117,250,387832,1,0,0:0:0:0:
49,225,387925,1,0,0:0:0:0:
17,160,388018,1,0,0:0:0:0:
27,88,388111,2,0,P|62:46|117:42,1,80.0000030517579
184,320,388298,5,0,0:0:0:0:
247,354,388391,1,0,0:0:0:0:
318,345,388484,1,0,0:0:0:0:
366,291,388577,1,0,0:0:0:0:
366,219,388670,1,0,0:0:0:0:
366,147,388763,1,0,0:0:0:0:
405,86,388856,5,0,0:0:0:0:
428,154,388949,1,0,0:0:0:0:
387,213,389042,1,0,0:0:0:0:
315,218,389135,1,0,0:0:0:0:
268,163,389228,1,0,0:0:0:0:
205,127,389321,1,0,0:0:0:0:
141,135,389414,1,0,0:0:0:0:
92,176,389507,1,0,0:0:0:0:
74,237,389600,1,0,0:0:0:0:
96,288,389693,1,0,0:0:0:0:
142,319,389786,1,0,0:0:0:0:
189,326,389879,1,0,0:0:0:0:
232,304,389972,1,0,0:0:0:0:
258,273,390065,1,0,0:0:0:0:
289,248,390158,1,0,0:0:0:0:
320,240,390251,1,0,0:0:0:0:
343,245,390344,2,0,P|402:307|403:326,1,80.0000030517579
170,233,390530,5,0,0:0:0:0:
140,167,390623,1,0,0:0:0:0:
150,95,390716,1,0,0:0:0:0:
200,44,390809,1,0,0:0:0:0:
271,32,390902,1,0,0:0:0:0:
341,47,390995,1,0,0:0:0:0:
387,102,391088,1,0,0:0:0:0:
389,173,391181,1,0,0:0:0:0:
391,244,391274,1,0,0:0:0:0:
431,303,391367,1,0,0:0:0:0:
363,278,391460,1,0,0:0:0:0:
291,281,391553,1,0,0:0:0:0:
228,316,391646,5,0,0:0:0:0:
258,250,391739,1,0,0:0:0:0:
251,178,391832,1,0,0:0:0:0:
211,117,391925,1,0,0:0:0:0:
141,96,392018,2,0,P|57:107|36:123,1,80.0000030517579
22,320,392204,5,0,0:0:0:0:
82,360,392298,2,0,P|166:349|187:333,1,80.0000030517579
251,178,392484,5,0,0:0:0:0:
311,138,392578,2,0,P|395:149|416:165,1,80.0000030517579
474,310,392763,5,0,0:0:0:0:
417,354,392856,1,0,0:0:0:0:
345,360,392949,1,0,0:0:0:0:
283,322,393042,1,0,0:0:0:0:
258,254,393135,1,0,0:0:0:0:
204,205,393228,1,0,0:0:0:0:
133,190,393321,1,0,0:0:0:0:
64,211,393414,1,0,0:0:0:0:
23,270,393507,1,0,0:0:0:0:
49,336,393600,1,0,0:0:0:0:
120,347,393693,1,0,0:0:0:0:
166,292,393786,1,0,0:0:0:0:
138,225,393879,5,0,0:0:0:0:
190,274,393972,1,0,0:0:0:0:
261,277,394065,1,0,0:0:0:0:
328,252,394158,1,0,0:0:0:0:
368,192,394251,1,0,0:0:0:0:
367,120,394344,1,0,0:0:0:0:
324,61,394437,5,0,0:0:0:0:
348,64,394530,1,0,0:0:0:0:
372,68,394623,1,0,0:0:0:0:
396,72,394716,1,0,0:0:0:0:
420,76,394809,1,0,0:0:0:0:
444,80,394902,1,0,0:0:0:0:
484,168,394995,5,0,0:0:0:0:
412,160,395088,1,0,0:0:0:0:
340,148,395181,1,0,0:0:0:0:
268,136,395274,1,0,0:0:0:0:
196,124,395367,1,0,0:0:0:0:
124,112,395460,1,0,0:0:0:0:
52,100,395553,5,0,0:0:0:0:
104,48,395646,1,0,0:0:0:0:
176,40,395739,1,0,0:0:0:0:
240,72,395832,1,0,0:0:0:0:
268,136,395925,1,0,0:0:0:0:
256,200,396018,1,0,0:0:0:0:
220,252,396111,1,0,0:0:0:0:
168,268,396204,1,0,0:0:0:0:
112,260,396298,1,0,0:0:0:0:
76,228,396391,1,0,0:0:0:0:
60,182,396484,1,0,0:0:0:0:
71,135,396577,1,0,0:0:0:0:
124,87,396670,5,0,0:0:0:0:
125,158,396763,1,0,0:0:0:0:
169,214,396856,1,0,0:0:0:0:
239,228,396949,1,0,0:0:0:0:
303,195,397042,2,0,P|351:131|351:94,1,80.0000030517579
124,87,397228,5,0,0:0:0:0:
69,134,397321,1,0,0:0:0:0:
53,204,397414,1,0,0:0:0:0:
76,271,397507,1,0,0:0:0:0:
131,317,397600,1,0,0:0:0:0:
201,329,397693,1,0,0:0:0:0:
268,302,397786,1,0,0:0:0:0:
305,240,397879,1,0,0:0:0:0:
346,181,397972,1,0,0:0:0:0:
412,152,398065,1,0,0:0:0:0:
481,169,398158,2,0,P|498:249|466:293,1,80.0000030517579
321,48,398344,5,0,0:0:0:0:
251,27,398437,1,0,0:0:0:0:
180,39,398530,1,0,0:0:0:0:
134,94,398623,1,0,0:0:0:0:
134,165,398716,1,0,0:0:0:0:
169,218,398809,1,0,0:0:0:0:
228,240,398902,1,0,0:0:0:0:
283,232,398995,1,0,0:0:0:0:
327,197,399088,1,0,0:0:0:0:
341,151,399181,1,0,0:0:0:0:
328,104,399274,1,0,0:0:0:0:
298,76,399367,1,0,0:0:0:0:
260,70,399460,6,0,B|160:66|131:166|43:169|43:169|132:171|168:266|168:266|197:336|299:320|299:320|373:244|373:244|424:288|437:345|437:345|445:289|473:260,1,880
461,128,401134,6,0,B|445:114|437:57|437:57|424:115|373:158|373:158|337:102|337:102|254:193|254:193|235:80|155:33|155:33|71:77|61:195|61:195|112:231|117:296|117:296,1,880
181,225,402808,6,0,B|219:310|162:370|162:370|247:332|320:365|320:365|299:335|292:313|292:313|396:324|425:234|425:234|341:166|375:59|375:59|275:171,1,880
122,136,404483,6,0,P|96:115|67:110,2,40
97,284,404762,1,0,0:0:0:0:
200,109,404901,6,0,P|193:76|173:54,2,40
87,208,405180,1,0,0:0:0:0:
273,131,405320,6,0,P|288:101|286:71,2,40
122,136,405599,1,0,0:0:0:0:
169,250,405739,1,0,0:0:0:0:
287,257,405878,1,0,0:0:0:0:
287,257,406157,6,0,B|370:273|418:196|418:196|320:131|229:228|229:228|237:151|237:151|201:87|201:87|138:93|98:46|98:46|37:94|77:167|77:167|107:224|70:274,1,880
179,323,407832,6,0,B|250:317|296:353|296:353|355:337|404:352|404:352|378:320|378:320|415:326|445:306|445:306|544:226|487:73|487:73|448:111|394:121|394:121|325:72|288:85|288:85|322:149,1,880
372,222,409506,6,0,B|346:253|306:250|306:250|257:221|165:226|165:226|110:233|84:288|84:288|11:227|21:103|21:103|96:130|160:114|201:87|201:87|237:153|237:153|170:146|119:158,1,880
102,13,411180,5,0,0:0:0:0:
206,226,411320,1,0,0:0:0:0:
229,105,411460,1,0,0:0:0:0:
80,282,411599,5,0,0:0:0:0:
323,178,411739,1,0,0:0:0:0:
327,296,411879,1,0,0:0:0:0:
442,66,412018,5,0,0:0:0:0:
318,48,412157,1,0,0:0:0:0:
195,26,412297,1,0,0:0:0:0:
241,139,412436,1,0,0:0:0:0:
318,48,412576,1,0,0:0:0:0:
367,158,412715,1,0,0:0:0:0:
293,249,412855,6,0,P|352:279|396:275,1,95.9999970703126
445,112,413134,2,0,P|391:128|364:164,1,95.9999970703126
179,201,413413,2,0,P|126:174|107:128,1,95.9999970703126
272,8,413692,6,0,P|265:72|238:106,1,95.9999970703126
169,247,413971,2,0,P|121:202|113:155,1,95.9999970703126
305,19,414250,1,0,0:0:0:0:
256,177,414390,1,0,0:0:0:0:
157,32,414529,6,0,L|52:47,2,95.9999970703126
355,142,414948,2,0,P|378:222|298:298,1,191.999994140625
264,108,415366,5,0,0:0:0:0:
200,224,415506,1,0,0:0:0:0:
277,82,415646,2,0,P|331:81|373:110,1,95.9999970703126
277,266,415925,2,0,P|223:267|181:238,1,95.9999970703126
370,211,416204,6,0,L|363:316,1,95.9999970703126
189,129,416483,2,0,L|196:24,1,95.9999970703126
69,67,416762,1,0,0:0:0:0:
87,193,416901,1,0,0:0:0:0:
280,77,417041,6,0,L|273:172,1,95.9999970703126
202,338,417320,2,0,P|131:347|86:319,1,95.9999970703126
267,253,417599,2,0,P|320:297|331:333,1,95.9999970703126
133,208,417878,6,0,L|126:112,1,95.9999970703126
325,150,418157,2,0,L|331:54,1,95.9999970703126
225,160,418436,1,0,0:0:0:0:
312,276,418576,1,0,0:0:0:0:
132,182,418715,6,0,L|125:86,1,95.9999970703126
324,124,418994,2,0,L|330:28,1,95.9999970703126
454,124,419273,1,0,0:0:0:0:
429,262,419413,1,0,0:0:0:0:
288,208,419553,6,0,P|238:258|236:321,1,95.9999970703126
458,253,419832,2,0,P|452:186|419:149,1,95.9999970703126
340,275,420111,1,0,0:0:0:0:
340,90,420250,1,0,0:0:0:0:
267,219,420390,6,0,P|217:269|215:332,1,95.9999970703126
481,236,420669,2,0,P|475:169|442:132,1,95.9999970703126
262,69,420948,1,0,0:0:0:0:
438,23,421087,1,0,0:0:0:0:
332,168,421227,6,0,L|210:161,1,95.9999970703126
59,57,421506,2,0,L|181:50,1,95.9999970703126
142,171,421785,1,0,0:0:0:0:
225,29,421925,1,0,0:0:0:0:
350,185,422064,6,0,L|228:178,1,95.9999970703126
30,161,422343,1,0,0:0:0:0:
224,55,422483,1,0,0:0:0:0:
97,226,422622,1,0,0:0:0:0:
224,79,422762,1,0,0:0:0:0:
115,315,422901,6,0,P|163:335|222:326,1,95.9999970703126
361,248,423180,2,0,P|313:228|254:237,1,95.9999970703126
93,326,423459,1,0,0:0:0:0:
200,162,423599,1,0,0:0:0:0:
361,333,423739,6,0,P|416:313|444:265,1,95.9999970703126
319,142,424018,2,0,P|332:211|373:241,1,95.9999970703126
500,103,424297,2,0,P|445:123|417:171,1,95.9999970703126
255,315,424576,6,0,P|195:278|145:288,1,95.9999970703126
59,318,424855,1,0,0:0:0:0:
283,301,424994,2,0,P|243:243|193:232,1,95.9999970703126
102,224,425273,1,0,0:0:0:0:
358,334,425413,1,0,0:0:0:0:
358,334,425692,5,0,0:0:0:0:
428,256,425832,1,0,0:0:0:0:
413,152,425971,1,0,0:0:0:0:
310,107,426111,1,0,0:0:0:0:
205,155,426250,6,0,P|237:212|275:234,1,95.9999970703126
423,127,426529,2,0,P|369:143|342:179,1,95.9999970703126
292,332,426808,2,0,P|345:305|364:259,1,95.9999970703126
188,131,427087,6,0,P|195:195|222:229,1,95.9999970703126
325,367,427366,2,0,P|373:322|381:275,1,95.9999970703126
336,170,427645,1,0,0:0:0:0:
218,306,427785,1,0,0:0:0:0:
355,149,427925,1,0,0:0:0:0:
355,149,428204,5,0,0:0:0:0:
86,223,428343,2,0,L|280:236,1,191.999994140625
355,149,428761,1,0,0:0:0:0:
355,149,429041,5,0,0:0:0:0:
170,69,429180,1,0,0:0:0:0:
338,56,429320,1,0,0:0:0:0:
192,156,429459,1,0,0:0:0:0:
317,73,429599,6,0,L|310:168,1,95.9999970703126
213,334,429878,2,0,L|207:239,1,95.9999970703126
380,324,430157,1,0,0:0:0:0:
394,196,430296,1,0,0:0:0:0:
236,316,430436,6,0,L|229:221,1,95.9999970703126
353,77,430715,2,0,P|424:68|469:96,1,95.9999970703126
334,197,430994,2,0,P|288:181|277:170,3,47.9999985351563
394,196,431273,6,0,L|401:292,1,95.9999970703126
187,234,431552,2,0,L|181:330,1,95.9999970703126
287,224,431831,1,0,0:0:0:0:
200,108,431971,1,0,0:0:0:0:
380,202,432110,6,0,L|387:298,1,95.9999970703126
188,260,432389,2,0,L|185:321,3,47.9999985351563
98,288,432669,2,0,L|95:349,3,47.9999985351563
217,182,432948,6,0,P|267:232|269:295,1,95.9999970703126
17,301,433227,2,0,P|23:234|56:197,1,95.9999970703126
145,124,433506,1,0,0:0:0:0:
188,260,433645,1,0,0:0:0:0:
294,91,433785,6,0,L|284:197,1,95.9999970703126
350,348,434064,2,0,P|417:342|454:309,1,95.9999970703126
429,194,434343,1,0,0:0:0:0:
180,216,434622,6,0,L|302:223,1,95.9999970703126
453,327,434901,2,0,L|331:334,1,95.9999970703126
352,189,435180,2,0,L|474:196,1,95.9999970703126
162,199,435459,6,0,L|284:206,1,95.9999970703126
376,166,435739,2,0,L|498:173,1,95.9999970703126
185,222,436018,2,0,L|307:229,1,95.9999970703126
397,69,436296,6,0,P|349:49|290:58,1,95.9999970703126
155,114,436575,2,0,P|203:134|262:125,1,95.9999970703126
406,41,436854,1,0,0:0:0:0:
333,169,436994,1,0,0:0:0:0:
154,26,437134,6,0,P|99:46|71:94,1,95.9999970703126
184,199,437413,2,0,P|171:130|130:100,1,95.9999970703126
24,232,437692,2,0,P|79:212|107:164,1,95.9999970703126
154,26,437971,6,0,L|229:33,2,63.9999980468751
311,101,438250,2,0,L|236:108,2,63.9999980468751
120,184,438529,2,0,L|195:191,2,63.9999980468751
336,264,438808,2,0,L|261:271,2,63.9999980468751
95,338,439087,2,0,L|170:345,2,63.9999980468751
360,248,439366,5,0,0:0:0:0:
356,216,439459,1,0,0:0:0:0:
348,184,439553,1,0,0:0:0:0:
344,152,439646,6,0,P|280:72|264:296,1,575.999982421876
432,168,440762,2,0,P|371:236|281:216,1,191.999994140625
142,85,441320,6,0,B|126:177|50:201|50:201|122:229|122:297|122:297|138:345|186:358|186:358|282:321|282:217|282:217|246:233,1,575.999982421876
36,290,442436,1,0,0:0:0:0:
36,290,442994,6,0,B|75:264|121:269|121:269|123:199|123:199|170:218|204:202|204:202|166:130|185:55,1,383.99998828125
346,19,443832,2,0,B|317:126|406:196|406:196|382:230|379:269|379:269|316:243|264:163|259:99,1,479.999985351563
151,41,444669,6,0,L|158:116,2,63.9999980468751
57,220,444948,2,0,L|64:145,2,63.9999980468751
195,226,445227,2,0,L|202:301,2,63.9999980468751
336,168,445506,2,0,L|343:93,2,63.9999980468751
481,274,445785,2,0,L|488:349,2,63.9999980468751
320,284,446064,5,0,0:0:0:0:
288,288,446157,1,0,0:0:0:0:
256,292,446250,1,0,0:0:0:0:
224,296,446343,6,0,B|120:308|120:308|20:296|20:296|40:208|124:228|124:228|184:240|232:180|232:180|176:152|128:188,1,575.999982421876
292,124,447459,2,0,P|228:92|104:108,1,191.999994140625
28,160,447878,1,0,0:0:0:0:
232,180,448018,6,0,B|280:232|364:208|376:132|376:132|484:196|464:320|464:320|384:288|388:176,1,575.999982421876
488,28,449134,1,0,0:0:0:0:
488,28,449692,6,0,B|460:100|388:108|388:108|352:56|252:64|240:128|240:128|280:140|292:176,1,383.99998828125
332,348,450529,2,0,B|276:336|264:272|264:272|240:332|184:336|184:336|112:280|144:160,1,383.99998828125
408,200,451366,6,0,P|408:244|386:303,1,95.9999970703126
460,104,451785,2,0,P|487:172|473:314,1,191.999994140625
435,357,452204,1,0,0:0:0:0:
284,53,452483,1,0,0:0:0:0:
344,367,452762,1,0,0:0:0:0:
284,53,453041,6,0,B|272:135|190:143|190:143|111:149|89:225|89:225|64:108,1,383.99998828125
67,125,453878,1,0,0:0:0:0:
272,246,454157,2,0,L|282:199,2,47.9999985351563
254,327,454436,1,0,0:0:0:0:
254,327,454715,6,0,B|329:342|356:268|356:268|377:342|434:345|434:345|425:264|482:204|482:204|444:170|444:106,1,479.999985351563
441,24,455553,1,0,0:0:0:0:
182,125,455832,2,0,P|138:217|173:292,1,191.999994140625
173,292,456250,1,0,0:0:0:0:
257,81,456390,6,0,B|212:21|138:47|138:47|86:24|86:24|11:58|-11:139|36:202|36:202|96:156|69:45,1,575.999982421876
66,282,457506,2,0,P|114:246|160:111,1,191.999994140625
60,369,458064,6,0,P|116:354|162:304,1,95.9999970703126
268,99,458483,2,0,P|238:201|269:288,1,191.999994140625
334,335,458901,1,0,0:0:0:0:
360,62,459180,1,0,0:0:0:0:
428,329,459459,1,0,0:0:0:0:
360,62,459739,6,0,L|376:131,8,63.9999980468751
237,112,460576,6,0,L|221:181,8,63.9999980468751
353,201,461413,6,0,L|369:270,8,63.9999980468751
264,256,462250,6,0,L|248:325,8,63.9999980468751
238,112,463087,6,0,P|207:102|176:105,2,63.9999980468751
111,208,463366,2,0,P|125:236|150:256,2,63.9999980468751
264,256,463646,2,0,P|288:235|303:207,2,63.9999980468751
244,96,463925,6,0,P|208:84|170:88,2,63.9999980468751
92,211,464204,2,0,P|109:245|139:269,2,63.9999980468751
275,268,464484,2,0,P|305:244|322:210,2,63.9999980468751
242,76,464762,6,0,P|198:62|153:67,2,63.9999980468751
71,214,465041,2,0,P|92:254|127:283,2,63.9999980468751
279,284,465321,2,0,P|315:255|336:214,2,63.9999980468751
239,53,465599,6,0,P|187:36|132:42,2,63.9999980468751
50,217,465878,2,0,P|75:266|117:301,2,63.9999980468751
284,302,466158,2,0,P|327:267|352:218,2,63.9999980468751
236,28,466436,6,0,B|281:32|302:67|302:67|335:120|394:106|394:106|469:97|504:218|437:258|437:258|432:205|386:174,1,480
