osu file format v14

[General]
AudioFilename: audio.mp3
AudioLeadIn: 0
PreviewTime: 220212
Countdown: 0
SampleSet: Normal
StackLeniency: 0.4
Mode: 0
LetterboxInBreaks: 0
WidescreenStoryboard: 0

[Editor]
Bookmarks: 9470,28202,46934,65665,84397,93763,112495,131226,149958,168690,187422,224885,243617
DistanceSpacing: 1.8
BeatDivisor: 4
GridSize: 32
TimelineZoom: 2.650002

[Metadata]
Title:The Way the News Goes...
TitleUnicode:The Way the News Goes...
Artist:Periphery
ArtistUnicode:Periphery
Creator:Bergy
Version:Shining
Source:
Tags:progressive metal djent iii 3 change difficulty rick and morty
BeatmapID:1480162
BeatmapSetID:698921

[Difficulty]
HPDrainRate:5.5
CircleSize:4
OverallDifficulty:8.6
ApproachRate:9.6
SliderMultiplier:1.49999990463257
SliderTickRate:2

[Events]
//Background and Video events
0,0,"bg.jpg",0,0
//Break Periods
//Storyboard Layer 0 (Background)
//Storyboard Layer 1 (Fail)
//Storyboard Layer 2 (Pass)
//Storyboard Layer 3 (Foreground)
//Storyboard Sound Samples

[TimingPoints]
115,292.682926829268,4,1,1,40,1,0
115,-125,4,1,1,40,0,0
9480,-100,4,1,1,60,0,0
10651,-100,4,1,2,60,0,0
10944,-100,4,1,1,60,0,0
11675,-100,4,1,2,60,0,0
11822,-100,4,1,1,60,0,0
12993,-100,4,1,2,60,0,0
13285,-100,4,1,1,60,0,0
14017,-100,4,1,2,60,0,0
14163,-100,4,1,1,60,0,0
15334,-100,4,1,2,60,0,0
15480,-100,4,1,1,60,0,0
16358,-100,4,1,2,60,0,0
16505,-100,4,1,1,60,0,0
17675,-100,4,1,2,60,0,0
17968,-100,4,1,1,60,0,0
20017,-100,4,1,2,60,0,0
20310,-100,4,1,1,60,0,0
21041,-100,4,1,2,60,0,0
21188,-100,4,1,1,60,0,0
22358,-100,4,1,2,60,0,0
22651,-100,4,1,1,60,0,0
23383,-100,4,1,2,60,0,0
23529,-100,4,1,1,60,0,0
24700,-100,4,1,2,60,0,0
24993,-100,4,1,1,60,0,0
25724,-100,4,1,2,60,0,0
25871,-100,4,1,1,60,0,0
45041,-80,4,1,1,60,0,0
45627,-66.6666666666667,4,1,1,60,0,0
46066,-100,4,1,1,60,0,0
46944,-71.4285714285714,4,1,1,70,0,1
47017,-71.4285714285714,4,1,2,70,0,1
49285,-71.4285714285714,4,1,1,70,0,1
49358,-71.4285714285714,4,1,2,70,0,1
50456,-71.4285714285714,4,1,1,70,0,1
50529,-71.4285714285714,4,1,2,70,0,1
51627,-71.4285714285714,4,1,1,70,0,1
51700,-71.4285714285714,4,1,2,70,0,1
53968,-71.4285714285714,4,1,1,70,0,1
54041,-71.4285714285714,4,1,2,70,0,1
55139,-71.4285714285714,4,1,1,70,0,1
55212,-71.4285714285714,4,1,2,70,0,1
56017,-71.4285714285714,4,1,2,70,0,0
56310,-71.4285714285714,4,1,1,70,0,1
56383,-71.4285714285714,4,1,2,70,0,1
58651,-71.4285714285714,4,1,1,70,0,1
58724,-71.4285714285714,4,1,2,70,0,1
59822,-71.4285714285714,4,1,1,70,0,1
59895,-71.4285714285714,4,1,2,70,0,1
60993,-71.4285714285714,4,1,1,70,0,1
61066,-71.4285714285714,4,1,2,70,0,1
63334,-71.4285714285714,4,1,1,70,0,1
63627,-71.4285714285714,4,1,2,70,0,1
63700,-71.4285714285714,4,1,1,70,0,1
64212,-71.4285714285714,4,1,2,70,0,1
64285,-71.4285714285714,4,1,1,70,0,1
65090,-142.857142857143,4,1,2,60,0,0
65675,-100,4,1,1,60,0,0
66846,-100,4,1,2,60,0,0
67139,-100,4,1,1,60,0,0
67871,-100,4,1,2,60,0,0
68163,-100,4,1,1,60,0,0
69188,-100,4,1,2,60,0,0
69334,-100,4,1,1,60,0,0
70212,-100,4,1,2,60,0,0
70358,-100,4,1,1,60,0,0
71529,-100,4,1,2,60,0,0
71822,-100,4,1,1,60,0,0
72554,-100,4,1,2,60,0,0
72700,-100,4,1,1,60,0,0
73871,-100,4,1,2,60,0,0
74163,-100,4,1,1,60,0,0
76212,-100,4,1,2,60,0,0
76505,-100,4,1,1,60,0,0
77236,-100,4,1,2,60,0,0
77383,-100,4,1,1,60,0,0
78554,-100,4,1,2,60,0,0
78700,-100,4,1,1,60,0,0
79578,-100,4,1,2,60,0,0
79724,-100,4,1,1,60,0,0
80895,-100,4,1,2,60,0,0
81188,-100,4,1,1,60,0,0
81919,-100,4,1,2,60,0,0
82066,-100,4,1,1,60,0,0
84407,-83.3333333333333,4,1,1,60,0,0
87773,-142.857142857143,4,1,1,60,0,0
88505,-83.3333333333333,4,1,1,60,0,0
90993,-83.3333333333333,4,1,2,60,0,0
91139,-83.3333333333333,4,1,1,60,0,0
93773,-71.4285714285714,4,1,1,70,0,1
93846,-71.4285714285714,4,1,2,70,0,1
96114,-71.4285714285714,4,1,1,70,0,1
96188,-71.4285714285714,4,1,2,70,0,1
97285,-71.4285714285714,4,1,1,70,0,1
97358,-71.4285714285714,4,1,2,70,0,1
98456,-71.4285714285714,4,1,1,70,0,1
98529,-71.4285714285714,4,1,2,70,0,1
100797,-71.4285714285714,4,1,1,70,0,1
100871,-71.4285714285714,4,1,2,70,0,1
102846,-71.4285714285714,4,1,1,70,0,0
103139,-71.4285714285714,4,1,1,70,0,1
103212,-71.4285714285714,4,1,2,70,0,1
105480,-71.4285714285714,4,1,1,70,0,1
105554,-71.4285714285714,4,1,2,70,0,1
107822,-71.4285714285714,4,1,1,70,0,1
107895,-71.4285714285714,4,1,2,70,0,1
112505,-83.3333333333333,4,1,1,60,0,0
116017,-111.111111111111,4,1,1,60,0,0
116749,-83.3333333333333,4,1,2,60,0,0
117041,-83.3333333333333,4,1,1,60,0,0
120700,-111.111111111111,4,1,1,60,0,0
121432,-83.3333333333333,4,1,2,60,0,0
121871,-66.6666666666667,4,1,1,60,0,0
121944,-66.6666666666667,4,1,2,5,0,0
122017,-66.6666666666667,4,1,2,60,0,0
122090,-66.6666666666667,4,1,2,5,0,0
122163,-66.6666666666667,4,1,2,60,0,0
122236,-66.6666666666667,4,1,2,5,0,0
122310,-66.6666666666667,4,1,2,60,0,0
122383,-66.6666666666667,4,1,2,5,0,0
122456,-66.6666666666667,4,1,2,60,0,0
122529,-66.6666666666667,4,1,2,5,0,0
122602,-66.6666666666667,4,1,2,60,0,0
122675,-66.6666666666667,4,1,2,5,0,0
122749,-66.6666666666667,4,1,2,60,0,0
122822,-66.6666666666667,4,1,2,5,0,0
122895,-66.6666666666667,4,1,2,60,0,0
122968,-66.6666666666667,4,1,2,5,0,0
123041,-66.6666666666667,4,1,2,60,0,0
123114,-66.6666666666667,4,1,2,5,0,0
123188,-66.6666666666667,4,1,2,60,0,0
123261,-66.6666666666667,4,1,2,5,0,0
123334,-66.6666666666667,4,1,2,60,0,0
123407,-66.6666666666667,4,1,2,5,0,0
123480,-66.6666666666667,4,1,2,60,0,0
123554,-66.6666666666667,4,1,2,5,0,0
123627,-66.6666666666667,4,1,2,60,0,0
123700,-66.6666666666667,4,1,2,5,0,0
123773,-66.6666666666667,4,1,1,60,0,0
125090,-83.3333333333333,4,1,1,60,0,0
125383,-111.111111111111,4,1,1,60,0,0
126114,-83.3333333333333,4,1,1,60,0,0
127724,-83.3333333333333,4,1,2,60,0,0
127797,-83.3333333333333,4,1,1,60,0,0
130066,-111.111111111111,4,1,1,60,0,0
130651,-111.111111111111,4,1,2,60,0,0
130797,-83.3333333333333,4,1,2,60,0,0
131236,-142.857142857143,4,1,1,50,0,0
135919,-142.857142857143,4,1,1,5,0,0
136505,-142.857142857143,4,1,1,30,0,0
149968,-125,4,1,1,40,0,0
167529,-125,4,1,2,40,0,0
168114,-125,4,1,1,40,0,0
168700,-76.9230769230769,4,1,1,70,0,0
171188,-76.9230769230769,4,1,2,70,0,0
171334,-76.9230769230769,4,1,1,70,0,0
172944,-76.9230769230769,4,1,2,70,0,0
173236,-76.9230769230769,4,1,1,70,0,0
174993,-76.9230769230769,4,1,2,70,0,0
175139,-76.9230769230769,4,1,1,70,0,0
175578,-76.9230769230769,4,1,2,70,0,0
175724,-76.9230769230769,4,1,1,70,0,0
176456,-76.9230769230769,4,1,2,70,0,0
176602,-76.9230769230769,4,1,1,70,0,0
177334,-76.9230769230769,4,1,2,70,0,0
177480,-76.9230769230769,4,1,1,70,0,0
179236,-76.9230769230769,4,1,2,70,0,0
179529,-76.9230769230769,4,1,1,70,0,0
180554,-76.9230769230769,4,1,2,70,0,0
180700,-76.9230769230769,4,1,1,70,0,0
182310,-76.9230769230769,4,1,2,70,0,0
182456,-76.9230769230769,4,1,1,70,0,0
183188,-76.9230769230769,4,1,2,70,0,0
183480,-76.9230769230769,4,1,1,70,0,0
184066,-76.9230769230769,4,1,2,70,0,0
184212,-76.9230769230769,4,1,1,70,0,0
184944,-76.9230769230769,4,1,2,70,0,0
185090,-76.9230769230769,4,1,1,70,0,0
185822,-76.9230769230769,4,1,2,70,0,0
185968,-76.9230769230769,4,1,1,70,0,0
186846,-76.9230769230769,4,1,2,70,0,0
186993,-76.9230769230769,4,1,1,70,0,0
187432,-66.6666666666667,4,1,1,70,0,1
187724,-66.6666666666667,4,1,2,70,0,1
189627,-66.6666666666667,4,1,1,70,0,1
189773,-66.6666666666667,4,1,2,70,0,1
190212,-66.6666666666667,4,1,1,70,0,1
190505,-66.6666666666667,4,1,2,70,0,1
190944,-66.6666666666667,4,1,1,70,0,1
191236,-66.6666666666667,4,1,2,70,0,1
192114,-66.6666666666667,4,1,1,70,0,1
192407,-66.6666666666667,4,1,2,70,0,1
193432,-66.6666666666667,4,1,1,70,0,1
193578,-66.6666666666667,4,1,2,70,0,1
194602,-66.6666666666667,4,1,1,70,0,1
194895,-66.6666666666667,4,1,2,70,0,1
195627,-66.6666666666667,4,1,1,70,0,1
195919,-66.6666666666667,4,1,2,70,0,1
196797,-66.6666666666667,4,1,1,70,0,1
197090,-66.6666666666667,4,1,2,70,0,1
199578,-66.6666666666667,4,1,1,70,0,1
199871,-66.6666666666667,4,1,2,70,0,1
201480,-66.6666666666667,4,1,1,70,0,1
201919,-66.6666666666667,4,1,2,70,0,1
202358,-66.6666666666667,4,1,1,70,0,1
202797,-66.6666666666667,4,1,1,70,0,1
202944,-66.6666666666667,4,1,2,70,0,1
203968,-66.6666666666667,4,1,1,70,0,1
204261,-66.6666666666667,4,1,2,70,0,1
205871,-66.6666666666667,4,1,2,70,0,0
206163,-66.6666666666667,4,1,1,70,0,1
206456,-66.6666666666667,4,1,2,70,0,1
208358,-66.6666666666667,4,1,1,70,0,1
208505,-66.6666666666667,4,1,2,70,0,1
208944,-66.6666666666667,4,1,1,70,0,1
209236,-66.6666666666667,4,1,2,70,0,1
210846,-66.6666666666667,4,1,1,70,0,1
211139,-66.6666666666667,4,1,2,70,0,1
212163,-66.6666666666667,4,1,1,70,0,1
212310,-66.6666666666667,4,1,2,70,0,1
213334,-66.6666666666667,4,1,1,70,0,1
213627,-66.6666666666667,4,1,2,70,0,1
215529,-66.6666666666667,4,1,1,70,0,1
215822,-66.6666666666667,4,1,2,70,0,1
218310,-66.6666666666667,4,1,1,70,0,1
218602,-66.6666666666667,4,1,2,70,0,1
220212,-66.6666666666667,4,1,1,70,0,1
220651,-66.6666666666667,4,1,2,70,0,1
221090,-66.6666666666667,4,1,1,70,0,1
221236,-66.6666666666667,4,1,2,70,0,1
221529,-66.6666666666667,4,1,1,70,0,1
221675,-66.6666666666667,4,1,2,70,0,1
222700,-66.6666666666667,4,1,1,70,0,1
222993,-66.6666666666667,4,1,2,70,0,1
224895,-66.6666666666667,4,1,1,70,0,0
225188,-66.6666666666667,4,1,2,70,0,0
232066,-66.6666666666667,4,1,1,70,0,0
232358,-66.6666666666667,4,1,2,70,0,0
234261,-66.6666666666667,4,1,1,70,0,0
234554,-66.6666666666667,4,1,2,70,0,0
238944,-66.6666666666667,4,1,1,70,0,0
239383,-66.6666666666667,4,1,2,70,0,0
239822,-66.6666666666667,4,1,1,70,0,0
240261,-66.6666666666667,4,1,2,70,0,0
240407,-66.6666666666667,4,1,1,70,0,0
241139,-66.6666666666667,4,1,2,70,0,0
241285,-66.6666666666667,4,1,1,70,0,0
241871,-66.6666666666667,4,1,2,70,0,0
242456,-66.6666666666667,4,1,1,70,0,0
243627,303.030303030303,4,1,1,60,1,0
244829,297.029702970297,4,1,1,60,1,0
246017,307.692307692308,4,1,1,60,1,0
247247,300,4,1,1,60,1,0
247247,-142.857142857143,4,1,1,60,0,0
248147,-142.857142857143,4,1,1,5,0,0
248447,-142.857142857143,4,1,1,30,0,0
251447,315.789473684211,4,1,1,30,1,0
251447,-142.857142857143,4,1,1,30,0,0
252078,292.682926829268,4,1,1,30,1,0
252078,-142.857142857143,4,1,1,30,0,0
252663,315.789473684211,4,1,1,30,1,0
252663,-142.857142857143,4,1,1,30,0,0
253294,303.030303030303,4,1,1,30,1,0
253294,-142.857142857143,4,1,1,30,0,0
256930,303.030303030303,4,1,1,30,1,0
256930,-142.857142857143,4,1,1,30,0,0
257839,306.122448979592,4,1,1,30,1,0
257839,-142.857142857143,4,1,1,30,0,0
258145,292.682926829268,4,1,1,30,1,0
258145,-142.857142857143,4,1,1,30,0,0
258435,306.122448979592,4,1,1,30,1,0
258435,-142.857142857143,4,1,1,30,0,0
260883,340.909090909091,4,1,1,30,1,0
260883,-142.857142857143,4,1,1,30,0,0
261919,382.165605095541,4,1,1,30,1,0
261919,-142.857142857143,4,1,1,30,0,0
262691,428.571428571429,4,1,1,30,1,0
262691,-142.857142857143,4,1,1,30,0,0
263548,461.538461538462,4,1,1,30,1,0
263548,-142.857142857143,4,1,1,30,0,0
264009,500,4,1,1,30,1,0
264009,-142.857142857143,4,1,1,30,0,0
264509,545.454545454546,4,1,1,30,1,0
264509,-142.857142857143,4,1,1,30,0,0
265599,895.522388059701,4,1,1,30,1,0
265599,-142.857142857143,4,1,1,30,0,0
268733,-142.857142857143,4,1,1,5,0,0
269212,750,4,1,1,20,1,0
270712,689.655172413793,4,1,1,20,1,0
272087,750,4,1,1,40,1,0
275274,-100,4,1,1,5,0,0
275605,857.142857142857,4,1,1,20,1,0
277325,857.142857142857,4,1,1,20,1,0
278214,530.973451327434,4,1,1,20,1,0
282594,-100,4,1,1,5,0,0
282839,857.142857142857,4,1,1,20,1,0
284553,731.707317073171,4,1,1,20,1,0
286020,923.076923076923,4,1,1,20,1,0
287752,923.076923076923,4,1,1,20,1,0
289850,923.076923076923,4,1,1,20,1,0
292619,1052.63157894737,4,1,1,20,1,0
293150,937.5,4,1,1,20,1,0
295025,-100,4,1,1,15,0,0
296900,-100,4,1,1,10,0,0
298775,-100,4,1,1,5,0,0

[Colours]
Combo1 : 198,153,108
Combo2 : 80,250,123
Combo3 : 255,121,198
Combo4 : 189,147,249
Combo5 : 241,250,140
Combo6 : 255,255,255
Combo7 : 139,233,253
Combo8 : 128,128,128

[HitObjects]
70,194,115,6,0,L|61:268,2,59.9999961853028,2|0|0,0:2|0:2|0:2,0:2:0:0:
145,115,554,1,2,0:2:0:0:
145,115,700,2,0,P|182:108|210:120,1,59.9999961853028,2|0,0:2|0:2,0:2:0:0:
285,184,993,2,0,L|294:258,2,59.9999961853028,2|0|0,0:2|0:2|0:2,0:2:0:0:
323,82,1432,2,0,L|332:8,2,59.9999961853028,2|0|0,0:2|0:2|0:2,0:2:0:0:
392,165,1871,1,2,0:2:0:0:
392,165,2017,2,0,L|395:234,1,59.9999961853028,2|0,0:2|0:2,0:2:0:0:
430,325,2310,2,0,P|387:272|325:277,1,119.999992370606,2|0,0:2|0:2,0:2:0:0:
256,340,2749,6,0,L|189:349,1,59.9999961853028,2|0,0:2|0:2,0:2:0:0:
127,264,3041,2,0,L|60:255,1,59.9999961853028,2|0,0:2|0:2,0:2:0:0:
14,161,3334,2,0,P|6:124|21:91,1,59.9999961853028,2|0,0:2|0:2,0:2:0:0:
95,33,3627,2,0,L|169:24,2,59.9999961853028,2|0|0,0:2|0:2|0:2,0:2:0:0:
118,138,4066,1,2,0:2:0:0:
214,181,4212,2,0,P|242:192|272:190,1,59.9999961853028,2|0,0:2|0:2,0:2:0:0:
387,171,4505,2,0,P|416:169|444:179,1,59.9999961853028,2|0,0:2|0:2,0:2:0:0:
507,266,4797,6,0,L|514:351,2,59.9999961853028,2|0|0,0:2|0:2|0:2,0:2:0:0:
399,278,5236,1,2,0:2:0:0:
314,210,5383,2,0,P|302:166|311:137,1,59.9999961853028,2|0,0:2|0:2,0:2:0:0:
381,76,5675,2,0,L|452:72,2,59.9999961853028,2|0|2,0:2|0:2|0:2,0:2:0:0:
285,25,6114,2,0,L|214:21,2,59.9999961853028,2|0|0,0:2|0:2|0:2,0:2:0:0:
267,132,6554,1,2,0:2:0:0:
267,132,6700,2,0,L|186:139,1,59.9999961853028,2|0,0:2|0:2,0:2:0:0:
101,113,6993,2,0,P|127:178|107:238,1,119.999992370606,2|0,0:2|0:2,0:2:0:0:
28,289,7432,6,0,L|33:369,1,59.9999961853028,2|0,0:2|0:2,0:2:0:0:
134,380,7724,1,2,0:2:0:0:
198,292,7871,1,2,0:2:0:0:
198,292,7944,1,2,0:2:0:0:
198,292,8017,2,0,P|193:241|174:218,1,59.9999961853028,2|0,0:2|0:2,0:2:0:0:
83,195,8310,2,0,L|89:69,1,119.999992370606,2|0,0:2|0:2,0:2:0:0:
200,34,8749,1,2,0:2:0:0:
233,136,8895,2,0,L|227:219,1,59.9999961853028,2|0,0:2|0:2,0:2:0:0:
119,267,9188,1,2,0:2:0:0:
119,267,9480,6,0,B|206:240|182:294|269:266,1,149.999990463257,4|0,2:1|0:1,0:1:0:0:
328,161,9919,1,0,0:1:0:0:
328,161,10066,2,0,L|222:165,1,74.9999952316285,2|0,0:1|0:1,0:1:0:0:
134,71,10358,2,0,L|240:75,1,74.9999952316285,0|0,0:1|2:1,0:1:0:0:
407,259,10651,2,0,P|365:220|255:230,1,149.999990463257,12|0,0:1|0:1,0:1:0:0:
179,310,11090,1,0,0:1:0:0:
179,310,11236,2,0,L|187:402,2,74.9999952316285,2|0|0,0:1|0:1|0:1,0:1:0:0:
335,188,11675,6,0,P|332:137|313:99,1,74.9999952316285,4|0,2:1|0:1,0:1:0:0:
421,56,11968,2,0,P|338:78|265:25,1,149.999990463257,4|0,2:1|0:1,0:1:0:0:
145,21,12407,2,0,P|105:12|62:23,2,74.9999952316285,2|0|0,0:1|0:1|0:1,0:1:0:0:
276,42,12846,1,0,2:1:0:0:
76,202,12993,2,0,P|48:137|102:93,1,149.999990463257,12|0,0:1|0:1,0:1:0:0:
233,139,13432,1,0,0:1:0:0:
233,139,13578,2,0,L|238:239,1,74.9999952316285,2|0,0:1|0:1,0:1:0:0:
316,295,13871,2,0,P|359:310|408:303,1,74.9999952316285,0|4,0:1|2:1,0:1:0:0:
233,139,14163,6,0,P|150:109|68:142,1,149.999990463257,4|0,2:1|0:1,0:1:0:0:
16,210,14602,1,0,0:1:0:0:
16,210,14749,2,0,L|11:310,1,74.9999952316285,2|0,0:1|0:1,0:1:0:0:
116,363,15041,2,0,P|161:382|214:381,1,74.9999952316285,0|0,0:1|2:1,0:1:0:0:
420,266,15334,2,0,P|375:285|322:284,1,74.9999952316285,12|0,0:1|0:1,0:1:0:0:
259,200,15627,1,0,0:1:0:0:
259,200,15773,2,0,L|264:99,1,74.9999952316285,0|2,2:1|0:1,0:1:0:0:
388,87,16066,1,8,0:1:0:0:
349,287,16212,1,8,0:1:0:0:
181,125,16358,6,0,P|231:114|272:123,1,74.9999952316285,4|0,2:1|0:1,0:1:0:0:
314,21,16651,2,0,P|292:104|345:177,1,149.999990463257,4|0,2:1|0:1,0:1:0:0:
438,228,17090,2,0,L|527:222,2,74.9999952316285,2|0|0,0:1|0:1|0:1,0:1:0:0:
328,166,17529,1,0,2:1:0:0:
244,368,17675,2,0,P|317:377|393:309,1,149.999990463257,12|0,0:1|0:1,0:1:0:0:
438,228,18114,1,0,2:3:0:0:
438,228,18261,2,0,L|443:127,1,74.9999952316285,2|8,2:3|0:3,0:1:0:0:
320,29,18554,2,0,L|325:130,1,74.9999952316285,2|4,0:3|0:3,0:1:0:0:
98,185,18846,6,0,B|185:158|161:212|248:184,1,149.999990463257,4|0,2:1|0:1,0:1:0:0:
208,53,19285,1,0,0:1:0:0:
208,53,19432,2,0,L|111:45,1,74.9999952316285,2|0,0:1|0:1,0:1:0:0:
251,177,19724,2,0,L|348:169,1,74.9999952316285,0|0,0:1|2:1,0:1:0:0:
162,378,20017,2,0,P|136:303|165:227,1,149.999990463257,12|0,0:1|0:1,0:1:0:0:
112,131,20456,1,0,0:1:0:0:
112,131,20602,2,0,L|120:41,2,74.9999952316285,2|0|0,0:1|0:1|0:1,0:1:0:0:
265,186,21041,6,0,P|276:236|267:277,1,74.9999952316285,4|0,2:1|0:1,0:1:0:0:
369,319,21334,2,0,P|286:297|213:350,1,149.999990463257,4|0,2:1|0:1,0:1:0:0:
100,384,21773,2,0,L|-8:377,2,74.9999952316285,2|0|0,0:1|0:1|0:1,0:1:0:0:
224,332,22212,1,0,2:1:0:0:
150,142,22358,2,0,P|76:150|29:204,1,149.999990463257,12|0,1:1|0:1,3:1:0:0:
6,307,22797,1,0,0:1:0:0:
6,307,22944,2,0,L|114:300,1,74.9999952316285,2|0,0:1|0:1,0:1:0:0:
244,241,23236,2,0,L|136:234,1,74.9999952316285,0|4,0:1|2:1,0:1:0:0:
408,359,23529,6,0,B|381:272|435:296|407:209,1,149.999990463257,4|0,2:1|0:1,0:1:0:0:
330,117,23968,1,0,0:1:0:0:
330,117,24114,2,0,L|337:9,1,74.9999952316285,2|0,0:1|0:1,0:1:0:0:
501,90,24407,2,0,L|508:198,1,74.9999952316285,0|0,0:1|2:1,0:1:0:0:
290,227,24700,2,0,P|207:205|134:258,1,149.999990463257,12|0,0:1|0:1,0:1:0:0:
47,310,25139,1,0,2:1:0:0:
47,310,25285,2,0,L|39:404,1,74.9999952316285,2|8,0:1|0:1,0:1:0:0:
0,181,25578,1,8,0:1:0:0:
195,232,25724,6,0,P|206:282|197:323,1,74.9999952316285,4|0,2:1|0:1,0:1:0:0:
299,365,26017,2,0,P|216:343|143:396,1,149.999990463257,4|8,2:1|0:1,0:1:0:0:
77,297,26456,5,8,0:3:0:0:
79,260,26529,1,8,0:3:0:0:
83,223,26602,2,0,L|87:177,1,37.4999976158143
211,77,26749,5,4,0:3:0:0:
213,99,26822,1,4,0:3:0:0:
215,122,26895,2,0,L|219:170,1,37.4999976158143
54,75,27041,6,0,L|221:69,1,149.999990463257,12|0,0:1|0:1,0:1:0:0:
274,211,27480,1,0,2:1:0:0:
276,232,27554,1,0,2:1:0:0:
279,254,27627,1,8,0:1:0:0:
78,177,27773,1,8,0:1:0:0:
287,262,27919,1,8,0:1:0:0:
86,185,28066,1,8,0:1:0:0:
312,357,28212,6,0,L|419:349,1,74.9999952316285,4|8,2:1|1:2,0:1:0:0:
397,356,28432,1,8,0:2:0:0:
407,360,28505,1,0,2:1:0:0:
174,332,28651,2,0,P|209:307|268:301,1,74.9999952316285,8|0,0:1|0:1,0:1:0:0:
364,285,28944,1,8,0:2:0:0:
364,285,29017,1,8,0:2:0:0:
364,285,29090,1,0,2:1:0:0:
166,340,29236,6,0,P|145:268|170:199,1,149.999990463257,0|0,2:1|0:1,0:1:0:0:
279,115,29675,1,0,2:0:0:0:
162,192,29822,2,0,L|72:197,1,74.9999952316285,4|2,0:3|0:3,0:0:0:0:
275,273,30114,2,0,P|315:266|354:245,1,74.9999952316285,8|2,0:0|0:3,0:0:0:0:
409,133,30407,1,0,2:1:0:0:
181,50,30554,6,0,L|169:223,1,149.999990463257,4|0,2:1|0:1,0:1:0:0:
267,281,30993,1,0,2:1:0:0:
401,125,31139,2,0,P|357:122|320:137,1,74.9999952316285,8|0,0:1|0:1,0:1:0:0:
244,205,31432,2,0,P|206:208|171:198,1,74.9999952316285,0|0,0:1|2:1,0:1:0:0:
74,0,31724,6,0,B|47:87|101:63|73:150,1,149.999990463257,0|0,2:1|0:1,0:1:0:0:
0,234,32163,1,0,2:1:0:0:
172,123,32310,2,0,L|257:113,1,74.9999952316285,8|0,0:1|0:1,0:1:0:0:
341,191,32602,2,0,L|426:201,1,74.9999952316285,0|0,0:1|2:1,0:1:0:0:
259,287,32895,6,0,L|152:295,1,74.9999952316285,4|8,2:1|0:2,0:1:0:0:
174,288,33114,1,8,0:2:0:0:
164,284,33188,1,0,2:1:0:0:
397,312,33334,2,0,P|362:337|303:343,1,74.9999952316285,8|0,0:1|0:1,0:1:0:0:
224,371,33627,1,8,0:2:0:0:
224,371,33700,1,8,0:2:0:0:
224,371,33773,1,0,2:1:0:0:
405,320,33919,6,0,L|406:146,1,149.999990463257,0|0,2:1|0:1,0:1:0:0:
330,58,34358,1,0,2:1:0:0:
231,216,34505,2,0,P|235:261|265:303,1,74.9999952316285,8|0,0:1|0:1,0:1:0:0:
338,50,34797,1,0,2:1:0:0:
147,35,34944,2,0,P|127:75|132:127,1,74.9999952316285,8|0,0:1|0:1,0:1:0:0:
344,199,35236,6,0,P|368:123|325:35,1,149.999990463257,4|0,2:1|0:1,0:1:0:0:
235,0,35675,1,0,2:1:0:0:
159,193,35822,2,0,L|267:182,1,74.9999952316285,8|0,0:1|2:1,0:1:0:0:
338,50,36114,6,0,P|385:35|486:92,1,149.999990463257,0|0,2:1|0:1,0:1:0:0:
512,200,36554,1,0,2:1:0:0:
392,138,36700,2,0,L|284:127,1,74.9999952316285,0|0,2:1|0:1,0:1:0:0:
451,325,36993,1,8,0:1:0:0:
503,192,37139,2,0,L|498:112,2,74.9999952316285,0|0|0,2:1|0:1|0:1,0:1:0:0:
369,150,37578,6,0,L|262:142,1,74.9999952316285,4|8,2:1|0:2,0:1:0:0:
284,149,37797,1,8,0:2:0:0:
274,153,37871,1,0,2:1:0:0:
507,125,38017,2,0,P|472:100|413:94,1,74.9999952316285,8|0,0:1|0:1,0:1:0:0:
334,66,38310,1,8,0:2:0:0:
334,66,38383,1,8,0:2:0:0:
334,66,38456,1,0,2:1:0:0:
499,133,38602,6,0,L|492:315,1,149.999990463257,0|0,2:1|0:1,0:1:0:0:
382,346,39041,1,0,2:1:0:0:
274,262,39188,2,0,L|199:257,1,74.9999952316285,4|2,0:3|0:3,0:1:0:0:
378,188,39480,2,0,P|418:195|457:216,1,74.9999952316285,8|2,0:1|0:3,0:1:0:0:
512,328,39773,1,0,2:1:0:0:
283,176,39919,6,0,P|325:107|401:95,1,149.999990463257,4|0,2:1|0:1,0:1:0:0:
485,141,40358,1,0,2:1:0:0:
324,251,40505,2,0,P|282:261|242:251,1,74.9999952316285,8|0,0:1|0:1,0:1:0:0:
146,168,40797,2,0,P|104:158|64:168,1,74.9999952316285,0|0,0:1|2:1,0:1:0:0:
166,384,41090,6,0,L|181:213,1,149.999990463257,0|0,2:1|0:1,0:1:0:0:
173,95,41529,1,0,2:1:0:0:
331,137,41675,2,0,L|337:219,1,74.9999952316285,8|0,0:1|0:1,0:1:0:0:
403,310,41968,2,0,L|397:392,1,74.9999952316285,0|0,0:1|2:1,0:1:0:0:
257,327,42261,6,0,L|150:319,1,74.9999952316285,4|8,2:1|0:2,0:1:0:0:
172,326,42480,1,8,0:2:0:0:
162,330,42554,1,0,2:1:0:0:
395,302,42700,2,0,P|364:275|311:258,1,74.9999952316285,8|0,0:1|0:1,0:1:0:0:
225,220,42993,1,8,0:2:0:0:
225,220,43066,1,8,0:2:0:0:
225,220,43139,1,0,2:1:0:0:
403,294,43285,6,0,P|429:207|398:132,1,149.999990463257,0|0,2:1|0:1,0:1:0:0:
343,52,43724,1,0,2:1:0:0:
233,228,43871,2,0,L|308:221,1,74.9999952316285,8|0,0:1|0:1,0:1:0:0:
335,60,44163,1,0,2:1:0:0:
82,144,44310,2,0,L|161:159,1,74.9999952316285,8|0,0:1|0:1,0:1:0:0:
328,67,44602,6,0,P|360:52|401:53,1,74.9999952316285,4|0,2:1|0:1,0:1:0:0:
492,106,44895,1,2,0:2:0:0:
277,286,45041,2,0,P|187:244|165:154,1,187.499988079071,2|0,2:0|2:0,0:0:0:0:
225,52,45480,1,2,2:2:0:0:
403,312,45627,2,0,L|144:316,1,224.999994277954,2|0,0:2|2:0,0:0:0:0:
44,267,46066,2,0,P|24:217|25:176,1,74.9999952316285,0|0,2:0|0:0,0:0:0:0:
87,34,46358,1,8,0:0:0:0:
113,187,46944,5,4,2:1:0:0:
144,160,47017,1,0,2:1:0:0:
183,148,47090,1,0,2:1:0:0:
224,153,47163,1,0,2:1:0:0:
260,173,47236,1,2,2:1:0:0:
295,192,47310,1,0,2:1:0:0:
336,196,47383,1,0,2:1:0:0:
375,184,47456,1,0,2:1:0:0:
406,158,47529,5,2,2:1:0:0:
369,150,47602,1,0,2:1:0:0:
334,160,47675,1,0,2:1:0:0:
307,185,47749,1,0,2:1:0:0:
295,221,47822,1,2,2:1:0:0:
302,257,47895,1,0,2:1:0:0:
325,286,47968,1,0,2:1:0:0:
359,301,48041,1,0,2:1:0:0:
396,298,48114,5,2,2:1:0:0:
395,272,48188,1,0,2:1:0:0:
394,246,48261,1,0,2:1:0:0:
393,219,48334,1,0,2:1:0:0:
393,193,48407,1,2,2:1:0:0:
392,167,48480,1,0,2:1:0:0:
391,141,48554,1,0,2:1:0:0:
390,114,48627,1,0,2:1:0:0:
389,88,48700,5,2,2:1:0:0:
356,114,48773,1,0,2:1:0:0:
320,134,48846,1,0,2:1:0:0:
281,146,48919,1,0,2:1:0:0:
239,148,48993,1,2,2:1:0:0:
198,141,49066,1,0,2:1:0:0:
160,127,49139,1,0,2:1:0:0:
126,104,49212,1,0,2:1:0:0:
96,77,49285,5,4,2:1:0:0:
67,116,49358,1,0,2:1:0:0:
61,164,49432,1,0,2:1:0:0:
77,209,49505,1,0,2:1:0:0:
113,241,49578,1,2,2:1:0:0:
160,253,49651,1,0,2:1:0:0:
207,241,49724,1,0,2:1:0:0:
250,218,49797,1,0,2:1:0:0:
298,209,49871,1,2,2:1:0:0:
346,215,49944,1,0,2:1:0:0:
390,235,50017,1,0,2:1:0:0:
418,275,50090,1,0,2:1:0:0:
428,322,50163,2,0,L|429:394,3,52.4999950599673,2|0|0|0,2:1|2:1|2:1|2:1,2:1:0:0:
283,346,50456,5,4,2:1:0:0:
257,313,50529,1,0,2:1:0:0:
251,273,50602,1,0,2:1:0:0:
266,235,50675,1,0,2:1:0:0:
298,209,50749,1,2,2:1:0:0:
330,183,50822,1,0,2:1:0:0:
345,145,50895,1,0,2:1:0:0:
339,105,50968,1,0,2:1:0:0:
313,72,51041,1,2,2:1:0:0:
276,54,51114,1,0,2:1:0:0:
235,59,51188,1,0,2:1:0:0:
203,84,51261,1,0,2:1:0:0:
190,122,51334,1,2,2:1:0:0:
174,160,51407,1,0,2:1:0:0:
143,187,51480,1,0,2:1:0:0:
104,199,51554,1,0,2:1:0:0:
64,192,51627,6,0,L|59:130,3,52.4999950599673,4|0|0|0,2:1|2:1|2:1|2:1,2:1:0:0:
27,306,51919,1,2,2:1:0:0:
64,307,51993,1,0,2:1:0:0:
101,309,52066,1,0,2:1:0:0:
139,311,52139,1,0,2:1:0:0:
176,312,52212,6,0,L|244:315,3,52.4999950599673,2|0|0|0,2:1|2:1|2:1|2:1,2:1:0:0:
327,275,52505,1,2,2:1:0:0:
341,253,52578,1,0,2:1:0:0:
347,227,52651,1,0,2:1:0:0:
345,201,52724,1,0,2:1:0:0:
335,177,52797,6,0,P|326:147|328:118,3,52.4999950599673,2|0|0|0,2:1|2:1|2:1|2:1,2:1:0:0:
216,208,53090,1,2,2:1:0:0:
175,209,53163,1,0,2:1:0:0:
135,212,53236,1,0,2:1:0:0:
93,214,53310,1,0,2:1:0:0:
52,215,53383,6,0,L|-20:218,3,52.4999950599673,2|0|0|0,2:1|2:1|2:1|2:1,2:1:0:0:
110,98,53675,2,0,L|182:100,3,52.4999950599673,2|0|0|0,2:1|2:1|2:1|2:1,2:1:0:0:
242,25,53968,5,4,2:1:0:0:
264,54,54041,1,0,2:1:0:0:
273,90,54114,1,0,2:1:0:0:
268,127,54188,1,0,2:1:0:0:
249,159,54261,1,2,2:1:0:0:
229,190,54334,1,0,2:1:0:0:
224,227,54407,1,0,2:1:0:0:
234,263,54480,1,0,2:1:0:0:
256,293,54554,1,2,2:1:0:0:
288,311,54627,1,0,2:1:0:0:
325,312,54700,1,0,2:1:0:0:
359,296,54773,1,0,2:1:0:0:
382,267,54846,2,0,L|384:211,3,52.4999950599673,2|0|0|0,2:1|2:1|2:1|2:1,2:1:0:0:
229,190,55139,6,0,P|222:223|229:247,3,52.4999950599673,4|0|0|0,2:1|2:1|2:1|2:1,2:1:0:0:
407,66,55432,2,0,P|414:33|407:7,3,52.4999950599673,2|0|0|0,2:1|2:1|2:1|2:1,2:1:0:0:
219,58,55724,2,0,P|186:51|159:59,3,52.4999950599673,2|0|0|0,2:1|2:1|2:1|2:1,2:1:0:0:
408,202,56017,2,0,P|441:209|467:202,3,52.4999950599673,2|0|0|0,2:1|2:1|2:1|2:1,2:1:0:0:
229,190,56310,5,4,2:1:0:0:
190,204,56383,1,0,2:1:0:0:
164,235,56456,1,0,2:1:0:0:
155,275,56529,1,0,2:1:0:0:
166,314,56602,1,2,2:1:0:0:
195,343,56675,1,0,2:1:0:0:
234,356,56749,1,0,2:1:0:0:
274,348,56822,1,0,2:1:0:0:
305,322,56895,5,2,2:1:0:0:
279,295,56968,1,0,2:1:0:0:
269,260,57041,1,0,2:1:0:0:
276,224,57114,1,0,2:1:0:0:
300,195,57188,1,2,2:1:0:0:
323,166,57261,1,0,2:1:0:0:
331,130,57334,1,0,2:1:0:0:
320,94,57407,1,0,2:1:0:0:
294,68,57480,5,2,2:1:0:0:
267,69,57554,1,0,2:1:0:0:
241,70,57627,1,0,2:1:0:0:
215,71,57700,1,0,2:1:0:0:
189,72,57773,1,2,2:1:0:0:
162,73,57846,1,0,2:1:0:0:
136,74,57919,1,0,2:1:0:0:
110,75,57993,1,0,2:1:0:0:
84,76,58066,5,2,2:1:0:0:
117,98,58139,1,0,2:1:0:0:
145,128,58212,1,0,2:1:0:0:
164,165,58285,1,0,2:1:0:0:
170,205,58358,1,2,2:1:0:0:
165,246,58432,1,0,2:1:0:0:
149,283,58505,1,0,2:1:0:0:
122,315,58578,1,0,2:1:0:0:
87,337,58651,5,4,2:1:0:0:
85,288,58724,1,0,2:1:0:0:
105,245,58797,1,0,2:1:0:0:
144,215,58871,1,0,2:1:0:0:
192,207,58944,1,2,2:1:0:0:
239,198,59017,1,0,2:1:0:0:
278,169,59090,1,0,2:1:0:0:
298,126,59163,1,0,2:1:0:0:
296,77,59236,1,2,2:1:0:0:
276,33,59310,1,0,2:1:0:0:
237,4,59383,1,0,2:1:0:0:
189,0,59456,1,0,2:1:0:0:
144,16,59529,2,0,L|81:19,3,52.4999950599673,2|0|0|0,2:1|2:1|2:1|2:1,2:1:0:0:
278,169,59822,6,0,P|285:202|276:227,3,52.4999950599673,4|0|0|0,2:1|2:1|2:1|2:1,2:1:0:0:
96,69,60114,2,0,P|89:36|97:6,3,52.4999950599673,2|0|0|0,2:1|2:1|2:1|2:1,2:1:0:0:
288,37,60407,2,0,P|321:30|346:37,3,52.4999950599673,2|0|0|0,2:1|2:1|2:1|2:1,2:1:0:0:
99,181,60700,2,0,P|66:188|39:179,3,52.4999950599673,2|0|0|0,2:1|2:1|2:1|2:1,2:1:0:0:
207,80,60993,5,4,2:1:0:0:
247,106,61066,1,0,2:1:0:0:
265,150,61139,1,0,2:1:0:0:
255,197,61212,1,0,2:1:0:0:
220,231,61285,1,2,2:1:0:0:
185,264,61358,1,0,2:1:0:0:
175,311,61432,1,0,2:1:0:0:
193,355,61505,1,0,2:1:0:0:
233,382,61578,1,2,2:1:0:0:
280,374,61651,1,0,2:1:0:0:
316,341,61724,1,0,2:1:0:0:
328,295,61797,1,0,2:1:0:0:
314,249,61871,2,0,L|244:246,3,52.4999950599673,2|0|0|0,2:1|2:1|2:1|2:1,2:1:0:0:
468,160,62163,5,2,2:1:0:0:
437,122,62236,1,0,2:1:0:0:
391,107,62310,1,0,2:1:0:0:
345,117,62383,1,0,2:1:0:0:
310,151,62456,5,2,2:1:0:0:
287,185,62529,1,0,2:1:0:0:
251,205,62602,1,0,2:1:0:0:
211,207,62675,1,0,2:1:0:0:
173,191,62749,5,2,2:1:0:0:
147,166,62822,1,0,2:1:0:0:
110,164,62895,1,0,2:1:0:0:
83,188,62968,1,0,2:1:0:0:
79,225,63041,5,2,2:1:0:0:
119,230,63114,1,0,2:1:0:0:
157,215,63188,1,0,2:1:0:0:
183,183,63261,1,0,2:1:0:0:
190,143,63334,6,0,L|196:69,3,52.4999950599673,4|0|0|0,2:1|2:1|2:1|2:1,2:1:0:0:
273,277,63627,2,0,L|279:354,3,52.4999950599673,4|0|0|0,2:1|2:1|2:1|2:1,2:1:0:0:
310,117,63919,2,0,L|315:41,3,52.4999950599673,4|0|0|0,2:1|2:1|2:1|2:1,2:1:0:0:
393,251,64212,2,0,L|399:328,3,52.4999950599673,4|0|0|0,2:1|2:1|2:1|2:1,2:1:0:0:
235,195,64505,5,8,2:3:0:0:
212,182,64578,1,8,2:3:0:0:
187,187,64651,1,4,2:3:0:0:
170,207,64724,1,4,2:3:0:0:
170,232,64797,1,2,2:3:0:0:
186,253,64871,1,2,2:3:0:0:
211,258,64944,1,0,2:1:0:0:
234,246,65017,1,0,2:1:0:0:
244,223,65090,6,0,L|73:220,1,157.499985179902,12|0,0:1|0:1,0:1:0:0:
22,283,65675,6,4,P|53:233|37:133,1,149.999990463257,4|0,2:1|0:1,2:1:0:0:
0,44,66114,1,0,0:1:0:0:
0,44,66261,2,0,L|89:35,1,74.9999952316285,2|0,0:1|0:1,0:1:0:0:
225,129,66554,2,0,L|136:120,1,74.9999952316285,0|0,0:1|2:1,0:1:0:0:
313,345,66846,2,0,P|339:276|317:206,1,149.999990463257,12|0,0:1|0:1,0:1:0:0:
225,129,67285,1,0,0:1:0:0:
225,129,67432,2,0,L|136:120,2,74.9999952316285,2|0|0,0:1|0:1|0:1,0:1:0:0:
150,278,67871,6,0,P|98:280|60:264,1,74.9999952316285,4|0,2:1|0:1,0:1:0:0:
1,358,68163,2,0,P|37:280|-2:198,1,149.999990463257,4|0,2:1|0:1,0:1:0:0:
73,109,68602,1,2,0:1:0:0:
73,109,68749,1,0,0:1:0:0:
217,245,68895,2,0,P|228:304|218:339,1,74.9999952316285,0|0,0:1|2:1,0:1:0:0:
65,101,69188,2,0,P|54:42|64:7,1,74.9999952316285,12|0,0:1|0:1,0:1:0:0:
77,249,69480,2,0,P|18:260|-17:250,1,74.9999952316285,0|0,0:1|0:1,0:1:0:0:
213,105,69773,2,0,P|272:94|307:104,1,74.9999952316285,2|0,0:1|0:1,0:1:0:0:
225,317,70066,2,0,P|214:258|224:223,1,74.9999952316285,0|4,0:1|2:1,0:1:0:0:
512,277,70358,6,0,B|425:304|449:250|362:278,1,149.999990463257,4|0,2:1|0:1,0:1:0:0:
335,376,70797,1,0,0:1:0:0:
335,376,70944,2,0,L|242:381,1,74.9999952316285,2|0,0:1|0:1,0:1:0:0:
137,291,71236,2,0,L|229:297,1,74.9999952316285,0|0,0:1|2:1,0:1:0:0:
57,70,71529,2,0,L|44:231,1,149.999990463257,12|0,0:1|0:1,0:1:0:0:
129,299,71968,1,0,2:1:0:0:
231,118,72114,1,2,0:1:0:0:
153,210,72261,2,0,P|142:258|157:311,1,74.9999952316285,8|8,0:1|0:1,0:1:0:0:
313,130,72554,6,0,L|220:124,1,74.9999952316285,4|0,2:1|0:1,0:1:0:0:
459,0,72846,2,0,P|485:83|466:140,1,149.999990463257,4|0,2:1|0:1,0:1:0:0:
401,247,73285,2,0,L|408:342,1,74.9999952316285,2|0,0:1|0:1,0:1:0:0:
265,222,73578,2,0,L|272:127,1,74.9999952316285,0|0,0:1|2:1,0:1:0:0:
186,355,73871,2,0,B|99:382|123:328|36:356,1,149.999990463257,12|0,0:1|0:1,0:1:0:0:
8,242,74310,1,0,2:1:0:0:
8,241,74456,2,0,P|0:204|8:168,1,74.9999952316285,2|8,2:3|0:3,0:1:0:0:
127,90,74749,2,0,P|134:126|126:162,1,74.9999952316285,2|4,0:3|0:3,0:1:0:0:
39,354,75041,6,0,P|113:304|195:331,1,149.999990463257,4|0,2:1|0:1,0:1:0:0:
257,349,75480,1,0,0:1:0:0:
257,349,75627,2,0,L|352:358,1,74.9999952316285,2|0,0:1|0:1,0:1:0:0:
443,261,75919,2,0,L|348:270,1,74.9999952316285,0|0,0:1|2:1,0:1:0:0:
96,147,76212,2,0,P|157:135|256:195,1,149.999990463257,12|0,0:1|0:1,0:1:0:0:
264,283,76651,1,0,0:1:0:0:
264,283,76797,2,0,L|257:373,2,74.9999952316285,2|0|0,0:1|0:1|0:1,0:1:0:0:
342,149,77236,6,0,P|344:97|328:59,1,74.9999952316285,4|0,2:1|0:1,0:1:0:0:
422,0,77529,2,0,P|344:36|262:-3,1,149.999990463257,4|0,2:1|0:1,0:1:0:0:
171,1,77968,2,0,L|83:8,1,74.9999952316285,2|0,0:1|0:1,0:1:0:0:
234,233,78261,2,0,P|293:244|328:234,1,74.9999952316285,0|0,0:1|2:1,0:1:0:0:
98,89,78554,2,0,P|39:78|4:88,1,74.9999952316285,12|0,0:1|0:1,0:1:0:0:
238,93,78846,2,0,P|249:34|239:-1,1,74.9999952316285,0|0,0:1|0:1,0:1:0:0:
94,229,79139,2,0,P|83:288|93:323,1,74.9999952316285,2|0,0:1|0:1,0:1:0:0:
306,241,79432,2,0,P|247:230|212:240,1,74.9999952316285,0|4,0:1|2:1,0:1:0:0:
490,243,79724,6,0,P|514:160|464:84,1,149.999990463257,4|0,2:1|0:1,2:1:0:0:
404,41,80163,1,0,0:1:0:0:
404,41,80310,2,0,L|309:37,1,74.9999952316285,2|0,0:1|0:1,0:1:0:0:
193,149,80602,2,0,L|288:145,1,74.9999952316285,0|0,0:1|2:1,0:1:0:0:
490,243,80895,2,0,P|416:197|330:226,1,149.999990463257,12|0,1:1|0:1,2:1:0:0:
288,300,81334,1,0,2:1:0:0:
288,300,81480,2,0,L|284:395,1,74.9999952316285,2|8,0:1|0:1,0:1:0:0:
225,166,81773,1,8,0:1:0:0:
357,207,81919,6,0,P|382:234|394:269,1,74.9999952316285,4|0,2:1|0:1,0:1:0:0:
175,230,82212,2,0,L|191:57,1,149.999990463257,4|8,2:1|0:1,0:1:0:0:
46,100,82651,1,8,0:3:0:0:
49,174,82797,1,4,0:3:0:0:
53,249,82944,2,0,P|99:239|150:256,1,74.9999952316285,2|0,0:3|2:1,0:1:0:0:
139,257,83163,1,0,2:1:0:0:
152,270,83236,1,8,0:1:0:0:
246,189,83383,5,0,2:1:0:0:
246,189,83456,1,0,2:1:0:0:
246,189,83529,2,0,L|251:133,1,37.4999976158143,4|4,2:3|2:3,2:1:0:0:
342,40,83675,2,0,L|337:96,1,37.4999976158143,2|2,2:3|2:3,2:1:0:0:
373,188,83822,1,8,0:1:0:0:
170,56,83968,1,0,2:1:0:0:
209,53,84041,1,0,2:1:0:0:
246,50,84114,1,0,2:1:0:0:
123,153,84261,1,8,0:1:0:0:
2,27,84407,6,0,B|45:12|45:12|99:20,1,89.9999915313724,4|0,2:1|2:1,0:1:0:0:
59,214,84700,1,0,2:1:0:0:
54,99,84846,1,0,2:1:0:0:
242,210,84993,1,8,2:1:0:0:
144,271,85139,1,0,2:1:0:0:
209,117,85285,6,0,B|306:113|306:113|294:111|395:108,1,179.999983062745,4|0,2:1|0:1,0:1:0:0:
386,108,85871,1,0,2:1:0:0:
391,223,86017,1,0,2:1:0:0:
500,61,86163,1,8,2:1:0:0:
402,0,86310,1,0,2:1:0:0:
299,218,86456,6,0,B|391:222|391:222|502:174,1,179.999983062745,4|0,2:1|0:1,0:1:0:0:
472,187,87041,2,0,L|478:87,1,89.9999915313724,0|0,2:1|2:1,0:1:0:0:
260,160,87334,1,8,0:1:0:0:
354,250,87480,1,2,0:2:0:0:
359,40,87627,1,2,0:2:0:0:
181,68,87773,6,0,B|174:116|174:116|168:130|168:130|161:189,1,104.999990119935,2|0,0:2|0:1,0:1:0:0:
220,318,88212,1,0,2:1:0:0:
299,189,88358,1,0,2:1:0:0:
55,143,88505,2,0,B|66:224|66:224|77:248|77:248|86:328,1,179.999983062745,8|0,0:1|0:1,0:1:0:0:
228,326,88944,2,0,L|234:255,1,44.9999957656862,8|8,0:1|0:1,0:1:0:0:
249,105,89090,6,0,B|297:94|297:94|341:104,1,89.9999915313724,4|0,2:1|0:1,0:1:0:0:
322,288,89383,1,0,2:1:0:0:
302,188,89529,1,0,2:1:0:0:
450,264,89675,1,8,2:1:0:0:
430,364,89822,1,0,2:1:0:0:
191,163,89968,6,0,B|291:151|291:151|276:151|365:141,1,179.999983062745,4|0,2:1|0:1,0:0:0:0:
183,155,90407,1,8,0:1:0:0:
370,137,90554,2,0,B|372:98|372:98|376:84|376:84|377:48,1,89.9999915313724,0|0,2:1|2:1,0:1:0:0:
175,147,90846,1,8,0:1:0:0:
314,268,90993,2,0,B|348:250|348:250|362:246|362:246|394:229,1,89.9999915313724,4|0,2:1|0:1,0:1:0:0:
167,139,91285,6,0,B|128:137|128:137|114:133|114:133|78:132,1,89.9999915313724,4|0,2:1|0:1,0:1:0:0:
306,260,91578,1,8,0:1:0:0:
362,129,91724,2,0,B|365:83|365:83|339:30,1,89.9999915313724,0|0,2:1|2:1,0:1:0:0:
159,131,92017,2,0,L|163:206,1,44.9999957656862,8|8,0:1|0:1,0:1:0:0:
170,292,92163,1,0,2:1:0:0:
370,120,92310,1,8,0:1:0:0:
151,123,92456,1,8,0:1:0:0:
274,340,92602,6,0,L|270:265,1,44.9999957656862,0|0,2:1|2:1,0:1:0:0:
254,111,92749,1,8,0:1:0:0:
91,215,92895,1,0,2:1:0:0:
384,264,93041,1,0,2:1:0:0:
384,264,93114,1,0,2:1:0:0:
384,264,93188,1,8,0:1:0:0:
384,264,93773,5,4,2:1:0:0:
398,225,93846,1,0,2:1:0:0:
395,184,93919,1,0,2:1:0:0:
377,148,93993,1,0,2:1:0:0:
345,122,94066,1,2,2:1:0:0:
306,110,94139,1,0,2:1:0:0:
265,116,94212,1,0,2:1:0:0:
230,137,94285,1,0,2:1:0:0:
207,171,94358,5,2,2:1:0:0:
243,180,94432,1,0,2:1:0:0:
280,174,94505,1,0,2:1:0:0:
311,154,94578,1,0,2:1:0:0:
332,123,94651,1,2,2:1:0:0:
353,92,94724,1,0,2:1:0:0:
384,72,94797,1,0,2:1:0:0:
421,66,94871,1,0,2:1:0:0:
457,75,94944,5,2,2:1:0:0:
458,101,95017,1,0,2:1:0:0:
459,127,95090,1,0,2:1:0:0:
460,153,95163,1,0,2:1:0:0:
461,179,95236,1,2,2:1:0:0:
462,206,95310,1,0,2:1:0:0:
463,232,95383,1,0,2:1:0:0:
464,258,95456,1,0,2:1:0:0:
464,285,95529,5,2,2:1:0:0:
439,252,95602,1,0,2:1:0:0:
402,235,95675,1,0,2:1:0:0:
362,239,95749,1,0,2:1:0:0:
329,263,95822,1,2,2:1:0:0:
296,287,95895,1,0,2:1:0:0:
255,291,95968,1,0,2:1:0:0:
218,274,96041,1,0,2:1:0:0:
194,241,96114,5,4,2:1:0:0:
234,215,96188,1,0,2:1:0:0:
243,169,96261,1,0,2:1:0:0:
215,131,96334,1,0,2:1:0:0:
168,125,96407,1,2,2:1:0:0:
132,156,96480,1,0,2:1:0:0:
94,185,96554,1,0,2:1:0:0:
47,182,96627,1,0,2:1:0:0:
14,148,96700,1,2,2:1:0:0:
12,100,96773,1,0,2:1:0:0:
44,64,96846,1,0,2:1:0:0:
92,58,96919,1,0,2:1:0:0:
134,83,96993,2,0,L|201:80,3,52.4999950599673,2|0|0|0,2:1|2:1|2:1|2:1,2:1:0:0:
271,13,97285,5,4,2:1:0:0:
296,39,97358,1,0,2:1:0:0:
306,75,97432,1,0,2:1:0:0:
296,111,97505,1,0,2:1:0:0:
270,137,97578,1,2,2:1:0:0:
244,163,97651,1,0,2:1:0:0:
239,200,97724,1,0,2:1:0:0:
256,232,97797,1,0,2:1:0:0:
290,248,97871,1,2,2:1:0:0:
326,240,97944,1,0,2:1:0:0:
350,212,98017,1,0,2:1:0:0:
381,193,98090,1,0,2:1:0:0:
418,191,98163,1,2,2:1:0:0:
451,209,98236,1,0,2:1:0:0:
470,240,98310,1,0,2:1:0:0:
470,277,98383,1,0,2:1:0:0:
452,309,98456,6,0,L|457:369,3,52.4999950599673,4|0|0|0,2:1|2:1|2:1|2:1,2:1:0:0:
360,288,98749,1,2,2:1:0:0:
357,250,98822,1,0,2:1:0:0:
355,213,98895,1,0,2:1:0:0:
353,175,98968,1,0,2:1:0:0:
351,138,99041,6,0,L|348:83,3,52.4999950599673,2|0|0|0,2:1|2:1|2:1|2:1,2:1:0:0:
241,136,99334,1,2,2:1:0:0:
216,128,99407,1,0,2:1:0:0:
189,124,99480,1,0,2:1:0:0:
163,126,99554,1,0,2:1:0:0:
138,133,99627,6,0,L|145:79,3,52.4999950599673,2|0|0|0,2:1|2:1|2:1|2:1,2:1:0:0:
29,114,99919,1,2,2:1:0:0:
33,170,99993,1,0,2:1:0:0:
38,226,100066,1,0,2:1:0:0:
43,282,100139,1,0,2:1:0:0:
48,338,100212,6,0,L|-19:326,3,52.4999950599673,2|0|0|0,2:1|2:1|2:1|2:1,2:1:0:0:
178,240,100505,2,0,L|255:227,3,52.4999950599673,2|0|0|0,2:1|2:1|2:1|2:1,2:1:0:0:
180,127,100797,5,4,2:1:0:0:
234,117,100871,1,0,2:1:0:0:
287,134,100944,1,0,2:1:0:0:
326,174,101017,1,0,2:1:0:0:
342,227,101090,1,2,2:1:0:0:
380,267,101163,1,0,2:1:0:0:
435,275,101236,1,0,2:1:0:0:
483,249,101310,1,0,2:1:0:0:
506,198,101383,1,2,2:1:0:0:
493,145,101456,1,0,2:1:0:0:
454,105,101529,1,0,2:1:0:0:
400,93,101602,1,0,2:1:0:0:
348,112,101675,2,0,L|266:110,3,52.4999950599673,2|0|0|0,2:1|2:1|2:1|2:1,2:1:0:0:
321,219,101968,5,8,0:0:0:0:
286,240,102041,1,8,0:1:0:0:
245,246,102114,1,0,2:1:0:0:
206,236,102188,1,0,2:1:0:0:
173,211,102261,2,0,L|169:130,3,52.4999950599673,8|12|0|0,2:3|2:3|2:1|2:1,0:1:0:0:
253,102,102554,1,8,0:1:0:0:
188,319,102700,1,0,2:1:0:0:
188,319,102773,1,0,2:1:0:0:
188,319,102846,2,0,L|79:330,1,104.999990119935,8|8,0:1|0:1,0:1:0:0:
147,133,103139,5,4,2:1:0:0:
187,128,103212,1,0,2:1:0:0:
226,140,103285,1,0,2:1:0:0:
258,167,103358,1,0,2:1:0:0:
277,203,103432,1,2,2:1:0:0:
296,239,103505,1,0,2:1:0:0:
328,266,103578,1,0,2:1:0:0:
367,278,103651,1,0,2:1:0:0:
407,273,103724,5,0,2:1:0:0:
382,245,103797,1,0,2:1:0:0:
346,235,103871,1,0,2:1:0:0:
311,245,103944,1,0,2:1:0:0:
286,272,104017,1,2,2:1:0:0:
279,309,104090,1,0,2:1:0:0:
293,343,104163,1,0,2:1:0:0:
323,365,104236,1,0,2:1:0:0:
359,368,104310,5,8,2:1:0:0:
358,342,104383,1,0,2:1:0:0:
357,315,104456,1,0,2:1:0:0:
356,289,104529,1,0,2:1:0:0:
355,263,104602,1,2,2:1:0:0:
354,237,104675,1,0,2:1:0:0:
353,211,104749,1,0,2:1:0:0:
352,184,104822,1,0,2:1:0:0:
350,158,104895,5,0,2:1:0:0:
325,190,104968,1,0,2:1:0:0:
290,213,105041,1,0,2:1:0:0:
251,223,105114,1,0,2:1:0:0:
210,218,105188,1,2,2:1:0:0:
173,200,105261,1,0,2:1:0:0:
144,171,105334,1,0,2:1:0:0:
127,134,105407,1,0,2:1:0:0:
123,93,105480,5,4,2:1:0:0:
171,95,105554,1,0,2:1:0:0:
209,125,105627,1,0,2:1:0:0:
224,170,105700,1,0,2:1:0:0:
210,218,105773,1,2,2:1:0:0:
196,261,105846,1,0,2:1:0:0:
210,307,105919,1,0,2:1:0:0:
248,336,105993,1,0,2:1:0:0:
296,338,106066,1,0,2:1:0:0:
338,316,106139,1,0,2:1:0:0:
361,274,106212,1,0,2:1:0:0:
357,226,106285,1,0,2:1:0:0:
327,189,106358,2,0,L|261:193,3,52.4999950599673,2|0|0|0,2:1|2:1|2:1|2:1,2:1:0:0:
440,92,106651,6,0,P|473:85|500:94,3,52.4999950599673,8|0|0|0,2:1|2:1|2:1|2:1,2:1:0:0:
276,262,106944,2,0,P|243:269|217:262,3,52.4999950599673,2|0|0|0,2:1|2:1|2:1|2:1,2:1:0:0:
276,96,107236,2,0,P|269:63|277:36,3,52.4999950599673,8|0|0|0,2:1|2:1|2:1|2:1,2:1:0:0:
443,257,107529,2,0,P|450:290|443:316,3,52.4999950599673,2|0|0|0,2:1|2:1|2:1|2:1,2:1:0:0:
327,209,107822,5,4,2:1:0:0:
293,185,107895,1,0,2:1:0:0:
252,180,107968,1,0,2:1:0:0:
214,194,108041,1,0,2:1:0:0:
187,225,108114,1,2,2:1:0:0:
159,255,108188,1,0,2:1:0:0:
121,269,108261,1,0,2:1:0:0:
80,264,108334,1,0,2:1:0:0:
47,241,108407,2,0,L|42:160,3,52.4999950599673,8|0|0|0,2:1|2:1|2:1|2:1,2:1:0:0:
146,72,108700,2,0,L|141:147,3,52.4999950599673,2|0|0|0,2:1|2:1|2:1|2:1,2:1:0:0:
187,225,108993,5,0,2:1:0:0:
234,215,109066,1,0,2:1:0:0:
271,184,109139,1,0,2:1:0:0:
289,140,109212,1,0,2:1:0:0:
284,92,109285,5,2,2:1:0:0:
325,84,109358,1,0,2:1:0:0:
364,93,109432,1,0,2:1:0:0:
397,118,109505,1,0,2:1:0:0:
417,154,109578,2,0,L|423:218,3,52.4999950599673,8|0|0|0,2:1|2:1|2:1|2:1,2:1:0:0:
284,92,109871,2,0,L|289:27,3,52.4999950599673,2|0|0|0,2:1|2:1|2:1|2:1,2:1:0:0:
285,258,110163,5,0,2:1:0:0:
245,269,110236,1,0,2:1:0:0:
205,259,110310,1,0,2:1:0:0:
175,232,110383,1,0,2:1:0:0:
162,194,110456,1,2,2:1:0:0:
141,159,110529,1,0,2:1:0:0:
103,144,110602,1,0,2:1:0:0:
64,154,110675,1,0,2:1:0:0:
38,185,110749,2,0,L|34:244,3,52.4999950599673,8|0|0|0,2:1|2:1|2:1|2:1,2:1:0:0:
171,63,111041,2,0,L|168:4,3,52.4999950599673,2|0|0|0,2:1|2:1|2:1|2:1,2:1:0:0:
286,192,111334,5,8,0:1:0:0:
312,190,111407,1,8,0:1:0:0:
338,188,111480,1,0,2:1:0:0:
364,186,111554,1,0,2:1:0:0:
390,184,111627,2,0,L|385:132,3,52.4999950599673,8|0|0|0,2:3|2:3|2:3|2:3,2:1:0:0:
237,74,111919,5,8,0:1:0:0:
211,73,111993,1,8,0:1:0:0:
185,71,112066,1,0,2:1:0:0:
159,69,112139,1,0,2:1:0:0:
133,67,112212,2,0,L|139:11,3,52.4999950599673,8|0|0|0,2:3|2:3|2:3|2:3,2:1:0:0:
159,196,112505,5,4,2:1:0:0:
159,196,112578,1,0,2:1:0:0:
159,196,112651,1,0,2:1:0:0:
219,0,112797,1,0,2:1:0:0:
329,172,112944,1,0,2:1:0:0:
211,8,113090,1,0,2:1:0:0:
243,233,113236,1,0,2:1:0:0:
329,43,113383,1,0,2:1:0:0:
79,159,113529,5,0,2:1:0:0:
81,195,113602,1,0,2:1:0:0:
84,232,113675,1,8,2:1:0:0:
264,110,113822,1,0,2:1:0:0:
22,79,113968,1,0,2:1:0:0:
256,118,114114,1,0,2:1:0:0:
76,240,114261,1,0,2:1:0:0:
219,11,114407,5,2,2:2:0:0:
248,126,114554,1,0,2:1:0:0:
333,41,114700,1,0,2:1:0:0:
127,150,114846,5,2,2:2:0:0:
209,235,114993,1,0,2:1:0:0:
240,118,115139,1,0,2:1:0:0:
120,312,115285,5,2,2:2:0:0:
233,344,115432,1,0,2:1:0:0:
201,227,115578,1,0,2:1:0:0:
319,384,115724,2,0,L|430:378,1,89.9999915313724,2|0,2:2|0:1,0:1:0:0:
421,168,116017,6,0,B|412:126|372:108|329:101|284:127|284:127|256:163|256:163|191:175,1,269.999974594117,12|0,3:1|3:1,3:1:0:0:
331,24,116749,2,0,B|338:109|340:103|340:103|334:233,1,179.999983062745,4|0,2:1|0:1,0:1:0:0:
240,292,117188,5,4,2:1:0:0:
240,292,117261,1,0,2:1:0:0:
240,292,117334,1,0,2:1:0:0:
227,116,117480,1,0,2:1:0:0:
227,116,117554,1,0,2:1:0:0:
227,116,117627,1,0,2:1:0:0:
366,224,117773,1,0,2:1:0:0:
127,211,117919,1,0,2:1:0:0:
340,86,118066,1,0,2:1:0:0:
253,363,118212,5,0,2:1:0:0:
250,331,118285,1,0,2:1:0:0:
248,300,118358,1,8,2:1:0:0:
332,94,118505,1,0,2:1:0:0:
329,126,118578,1,0,2:1:0:0:
327,157,118651,1,0,2:1:0:0:
135,219,118797,1,0,2:1:0:0:
227,116,118944,1,0,2:1:0:0:
366,285,119090,5,2,2:2:0:0:
251,256,119236,1,0,2:1:0:0:
335,165,119383,1,0,2:1:0:0:
227,377,119529,5,2,2:2:0:0:
142,295,119675,1,0,2:1:0:0:
259,264,119822,1,0,2:1:0:0:
12,384,119968,6,0,P|-7:328|4:289,1,89.9999915313724,2|0,2:0|2:0,0:0:0:0:
150,303,120261,1,0,2:1:0:0:
0,188,120407,2,0,L|12:79,1,89.9999915313724,2|0,2:2|0:1,0:1:0:0:
255,169,120700,6,0,B|214:179|179:197|188:192|188:192|153:182|123:169|123:169|131:169|59:168|-13:192,1,269.999974594117,12|0,0:1|0:1,0:1:0:0:
186,100,121432,2,0,B|184:181|184:181|181:174|189:283,1,179.999983062745,4|0,2:1|0:1,0:1:0:0:
329,355,121871,6,0,B|341:333|341:333|356:294,1,56.2499985694885,4|0,2:1|0:1,0:1:0:0:
389,180,122017,2,0,B|374:201|374:201|359:242,1,56.2499985694885,0|0,2:1|0:1,0:1:0:0:
258,290,122163,6,0,B|266:265|266:265|270:221,1,56.2499985694885,2|0,2:1|0:1,0:1:0:0:
270,105,122310,2,0,B|261:130|261:130|257:173,1,56.2499985694885,0|0,2:1|0:1,0:1:0:0:
172,245,122456,6,0,B|173:217|173:217|165:175,1,56.2499985694885,2|0,2:1|0:1,0:1:0:0:
136,62,122602,2,0,B|133:89|133:89|141:131,1,56.2499985694885,0|0,2:1|0:1,0:1:0:0:
82,223,122749,6,0,B|77:196|77:196|58:156,1,56.2499985694885,2|0,2:1|0:1,0:1:0:0:
0,57,122895,2,0,B|3:77|3:77|18:109,1,56.2499985694885,0|0,2:1|0:1,0:1:0:0:
67,299,123041,6,0,B|58:272|58:272|54:229,1,56.2499985694885,10|0,2:1|0:1,0:1:0:0:
52,115,123188,2,0,B|61:138|61:138|65:182,1,56.2499985694885,0|0,2:1|0:1,0:1:0:0:
151,255,123334,6,0,B|148:227|148:227|156:185,1,56.2499985694885,2|0,2:1|0:1,0:1:0:0:
188,72,123480,2,0,B|189:98|189:98|181:140,1,56.2499985694885,0|0,2:1|0:1,0:1:0:0:
246,234,123627,6,0,B|249:207|249:207|268:167,1,56.2499985694885,2|0,2:1|0:1,0:1:0:0:
328,103,123773,5,2,2:2:0:0:
208,104,123919,1,0,2:1:0:0:
269,1,124066,1,0,2:1:0:0:
216,227,124212,5,2,2:2:0:0:
114,169,124358,1,0,2:1:0:0:
218,109,124505,1,0,2:1:0:0:
105,293,124651,2,0,P|55:300|-9:261,1,112.499997138977,2|0,2:2|2:0,0:0:0:0:
123,175,124944,1,2,2:2:0:0:
4,374,125090,2,0,L|-13:265,1,89.9999915313724,2|0,2:2|0:1,0:1:0:0:
213,101,125383,6,0,B|244:162|225:219|219:217|219:217|186:248|186:248|184:244|162:298|182:348,1,269.999974594117,12|0,3:1|3:1,3:1:0:0:
310,244,126114,1,4,2:3:0:0:
337,223,126188,1,4,2:3:0:0:
369,217,126261,1,4,2:3:0:0:
401,227,126334,1,4,2:3:0:0:
425,249,126407,2,0,L|457:286,1,44.9999957656862,4|0,2:3|2:3,2:3:0:0:
369,381,126554,5,2,2:3:0:0:
368,364,126627,1,2,2:3:0:0:
366,347,126700,2,0,L|360:291,1,44.9999957656862,2|0,2:3|2:3,2:3:0:0:
240,355,126846,1,2,2:3:0:0:
239,338,126919,1,2,2:3:0:0:
237,321,126993,2,0,L|232:265,1,44.9999957656862,2|0,2:3|2:3,2:3:0:0:
369,200,127139,6,0,L|371:146,1,44.9999957656862,2|0,2:3|2:3,2:3:0:0:
276,170,127285,2,0,L|278:116,1,44.9999957656862,2|0,2:3|2:3,2:3:0:0:
183,140,127432,2,0,L|185:86,1,44.9999957656862,2|0,2:3|2:3,2:3:0:0:
78,273,127578,5,2,2:3:0:0:
95,272,127651,1,2,2:3:0:0:
112,270,127724,2,0,L|166:265,1,44.9999957656862,10|0,2:1|2:3,2:3:0:0:
104,146,127871,1,2,2:3:0:0:
121,145,127944,1,2,2:3:0:0:
138,143,128017,2,0,L|195:139,1,44.9999957656862,2|0,2:3|2:3,2:3:0:0:
259,273,128163,6,0,L|313:275,1,44.9999957656862,2|0,2:3|2:3,2:3:0:0:
289,180,128310,2,0,L|343:182,1,44.9999957656862,2|0,2:3|2:3,2:3:0:0:
319,87,128456,2,0,L|373:89,1,44.9999957656862,2|0,2:3|2:3,2:3:0:0:
480,171,128602,2,0,L|426:169,1,44.9999957656862,2|0,2:3|2:3,2:3:0:0:
183,24,128749,2,0,L|237:26,1,44.9999957656862,2|0,2:3|2:3,2:3:0:0:
333,181,128895,6,0,B|345:231|345:231|333:280,1,89.9999915313724,4|0,2:1|2:1,2:1:0:0:
212,328,129188,1,0,2:1:0:0:
186,157,129334,1,0,2:1:0:0:
309,349,129480,2,0,L|210:335,1,89.9999915313724,4|0,2:1|2:1,2:1:0:0:
178,149,129773,1,0,2:1:0:0:
512,319,130066,6,0,B|432:312|438:311|438:311|368:302,1,134.999987297059,8|0,0:1|0:1,0:1:0:0:
232,261,130505,2,0,L|226:349,1,67.4999936485293,2|2,0:1|0:1,0:1:0:0:
86,179,130797,6,0,B|60:118|97:69|97:69|144:100|130:147,1,179.999983062745,4|0,2:1|0:1,0:1:0:0:
56,268,131236,1,4,2:1:0:0:
256,192,131310,12,0,135919,0:1:0:0:
154,71,136505,5,2,0:2:0:0:
271,99,136797,1,2,0:2:0:0:
303,213,137090,2,0,L|193:204,1,104.999990119935,2|2,0:2|0:2,0:2:0:0:
133,234,137529,1,2,0:2:0:0:
116,247,137822,1,2,0:2:0:0:
100,260,138114,6,0,L|94:324,1,52.4999950599673,2|0,0:2|0:2,0:2:0:0:
69,384,138407,2,0,P|122:351|184:355,1,104.999990119935,2|0,0:2|0:2,0:2:0:0:
249,376,138846,1,2,0:2:0:0:
309,270,139139,1,2,0:2:0:0:
217,190,139432,2,0,L|-2:199,1,209.999980239869,2|0,0:2|0:2,0:2:0:0:
248,23,140602,5,0,0:2:0:0:
349,91,140895,2,0,L|362:207,1,104.999990119935,2|0,0:2|0:2,0:2:0:0:
299,301,141480,1,2,0:2:0:0:
208,178,141773,2,0,P|131:158|52:196,1,157.499985179902,2|0,0:2|0:2,0:2:0:0:
17,252,142358,1,2,0:2:0:0:
17,252,142505,2,0,L|14:313,1,52.4999950599673,2|0,0:2|0:2,0:2:0:0:
152,376,142797,6,0,L|149:315,1,52.4999950599673,2|0,0:2|0:2,0:2:0:0:
204,251,143090,2,0,B|268:236|261:264|318:249,1,104.999990119935,2|0,0:2|0:2,0:2:0:0:
384,193,143529,1,2,0:2:0:0:
334,83,143822,1,2,0:2:0:0:
217,110,144114,2,0,P|215:201|265:246,2,157.499985179902,2|2|2,0:2|0:2|0:2,0:2:0:0:
327,79,145285,6,0,L|337:291,1,209.999980239869,2|0,0:2|0:2,0:2:0:0:
363,384,146163,2,0,P|315:311|104:326,1,314.999970359804,2|0,0:2|0:2,0:2:0:0:
68,78,147480,6,0,L|132:70,1,52.4999950599673,2|0,0:2|0:2,0:2:0:0:
201,120,147773,2,0,P|261:140|320:121,1,104.999990119935,2|0,0:2|0:2,0:2:0:0:
372,79,148212,1,2,0:2:0:0:
446,174,148505,1,2,0:2:0:0:
368,261,148797,2,0,P|311:240|260:260,1,104.999990119935,2|0,0:2|0:2,0:2:0:0:
227,316,149236,2,0,L|233:144,1,157.499985179902,2|0,0:2|0:2,0:2:0:0:
29,112,149968,6,0,P|85:72|148:91,1,119.999992370606,4|0,2:1|0:1,0:1:0:0:
213,134,150407,1,0,0:1:0:0:
213,134,150554,2,0,L|218:212,1,59.9999961853028,0|0,0:1|0:1,0:1:0:0:
322,251,150846,2,0,L|327:173,1,59.9999961853028,0|0,0:1|2:1,0:1:0:0:
428,128,151139,2,0,L|438:266,1,119.999992370606,8|0,0:1|0:1,0:1:0:0:
386,340,151578,1,0,0:1:0:0:
386,340,151724,2,0,P|425:352|450:350,2,59.9999961853028,0|0|0,0:1|0:1|0:1,0:1:0:0:
286,299,152163,6,0,L|279:233,1,59.9999961853028,0|0,2:1|0:1,0:1:0:0:
338,176,152456,2,0,P|284:198|210:167,1,119.999992370606,0|0,2:1|0:1,0:1:0:0:
126,113,152895,2,0,L|131:35,1,59.9999961853028,0|0,0:1|0:1,0:1:0:0:
235,1,153188,2,0,L|240:79,1,59.9999961853028,0|0,0:1|2:1,0:1:0:0:
93,245,153480,2,0,L|98:167,1,59.9999961853028,8|0,0:1|0:1,0:1:0:0:
202,133,153773,2,0,L|207:211,1,59.9999961853028,0|8,0:1|0:1,0:1:0:0:
60,377,154066,2,0,L|65:299,1,59.9999961853028,0|0,0:1|0:1,0:1:0:0:
169,265,154358,2,0,L|174:343,1,59.9999961853028,0|0,0:1|0:1,0:1:0:0:
269,375,154651,6,0,P|314:333|383:339,1,119.999992370606,0|0,2:1|0:1,0:1:0:0:
479,366,155090,1,0,2:1:0:0:
479,366,155236,2,0,L|474:288,1,59.9999961853028,0|0,0:1|0:1,0:1:0:0:
399,188,155529,2,0,B|334:170|350:210|282:190,1,119.999992370606,0|8,0:1|0:1,0:1:0:0:
194,132,155968,1,0,0:1:0:0:
194,132,156114,2,0,L|189:54,1,59.9999961853028,0|0,0:1|0:1,0:1:0:0:
82,136,156407,2,0,L|69:272,1,119.999992370606,0|0,0:1|0:1,0:1:0:0:
156,329,156846,6,0,P|203:316|230:323,1,59.9999961853028,0|0,2:1|0:1,0:1:0:0:
254,380,157139,2,0,L|265:240,1,119.999992370606,0|0,2:1|0:1,0:1:0:0:
315,162,157578,1,0,0:1:0:0:
315,162,157724,1,0,0:1:0:0:
222,90,157871,2,0,L|151:94,1,59.9999961853028,0|0,0:1|2:1,0:1:0:0:
24,203,158163,2,0,P|55:169|133:175,1,119.999992370606,8|0,0:1|0:1,3:1:0:0:
206,235,158602,1,0,0:1:0:0:
206,235,158749,2,0,L|211:313,1,59.9999961853028,0|0,0:1|0:1,0:1:0:0:
315,352,159041,2,0,L|318:292,1,59.9999961853028,0|0,0:1|0:1,0:1:0:0:
406,211,159334,6,0,P|362:173|303:169,1,119.999992370606,0|0,2:1|0:1,0:1:0:0:
223,234,159773,1,0,0:1:0:0:
223,234,159919,2,0,L|218:312,1,59.9999961853028,0|0,0:1|0:1,0:1:0:0:
114,351,160212,2,0,L|109:273,1,59.9999961853028,0|0,0:1|2:1,0:1:0:0:
33,225,160505,2,0,P|78:145|62:100,1,119.999992370606,8|0,0:1|0:1,0:1:0:0:
59,34,160944,1,0,0:1:0:0:
59,34,161090,2,0,L|-24:28,2,59.9999961853028,0|0|0,0:1|0:1|0:1,0:1:0:0:
148,84,161529,6,0,P|167:112|168:150,1,59.9999961853028,0|0,2:1|0:1,0:1:0:0:
152,218,161822,2,0,P|187:170|246:163,1,119.999992370606,0|0,2:1|0:1,0:1:0:0:
348,120,162261,2,0,L|343:42,1,59.9999961853028,0|0,0:1|0:1,0:1:0:0:
239,8,162554,2,0,L|234:86,1,59.9999961853028,0|0,0:1|2:1,0:1:0:0:
381,252,162846,2,0,L|376:174,1,59.9999961853028,8|0,0:1|0:1,0:1:0:0:
272,140,163139,2,0,L|267:218,1,59.9999961853028,0|8,0:1|0:1,0:1:0:0:
414,384,163432,2,0,L|409:306,1,59.9999961853028,0|0,0:1|0:1,0:1:0:0:
305,272,163724,2,0,L|300:350,1,59.9999961853028,0|8,0:1|0:1,0:1:0:0:
379,238,164017,6,0,P|334:196|265:202,1,119.999992370606,0|0,2:1|0:1,0:1:0:0:
169,229,164456,1,0,2:1:0:0:
169,229,164602,2,0,L|165:288,1,59.9999961853028,0|0,0:1|0:1,0:1:0:0:
71,260,164895,2,0,L|66:126,1,119.999992370606,0|8,0:1|0:1,0:1:0:0:
86,49,165334,1,0,0:1:0:0:
86,49,165480,2,0,L|150:44,1,59.9999961853028,0|0,0:1|0:1,0:1:0:0:
230,109,165773,2,0,P|285:128|342:110,1,119.999992370606,0|0,0:1|0:1,0:1:0:0:
380,21,166212,6,0,L|299:15,1,59.9999961853028,0|0,2:1|0:1,0:1:0:0:
121,81,166505,2,0,P|179:76|229:108,1,119.999992370606,0|0,2:1|3:1,3:1:0:0:
246,230,166944,2,0,L|253:287,2,39.9999974568685,8|8|8,2:3|2:3|2:3,2:3:0:0:
143,281,167236,2,0,L|134:345,2,39.9999974568685,4|4|4,2:3|2:3|2:3,2:3:0:0:
68,200,167529,2,0,L|320:184,1,239.999984741211,12|2,0:1|1:2,0:1:0:0:
307,185,168700,6,0,P|291:104|157:92,1,194.999978675843,4|0,2:1|0:1,0:1:0:0:
22,169,169139,2,0,L|165:164,1,97.4999893379217,0|2,2:1|0:1,0:1:0:0:
267,268,169432,1,0,0:1:0:0:
166,307,169578,2,0,P|111:305|66:284,1,97.4999893379217,0|0,0:1|2:1,0:1:0:0:
307,184,169871,6,0,L|298:387,1,194.999978675843,10|0,0:1|0:1,0:1:0:0:
480,248,170310,2,8,P|433:223|377:220,1,97.4999893379217,0|2,2:1|0:1,0:1:0:0:
174,315,170602,2,0,L|287:305,1,97.4999893379217,0|0,0:1|0:1,0:1:0:0:
129,154,170895,6,0,P|88:188|81:247,1,97.4999893379217,4|0,2:1|0:1,0:1:0:0:
236,81,171188,2,0,P|227:28|179:-7,1,97.4999893379217,4|0,2:1|0:1,0:1:0:0:
245,210,171480,2,0,P|294:228|387:109,1,194.999978675843,4|0,2:1|0:1,0:1:0:0:
300,138,171919,1,0,0:1:0:0:
257,314,172066,1,0,2:1:0:0:
104,126,172212,6,8,B|226:166|187:91|293:130,1,194.999978675843,10|0,0:1|0:1,3:1:0:0:
396,240,172651,1,0,0:2:0:0:
251,228,172797,1,2,0:1:0:0:
411,58,172944,2,0,P|445:151|382:245,1,194.999978675843,4|0,2:1|1:1,3:1:0:0:
147,218,173383,6,0,P|210:142|324:149,1,194.999978675843,4|0,2:1|1:1,1:1:0:0:
407,235,173822,1,0,2:1:0:0:
407,235,173968,2,0,L|411:358,2,97.4999893379217,2|0|0,1:1|1:1|1:1,1:1:0:0:
260,250,174407,1,0,2:1:0:0:
501,352,174554,5,10,1:1:0:0:
466,165,174700,2,0,P|417:135|339:146,1,97.4999893379217,4|0,2:1|1:1,1:1:0:0:
252,258,174993,2,0,L|365:251,1,97.4999893379217,4|0,2:1|1:1,1:1:0:0:
501,352,175285,1,0,2:1:0:0:
208,346,175432,1,8,1:1:0:0:
334,155,175578,6,0,P|360:201|353:255,1,97.4999893379217,4|0,2:1|1:1,1:1:0:0:
213,96,175871,2,0,P|245:57|385:43,1,194.999978675843,4|0,2:1|0:1,0:1:0:0:
438,188,176310,1,2,2:1:0:0:
205,104,176456,2,0,P|188:164|203:204,1,97.4999893379217,4|0,2:1|0:1,0:1:0:0:
299,297,176749,1,0,2:1:0:0:
407,81,176895,6,0,L|182:98,1,194.999978675843,12|0,0:1|0:1,0:1:0:0:
134,253,177334,2,0,P|196:243|246:199,1,97.4999893379217,4|2,2:1|0:1,0:1:0:0:
26,131,177627,2,0,P|-2:195|49:317,1,194.999978675843,4|0,2:1|2:1,0:1:0:0:
197,326,178066,6,0,L|416:304,1,194.999978675843,4|0,2:1|0:1,0:1:0:0:
490,262,178505,2,0,L|487:374,1,97.4999893379217,0|2,2:1|0:1,0:1:0:0:
384,315,178797,1,0,0:1:0:0:
408,197,178944,2,0,P|461:161|498:159,1,97.4999893379217,0|0,0:1|2:1,0:1:0:0:
246,89,179236,6,0,P|151:78|71:131,1,194.999978675843,12|0,0:1|0:1,0:1:0:0:
50,258,179675,2,0,L|46:374,1,97.4999893379217,0|2,2:1|0:1,0:1:0:0:
242,232,179968,1,0,0:1:0:0:
139,193,180114,1,0,0:1:0:0:
250,240,180261,2,0,L|353:234,1,97.4999893379217,0|0,0:2|0:1,0:1:0:0:
234,35,180554,6,0,P|173:45|133:80,1,97.4999893379217,4|0,2:1|0:1,0:1:0:0:
0,145,180846,2,0,P|61:166|93:306,1,194.999978675843,4|0,2:1|0:1,0:1:0:0:
199,344,181285,2,0,L|309:327,1,97.4999893379217,0|0,0:1|2:1,0:1:0:0:
94,288,181578,5,10,0:1:0:0:
378,379,181724,2,0,B|412:270|341:300|376:189,1,194.999978675843,4|0,2:1|0:1,0:1:0:0:
458,72,182163,1,0,2:1:0:0:
230,88,182310,2,0,L|241:222,1,97.4999893379217,4|0,2:1|0:1,0:1:0:0:
248,300,182602,1,0,2:1:0:0:
132,88,182749,6,0,P|189:0|288:10,1,194.999978675843,4|0,2:1|0:1,0:1:0:0:
178,179,183188,2,0,P|73:173|32:82,1,194.999978675843,4|0,2:1|0:1,3:1:0:0:
230,88,183627,2,0,P|277:181|273:208,1,97.4999893379217,4|0,2:1|0:1,0:1:0:0:
210,318,183919,1,8,0:1:0:0:
284,178,184066,2,0,L|381:183,1,97.4999893379217,4|0,2:1|0:1,0:1:0:0:
512,3,184358,2,0,P|429:0|351:86,1,194.999978675843,4|0,2:1|2:1,0:1:0:0:
308,266,184797,1,8,0:1:0:0:
458,94,184944,6,0,L|326:79,1,97.4999893379217,4|0,2:1|0:1,0:1:0:0:
191,20,185236,2,0,P|234:121|192:194,1,194.999978675843,4|0,2:1|0:1,0:1:0:0:
79,211,185675,1,0,2:1:0:0:
183,28,185822,2,0,L|299:20,1,97.4999893379217,4|0,2:1|0:1,0:1:0:0:
441,43,186114,1,0,2:1:0:0:
261,207,186261,6,0,P|212:218|284:160,1,292.499968013765,12|0,0:1|0:1,0:1:0:0:
315,287,186846,1,4,2:1:0:0:
111,238,186993,2,0,P|91:127|147:45,1,194.999978675843,0|0,2:1|2:1,0:1:0:0:
442,160,187432,6,0,B|320:113|349:207|225:159,1,224.999994277954,4|0,2:1|0:1,0:1:0:0:
500,0,187871,2,0,P|522:52|497:128,1,112.499997138977,0|4,2:1|0:1,0:1:0:0:
385,225,188163,1,0,0:1:0:0:
287,55,188310,2,0,L|415:62,1,112.499997138977,0|0,0:1|2:1,0:1:0:0:
187,238,188602,6,0,P|107:204|0:301,1,224.999994277954,12|0,0:1|0:1,0:1:0:0:
154,384,189041,1,0,2:1:0:0:
333,342,189188,2,0,L|453:347,2,112.499997138977,4|0|0,0:1|0:1|0:1,0:1:0:0:
103,229,189627,6,0,L|96:116,1,112.499997138977,4|0,2:1|0:1,0:1:0:0:
360,16,189919,2,0,L|353:139,1,112.499997138977,4|0,2:1|0:1,0:1:0:0:
7,90,190212,2,0,P|64:29|191:96,1,224.999994277954,4|0,2:1|0:1,0:1:0:0:
93,191,190651,1,0,0:1:0:0:
0,98,190797,1,0,2:1:0:0:
273,96,190944,6,0,L|264:327,1,224.999994277954,12|0,0:1|0:1,0:1:0:0:
429,274,191383,1,0,0:1:0:0:
371,164,191529,1,4,0:1:0:0:
198,384,191675,2,0,P|282:343|441:407,1,224.999994277954,0|0,2:1|0:1,0:1:0:0:
273,96,192114,6,0,L|10:82,1,224.999994277954,4|0,2:1|0:1,0:1:0:0:
396,0,192554,1,0,2:1:0:0:
481,109,192700,2,0,P|497:171|467:233,1,112.499997138977,4|0,0:1|0:1,0:1:0:0:
279,218,192993,2,0,P|324:173|393:168,1,112.499997138977,0|0,0:1|2:1,0:1:0:0:
512,302,193285,5,12,0:1:0:0:
194,384,193432,2,0,L|203:260,1,112.499997138977,4|0,2:1|0:1,0:1:0:0:
1,59,193724,2,0,P|46:103|115:108,1,112.499997138977,4|0,2:1|0:1,0:1:0:0:
261,69,194017,1,0,2:1:0:0:
95,0,194163,1,8,0:1:0:0:
0,269,194310,6,0,L|147:256,1,112.499997138977,4|0,2:1|0:1,0:1:0:0:
494,219,194602,2,0,P|389:139|283:181,1,224.999994277954,4|0,2:1|0:1,0:1:0:0:
219,286,195041,1,4,2:1:0:0:
97,77,195188,2,0,L|248:67,1,112.499997138977,0|0,2:1|0:1,0:1:0:0:
357,0,195480,1,0,2:1:0:0:
23,19,195627,6,0,P|3:89|127:164,1,224.999994277954,12|0,0:1|0:1,0:1:0:0:
287,49,196066,2,0,L|140:38,1,112.499997138977,0|4,2:1|0:1,0:1:0:0:
401,215,196358,2,0,P|469:201|533:235,1,112.499997138977,0|0,2:1|0:1,0:1:0:0:
512,384,196651,1,0,2:1:0:0:
241,384,196797,6,0,B|287:262|193:291|241:167,1,224.999994277954,4|0,2:1|0:1,0:1:0:0:
400,29,197236,2,0,L|528:21,1,112.499997138977,0|4,2:1|0:1,0:1:0:0:
373,207,197529,1,0,0:1:0:0:
233,159,197675,2,0,P|197:97|200:48,1,112.499997138977,0|0,0:1|2:1,0:1:0:0:
462,263,197968,6,0,L|206:241,1,224.999994277954,12|0,0:1|0:1,0:1:0:0:
488,359,198407,1,0,2:1:0:0:
512,177,198554,2,0,P|492:120|435:81,2,112.499997138977,4|0|0,0:1|0:1|0:1,0:1:0:0:
401,298,198993,2,0,L|400:186,1,112.499997138977,2|0,0:1|0:1,0:1:0:0:
131,348,199285,6,0,P|196:373|256:347,1,112.499997138977,4|0,2:1|0:1,0:1:0:0:
51,57,199578,2,0,L|57:295,1,224.999994277954,4|0,2:1|0:1,0:1:0:0:
245,193,200017,1,0,0:1:0:0:
130,113,200163,1,0,2:1:0:0:
131,348,200310,5,12,0:1:0:0:
337,76,200456,2,0,P|231:48|138:105,1,224.999994277954,0|0,2:1|0:1,0:1:0:0:
69,280,200895,1,4,2:1:0:0:
324,377,201041,2,0,P|324:267|244:192,1,224.999994277954,0|0,2:1|2:1,0:1:0:0:
0,298,201480,6,0,L|224:311,1,224.999994277954,4|0,2:1|0:1,0:1:0:0:
469,179,201919,2,0,L|244:192,1,224.999994277954,4|0,2:1|0:1,0:1:0:0:
0,58,202358,2,0,L|112:64,1,112.499997138977,4|0,2:1|0:1,0:1:0:0:
275,77,202651,5,8,0:1:0:0:
25,247,202797,2,0,P|7:192|29:128,1,112.499997138977,4|0,2:1|0:1,0:1:0:0:
316,321,203090,2,0,B|194:274|223:368|99:320,1,224.999994277954,4|0,2:1|2:1,0:1:0:0:
284,209,203529,1,8,0:1:0:0:
8,367,203675,6,0,L|18:239,1,112.499997138977,4|0,2:1|0:1,0:1:0:0:
273,64,203968,2,0,P|245:149|104:139,1,224.999994277954,4|0,2:1|3:1,3:1:0:0:
67,42,204407,1,4,2:1:0:0:
391,11,204554,2,0,L|400:243,1,224.999994277954,0|0,2:1|2:1,0:1:0:0:
173,72,204993,6,0,P|66:69|24:166,1,224.999994277954,12|0,0:1|0:1,0:1:0:0:
142,306,205432,1,0,0:1:0:0:
236,155,205578,1,4,2:1:0:0:
0,339,205724,2,0,L|237:349,1,224.999994277954,0|0,2:1|2:1,0:1:0:0:
426,173,206163,6,0,P|326:113|218:184,1,224.999994277954,4|0,2:1|0:1,0:1:0:0:
501,346,206602,2,0,L|514:221,1,112.499997138977,0|4,2:1|0:1,0:1:0:0:
436,74,206895,1,0,0:1:0:0:
324,224,207041,2,0,P|327:287|366:332,1,112.499997138977,0|0,0:1|2:1,0:1:0:0:
216,85,207334,6,0,B|94:132|123:38|-1:86,1,224.999994277954,12|0,0:1|0:1,0:1:0:0:
156,11,207773,1,0,2:1:0:0:
60,160,207919,2,0,L|51:295,2,112.499997138977,4|0|0,0:1|0:1|0:1,0:1:0:0:
299,306,208358,6,0,P|242:346|170:319,1,112.499997138977,4|0,2:1|0:1,0:1:0:0:
425,140,208651,2,0,P|488:169|500:245,1,112.499997138977,4|0,2:1|0:1,0:1:0:0:
218,113,208944,2,0,P|211:43|348:10,1,224.999994277954,4|0,2:1|0:1,0:1:0:0:
433,132,209383,1,0,0:1:0:0:
293,73,209529,1,0,2:1:0:0:
364,368,209675,6,0,L|344:143,1,224.999994277954,12|0,0:1|0:1,0:1:0:0:
172,114,210114,1,0,0:1:0:0:
210,264,210261,1,4,0:1:0:0:
437,100,210407,2,0,P|301:52|245:125,1,224.999994277954,0|0,2:1|0:1,0:1:0:0:
487,384,210846,6,0,L|507:159,1,224.999994277954,4|0,2:1|0:1,0:1:0:0:
240,1,211285,1,0,2:1:0:0:
318,151,211432,2,0,L|330:280,1,112.499997138977,4|0,0:1|0:1,0:1:0:0:
189,373,211724,2,0,L|201:244,1,112.499997138977,0|0,0:1|2:1,0:1:0:0:
229,78,212017,5,12,0:1:0:0:
510,253,212163,2,0,P|446:266|391:224,1,112.499997138977,4|0,2:1|0:1,0:1:0:0:
182,14,212456,2,0,P|246:1|301:43,1,112.499997138977,4|0,2:1|0:1,0:1:0:0:
357,148,212749,1,0,2:1:0:0:
111,103,212895,1,8,0:1:0:0:
442,9,213041,6,0,L|457:143,1,112.499997138977,4|0,2:1|0:1,0:1:0:0:
512,384,213334,2,0,P|440:281|334:297,1,224.999994277954,4|0,2:1|0:1,0:1:0:0:
231,380,213773,1,4,2:1:0:0:
342,111,213919,2,0,L|488:123,1,112.499997138977,0|0,2:1|0:1,0:1:0:0:
509,229,214212,1,0,2:1:0:0:
157,95,214358,6,0,P|225:52|361:125,1,224.999994277954,12|0,0:1|0:1,0:1:0:0:
112,236,214797,2,0,L|-16:225,1,112.499997138977,0|4,2:1|0:1,0:1:0:0:
270,362,215090,2,0,P|336:342|376:295,1,112.499997138977,0|0,2:1|0:1,0:1:0:0:
431,174,215383,1,0,2:1:0:0:
150,66,215529,6,0,L|161:313,1,224.999994277954,4|0,2:1|0:1,0:1:0:0:
437,254,215968,1,0,2:1:0:0:
301,147,216114,2,0,L|158:138,1,112.499997138977,4|0,0:1|0:1,0:1:0:0:
0,45,216407,2,0,L|143:36,1,112.499997138977,0|0,0:1|2:1,0:1:0:0:
104,321,216700,6,0,P|53:250|119:117,1,224.999994277954,12|0,0:1|0:1,0:1:0:0:
259,348,217139,1,0,2:1:0:0:
112,329,217285,2,0,L|-13:337,2,112.499997138977,4|0|0,0:1|0:1|0:1,0:1:0:0:
216,243,217724,2,0,P|268:214|329:227,1,112.499997138977,2|0,0:1|0:1,0:1:0:0:
50,163,218017,6,0,P|50:103|92:57,1,112.499997138977,4|0,2:1|0:1,0:1:0:0:
313,292,218310,2,0,P|242:343|109:277,1,224.999994277954,4|0,2:1|0:1,0:1:0:0:
58,171,218749,1,0,0:1:0:0:
216,243,218895,1,0,2:1:0:0:
22,264,219041,5,12,3:1:0:0:
324,133,219188,2,0,P|246:55|137:58,1,224.999994277954,0|0,2:1|0:1,0:1:0:0:
0,130,219627,1,4,2:1:0:0:
173,383,219773,2,0,P|228:287|196:182,1,224.999994277954,0|0,2:1|2:1,0:1:0:0:
288,384,220212,6,0,L|534:367,1,224.999994277954,4|0,2:1|0:1,0:1:0:0:
224,226,220651,2,0,L|-22:209,1,224.999994277954,4|0,2:1|0:1,0:1:0:0:
288,68,221090,2,0,L|411:59,1,112.499997138977,4|0,2:1|0:1,0:1:0:0:
349,227,221383,5,8,0:1:0:0:
87,46,221529,2,0,P|151:26|212:50,1,112.499997138977,4|0,2:1|0:1,0:1:0:0:
29,323,221822,2,0,L|20:91,1,224.999994277954,4|0,2:1|2:1,0:1:0:0:
201,45,222261,1,8,0:1:0:0:
168,253,222407,6,0,L|28:242,1,112.499997138977,4|0,2:1|0:1,0:1:0:0:
311,163,222700,2,0,P|421:123|530:192,1,224.999994277954,4|0,2:1|0:1,0:1:0:0:
409,265,223139,1,4,2:1:0:0:
231,82,223285,2,0,P|172:65|106:85,1,112.499997138977,0|0,2:1|0:1,0:1:0:0:
15,162,223578,1,0,2:1:0:0:
230,315,223724,6,0,L|240:80,1,224.999994277954,12|0,0:1|0:1,0:1:0:0:
93,5,224163,1,0,0:1:0:0:
129,251,224310,1,4,2:1:0:0:
348,114,224456,2,0,P|291:79|238:85,1,112.499997138977,0|0,2:1|0:1,0:1:0:0:
85,146,224749,1,0,2:1:0:0:
330,344,224895,6,0,B|346:232|346:232|349:237|357:87,1,224.999994277954,4|0,2:1|0:1,0:1:0:0:
322,352,225334,2,0,L|340:225,1,112.499997138977,0|4,2:1|0:1,0:1:0:0:
463,135,225627,1,0,0:1:0:0:
512,293,225773,2,0,B|458:310|458:310|374:290,1,112.499997138977,0|0,0:1|2:1,0:1:0:0:
207,150,226066,6,0,B|165:154|126:142|136:145|136:145|105:163|79:184|79:184|87:182|16:198|-40:187,1,224.999994277954,12|0,0:1|0:1,0:1:0:0:
215,142,226505,2,0,P|164:142|82:118,1,112.499997138977,0|4,2:1|0:1,0:1:0:0:
337,135,226944,1,0,0:1:0:0:
92,317,227090,6,0,L|82:180,1,112.499997138977,0|4,2:1|0:1,0:1:0:0:
353,14,227383,2,0,L|343:151,1,112.499997138977,0|0,2:1|0:1,0:1:0:0:
4,112,227675,2,0,B|117:95|117:95|111:91|173:105|173:105|165:106|340:118,1,337.499991416931,0|0,2:1|0:1,0:1:0:0:
91,212,228261,1,0,2:1:0:0:
387,58,228407,6,0,B|396:108|396:108|376:146|376:146|397:187|392:234|358:266,1,224.999994277954,12|0,0:1|0:1,0:1:0:0:
209,319,228846,1,0,0:1:0:0:
213,150,228993,1,4,0:1:0:0:
51,378,229139,2,0,B|162:343|162:343|314:384,1,224.999994277954,0|0,2:1|0:1,0:1:0:0:
504,172,229578,6,0,B|393:207|393:207|241:166,1,224.999994277954,4|0,2:1|0:1,0:1:0:0:
512,180,230017,2,0,L|385:220,1,112.499997138977,0|4,2:1|0:1,0:1:0:0:
443,100,230602,5,0,2:1:0:0:
443,100,230675,1,0,2:1:0:0:
443,100,230749,1,12,0:1:0:0:
468,369,230895,2,0,B|423:372|423:372|406:381|406:381|357:384,1,112.499997138977,0|0,2:1|0:1,0:1:0:0:
86,186,231188,2,0,B|131:189|131:189|148:198|148:198|196:201,1,112.499997138977,0|4,2:1|0:1,0:1:0:0:
316,277,231480,1,0,2:1:0:0:
9,298,231627,1,8,0:1:0:0:
268,41,231773,6,0,B|286:97|286:97|269:162,1,112.499997138977,4|0,2:1|0:1,0:1:0:0:
92,376,232066,6,0,B|204:360|204:360|199:357|349:349,1,224.999994277954,4|0,2:1|0:1,0:1:0:0:
438,371,232505,1,4,2:1:0:0:
185,141,232651,2,0,B|180:198|180:198|178:191|178:261,1,112.499997138977,0|0,2:1|0:1,0:1:0:0:
249,384,232944,1,0,2:1:0:0:
491,124,233090,6,0,B|396:132|396:132|353:121|353:121|269:129,1,224.999994277954,12|0,0:1|0:1,0:1:0:0:
499,274,233529,2,0,B|518:333|518:333|502:390,1,112.499997138977,0|4,2:1|0:1,0:1:0:0:
261,121,233822,2,0,B|205:113|205:113|211:110|132:107,1,112.499997138977,0|0,2:1|0:1,0:1:0:0:
39,190,234114,1,0,2:1:0:0:
354,296,234261,6,0,B|361:186|361:186|356:199|373:133|373:133|365:76,1,224.999994277954,4|0,2:1|0:1,0:1:0:0:
366,304,234700,2,0,L|373:171,1,112.499997138977,0|4,2:1|0:1,0:1:0:0:
501,294,235285,1,0,2:0:0:0:
141,208,235432,6,0,B|253:192|253:192|248:189|398:181,1,224.999994277954,12|0,0:1|0:1,0:1:0:0:
133,200,235871,2,0,L|258:182,1,112.499997138977,0|4,2:1|0:1,0:1:0:0:
493,364,236456,5,2,0:2:0:0:
392,384,236602,1,2,0:2:0:0:
250,218,236749,6,0,B|197:200|197:200|141:207,1,112.499997138977,0|0,2:1|0:1,0:1:0:0:
369,74,237041,2,0,B|378:173|378:173|381:162|381:322,1,224.999994277954,0|0,2:1|0:1,0:1:0:0:
242,304,237480,1,0,0:1:0:0:
295,154,237627,1,0,2:1:0:0:
319,384,237773,1,12,0:1:0:0:
66,150,237919,6,0,B|129:144|129:144|223:169|223:169|303:158,1,224.999994277954,0|0,2:1|2:1,0:1:0:0:
421,60,238358,1,4,2:1:0:0:
58,158,238505,2,0,B|42:270|42:270|39:265|31:415,1,224.999994277954,0|0,2:1|2:1,0:1:0:0:
278,168,238944,6,0,B|209:77|209:77|82:92,1,224.999994277954,4|0,2:1|0:1,0:1:0:0:
352,262,239383,2,0,B|396:157|396:157|319:55,1,224.999994277954,4|0,2:1|0:1,0:1:0:0:
335,364,239822,2,0,L|452:349,1,112.499997138977,4|0,2:1|0:1,0:1:0:0:
491,247,240114,1,8,0:1:0:0:
222,309,240261,6,0,B|163:316|163:316|106:292,1,112.499997138977,4|0,2:1|0:1,0:1:0:0:
365,57,240554,2,0,B|369:154|369:154|388:190|388:190|390:277,1,224.999994277954,4|0,2:1|2:1,0:1:0:0:
230,301,240993,1,8,0:1:0:0:
244,74,241139,6,0,L|356:64,1,112.499997138977,4|0,2:1|0:1,0:1:0:0:
130,5,241432,2,0,B|116:109|116:109|114:99|106:227,1,224.999994277954,4|0,2:1|0:1,0:1:0:0:
238,293,241871,1,4,2:1:0:0:
430,135,242017,2,0,L|287:146,1,112.499997138977,0|0,2:1|0:1,0:1:0:0:
196,222,242310,1,0,2:1:0:0:
447,358,242456,6,0,B|475:243|475:243|431:124,1,224.999994277954,12|0,0:1|0:1,0:1:0:0:
38,161,243041,1,8,2:3:0:0:
115,257,243188,2,0,P|170:251|210:207,1,112.499997138977,2|0,2:3|2:3,2:3:0:0:
155,88,243480,1,0,2:3:0:0:
0,330,243627,5,4,2:1:0:0:
256,192,243702,12,0,248147,0:1:0:0:
165,149,248447,6,0,L|233:142,1,52.4999950599673,2|0,0:2|0:2,0:2:0:0:
299,95,248747,2,0,L|367:102,1,52.4999950599673,2|0,0:2|0:2,0:2:0:0:
432,150,249047,2,0,P|441:178|431:211,1,52.4999950599673,2|0,0:2|0:2,0:2:0:0:
382,277,249347,2,0,L|389:345,2,52.4999950599673,2|0|0,0:2|0:2|0:2,0:2:0:0:
312,213,249797,1,2,0:2:0:0:
312,213,249947,2,0,P|286:209|261:217,1,52.4999950599673,2|0,0:2|0:2,0:2:0:0:
195,284,250247,2,0,L|188:352,2,52.4999950599673,2|0|0,0:2|0:2|0:2,0:2:0:0:
173,191,250697,6,0,B|161:132|187:148|176:79,1,104.999990119935,2|0,0:2|0:2,0:2:0:0:
114,15,251147,2,0,L|38:12,2,52.4999950599673,2|0|0,0:2|0:2|0:2,0:2:0:0:
248,5,251604,1,2,0:2:0:0:
248,5,251683,1,2,0:2:0:0:
248,5,251762,2,0,L|251:71,1,52.4999950599673,2|0,0:2|0:2,0:2:0:0:
211,152,252078,2,0,P|269:108|316:123,1,104.999990119935,2|0,0:2|0:2,0:2:0:0:
379,158,252517,1,2,0:2:0:0:
379,158,252663,2,0,L|386:222,1,52.4999950599673,2|0,0:2|0:2,0:2:0:0:
319,278,252978,2,0,P|294:286|268:282,1,52.4999950599673,2|0,0:2|0:2,0:2:0:0:
201,209,253294,6,0,L|125:202,1,52.4999950599673,2|0,0:2|0:2,0:2:0:0:
67,252,253597,2,0,L|-9:259,1,52.4999950599673,2|0,0:2|0:2,0:2:0:0:
1,162,253900,2,0,P|34:155|61:163,1,52.4999950599673,2|0,0:2|0:2,0:2:0:0:
134,112,254203,2,0,L|127:50,2,52.4999950599673,2|0|0,0:2|0:2|0:2,0:2:0:0:
176,196,254657,2,0,L|169:258,2,52.4999950599673,2|0|0,0:2|0:2|0:2,0:2:0:0:
233,119,255112,1,2,0:2:0:0:
233,119,255263,2,0,L|297:112,1,52.4999950599673,2|0,0:2|0:2,0:2:0:0:
370,156,255566,6,0,P|355:205|369:255,1,104.999990119935,2|0,0:2|0:2,0:2:0:0:
450,305,256021,2,0,L|518:300,1,52.4999950599673,2|0,0:2|0:2,0:2:0:0:
493,206,256324,2,0,L|425:201,1,52.4999950599673,2|0,0:2|0:2,0:2:0:0:
364,146,256627,2,0,P|357:120|359:94,1,52.4999950599673,2|0,0:2|0:2,0:2:0:0:
422,24,256930,2,0,L|489:19,2,52.4999950599673,2|0|0,0:2|0:2|0:2,0:2:0:0:
328,9,257384,1,2,0:2:0:0:
264,79,257536,2,0,L|260:151,1,52.4999950599673,2|0,0:2|0:2,0:2:0:0:
181,182,257839,2,0,L|175:107,1,52.4999950599673,2|0,0:2|0:2,0:2:0:0:
123,53,258145,6,0,P|83:47|55:55,1,52.4999950599673,2|0,0:2|0:2,0:2:0:0:
13,123,258435,2,0,L|9:195,1,52.4999950599673,2|0,0:2|0:2,0:2:0:0:
69,249,258741,2,0,P|109:255|137:247,1,52.4999950599673,2|0,0:2|0:2,0:2:0:0:
203,205,259047,2,0,L|268:209,2,52.4999950599673,2|0|0,0:2|0:2|0:2,0:2:0:0:
145,129,259506,2,0,L|80:133,2,52.4999950599673,2|0|0,0:2|0:2|0:2,0:2:0:0:
213,63,259965,1,2,0:2:0:0:
213,63,260118,2,0,L|281:68,1,52.4999950599673,2|0,0:2|0:2,0:2:0:0:
357,36,260424,6,0,L|366:165,1,104.999990119935,2|0,0:2|0:2,0:2:0:0:
325,227,260883,2,0,P|297:240|264:237,1,52.4999950599673,2|0,0:2|0:2,0:2:0:0:
186,192,261223,1,2,0:2:0:0:
106,266,261394,1,2,0:2:0:0:
106,266,261479,1,2,0:2:0:0:
106,266,261564,2,0,L|111:341,1,52.4999950599673,2|0,0:2|0:2,0:2:0:0:
198,352,261919,6,0,P|254:321|307:328,1,104.999990119935,2|0,0:2|0:2,0:2:0:0:
387,359,262492,1,2,0:2:0:0:
457,273,262691,6,0,L|451:212,1,52.4999950599673,2|0,0:2|0:2,0:2:0:0:
379,159,263119,2,0,L|385:98,1,52.4999950599673,2|0,0:2|0:2,0:2:0:0:
321,44,263548,6,0,P|287:38|264:43,1,52.4999950599673,2|0,0:2|0:2,0:2:0:0:
188,73,264009,2,0,P|154:79|129:75,1,52.4999950599673,2|0,0:2|0:2,0:2:0:0:
62,122,264509,6,0,L|56:187,1,52.4999950599673,2|0,0:2|0:2,0:2:0:0:
127,237,265054,2,0,L|131:289,1,52.4999950599673,2|0,0:2|0:2,0:2:0:0:
72,355,265599,5,2,0:2:0:0:
256,192,265822,12,0,268733,0:2:0:0:
82,166,269212,6,0,P|166:150|251:257,1,224.999985694886,2|0,0:2|0:2,0:2:0:0:
143,253,270712,2,0,P|171:171|298:147,1,224.999985694886,2|0,0:2|0:2,0:2:0:0:
375,183,272087,5,2,0:2:0:0:
256,192,272274,12,0,275274,0:2:0:0:
111,253,275605,6,0,L|120:155,1,74.9999952316285,2|0,0:2|0:2,0:2:0:0:
192,93,276462,2,0,P|229:80|273:90,1,74.9999952316285,2|0,0:2|0:2,0:2:0:0:
350,156,277325,2,0,L|358:242,1,74.9999952316285,2|0,0:2|0:2,0:2:0:0:
282,296,278214,6,0,P|243:276|202:284,1,74.9999952316285,2|0,0:2|0:2,0:2:0:0:
137,317,278744,1,2,0:2:0:0:
256,192,278877,12,0,282594,0:2:0:0:
96,124,282839,6,0,B|220:77|197:177|320:122,1,224.999985694886,2|0,0:2|0:2,0:2:0:0:
255,49,284553,2,0,L|244:291,1,224.999985694886,2|0,0:2|0:2,0:2:0:0:
299,329,286020,6,0,L|457:322,1,149.999990463257,2|0,0:2|0:2,0:2:0:0:
504,205,287752,1,2,0:2:0:0:
504,205,289850,6,0,L|401:196,1,74.9999952316285,2|0,0:2|0:2,0:2:0:0:
328,258,290773,2,0,L|225:267,1,74.9999952316285,2|0,0:2|0:2,0:2:0:0:
152,197,291696,2,0,P|166:154|156:119,1,74.9999952316285,2|0,0:2|0:2,0:2:0:0:
80,58,292619,6,0,L|34:57,1,37.4999976158143,2|0,0:2|0:2,0:2:0:0:
0,114,293150,2,0,B|76:244|-32:215|27:331|27:331|136:235|265:307|265:307|234:217|309:159|309:159|380:271|315:386|315:386|428:371|428:371|391:259|470:187,1,1199.99992370606,2|0,0:2|0:2,0:2:0:0:
