osu file format v14

[General]
AudioFilename: audio.mp3
AudioLeadIn: 0
PreviewTime: -1
Countdown: 0
SampleSet: Normal
StackLeniency: 0.7
Mode: 0
LetterboxInBreaks: 0
WidescreenStoryboard: 1

[Editor]
Bookmarks: 41316,68744,96173,103030,123601,151030,178458
DistanceSpacing: 0.2
BeatDivisor: 4
GridSize: 8
TimelineZoom: 2.95

[Metadata]
Title:Icarus Lives! (PeteyG Remix)
TitleUnicode:Icarus Lives! (PeteyG Remix)
Artist:Periphery
ArtistUnicode:Periphery
Creator:burntcedar13
Version:burn
Source:
Tags:
BeatmapID:1167841
BeatmapSetID:551353

[Difficulty]
HPDrainRate:3.5
CircleSize:3.4
OverallDifficulty:10
ApproachRate:10
SliderMultiplier:1.8
SliderTickRate:1

[Events]
//Background and Video events
//Break Periods
2,127030,136866
//Storyboard Layer 0 (Background)
//Storyboard Layer 1 (Fail)
//Storyboard Layer 2 (Pass)
//Storyboard Layer 3 (Foreground)
//Storyboard Sound Samples

[TimingPoints]
10459,214.285714285714,4,1,0,100,1,0
49030,-66.6666666666667,4,1,0,100,0,0
52030,-83.3333333333333,4,1,0,100,0,0
63173,-111.111111111111,4,1,0,100,0,0
63494,-83.3333333333333,4,1,0,100,0,0
68744,-76.9230769230769,4,1,0,100,0,0
69173,-83.3333333333333,4,1,0,100,0,0
73030,-66.6666666666667,4,1,0,100,0,0
73887,-71.4285714285714,4,1,0,100,0,0
75387,-74.0740740740741,4,1,0,100,0,0
84173,-80,4,1,0,100,0,0
84601,-86.9565217391304,4,1,0,100,0,0
85030,-76.9230769230769,4,1,0,100,0,0
89316,-83.3333333333333,4,1,0,100,0,0
90601,-111.111111111111,4,1,0,100,0,0
91030,-83.3333333333333,4,1,0,100,0,0
95101,-1000,4,1,0,100,0,0
96173,-66.6666666666667,4,1,0,100,0,0

[HitObjects]
115,68,41316,6,0,B|194:62|194:62|251:114|325:86|325:86|388:128|388:128|287:147,1,360
115,261,41851,1,0,0:0:0:0:
273,0,41958,1,0,0:0:0:0:
306,274,42066,1,0,0:0:0:0:
75,117,42173,1,0,0:0:0:0:
371,199,42280,1,0,0:0:0:0:
139,276,42387,1,0,0:0:0:0:
322,64,42494,1,0,0:0:0:0:
297,321,42601,5,0,0:0:0:0:
199,83,42708,1,0,0:0:0:0:
8,271,42816,1,0,0:0:0:0:
303,206,42923,1,0,0:0:0:0:
32,137,43030,1,0,0:0:0:0:
200,376,43137,1,0,0:0:0:0:
293,119,43244,1,0,0:0:0:0:
74,339,43351,1,0,0:0:0:0:
345,263,43458,5,0,0:0:0:0:
97,172,43566,1,0,0:0:0:0:
317,114,43673,5,0,0:0:0:0:
278,351,43780,1,0,0:0:0:0:
58,245,43887,5,0,0:0:0:0:
403,149,43994,1,0,0:0:0:0:
103,137,44101,5,0,0:0:0:0:
464,261,44208,1,0,0:0:0:0:
52,285,44316,5,0,0:0:0:0:
457,132,44423,1,0,0:0:0:0:
62,120,44530,5,0,0:0:0:0:
486,283,44637,1,0,0:0:0:0:
207,356,44744,5,0,0:0:0:0:
279,59,44851,1,0,0:0:0:0:
395,341,44958,1,0,0:0:0:0:
135,181,45066,1,0,0:0:0:0:
439,157,45173,1,0,0:0:0:0:
158,272,45280,5,0,0:0:0:0:
372,97,45387,1,0,0:0:0:0:
170,322,45494,1,0,0:0:0:0:
359,56,45601,1,0,0:0:0:0:
439,157,46351,5,0,0:0:0:0:
135,181,46458,1,0,0:0:0:0:
135,181,46780,5,0,0:0:0:0:
135,181,47101,5,0,0:0:0:0:
505,370,47316,1,0,0:0:0:0:
396,123,47530,5,0,0:0:0:0:
276,357,47637,1,0,0:0:0:0:
221,59,47744,5,0,0:0:0:0:
418,315,47851,1,0,0:0:0:0:
418,315,47905,1,0,0:0:0:0:
418,315,47958,1,0,0:0:0:0:
392,32,48066,1,0,0:0:0:0:
91,129,48173,6,0,P|102:166|103:227,1,90
98,233,48333,1,0,0:0:0:0:
93,255,48387,1,0,0:0:0:0:
92,282,48441,1,0,0:0:0:0:
101,311,48494,1,0,0:0:0:0:
126,337,48548,1,0,0:0:0:0:
164,346,48601,2,0,P|201:342|245:318,1,60
382,227,48744,1,0,0:0:0:0:
438,245,48816,6,0,P|408:239|357:205,1,60
248,115,48959,1,0,0:0:0:0:
171,140,49030,6,0,B|162:57|241:35|241:35|174:42|131:31|131:31|108:66,2,270.000010299683
56,163,49530,5,0,0:0:0:0:
63,178,49601,6,0,L|47:291,1,90.0000034332277
302,237,49744,1,0,0:0:0:0:
309,252,49815,6,0,L|293:365,1,90.0000034332277
57,282,49958,2,0,L|73:169,1,90.0000034332277
104,23,50101,5,0,0:0:0:0:
372,180,50208,1,0,0:0:0:0:
121,371,50316,1,0,0:0:0:0:
222,46,50423,1,0,0:0:0:0:
312,328,50530,1,0,0:0:0:0:
1,112,50637,1,0,0:0:0:0:
317,110,50744,1,0,0:0:0:0:
45,304,50851,1,0,0:0:0:0:
149,66,50958,5,0,0:0:0:0:
298,355,51066,1,0,0:0:0:0:
335,36,51173,1,0,0:0:0:0:
151,379,51280,5,0,0:0:0:0:
121,23,51387,1,0,0:0:0:0:
317,370,51494,1,0,0:0:0:0:
384,70,51601,5,0,0:0:0:0:
139,338,51708,1,0,0:0:0:0:
195,22,51816,5,0,0:0:0:0:
379,367,51923,1,0,0:0:0:0:
376,34,52030,5,0,0:0:0:0:
112,346,52137,5,0,0:0:0:0:
149,7,52244,5,0,0:0:0:0:
407,382,52351,1,0,0:0:0:0:
106,18,52458,5,0,0:0:0:0:
106,18,53208,5,0,0:0:0:0:
241,287,53315,1,0,0:0:0:0:
241,287,53637,5,0,0:0:0:0:
241,287,53958,5,0,0:0:0:0:
374,27,54173,5,0,0:0:0:0:
503,170,54601,5,0,0:0:0:0:
470,188,54708,5,0,0:0:0:0:
463,323,54923,5,0,0:0:0:0:
425,319,55030,5,0,0:0:0:0:
398,316,55083,1,0,0:0:0:0:
370,318,55137,1,0,0:0:0:0:
338,328,55191,1,0,0:0:0:0:
309,343,55244,1,0,0:0:0:0:
277,350,55298,1,0,0:0:0:0:
239,351,55351,5,0,0:0:0:0:
202,339,55405,5,0,0:0:0:0:
176,311,55458,5,0,0:0:0:0:
477,179,55566,1,0,0:0:0:0:
196,76,55673,1,0,0:0:0:0:
398,316,55780,1,0,0:0:0:0:
412,0,55887,5,0,0:0:0:0:
512,281,55994,1,0,0:0:0:0:
213,212,56101,1,0,0:0:0:0:
512,63,56208,1,0,0:0:0:0:
311,341,56316,1,0,0:0:0:0:
336,10,56423,1,0,0:0:0:0:
508,205,56530,1,0,0:0:0:0:
186,115,56637,1,0,0:0:0:0:
409,323,56744,5,0,0:0:0:0:
373,1,56851,1,0,0:0:0:0:
248,287,56958,1,0,0:0:0:0:
508,155,57066,1,0,0:0:0:0:
123,162,57173,1,0,0:0:0:0:
362,383,57280,1,0,0:0:0:0:
309,46,57387,1,0,0:0:0:0:
151,372,57494,1,0,0:0:0:0:
430,167,57601,5,0,0:0:0:0:
102,285,57708,1,0,0:0:0:0:
446,140,57816,5,0,0:0:0:0:
82,317,57923,1,0,0:0:0:0:
139,33,58030,5,0,0:0:0:0:
435,309,58137,1,0,0:0:0:0:
100,29,58244,5,0,0:0:0:0:
477,308,58351,1,0,0:0:0:0:
256,16,58458,5,0,0:0:0:0:
189,355,58566,1,0,0:0:0:0:
442,120,58673,1,0,0:0:0:0:
99,161,58780,1,0,0:0:0:0:
400,329,58887,1,0,0:0:0:0:
127,268,58994,5,0,0:0:0:0:
350,66,59101,1,0,0:0:0:0:
98,258,59208,1,0,0:0:0:0:
385,62,59316,1,0,0:0:0:0:
299,349,60066,5,0,0:0:0:0:
350,66,60174,1,0,0:0:0:0:
350,66,60494,5,0,0:0:0:0:
350,66,60816,5,0,0:0:0:0:
6,379,61030,1,0,0:0:0:0:
165,116,61244,5,0,0:0:0:0:
480,220,61351,1,0,0:0:0:0:
138,221,61458,5,0,0:0:0:0:
486,110,61566,1,0,0:0:0:0:
486,110,61619,1,0,0:0:0:0:
486,110,61673,1,0,0:0:0:0:
96,32,61780,1,0,0:0:0:0:
383,26,61887,5,0,0:0:0:0:
369,64,61940,1,0,0:0:0:0:
364,104,61994,1,0,0:0:0:0:
370,144,62047,1,0,0:0:0:0:
386,181,62101,1,0,0:0:0:0:
399,219,62154,1,0,0:0:0:0:
404,259,62208,1,0,0:0:0:0:
398,299,62261,1,0,0:0:0:0:
382,336,62316,6,0,L|258:288,1,71.9999978027344
103,235,62458,1,0,0:0:0:0:
69,183,62530,6,0,L|185:247,1,71.9999978027344
325,331,62672,1,0,0:0:0:0:
375,371,62744,6,0,L|291:302,1,107.999996704102
153,184,62958,2,0,L|72:114,1,107.999996704102
126,39,63173,6,0,P|52:25|-15:83,1,161.999995056153
175,273,63494,1,0,0:0:0:0:
126,39,63601,2,0,P|52:25|-15:83,2,161.999995056153
192,148,64030,2,0,P|196:227|231:264,1,107.999996704102
76,124,64244,6,0,P|82:164|66:215,1,71.9999978027344
7,306,64387,1,0,0:0:0:0:
9,327,64458,5,0,0:0:0:0:
342,143,64566,1,0,0:0:0:0:
33,87,64673,5,0,0:0:0:0:
315,380,64780,1,0,0:0:0:0:
291,98,64887,5,0,0:0:0:0:
5,345,64994,1,0,0:0:0:0:
345,372,65101,5,0,0:0:0:0:
25,43,65208,1,0,0:0:0:0:
388,69,65316,5,0,0:0:0:0:
36,244,65423,1,0,0:0:0:0:
423,309,65530,1,0,0:0:0:0:
148,28,65637,1,0,0:0:0:0:
250,384,65744,1,0,0:0:0:0:
445,108,68744,6,0,L|513:71,1,58.4999973220826
445,198,68851,2,0,L|522:190,1,58.4999973220826
409,280,68958,2,0,L|482:303,1,58.4999973220826
339,336,69066,2,0,L|397:386,1,58.4999973220826
239,352,69173,6,0,B|174:249|170:79|170:79|114:106|74:186,1,431.999986816407
132,302,69708,5,0,0:0:0:0:
301,200,69816,1,0,0:0:0:0:
237,15,69923,1,0,0:0:0:0:
157,167,70030,2,0,B|74:188|74:188|114:101|171:78|171:78|240:131|326:94|326:-3,2,431.999986816407
365,167,70994,5,0,0:0:0:0:
238,15,71101,1,0,0:0:0:0:
104,160,71208,1,0,0:0:0:0:
325,27,71316,2,0,B|307:96|239:128|171:78|171:78|185:138|230:175|230:175|132:236|82:370,1,539.999983520508
228,175,71958,5,0,0:0:0:0:
172,79,72066,1,0,0:0:0:0:
78,100,72173,6,0,L|137:180,1,58.4999973220826
255,318,72280,1,0,0:0:0:0:
78,100,72387,1,0,0:0:0:0:
255,318,72494,1,0,0:0:0:0:
340,309,72708,6,0,L|359:376,1,58.4999973220826
286,120,72816,2,0,L|305:187,1,58.4999973220826
470,47,73030,6,0,L|463:337,1,270.000010299683
344,153,73458,5,0,0:0:0:0:
279,268,73566,1,0,0:0:0:0:
215,384,73673,1,0,0:0:0:0:
223,186,73887,6,0,B|372:323|533:252|533:252|487:165|391:167,1,503.999984619141
127,359,74530,1,0,0:0:0:0:
169,85,74958,6,0,B|152:141|112:176|112:176|58:180|58:180|81:230|57:283|57:283|75:348|145:365,1,377.999988464356
167,134,75387,6,0,B|147:175|123:197|123:197|85:201|85:201|94:249|78:284|78:284|89:321|117:337,1,243.000000926971
114,330,75655,1,0,0:0:0:0:
131,334,75708,1,0,0:0:0:0:
149,334,75762,1,0,0:0:0:0:
179,312,75816,1,0,0:0:0:0:
196,309,75869,1,0,0:0:0:0:
214,309,75923,1,0,0:0:0:0:
231,312,75976,1,0,0:0:0:0:
265,334,76030,6,0,P|300:334|347:309,1,81.0000003089905
447,147,76173,1,0,0:0:0:0:
501,203,76244,6,0,P|483:172|438:144,1,81.0000003089905
248,138,76387,1,0,0:0:0:0:
269,62,76458,6,0,P|251:92|249:145,1,81.0000003089905
339,313,76601,1,0,0:0:0:0:
339,313,76673,6,0,B|331:352|340:379|340:379|316:360|294:349|294:349|272:298,1,162.000000617981
171,176,76887,6,0,L|263:135,1,81.0000003089905
475,43,77030,1,0,0:0:0:0:
478,128,77101,6,0,L|377:136,1,81.0000003089905
146,151,77244,1,0,0:0:0:0:
109,117,77316,6,0,L|228:148,1,81.0000003089905
475,204,77458,1,0,0:0:0:0:
496,245,77530,5,0,0:0:0:0:
183,370,77637,1,0,0:0:0:0:
360,121,77744,1,0,0:0:0:0:
465,383,77851,1,0,0:0:0:0:
179,210,77958,1,0,0:0:0:0:
510,157,78066,1,0,0:0:0:0:
137,86,78173,5,0,0:0:0:0:
226,332,78280,1,0,0:0:0:0:
401,88,78387,5,0,0:0:0:0:
303,342,78494,1,0,0:0:0:0:
95,67,78601,5,0,0:0:0:0:
203,349,78708,1,0,0:0:0:0:
420,74,78816,5,0,0:0:0:0:
316,361,78923,1,0,0:0:0:0:
55,222,79030,5,0,0:0:0:0:
418,306,79137,1,0,0:0:0:0:
169,12,79244,1,0,0:0:0:0:
201,384,79351,1,0,0:0:0:0:
393,64,79458,1,0,0:0:0:0:
63,102,79566,5,0,0:0:0:0:
315,352,79673,1,0,0:0:0:0:
35,101,79780,1,0,0:0:0:0:
336,350,79887,1,0,0:0:0:0:
297,35,80637,5,0,0:0:0:0:
315,352,80744,1,0,0:0:0:0:
315,352,81066,5,0,0:0:0:0:
315,352,81387,5,0,0:0:0:0:
1,5,81601,1,0,0:0:0:0:
53,182,82030,5,0,0:0:0:0:
93,199,82137,5,0,0:0:0:0:
179,346,82351,5,0,0:0:0:0:
224,338,82458,5,0,0:0:0:0:
238,327,82512,1,0,0:0:0:0:
255,320,82566,1,0,0:0:0:0:
278,316,82619,1,0,0:0:0:0:
302,317,82673,1,0,0:0:0:0:
325,323,82726,1,0,0:0:0:0:
351,339,82780,5,0,0:0:0:0:
379,349,82833,5,0,0:0:0:0:
409,352,82887,6,0,B|453:219|329:141|329:141|324:205|399:263,1,364.500001390457
500,316,83316,5,0,0:0:0:0:
500,278,83369,1,0,0:0:0:0:
494,240,83423,1,0,0:0:0:0:
483,204,83476,1,0,0:0:0:0:
467,169,83530,1,0,0:0:0:0:
446,138,83583,1,0,0:0:0:0:
420,110,83637,1,0,0:0:0:0:
391,86,83691,1,0,0:0:0:0:
358,67,83744,6,0,B|310:77|283:86|283:86|260:126|260:126|212:158|108:135,1,243.000000926971
96,69,84066,1,0,0:0:0:0:
357,99,84173,6,0,B|302:112|302:112|279:149|279:149|233:187|151:172,1,225
96,69,84494,1,0,0:0:0:0:
356,137,84601,6,0,B|316:146|316:146|296:177|296:177|254:212|168:208,1,207.000003948212
96,69,84923,1,0,0:0:0:0:
91,50,85030,6,0,L|45:313,1,233.999989288331
159,341,85351,1,0,0:0:0:0:
63,77,85458,2,0,L|39:204,1,116.999994644165
286,74,85673,2,0,P|302:162|369:313,1,233.999989288331
463,346,85994,1,0,0:0:0:0:
303,86,86101,1,0,0:0:0:0:
350,103,86316,6,0,P|305:36|298:135,1,233.999989288331
447,138,86637,1,0,0:0:0:0:
154,66,86744,2,0,B|149:196|275:236|275:236|270:329|178:364|178:364|193:301|162:255,1,467.999978576661
304,85,87387,2,0,B|368:92|415:56|415:56|415:108|415:108|475:129|475:129|467:249|380:349|380:349|390:301|370:238,1,584.999973220826
354,222,88244,5,0,0:0:0:0:
324,215,88458,5,0,0:0:0:0:
475,223,88673,5,0,0:0:0:0:
201,274,88780,1,0,0:0:0:0:
505,176,88887,5,0,0:0:0:0:
191,144,88994,2,0,L|285:152,1,58.4999973220826
505,176,89101,1,0,0:0:0:0:
201,274,89208,1,0,0:0:0:0:
129,26,89316,5,0,0:0:0:0:
143,64,89369,1,0,0:0:0:0:
148,104,89423,1,0,0:0:0:0:
142,144,89476,1,0,0:0:0:0:
126,181,89530,1,0,0:0:0:0:
113,219,89583,1,0,0:0:0:0:
108,259,89637,1,0,0:0:0:0:
114,299,89690,1,0,0:0:0:0:
130,336,89745,6,0,L|235:340,1,71.9999978027344
429,346,89887,1,0,0:0:0:0:
451,384,89959,6,0,L|358:336,1,71.9999978027344
188,244,90101,1,0,0:0:0:0:
168,293,90173,6,0,L|256:187,1,107.999996704102
317,122,90387,2,0,L|405:16,1,107.999996704102
241,86,90601,2,0,B|216:149|269:194|269:194|219:199,1,161.999995056153
56,0,90923,1,0,0:0:0:0:
241,86,91030,2,0,B|216:149|269:194|269:194|219:199,2,161.999995056153
156,150,91459,2,0,P|142:198|160:258,1,107.999996704102
354,146,91673,6,0,P|367:186|350:244,1,71.9999978027344
293,374,91816,1,0,0:0:0:0:
275,379,91887,5,0,0:0:0:0:
68,189,91994,1,0,0:0:0:0:
306,377,92101,5,0,0:0:0:0:
172,130,92208,1,0,0:0:0:0:
387,372,92316,5,0,0:0:0:0:
398,75,92423,1,0,0:0:0:0:
346,376,92530,5,0,0:0:0:0:
288,84,92637,1,0,0:0:0:0:
497,309,92744,5,0,0:0:0:0:
137,238,92851,1,0,0:0:0:0:
477,64,92958,1,0,0:0:0:0:
299,384,93066,1,0,0:0:0:0:
254,20,93173,1,0,0:0:0:0:
493,294,95101,5,0,0:0:0:0:
492,254,95316,6,0,L|500:269,3,18
384,83,96173,6,0,B|155:125|118:303|118:303|222:317|308:205,1,540.000020599366
114,3,96708,2,0,P|287:181|87:286,1,540.000020599366
144,148,97244,2,0,P|189:155|279:120,1,135.000005149842
407,33,97458,6,0,P|334:226|470:375,1,405.000015449525
486,43,97887,2,0,B|504:177|399:325|399:325|357:291|342:227,1,405.000015449525
369,119,98316,2,0,B|205:81|205:81|279:118|333:234|333:234|356:315|437:367,1,540.000020599366
168,247,98851,5,0,0:0:0:0:
504,130,98958,1,0,0:0:0:0:
512,117,99173,5,0,0:0:0:0:
161,268,99280,1,0,0:0:0:0:
152,297,99494,5,0,0:0:0:0:
511,93,99601,2,0,B|396:64|311:126|311:126|260:90|260:90|159:173|-5:140,1,540.000020599366
364,125,100137,2,0,B|427:89|507:115|507:115|408:309|127:259,1,540.000020599366
484,200,100673,2,0,P|434:243|346:285,1,135.000005149842
245,63,100887,2,0,B|255:116|295:127|295:127|399:75|494:91,1,270.000010299683
325,16,101208,1,0,0:0:0:0:
64,121,101316,6,0,B|53:96|53:96|86:106|126:98|126:98|68:200|109:338|109:338|136:319|147:280,1,405.000015449525
207,18,101744,2,0,P|116:168|158:395,1,405.000015449525
93,28,102173,1,0,0:0:0:0:
0,234,102280,1,0,0:0:0:0:
105,142,102387,2,0,B|83:221|99:295|99:295|225:262|354:286|354:286|292:263|265:194,1,540.000020599366
405,144,102923,5,0,0:0:0:0:
171,31,103030,2,0,B|191:197|146:357|146:357|94:362|52:323|52:323|75:262|85:191|85:191|178:227|274:216|274:216|279:134|264:59|264:59|185:105|89:74|89:74,1,1080.00004119873
240,298,103994,1,0,0:0:0:0:
39,49,104101,1,0,0:0:0:0:
319,130,104208,6,0,P|324:166|321:216,1,67.5000025749208
29,244,104423,2,0,P|22:279|4:326,1,67.5000025749208
217,57,104744,5,0,0:0:0:0:
131,361,104851,1,0,0:0:0:0:
500,176,104958,1,0,0:0:0:0:
442,285,105173,5,0,0:0:0:0:
112,231,105280,1,0,0:0:0:0:
377,23,105387,1,0,0:0:0:0:
209,301,105494,6,0,L|141:335,1,67.5000025749208
444,177,105708,2,0,L|525:201,1,67.5000025749208
122,109,105923,1,0,0:0:0:0:
434,17,106137,1,0,0:0:0:0:
107,144,106351,5,0,0:0:0:0:
341,31,106458,2,0,B|321:197|366:357|366:357|418:362|460:323|460:323|437:262|427:191|427:191|334:227|238:216|238:216|233:134|248:59|248:59|327:105|423:74|423:74,1,1080.00004119873
272,298,107422,1,0,0:0:0:0:
473,49,107529,1,0,0:0:0:0:
193,130,107636,6,0,P|188:166|191:216,1,67.5000025749208
483,244,107851,2,0,P|489:279|507:326,1,67.5000025749208
295,57,108172,5,0,0:0:0:0:
381,361,108279,1,0,0:0:0:0:
12,176,108386,1,0,0:0:0:0:
70,285,108601,5,0,0:0:0:0:
400,231,108708,1,0,0:0:0:0:
135,23,108815,1,0,0:0:0:0:
303,301,108922,6,0,L|371:335,1,67.5000025749208
68,177,109136,2,0,L|-13:201,1,67.5000025749208
390,109,109351,1,0,0:0:0:0:
78,17,109565,1,0,0:0:0:0:
423,35,109780,5,0,0:0:0:0:
123,83,109887,2,0,B|155:143|114:199|114:199|209:179|275:215|275:215|246:348|77:349,1,540.000020599366
299,99,110423,2,0,B|303:306|173:349|173:349|250:315|321:326|321:326|316:266|355:218,1,540.000020599366
446,311,110958,6,0,P|457:230|424:154,1,135.000005149842
443,31,111173,6,0,B|391:103|269:93|269:93|359:144,1,270.000010299683
148,33,111494,6,0,B|108:56|77:20|77:20|47:95|91:178|91:178|137:265|107:347|107:347|169:324|217:376,1,540.000020599366
4,281,112030,2,0,B|36:341|36:341|69:312|102:317|102:317|125:269|87:193|87:193|47:122|59:58|59:58|134:75|174:152,1,540.000020599366
240,272,112566,1,0,0:0:0:0:
13,3,112673,2,0,B|5:57|5:57|133:65|192:203|192:203|251:163|316:226,1,405.000015449525
68,241,113208,5,0,0:0:0:0:
360,124,113316,2,0,B|326:155|360:242|415:210|415:210|406:161|337:190|337:190|274:245|178:207,1,405.000015449525
131,318,113851,2,0,B|181:247|147:155|147:155|253:266|366:184|363:92|363:92|266:124,1,540.000020599366
105,290,114387,6,0,P|122:233|103:148,1,135.000005149842
4,178,114601,2,0,P|-13:113|0:47,1,135.000005149842
346,176,114816,6,0,B|302:228|227:219|227:219|340:254|384:352|384:352|459:247|478:166,1,540.000020599366
250,76,115351,1,0,0:0:0:0:
163,364,115458,2,0,B|105:307|108:237|108:237|66:222|66:222|47:189|47:189|141:166|141:166|296:254|385:106|385:106|357:115|310:111,1,675.000025749208
446,187,116101,2,0,B|439:96|439:96|395:200|310:227|310:227|325:299|266:365,1,405.000015449525
127,362,116530,1,0,0:0:0:0:
88,120,116637,5,0,0:0:0:0:
412,94,116744,2,0,B|444:264|347:372|347:372|316:284|325:154|325:154|435:152|516:196|516:196|503:69|475:28|475:28|413:-15|336:11|320:88,1,1080.00004119873
495,306,117708,1,0,0:0:0:0:
236,151,117816,1,0,0:0:0:0:
445,71,117923,6,0,P|454:108|461:157,1,67.5000025749208
198,270,118137,2,0,P|189:307|182:356,1,67.5000025749208
383,304,118458,5,0,0:0:0:0:
92,178,118566,1,0,0:0:0:0:
359,3,118673,1,0,0:0:0:0:
203,292,118887,5,0,0:0:0:0:
475,136,118994,1,0,0:0:0:0:
189,33,119101,1,0,0:0:0:0:
383,295,119208,6,0,P|392:335|392:376,1,67.5000025749208
112,195,119423,2,0,P|103:235|103:276,1,67.5000025749208
394,135,119637,1,0,0:0:0:0:
89,46,119851,1,0,0:0:0:0:
424,120,120066,5,0,0:0:0:0:
100,94,120173,2,0,B|68:264|165:372|165:372|196:284|187:154|187:154|77:152|-4:196|-4:196|9:69|37:28|37:28|99:-15|176:11|192:88,1,1080.00004119873
17,306,121137,1,0,0:0:0:0:
276,151,121245,1,0,0:0:0:0:
67,71,121352,6,0,P|58:108|51:157,1,67.5000025749208
314,270,121566,2,0,P|323:307|330:356,1,67.5000025749208
129,304,121887,5,0,0:0:0:0:
420,178,121995,1,0,0:0:0:0:
153,3,122102,1,0,0:0:0:0:
309,292,122316,5,0,0:0:0:0:
37,136,122423,1,0,0:0:0:0:
323,33,122530,1,0,0:0:0:0:
129,295,122637,6,0,P|120:335|120:376,1,67.5000025749208
400,195,122852,2,0,P|409:235|409:276,1,67.5000025749208
118,135,123066,1,0,0:0:0:0:
423,46,123280,1,0,0:0:0:0:
86,26,123494,5,0,0:0:0:0:
350,226,123601,1,0,0:0:0:0:
97,111,137316,5,0,0:0:0:0:
93,117,137423,1,0,0:0:0:0:
89,124,137530,1,0,0:0:0:0:
236,162,137637,5,0,0:0:0:0:
232,168,137744,1,0,0:0:0:0:
55,235,137851,5,0,0:0:0:0:
105,98,137958,5,0,0:0:0:0:
100,104,138066,1,0,0:0:0:0:
97,111,138173,1,0,0:0:0:0:
211,280,138280,5,0,0:0:0:0:
207,286,138387,1,0,0:0:0:0:
203,293,138494,1,0,0:0:0:0:
59,229,138601,5,0,0:0:0:0:
55,235,138708,1,0,0:0:0:0:
310,226,138816,5,0,0:0:0:0:
306,232,138923,1,0,0:0:0:0:
302,239,139030,1,0,0:0:0:0:
192,96,139137,5,0,0:0:0:0:
188,102,139244,1,0,0:0:0:0:
184,109,139351,1,0,0:0:0:0:
255,319,139458,5,0,0:0:0:0:
250,325,139566,1,0,0:0:0:0:
246,332,139673,1,0,0:0:0:0:
95,343,139780,5,0,0:0:0:0:
91,349,139887,1,0,0:0:0:0:
240,201,139994,5,0,0:0:0:0:
236,207,140101,1,0,0:0:0:0:
231,214,140208,1,0,0:0:0:0:
326,81,140316,5,0,0:0:0:0:
97,171,140423,5,0,0:0:0:0:
326,242,140530,5,0,0:0:0:0:
322,248,140637,1,0,0:0:0:0:
448,88,140744,5,0,0:0:0:0:
444,94,140851,1,0,0:0:0:0:
439,101,140958,1,0,0:0:0:0:
240,201,141066,5,0,0:0:0:0:
236,207,141173,1,0,0:0:0:0:
340,258,141280,5,0,0:0:0:0:
342,33,141387,5,0,0:0:0:0:
338,39,141494,1,0,0:0:0:0:
334,46,141601,1,0,0:0:0:0:
432,217,141708,5,0,0:0:0:0:
427,223,141816,1,0,0:0:0:0:
424,230,141923,1,0,0:0:0:0:
315,173,142030,5,0,0:0:0:0:
311,179,142137,1,0,0:0:0:0:
192,192,142244,5,0,0:0:0:0:
188,198,142351,1,0,0:0:0:0:
184,205,142458,1,0,0:0:0:0:
350,20,142566,5,0,0:0:0:0:
346,26,142673,1,0,0:0:0:0:
342,33,142780,1,0,0:0:0:0:
353,248,142887,5,0,0:0:0:0:
349,254,142994,1,0,0:0:0:0:
344,261,143101,1,0,0:0:0:0:
446,159,143208,5,0,0:0:0:0:
442,165,143316,1,0,0:0:0:0:
216,147,143423,5,0,0:0:0:0:
212,153,143530,1,0,0:0:0:0:
328,64,143637,5,0,0:0:0:0:
137,255,143744,5,0,0:0:0:0:
350,224,143851,5,0,0:0:0:0:
85,129,143958,5,0,0:0:0:0:
81,135,144066,1,0,0:0:0:0:
325,34,144173,5,0,0:0:0:0:
321,40,144280,1,0,0:0:0:0:
317,47,144387,1,0,0:0:0:0:
231,270,144494,5,0,0:0:0:0:
227,277,144601,1,0,0:0:0:0:
361,180,144708,5,0,0:0:0:0:
144,159,144816,5,0,0:0:0:0:
139,165,144923,1,0,0:0:0:0:
136,172,145030,1,0,0:0:0:0:
385,118,145137,5,0,0:0:0:0:
380,124,145244,1,0,0:0:0:0:
377,131,145351,1,0,0:0:0:0:
192,244,145458,5,0,0:0:0:0:
188,250,145566,1,0,0:0:0:0:
399,232,145673,5,0,0:0:0:0:
395,238,145780,1,0,0:0:0:0:
390,245,145887,1,0,0:0:0:0:
237,72,145994,5,0,0:0:0:0:
233,78,146101,1,0,0:0:0:0:
229,85,146208,1,0,0:0:0:0:
137,264,146316,5,0,0:0:0:0:
133,270,146423,1,0,0:0:0:0:
129,277,146530,1,0,0:0:0:0:
310,266,146637,5,0,0:0:0:0:
306,272,146744,1,0,0:0:0:0:
93,158,146851,5,0,0:0:0:0:
89,165,146958,1,0,0:0:0:0:
229,48,147066,5,0,0:0:0:0:
360,297,147173,5,0,0:0:0:0:
156,137,147280,5,0,0:0:0:0:
416,190,147387,5,0,0:0:0:0:
412,196,147494,1,0,0:0:0:0:
206,302,147601,5,0,0:0:0:0:
202,308,147708,1,0,0:0:0:0:
198,315,147816,1,0,0:0:0:0:
361,92,147923,5,0,0:0:0:0:
357,98,148030,1,0,0:0:0:0:
154,198,148137,5,0,0:0:0:0:
362,356,148244,5,0,0:0:0:0:
358,362,148351,1,0,0:0:0:0:
354,369,148458,1,0,0:0:0:0:
264,114,148566,5,0,0:0:0:0:
260,120,148673,1,0,0:0:0:0:
256,127,148780,1,0,0:0:0:0:
253,337,148887,5,0,0:0:0:0:
249,343,148994,1,0,0:0:0:0:
478,271,149101,5,0,0:0:0:0:
473,277,149208,1,0,0:0:0:0:
469,284,149316,1,0,0:0:0:0:
206,313,149423,5,0,0:0:0:0:
202,320,149530,1,0,0:0:0:0:
198,327,149637,1,0,0:0:0:0:
430,139,149745,5,0,0:0:0:0:
426,145,149852,1,0,0:0:0:0:
422,152,149959,1,0,0:0:0:0:
194,99,150066,5,0,0:0:0:0:
190,105,150173,1,0,0:0:0:0:
321,376,150280,5,0,0:0:0:0:
317,383,150387,1,0,0:0:0:0:
365,9,150601,5,0,0:0:0:0:
100,57,151030,5,0,0:0:0:0:
119,92,151083,1,0,0:0:0:0:
127,131,151137,1,0,0:0:0:0:
124,171,151191,1,0,0:0:0:0:
111,209,151244,1,0,0:0:0:0:
100,255,151298,1,0,0:0:0:0:
100,301,151351,1,0,0:0:0:0:
123,342,151405,1,0,0:0:0:0:
164,364,151458,6,0,B|239:380|296:331|296:331|240:308,2,180.000006866455
0,143,151887,5,0,0:0:0:0:
268,13,151994,1,0,0:0:0:0:
186,272,152101,1,0,0:0:0:0:
56,5,152208,1,0,0:0:0:0:
361,26,152316,5,0,0:0:0:0:
339,129,152387,1,0,0:0:0:0:
260,58,152458,1,0,0:0:0:0:
390,49,152530,5,0,0:0:0:0:
349,145,152601,1,0,0:0:0:0:
285,61,152672,1,0,0:0:0:0:
447,117,152744,5,0,0:0:0:0:
229,351,152887,1,0,0:0:0:0:
285,1,153030,1,0,0:0:0:0:
447,323,153173,5,0,0:0:0:0:
74,222,153316,1,0,0:0:0:0:
480,189,153458,1,0,0:0:0:0:
172,354,153601,5,0,0:0:0:0:
345,13,153744,1,0,0:0:0:0:
242,359,153887,1,0,0:0:0:0:
76,9,154030,5,0,0:0:0:0:
435,216,154173,1,0,0:0:0:0:
5,291,154316,1,0,0:0:0:0:
409,1,154458,6,0,L|398:166,1,135.000005149842
381,384,154673,2,0,L|389:249,1,135.000005149842
303,8,154887,5,0,0:0:0:0:
341,340,155030,1,0,0:0:0:0:
303,8,155173,1,0,0:0:0:0:
125,298,155316,5,0,0:0:0:0:
493,74,155458,1,0,0:0:0:0:
125,298,155601,1,0,0:0:0:0:
511,300,155744,6,0,L|366:253,1,135.000005149842
63,154,155958,2,0,L|208:201,1,135.000005149842
375,374,156173,5,0,0:0:0:0:
207,77,156280,1,0,0:0:0:0:
346,384,156387,5,0,0:0:0:0:
237,60,156494,1,0,0:0:0:0:
164,365,156601,5,0,0:0:0:0:
430,176,156744,1,0,0:0:0:0:
95,54,156887,1,0,0:0:0:0:
327,358,157030,5,0,0:0:0:0:
390,222,157101,1,0,0:0:0:0:
241,236,157173,1,0,0:0:0:0:
375,334,157244,5,0,0:0:0:0:
398,185,157315,1,0,0:0:0:0:
258,240,157387,1,0,0:0:0:0:
465,294,157458,5,0,0:0:0:0:
191,124,157566,1,0,0:0:0:0:
507,300,157673,5,0,0:0:0:0:
146,123,157780,1,0,0:0:0:0:
508,15,157887,5,0,0:0:0:0:
494,29,157941,1,0,0:0:0:0:
505,61,157994,1,0,0:0:0:0:
491,75,158048,1,0,0:0:0:0:
502,107,158101,1,0,0:0:0:0:
488,121,158155,1,0,0:0:0:0:
499,154,158208,1,0,0:0:0:0:
485,168,158262,1,0,0:0:0:0:
494,190,158316,5,0,0:0:0:0:
139,384,158458,1,0,0:0:0:0:
290,24,158601,1,0,0:0:0:0:
400,335,158744,5,0,0:0:0:0:
311,352,158815,1,0,0:0:0:0:
223,370,158886,1,0,0:0:0:0:
200,384,158958,5,0,0:0:0:0:
294,364,159029,1,0,0:0:0:0:
388,345,159100,1,0,0:0:0:0:
389,352,159173,5,0,0:0:0:0:
512,62,159280,1,0,0:0:0:0:
358,372,159387,5,0,0:0:0:0:
512,49,159494,1,0,0:0:0:0:
177,83,159601,5,0,0:0:0:0:
506,220,159744,1,0,0:0:0:0:
121,281,159887,1,0,0:0:0:0:
453,29,160030,5,0,0:0:0:0:
325,363,160173,1,0,0:0:0:0:
388,1,160316,1,0,0:0:0:0:
504,375,160458,5,0,0:0:0:0:
100,189,160601,1,0,0:0:0:0:
511,154,160744,1,0,0:0:0:0:
172,377,160887,5,0,0:0:0:0:
369,8,161030,1,0,0:0:0:0:
272,383,161173,1,0,0:0:0:0:
448,121,161316,5,0,0:0:0:0:
133,204,161423,1,0,0:0:0:0:
494,85,161530,5,0,0:0:0:0:
93,250,161637,1,0,0:0:0:0:
331,0,161744,5,0,0:0:0:0:
283,366,161887,1,0,0:0:0:0:
118,86,162030,1,0,0:0:0:0:
425,275,162173,5,0,0:0:0:0:
59,367,162316,1,0,0:0:0:0:
402,77,162458,1,0,0:0:0:0:
236,383,162601,5,0,0:0:0:0:
470,87,162708,1,0,0:0:0:0:
191,381,162816,5,0,0:0:0:0:
504,73,162923,1,0,0:0:0:0:
156,137,163030,5,0,0:0:0:0:
506,354,163137,1,0,0:0:0:0:
154,84,163244,5,0,0:0:0:0:
512,380,163351,1,0,0:0:0:0:
395,45,163458,5,0,0:0:0:0:
264,344,163601,1,0,0:0:0:0:
8,73,163744,1,0,0:0:0:0:
358,247,163887,5,0,0:0:0:0:
20,363,163994,1,0,0:0:0:0:
369,199,164101,5,0,0:0:0:0:
11,374,164208,1,0,0:0:0:0:
314,97,164316,5,0,0:0:0:0:
417,147,164387,1,0,0:0:0:0:
457,247,164458,1,0,0:0:0:0:
471,270,164530,5,0,0:0:0:0:
429,164,164601,1,0,0:0:0:0:
321,112,164672,1,0,0:0:0:0:
185,124,164744,5,0,0:0:0:0:
144,132,164797,1,0,0:0:0:0:
120,165,164851,1,0,0:0:0:0:
124,206,164904,1,0,0:0:0:0:
155,234,164958,1,0,0:0:0:0:
196,234,165011,1,0,0:0:0:0:
227,206,165065,1,0,0:0:0:0:
230,165,165118,1,0,0:0:0:0:
177,181,165172,5,0,0:0:0:0:
428,381,165316,1,0,0:0:0:0:
443,54,165458,1,0,0:0:0:0:
251,351,165601,5,0,0:0:0:0:
510,161,165708,1,0,0:0:0:0:
216,342,165816,5,0,0:0:0:0:
511,179,165923,1,0,0:0:0:0:
160,123,166030,5,0,0:0:0:0:
123,215,166101,1,0,0:0:0:0:
262,136,166173,1,0,0:0:0:0:
129,142,166244,5,0,0:0:0:0:
122,240,166315,1,0,0:0:0:0:
230,122,166387,1,0,0:0:0:0:
93,49,166458,5,0,0:0:0:0:
300,336,166601,1,0,0:0:0:0:
340,10,166744,1,0,0:0:0:0:
53,314,166887,5,0,0:0:0:0:
420,193,167030,1,0,0:0:0:0:
22,212,167173,1,0,0:0:0:0:
387,323,167316,5,0,0:0:0:0:
225,24,167458,1,0,0:0:0:0:
127,374,167601,1,0,0:0:0:0:
441,71,167744,5,0,0:0:0:0:
28,144,167887,1,0,0:0:0:0:
425,248,168030,1,0,0:0:0:0:
160,338,168173,5,0,0:0:0:0:
78,38,168280,1,0,0:0:0:0:
173,344,168387,5,0,0:0:0:0:
57,28,168494,1,0,0:0:0:0:
350,141,168601,5,0,0:0:0:0:
24,321,168744,1,0,0:0:0:0:
167,2,168887,1,0,0:0:0:0:
208,359,169030,5,0,0:0:0:0:
5,121,169173,1,0,0:0:0:0:
340,67,169316,1,0,0:0:0:0:
60,289,169458,5,0,0:0:0:0:
369,356,169566,1,0,0:0:0:0:
34,265,169673,5,0,0:0:0:0:
394,375,169780,1,0,0:0:0:0:
113,380,169887,5,0,0:0:0:0:
396,224,169994,1,0,0:0:0:0:
84,378,170101,5,0,0:0:0:0:
425,224,170208,1,0,0:0:0:0:
112,94,170316,5,0,0:0:0:0:
267,379,170458,1,0,0:0:0:0:
348,66,170601,1,0,0:0:0:0:
157,384,170744,5,0,0:0:0:0:
202,295,170816,1,0,0:0:0:0:
298,278,170887,1,0,0:0:0:0:
370,344,170958,5,0,0:0:0:0:
462,305,171030,1,0,0:0:0:0:
497,213,171101,1,0,0:0:0:0:
449,125,171173,5,0,0:0:0:0:
260,359,171280,1,0,0:0:0:0:
434,84,171387,5,0,0:0:0:0:
269,380,171494,1,0,0:0:0:0:
395,54,171601,5,0,0:0:0:0:
383,61,171655,1,0,0:0:0:0:
370,66,171708,1,0,0:0:0:0:
356,69,171762,1,0,0:0:0:0:
342,70,171816,1,0,0:0:0:0:
328,69,171869,1,0,0:0:0:0:
314,67,171923,1,0,0:0:0:0:
301,63,171976,1,0,0:0:0:0:
288,57,172030,5,0,0:0:0:0:
157,349,172173,1,0,0:0:0:0:
20,24,172316,1,0,0:0:0:0:
269,246,172458,5,0,0:0:0:0:
231,125,172530,1,0,0:0:0:0:
146,219,172601,1,0,0:0:0:0:
285,224,172673,5,0,0:0:0:0:
202,127,172745,1,0,0:0:0:0:
161,247,172816,1,0,0:0:0:0:
315,139,172887,5,0,0:0:0:0:
7,306,172994,1,0,0:0:0:0:
356,151,173101,5,0,0:0:0:0:
5,270,173208,1,0,0:0:0:0:
245,62,173316,5,0,0:0:0:0:
195,364,173458,1,0,0:0:0:0:
172,26,173601,1,0,0:0:0:0:
380,310,173744,5,0,0:0:0:0:
42,210,173887,1,0,0:0:0:0:
367,223,174030,1,0,0:0:0:0:
71,357,174173,5,0,0:0:0:0:
267,45,174316,1,0,0:0:0:0:
145,337,174458,1,0,0:0:0:0:
81,32,174601,5,0,0:0:0:0:
334,275,174744,1,0,0:0:0:0:
17,84,174887,1,0,0:0:0:0:
203,337,175030,5,0,0:0:0:0:
303,50,175137,1,0,0:0:0:0:
216,364,175244,5,0,0:0:0:0:
288,26,175351,1,0,0:0:0:0:
325,284,175458,5,0,0:0:0:0:
4,332,175601,1,0,0:0:0:0:
392,379,175744,1,0,0:0:0:0:
151,80,175887,5,0,0:0:0:0:
236,382,176030,1,0,0:0:0:0:
411,76,176173,1,0,0:0:0:0:
109,255,176316,5,0,0:0:0:0:
456,327,176423,1,0,0:0:0:0:
98,221,176530,5,0,0:0:0:0:
487,355,176637,1,0,0:0:0:0:
439,96,176744,5,0,0:0:0:0:
287,354,176851,1,0,0:0:0:0:
434,57,176958,5,0,0:0:0:0:
294,378,177066,1,0,0:0:0:0:
503,159,177173,5,0,0:0:0:0:
120,177,177316,1,0,0:0:0:0:
433,274,177458,1,0,0:0:0:0:
214,62,177601,5,0,0:0:0:0:
84,334,177708,1,0,0:0:0:0:
195,38,177816,5,0,0:0:0:0:
96,361,177923,1,0,0:0:0:0:
97,87,178030,5,0,0:0:0:0:
408,111,178137,1,0,0:0:0:0:
79,69,178244,5,0,0:0:0:0:
434,130,178351,1,0,0:0:0:0:
222,358,178458,5,0,0:0:0:0:
