osu file format v14

[General]
AudioFilename: audio.mp3
AudioLeadIn: 0
PreviewTime: 78426
Countdown: 0
SampleSet: Drum
StackLeniency: 0.7
Mode: 0
LetterboxInBreaks: 0
WidescreenStoryboard: 0

[Editor]
Bookmarks: 13323,25316,25926,28176,31195,36258,39070,84426,89641,94738,144421,154921,156421,168421
DistanceSpacing: 0.6
BeatDivisor: 4
GridSize: 8
TimelineZoom: 1.8

[Metadata]
Title:Time Warp
TitleUnicode:Time Warp
Artist:Perfume
ArtistUnicode:Perfume
Creator:Inoculum
Version:run through unlimited time
Source:
Tags:
BeatmapID:4354058
BeatmapSetID:2079309

[Difficulty]
HPDrainRate:4
CircleSize:3
OverallDifficulty:7.3
ApproachRate:8.2
SliderMultiplier:2
SliderTickRate:1

[Events]
//Background and Video events
0,0,"time warp.jpg",0,0
//Break Periods
//Storyboard Layer 0 (Background)
//Storyboard Layer 1 (Fail)
//Storyboard Layer 2 (Pass)
//Storyboard Layer 3 (Foreground)
//Storyboard Layer 4 (Overlay)
//Storyboard Sound Samples

[TimingPoints]
431,375,4,3,0,55,1,0
84431,-100,4,3,0,55,0,1
94743,-100,4,3,0,55,0,0
144431,-100,4,3,0,55,0,1
154931,-100,4,3,0,55,0,0

[Colours]
Combo1 : 0,168,168
Combo2 : 255,255,119
Combo3 : 255,128,128

[HitObjects]
129,162,431,5,12,0:0:0:0:
293,107,618,1,2,0:0:0:0:
251,248,806,1,8,0:0:0:0:
212,124,993,1,2,0:0:0:0:
335,170,1181,1,8,0:0:0:0:
316,46,1368,1,2,0:0:0:0:
316,46,1556,1,8,0:0:0:0:
316,46,1743,1,2,0:0:0:0:
269,179,1931,5,8,0:0:0:0:
389,209,2118,1,2,0:0:0:0:
269,179,2306,1,8,0:0:0:0:
141,187,2493,1,2,0:0:0:0:
269,179,2681,1,8,0:0:0:0:
265,303,2868,1,2,0:0:0:0:
265,303,3056,1,8,0:0:0:0:
265,303,3243,1,2,0:0:0:0:
269,179,3431,5,8,0:0:0:0:
269,179,3618,1,2,0:0:0:0:
269,179,3806,1,8,0:0:0:0:
163,101,3993,1,2,0:0:0:0:
64,190,4181,1,8,0:0:0:0:
119,306,4368,1,8,0:0:0:0:
225,309,4556,2,12,P|276:300|298:254,1,100
310,156,4931,1,8,0:0:0:0:
388,52,5118,5,2,0:0:0:0:
448,168,5306,1,8,0:0:0:0:
371,284,5493,1,2,0:0:0:0:
310,156,5681,1,8,0:0:0:0:
259,49,5868,1,2,0:0:0:0:
210,164,6056,1,8,0:0:0:0:
147,59,6243,1,2,0:0:0:0:
91,161,6431,2,12,B|95:223|91:258|122:350|170:219|207:294,1,200
297,289,6993,5,2,0:0:0:0:
413,313,7181,1,8,0:0:0:0:
375,201,7368,1,2,0:0:0:0:
445,107,7556,1,8,0:0:0:0:
321,70,7743,1,2,0:0:0:0:
236,137,7931,1,8,0:0:0:0:
282,233,8118,1,2,0:0:0:0:
220,310,8306,1,8,0:0:0:0:
126,275,8493,5,2,0:0:0:0:
87,187,8681,1,8,0:0:0:0:
138,103,8868,1,2,0:0:0:0:
222,66,9056,1,8,0:0:0:0:
306,108,9243,1,2,0:0:0:0:
375,176,9431,5,8,0:0:0:0:
406,273,9618,1,2,0:0:0:0:
312,272,9806,1,8,0:0:0:0:
224,272,9993,1,2,0:0:0:0:
136,272,10181,1,2,0:0:0:0:
136,184,10368,1,2,0:0:0:0:
136,88,10556,1,8,0:0:0:0:
224,88,10743,1,8,0:0:0:0:
312,88,10931,2,12,P|368:88|392:144,1,100
392,224,11306,5,10,0:0:0:0:
296,288,11493,1,10,0:0:0:0:
192,288,11681,1,10,0:0:0:0:
120,208,11868,1,10,0:0:0:0:
192,288,12056,1,10,0:0:0:0:
296,288,12243,1,10,0:0:0:0:
296,288,12337,1,10,0:0:0:0:
296,288,12431,2,12,P|360:288|360:176,1,200
344,88,13181,6,4,P|272:64|192:152,1,200
176,256,13931,2,4,P|240:288|320:192,1,200
336,104,14493,1,2,0:0:0:0:
240,64,14681,2,4,P|184:64|104:176,1,200
104,272,15243,1,2,0:0:0:0:
200,240,15431,5,8,0:0:0:0:
288,176,15618,1,2,0:0:0:0:
368,120,15806,1,8,0:0:0:0:
416,216,15993,1,2,0:0:0:0:
456,320,16181,1,8,0:0:0:0:
352,320,16368,1,2,0:0:0:0:
256,320,16556,1,8,0:0:0:0:
152,312,16743,1,2,0:0:0:0:
96,240,16931,2,12,P|64:192|96:152,1,100
136,80,17306,5,8,0:0:0:0:
232,80,17493,1,2,0:0:0:0:
328,80,17681,1,8,0:0:0:0:
424,96,17868,1,2,0:0:0:0:
424,192,18056,1,8,0:0:0:0:
424,296,18243,1,2,0:0:0:0:
328,296,18431,6,12,P|248:264|168:176,1,200
160,80,19181,2,12,P|232:80|264:96,2,100
88,144,19743,1,2,0:0:0:0:
64,232,19931,2,12,P|88:256|248:288,1,200
344,264,20493,1,2,0:0:0:0:
424,216,20681,2,12,P|432:168|312:160,1,200
256,224,21243,1,2,0:0:0:0:
168,152,21431,1,8,0:0:0:0:
232,72,21618,5,2,0:0:0:0:
368,72,21806,1,8,0:0:0:0:
368,200,21993,1,2,0:0:0:0:
232,200,22181,1,8,0:0:0:0:
232,200,22368,1,2,0:0:0:0:
368,200,22556,1,8,0:0:0:0:
368,72,22743,2,12,P|296:56|272:72,1,100
184,104,23118,5,2,0:0:0:0:
112,168,23306,1,8,0:0:0:0:
152,256,23493,1,2,0:0:0:0:
256,256,23681,1,8,0:0:0:0:
352,256,23868,1,2,0:0:0:0:
256,256,24056,1,8,0:0:0:0:
152,256,24243,1,8,0:0:0:0:
152,256,24337,1,8,0:0:0:0:
152,256,24431,2,12,P|111:224|66:172,2,100
266,322,25181,6,12,P|323:333|361:298,1,100
415,237,25556,1,8,0:0:0:0:
422,132,25743,2,12,P|358:108|309:102,1,100
219,96,26118,1,2,0:0:0:0:
126,149,26306,1,8,0:0:0:0:
223,215,26493,1,2,0:0:0:0:
219,96,26681,1,8,0:0:0:0:
126,149,26868,1,2,0:0:0:0:
103,246,27056,5,8,0:0:0:0:
184,304,27243,1,2,0:0:0:0:
280,304,27431,1,8,0:0:0:0:
384,304,27618,2,12,P|408:272|400:199,1,100
385,124,27993,2,12,P|346:103|291:126,1,100
223,180,28368,1,2,0:0:0:0:
174,95,28556,2,12,P|106:101|100:142,1,100
94,216,28931,1,8,0:0:0:0:
175,288,29118,5,2,0:0:0:0:
273,229,29306,1,8,0:0:0:0:
378,276,29493,1,2,0:0:0:0:
273,229,29681,1,8,0:0:0:0:
175,288,29868,1,2,0:0:0:0:
96,235,30056,2,12,P|83:180|127:141,1,100
183,80,30431,1,10,0:0:0:0:
285,75,30618,1,2,0:0:0:0:
368,162,30806,6,12,P|396:171|335:179,1,200
285,75,31368,1,2,0:0:0:0:
226,203,31556,1,8,0:0:0:0:
172,309,31743,1,2,0:0:0:0:
116,200,31931,5,8,0:0:0:0:
178,91,32118,1,2,0:0:0:0:
226,203,32306,1,8,0:0:0:0:
287,318,32493,1,2,0:0:0:0:
356,207,32681,1,8,0:0:0:0:
293,91,32868,1,2,0:0:0:0:
206,49,33056,6,12,P|158:37|117:88,1,100
113,176,33431,1,8,0:0:0:0:
172,272,33618,1,2,0:0:0:0:
222,170,33806,1,8,0:0:0:0:
113,176,33993,1,2,0:0:0:0:
172,272,34181,1,8,0:0:0:0:
222,170,34368,1,2,0:0:0:0:
291,266,34556,1,8,0:0:0:0:
361,174,34743,5,2,0:0:0:0:
103,51,35118,1,8,0:0:0:0:
132,304,35493,1,8,0:0:0:0:
213,252,35681,1,8,0:0:0:0:
290,198,35868,1,12,0:0:0:0:
345,128,36056,6,4,P|392:123|421:168,1,100
438,264,36431,2,12,P|406:292|260:258,1,200
213,186,37181,2,12,P|161:165|229:76,1,200
329,68,37931,2,12,P|386:83|353:203,1,200
294,254,38493,1,2,0:0:0:0:
196,263,38681,2,12,P|139:256|191:162,1,200
263,113,39243,1,2,0:0:0:0:
353,73,39431,5,8,0:0:0:0:
406,163,39618,1,2,0:0:0:0:
313,207,39806,1,8,0:0:0:0:
396,277,39993,1,2,0:0:0:0:
299,319,40181,1,8,0:0:0:0:
221,239,40368,1,2,0:0:0:0:
137,313,40556,1,8,0:0:0:0:
106,207,40743,1,2,0:0:0:0:
137,313,40931,5,8,0:0:0:0:
221,239,41118,1,2,0:0:0:0:
301,320,41306,1,8,0:0:0:0:
395,274,41493,1,2,0:0:0:0:
310,207,41681,1,8,0:0:0:0:
406,163,41868,1,2,0:0:0:0:
350,72,42056,1,8,0:0:0:0:
265,128,42243,1,2,0:0:0:0:
184,200,42431,6,12,P|124:208|150:109,1,200
350,72,43181,2,12,P|409:64|432:181,1,200
366,284,43931,2,12,P|282:323|168:290,1,200
116,220,44493,1,2,0:0:0:0:
161,119,44681,2,12,P|216:102|366:135,1,200
439,188,45243,1,2,0:0:0:0:
457,293,45431,5,8,0:0:0:0:
347,237,45618,1,2,0:0:0:0:
266,294,45806,1,8,0:0:0:0:
198,216,45993,1,2,0:0:0:0:
91,182,46181,1,8,0:0:0:0:
135,61,46368,1,2,0:0:0:0:
227,122,46556,1,8,0:0:0:0:
299,46,46743,1,2,0:0:0:0:
363,132,46931,1,8,0:0:0:0:
418,223,47118,5,2,0:0:0:0:
320,225,47306,1,8,0:0:0:0:
418,223,47493,1,2,0:0:0:0:
373,311,47681,1,8,0:0:0:0:
418,223,47868,1,2,0:0:0:0:
472,318,48056,1,8,0:0:0:0:
418,223,48243,1,8,0:0:0:0:
420,168,48337,1,8,0:0:0:0:
421,111,48431,2,12,P|347:75|224:92,1,200
148,143,48993,5,2,0:0:0:0:
119,232,49181,2,12,P|128:288|272:294,1,200
326,265,49743,2,4,P|386:244|384:192,1,100
367,113,50118,1,2,0:0:0:0:
265,83,50306,1,8,0:0:0:0:
196,166,50493,1,2,0:0:0:0:
122,79,50681,1,8,0:0:0:0:
196,166,50868,5,2,0:0:0:0:
273,250,51056,1,8,0:0:0:0:
351,313,51243,2,4,P|406:255|428:192,1,100
412,118,51618,5,2,0:0:0:0:
317,153,51806,1,8,0:0:0:0:
229,192,51993,2,4,P|152:190|130:167,1,100
102,82,52368,5,2,0:0:0:0:
204,68,52556,1,8,0:0:0:0:
296,54,52743,2,4,P|363:58|405:79,1,100
456,137,53118,5,2,0:0:0:0:
423,252,53306,1,8,0:0:0:0:
321,200,53493,1,2,0:0:0:0:
272,290,53681,1,8,0:0:0:0:
192,221,53868,1,2,0:0:0:0:
156,310,54056,2,12,P|101:332|98:265,1,100
79,191,54431,1,8,0:0:0:0:
153,105,54618,1,8,0:0:0:0:
245,79,54806,6,4,P|311:85|341:122,1,100
372,188,55181,2,12,P|329:224|262:219,2,100
433,106,55743,2,4,P|474:173|465:219,1,100
428,290,56118,5,2,0:0:0:0:
332,255,56306,1,8,0:0:0:0:
240,301,56493,1,2,0:0:0:0:
156,244,56681,1,8,0:0:0:0:
62,287,56868,5,2,0:0:0:0:
86,178,57056,1,8,0:0:0:0:
144,92,57243,2,12,P|192:66|262:65,1,100
342,70,57618,5,2,0:0:0:0:
424,119,57806,1,8,0:0:0:0:
459,203,57993,2,12,P|436:253|387:295,1,100
320,336,58368,5,2,0:0:0:0:
224,336,58556,1,8,0:0:0:0:
130,279,58743,2,4,P|89:248|102:181,1,100
120,104,59118,5,8,0:0:0:0:
224,56,59306,1,2,0:0:0:0:
216,160,59493,1,2,0:0:0:0:
120,104,59681,1,2,0:0:0:0:
224,56,59868,1,2,0:0:0:0:
216,160,60056,1,2,0:0:0:0:
112,240,60243,1,2,0:0:0:0:
168,328,60431,5,8,0:0:0:0:
232,248,60993,1,8,0:0:0:0:
312,168,61556,1,8,0:0:0:0:
384,88,61931,5,2,0:0:0:0:
296,88,62118,1,2,0:0:0:0:
208,88,62306,1,2,0:0:0:0:
120,88,62493,1,2,0:0:0:0:
120,176,62681,1,2,0:0:0:0:
120,264,62868,1,2,0:0:0:0:
208,264,63056,1,2,0:0:0:0:
296,264,63243,1,2,0:0:0:0:
384,264,63431,2,4,P|440:248|433:177,1,100
440,120,63806,5,2,0:0:0:0:
352,88,63993,1,2,0:0:0:0:
264,72,64181,1,2,0:0:0:0:
176,104,64368,1,2,0:0:0:0:
136,192,64556,1,2,0:0:0:0:
200,264,64743,1,2,0:0:0:0:
296,272,64931,5,2,0:0:0:0:
392,240,65118,1,2,0:0:0:0:
400,136,65306,1,2,0:0:0:0:
320,88,65493,1,2,0:0:0:0:
224,72,65681,1,2,0:0:0:0:
160,128,65868,1,2,0:0:0:0:
136,224,66056,5,2,0:0:0:0:
240,256,66243,1,2,0:0:0:0:
368,192,66618,1,2,0:0:0:0:
408,136,66806,1,2,0:0:0:0:
368,192,66993,1,2,0:0:0:0:
328,240,67181,1,2,0:0:0:0:
288,280,67368,2,4,P|208:272|186:246,1,100
128,160,67743,2,4,P|176:128|232:128,1,100
320,104,68118,5,2,0:0:0:0:
320,104,68306,1,2,0:0:0:0:
320,104,68493,1,2,0:0:0:0:
368,112,68681,1,2,0:0:0:0:
400,144,68868,1,2,0:0:0:0:
408,192,69056,1,2,0:0:0:0:
400,248,69243,2,4,P|336:280|290:271,1,100
184,272,69618,5,2,0:0:0:0:
120,208,69806,1,2,0:0:0:0:
136,104,69993,1,2,0:0:0:0:
120,208,70181,1,2,0:0:0:0:
136,104,70368,1,2,0:0:0:0:
240,104,70556,1,2,0:0:0:0:
344,104,70743,1,2,0:0:0:0:
424,184,70931,5,2,0:0:0:0:
336,264,71118,1,2,0:0:0:0:
248,208,71306,1,2,0:0:0:0:
198,122,71493,1,2,0:0:0:0:
128,216,71681,1,2,0:0:0:0:
200,312,71868,1,2,0:0:0:0:
248,208,72056,1,2,0:0:0:0:
320,104,72243,1,2,0:0:0:0:
392,200,72431,6,4,P|392:248|272:312,1,200
168,312,72993,1,2,0:0:0:0:
104,216,73181,1,2,0:0:0:0:
144,104,73368,1,2,0:0:0:0:
208,176,73556,1,2,0:0:0:0:
280,112,73743,1,2,0:0:0:0:
368,88,73931,6,4,P|376:176|320:232,2,150
272,40,74681,1,2,0:0:0:0:
200,104,74868,1,2,0:0:0:0:
128,176,75056,1,2,0:0:0:0:
208,256,75243,1,2,0:0:0:0:
272,168,75431,1,2,0:0:0:0:
344,88,75618,1,2,0:0:0:0:
400,192,75806,1,2,0:0:0:0:
320,264,75993,1,2,0:0:0:0:
248,320,76181,5,2,0:0:0:0:
168,264,76368,1,2,0:0:0:0:
104,192,76556,1,2,0:0:0:0:
176,120,76743,1,2,0:0:0:0:
256,56,76931,1,2,0:0:0:0:
352,56,77118,1,2,0:0:0:0:
424,136,77306,5,2,0:0:0:0:
400,232,77493,1,2,0:0:0:0:
312,280,77681,1,2,0:0:0:0:
256,192,77868,1,2,0:0:0:0:
304,96,78056,1,2,0:0:0:0:
408,112,78243,1,2,0:0:0:0:
304,96,78431,5,8,0:0:0:0:
262,138,78618,1,2,0:0:0:0:
208,162,78806,1,2,0:0:0:0:
153,169,78993,1,2,0:0:0:0:
153,169,79181,1,2,0:0:0:0:
153,169,79368,1,2,0:0:0:0:
104,72,79556,5,8,0:0:0:0:
208,88,79743,1,2,0:0:0:0:
301,70,79931,1,2,0:0:0:0:
399,82,80118,1,2,0:0:0:0:
448,160,80306,1,2,0:0:0:0:
400,232,80493,1,2,0:0:0:0:
432,320,80681,5,8,0:0:0:0:
328,296,80868,1,2,0:0:0:0:
214,298,81056,1,2,0:0:0:0:
140,228,81243,1,2,0:0:0:0:
227,162,81431,1,8,0:0:0:0:
320,64,81618,5,2,0:0:0:0:
432,208,81806,1,8,0:0:0:0:
448,56,81993,1,2,0:0:0:0:
312,208,82181,1,2,0:0:0:0:
192,304,82368,1,8,0:0:0:0:
120,104,82556,1,8,0:0:0:0:
56,304,82743,1,8,0:0:0:0:
366,142,84431,5,8,0:0:0:0:
280,62,84618,1,2,0:0:0:0:
201,140,84806,1,8,0:0:0:0:
221,244,84993,1,2,0:0:0:0:
314,290,85181,1,8,0:0:0:0:
390,228,85368,1,2,0:0:0:0:
463,142,85556,1,8,0:0:0:0:
375,87,85743,1,2,0:0:0:0:
235,63,85931,5,8,0:0:0:0:
148,124,86118,1,2,0:0:0:0:
104,215,86306,1,8,0:0:0:0:
148,124,86493,1,2,0:0:0:0:
235,63,86681,1,8,0:0:0:0:
235,63,86868,1,2,0:0:0:0:
235,63,87056,1,8,0:0:0:0:
235,63,87243,1,2,0:0:0:0:
232,177,87431,1,8,0:0:0:0:
275,300,87618,5,2,0:0:0:0:
356,197,87806,1,8,0:0:0:0:
315,68,87993,1,2,0:0:0:0:
232,177,88181,1,8,0:0:0:0:
275,300,88368,1,2,0:0:0:0:
356,197,88556,1,8,0:0:0:0:
315,68,88743,1,2,0:0:0:0:
232,177,88931,2,12,P|192:187|173:138,1,100
203,61,89306,5,8,0:0:0:0:
106,100,89493,1,2,0:0:0:0:
73,203,89681,1,8,0:0:0:0:
139,293,89868,1,2,0:0:0:0:
250,272,90056,1,8,0:0:0:0:
358,313,90243,1,2,0:0:0:0:
440,228,90431,1,8,0:0:0:0:
415,127,90618,5,2,0:0:0:0:
334,180,90806,1,8,0:0:0:0:
271,76,90993,1,2,0:0:0:0:
193,172,91181,1,8,0:0:0:0:
250,272,91368,1,2,0:0:0:0:
334,180,91556,1,8,0:0:0:0:
271,76,91743,1,2,0:0:0:0:
193,172,91931,2,12,P|151:156|120:200,1,100
125,291,92306,5,8,0:0:0:0:
125,291,92493,1,2,0:0:0:0:
125,291,92681,1,8,0:0:0:0:
249,280,92868,1,2,0:0:0:0:
249,280,93056,1,8,0:0:0:0:
249,280,93243,1,2,0:0:0:0:
249,280,93431,2,12,P|302:266|344:240,1,100
408,184,93806,5,8,0:0:0:0:
319,122,93993,1,2,0:0:0:0:
226,180,94181,1,8,0:0:0:0:
111,230,94368,1,2,0:0:0:0:
152,115,94556,1,8,0:0:0:0:
226,180,94743,1,6,0:0:0:0:
321,282,95118,5,2,0:0:0:0:
321,282,95212,1,2,0:0:0:0:
321,282,95306,1,2,0:0:0:0:
404,226,95493,1,2,0:0:0:0:
371,122,95681,1,2,0:0:0:0:
281,84,95868,1,8,0:0:0:0:
228,73,95962,1,2,0:0:0:0:
174,60,96056,1,2,0:0:0:0:
157,105,96149,1,2,0:0:0:0:
139,150,96243,1,2,0:0:0:0:
117,197,96337,1,2,0:0:0:0:
98,247,96431,6,12,B|176:257|166:338|279:303|241:212|273:226|358:279|371:244|464:176,2,400,14|14|12,0:0|0:0|0:0,0:0:0:0:
87,139,98306,1,8,0:0:0:0:
179,90,98681,2,12,B|243:92|321:102|360:160,1,200
416,240,99243,1,2,0:0:0:0:
336,312,99431,5,8,0:0:0:0:
243,251,99618,1,2,0:0:0:0:
136,293,99806,1,8,0:0:0:0:
63,202,99993,1,2,0:0:0:0:
132,113,100181,1,8,0:0:0:0:
229,160,100368,1,2,0:0:0:0:
299,87,100556,1,8,0:0:0:0:
368,169,100743,1,2,0:0:0:0:
412,282,100931,5,8,0:0:0:0:
307,233,101118,1,2,0:0:0:0:
197,264,101306,1,8,0:0:0:0:
95,201,101493,1,2,0:0:0:0:
159,112,101681,1,8,0:0:0:0:
259,57,101868,1,2,0:0:0:0:
334,145,102056,1,8,0:0:0:0:
421,66,102243,1,2,0:0:0:0:
453,168,102431,6,12,P|438:209|296:208,1,200
271,98,103181,2,12,P|216:67|128:168,1,200
155,262,103931,2,12,P|209:290|336:224,1,200
357,156,104493,1,2,0:0:0:0:
384,72,104681,2,12,P|442:88|432:208,1,200
376,280,105243,2,12,P|320:320|280:304,1,100
208,240,105618,5,2,0:0:0:0:
116,277,105806,1,8,0:0:0:0:
107,177,105993,1,2,0:0:0:0:
191,115,106181,1,8,0:0:0:0:
290,108,106368,1,2,0:0:0:0:
345,188,106556,1,8,0:0:0:0:
344,288,106743,1,2,0:0:0:0:
345,188,106931,1,8,0:0:0:0:
344,80,107118,5,2,0:0:0:0:
248,144,107306,1,8,0:0:0:0:
344,80,107493,1,2,0:0:0:0:
345,188,107681,1,8,0:0:0:0:
344,80,107868,1,2,0:0:0:0:
456,80,108056,1,8,0:0:0:0:
344,80,108243,1,8,0:0:0:0:
344,80,108337,1,8,0:0:0:0:
344,80,108431,6,12,P|280:80|240:96,1,100
160,136,108806,1,8,0:0:0:0:
152,232,108993,1,2,0:0:0:0:
248,280,109181,2,12,P|328:272|368:240,1,100
424,208,109556,1,8,0:0:0:0:
440,120,109743,2,12,P|407:77|352:112,1,100
304,160,110118,1,2,0:0:0:0:
232,216,110306,2,12,P|184:208|128:144,1,100
88,112,110681,5,8,0:0:0:0:
184,72,110868,1,2,0:0:0:0:
264,136,111056,1,8,0:0:0:0:
320,224,111243,2,12,P|376:256|408:232,1,100
464,168,111618,5,2,0:0:0:0:
416,80,111806,1,8,0:0:0:0:
320,64,111993,2,12,P|260:50|211:64,1,100
144,104,112368,5,2,0:0:0:0:
88,192,112556,1,8,0:0:0:0:
136,280,112743,2,12,P|216:296|256:256,1,100
319,252,113118,5,2,0:0:0:0:
434,231,113306,1,8,0:0:0:0:
319,252,113493,1,2,0:0:0:0:
416,332,113681,1,8,0:0:0:0:
319,252,113868,1,2,0:0:0:0:
235,167,114056,1,8,0:0:0:0:
319,252,114243,1,2,0:0:0:0:
380,172,114431,6,12,P|389:115|265:87,1,200
129,162,115181,2,12,P|107:248|200:267,1,200
291,256,115743,2,12,P|351:231|304:116,1,200
245,51,116306,1,8,0:0:0:0:
145,124,116493,1,2,0:0:0:0:
245,51,116681,1,8,0:0:0:0:
323,120,116868,5,2,0:0:0:0:
245,51,117056,1,8,0:0:0:0:
250,156,117243,2,12,P|217:209|172:255,1,100
119,294,117618,5,2,0:0:0:0:
80,207,117806,1,8,0:0:0:0:
79,116,117993,2,12,P|142:88|190:80,1,100
277,83,118368,5,2,0:0:0:0:
371,127,118556,1,8,0:0:0:0:
441,193,118743,2,12,P|394:260|344:261,1,100
288,296,119118,5,8,0:0:0:0:
190,296,119306,1,2,0:0:0:0:
245,208,119493,1,10,0:0:0:0:
190,109,119681,1,2,0:0:0:0:
288,109,119868,1,2,0:0:0:0:
245,208,120056,1,2,0:0:0:0:
190,296,120243,1,2,0:0:0:0:
288,296,120431,6,12,P|368:288|408:184,1,200
392,80,120993,1,2,0:0:0:0:
280,112,121181,1,8,0:0:0:0:
176,72,121368,1,2,0:0:0:0:
112,160,121556,2,12,P|96:208|128:240,1,100
208,288,121931,2,12,P|256:304|336:272,2,100
128,240,122493,5,2,0:0:0:0:
208,160,122681,1,8,0:0:0:0:
104,128,122868,1,2,0:0:0:0:
128,240,123056,1,8,0:0:0:0:
208,160,123243,1,2,0:0:0:0:
264,80,123431,2,12,P|360:72|392:96,2,100
208,160,123993,5,2,0:0:0:0:
304,208,124181,1,8,0:0:0:0:
216,272,124368,1,2,0:0:0:0:
208,160,124556,1,8,0:0:0:0:
304,208,124743,1,2,0:0:0:0:
360,296,124931,5,8,0:0:0:0:
432,216,125118,1,2,0:0:0:0:
376,128,125306,1,8,0:0:0:0:
288,72,125493,1,2,0:0:0:0:
184,72,125681,1,8,0:0:0:0:
104,144,125868,5,2,0:0:0:0:
184,72,126056,1,8,0:0:0:0:
288,72,126243,2,12,P|352:80|389:99,2,100
184,72,126806,1,8,0:0:0:0:
120,152,126993,1,2,0:0:0:0:
112,248,127181,1,8,0:0:0:0:
192,312,127368,2,12,P|256:328|320:288,1,100
384,264,127743,6,12,P|416:208|400:168,1,100
368,88,128118,1,2,0:0:0:0:
280,120,128306,1,8,0:0:0:0:
216,200,128493,1,2,0:0:0:0:
176,96,128681,1,8,0:0:0:0:
104,184,128868,2,12,P|112:256|136:280,1,100
208,312,129243,6,12,P|268:320|310:280,1,100
368,232,129618,1,2,0:0:0:0:
440,152,129806,1,8,0:0:0:0:
368,232,129993,1,2,0:0:0:0:
296,152,130181,1,8,0:0:0:0:
368,72,130368,1,2,0:0:0:0:
296,152,130556,1,8,0:0:0:0:
192,160,130743,1,2,0:0:0:0:
248,240,130931,1,8,0:0:0:0:
296,152,131118,5,2,0:0:0:0:
240,56,131306,1,8,0:0:0:0:
192,160,131493,1,2,0:0:0:0:
128,64,131681,1,8,0:0:0:0:
80,168,131868,1,2,0:0:0:0:
144,272,132056,1,8,0:0:0:0:
248,272,132243,1,8,0:0:0:0:
344,272,132431,6,12,P|400:272|392:152,1,200
304,88,132993,1,2,0:0:0:0:
179,81,133181,1,8,0:0:0:0:
113,168,133368,1,2,0:0:0:0:
186,262,133556,1,8,0:0:0:0:
245,165,133743,1,2,0:0:0:0:
304,88,133931,6,12,P|383:75|431:171,1,200
408,272,134493,1,2,0:0:0:0:
312,320,134681,1,8,0:0:0:0:
232,232,134868,5,2,0:0:0:0:
144,160,135056,1,8,0:0:0:0:
224,72,135243,1,2,0:0:0:0:
312,144,135431,1,8,0:0:0:0:
232,232,135618,1,2,0:0:0:0:
144,160,135806,1,8,0:0:0:0:
48,240,135993,1,2,0:0:0:0:
144,328,136181,1,8,0:0:0:0:
232,232,136368,5,2,0:0:0:0:
144,160,136556,1,8,0:0:0:0:
104,64,136743,2,12,P|163:53|226:54,1,100
296,64,137118,1,2,0:0:0:0:
400,96,137306,1,8,0:0:0:0:
432,192,137493,1,2,0:0:0:0:
440,304,137681,1,8,0:0:0:0:
432,192,137868,5,2,0:0:0:0:
352,264,138056,1,8,0:0:0:0:
248,296,138243,1,2,0:0:0:0:
153,255,138431,2,4,L|92:192,1,50
65,130,138618,2,4,L|129:90,1,50
194,62,138806,2,12,L|251:117,1,50
297,165,138993,2,4,L|355:121,1,50
396,54,139181,2,4,L|448:112,1,50
474,167,139368,2,4,L|456:239,1,50
418,293,139556,2,12,L|336:332,1,50
285,343,139743,6,4,L|242:274,1,50
225,216,139931,2,12,L|265:161,1,50
304,87,140118,2,4,L|213:51,1,50
166,57,140306,2,12,L|104:98,1,50
57,143,140493,2,4,L|102:207,1,50
134,255,140681,2,12,L|203:303,1,50
260,318,140868,2,4,L|353:311,1,50
401,294,141056,2,12,L|450:227,1,50
454,175,141243,2,4,L|396:134,1,50
333,91,141431,5,8,0:0:0:0:
333,91,141524,1,8,0:0:0:0:
333,91,141618,1,12,0:0:0:0:
233,77,141806,1,8,0:0:0:0:
233,77,141899,1,8,0:0:0:0:
233,77,141993,1,12,0:0:0:0:
114,65,142181,1,8,0:0:0:0:
114,65,142274,1,8,0:0:0:0:
114,65,142368,1,12,0:0:0:0:
65,149,142556,1,8,0:0:0:0:
189,196,142743,1,8,0:0:0:0:
83,329,142931,1,12,0:0:0:0:
363,108,144431,5,8,0:0:0:0:
268,212,144618,1,2,0:0:0:0:
192,96,144806,1,8,0:0:0:0:
133,204,144993,1,2,0:0:0:0:
268,212,145181,1,8,0:0:0:0:
363,108,145368,1,2,0:0:0:0:
401,215,145556,1,8,0:0:0:0:
268,212,145743,1,2,0:0:0:0:
133,204,145931,5,8,0:0:0:0:
84,317,146118,1,2,0:0:0:0:
199,321,146306,1,8,0:0:0:0:
268,212,146493,1,2,0:0:0:0:
331,325,146681,1,8,0:0:0:0:
417,257,146868,1,2,0:0:0:0:
356,165,147056,1,8,0:0:0:0:
431,74,147243,1,6,0:0:0:0:
296,66,147431,5,8,0:0:0:0:
211,169,147618,1,2,0:0:0:0:
136,80,147806,1,8,0:0:0:0:
211,169,147993,1,2,0:0:0:0:
280,264,148181,1,8,0:0:0:0:
136,264,148368,1,2,0:0:0:0:
211,169,148556,1,8,0:0:0:0:
288,80,148743,1,2,0:0:0:0:
360,168,148931,5,8,0:0:0:0:
432,80,149118,1,2,0:0:0:0:
360,168,149306,1,8,0:0:0:0:
464,192,149493,1,2,0:0:0:0:
360,168,149681,1,8,0:0:0:0:
400,288,149868,1,2,0:0:0:0:
360,168,150056,1,8,0:0:0:0:
288,280,150243,1,2,0:0:0:0:
232,176,150431,5,8,0:0:0:0:
112,288,150618,1,2,0:0:0:0:
128,168,150806,1,8,0:0:0:0:
208,296,150993,1,2,0:0:0:0:
232,176,151181,1,8,0:0:0:0:
320,64,151368,1,2,0:0:0:0:
360,200,151556,1,8,0:0:0:0:
224,96,151743,1,2,0:0:0:0:
392,128,151931,5,8,0:0:0:0:
336,288,152118,1,2,0:0:0:0:
456,288,152306,1,8,0:0:0:0:
296,184,152493,1,2,0:0:0:0:
472,184,152681,1,8,0:0:0:0:
296,184,152868,1,2,0:0:0:0:
200,184,153056,1,8,0:0:0:0:
120,112,153243,2,12,P|72:184|88:224,1,100
104,288,153618,5,2,0:0:0:0:
192,240,153806,1,8,0:0:0:0:
248,328,153993,1,2,0:0:0:0:
320,240,154181,1,8,0:0:0:0:
384,328,154368,1,2,0:0:0:0:
440,240,154556,1,8,0:0:0:0:
384,144,154743,1,8,0:0:0:0:
320,56,154931,6,12,P|256:64|192:112,1,100
152,136,155306,1,8,0:0:0:0:
248,192,155493,1,8,0:0:0:0:
128,240,155681,1,8,0:0:0:0:
232,280,155868,1,8,0:0:0:0:
152,344,156056,1,8,0:0:0:0:
128,240,156243,1,8,0:0:0:0:
111,187,156337,1,8,0:0:0:0:
96,136,156431,2,12,P|152:96|224:96,1,100
288,96,156806,5,8,0:0:0:0:
392,216,156993,1,2,0:0:0:0:
400,96,157181,1,8,0:0:0:0:
280,216,157368,1,2,0:0:0:0:
176,328,157556,1,8,0:0:0:0:
176,216,157743,1,2,0:0:0:0:
296,328,157931,1,8,0:0:0:0:
392,280,158118,6,12,P|424:240|400:192,1,100
352,104,158493,1,2,0:0:0:0:
256,72,158681,1,8,0:0:0:0:
160,96,158868,1,2,0:0:0:0:
104,176,159056,2,12,P|120:248|160:272,1,100
224,312,159431,5,8,0:0:0:0:
272,176,159618,1,2,0:0:0:0:
328,312,159806,1,8,0:0:0:0:
192,224,159993,1,2,0:0:0:0:
352,224,160181,1,8,0:0:0:0:
416,96,160368,1,2,0:0:0:0:
464,232,160556,1,8,0:0:0:0:
336,136,160743,1,2,0:0:0:0:
256,80,160931,6,12,P|216:56|152:72,1,100
80,112,161306,1,8,0:0:0:0:
88,208,161493,1,2,0:0:0:0:
144,288,161681,5,8,0:0:0:0:
240,256,161868,1,2,0:0:0:0:
296,168,162056,1,8,0:0:0:0:
192,176,162243,1,2,0:0:0:0:
240,256,162431,1,8,0:0:0:0:
296,328,162618,5,2,0:0:0:0:
392,312,162806,1,8,0:0:0:0:
440,224,162993,1,2,0:0:0:0:
368,128,163181,1,8,0:0:0:0:
320,216,163368,1,2,0:0:0:0:
264,120,163556,1,8,0:0:0:0:
208,216,163743,1,2,0:0:0:0:
144,112,163931,5,8,0:0:0:0:
264,120,164118,1,2,0:0:0:0:
208,216,164306,1,8,0:0:0:0:
144,304,164493,1,2,0:0:0:0:
256,304,164681,1,8,0:0:0:0:
208,216,164868,1,2,0:0:0:0:
144,112,165056,1,8,0:0:0:0:
264,120,165243,1,2,0:0:0:0:
368,80,165431,5,8,0:0:0:0:
424,168,165618,1,2,0:0:0:0:
328,184,165806,1,8,0:0:0:0:
376,288,165993,1,2,0:0:0:0:
272,296,166181,1,8,0:0:0:0:
240,200,166368,1,2,0:0:0:0:
160,288,166556,1,8,0:0:0:0:
128,168,166743,1,2,0:0:0:0:
208,88,166931,5,8,0:0:0:0:
296,56,167118,2,12,P|384:80|408:184,1,200
408,272,167681,2,12,P|368:320|216:304,1,200
176,256,168243,2,12,L|248:168,1,100
