osu file format v14

[General]
AudioFilename: audio.mp3
AudioLeadIn: 0
PreviewTime: 88317
Countdown: 0
SampleSet: Soft
StackLeniency: 0.7
Mode: 0
LetterboxInBreaks: 0
WidescreenStoryboard: 0

[Editor]
Bookmarks: 32,20603,34317,48032,61746,75460,89174,102889,116603,130317,144032,157746,171460,185174,198889,212603,226317,240032,253746,267460,270889
DistanceSpacing: 0.4
BeatDivisor: 4
GridSize: 32
TimelineZoom: 1.1

[Metadata]
Title:Tenku
TitleUnicode:天空
Artist:Perfume
ArtistUnicode:Perfume
Creator:eiri-
Version:Purity
Source:
Tags:Ayyri Lafayla Future Pop jpop Japanese
BeatmapID:1939016
BeatmapSetID:928320

[Difficulty]
HPDrainRate:5
CircleSize:4
OverallDifficulty:8
ApproachRate:8.5
SliderMultiplier:1.8
SliderTickRate:1

[Events]
//Background and Video events
0,0,"Tenku 683.jpg",0,0
//Break Periods
//Storyboard Layer 0 (Background)
//Storyboard Layer 1 (Fail)
//Storyboard Layer 2 (Pass)
//Storyboard Layer 3 (Foreground)
//Storyboard Sound Samples

[TimingPoints]
32,428.571428571429,4,2,1,50,1,0
32,-133.333333333333,4,2,1,50,0,0
6889,-117.647058823529,4,2,1,60,0,0
19746,-117.647058823529,4,2,1,50,0,0
20174,-117.647058823529,4,2,1,60,0,0
20603,-100,4,2,1,75,0,0
34317,-90.9090909090909,4,2,1,80,0,0
48032,-90.9090909090909,4,2,1,85,0,0
61746,-100,4,2,1,75,0,0
75460,-100,4,2,1,80,0,0
89174,-83.3333333333333,4,2,1,90,0,1
101174,-83.3333333333333,4,2,1,90,0,0
102889,-83.3333333333333,4,2,1,90,0,1
116603,-90.9090909090909,4,2,1,85,0,0
130317,-100,4,2,1,75,0,0
144032,-100,4,2,1,80,0,0
157746,-83.3333333333333,4,2,1,90,0,1
169746,-83.3333333333333,4,2,1,90,0,0
171460,-83.3333333333333,4,2,1,90,0,1
185174,-90.9090909090909,4,2,1,85,0,0
198889,-86.9565217391304,4,2,1,95,0,1
209174,-90.9090909090909,4,2,1,85,0,0
210889,-90.9090909090909,4,2,1,90,0,0
211317,-90.9090909090909,4,2,1,93,0,0
211746,-90.9090909090909,4,2,1,95,0,0
212603,-117.647058823529,4,2,1,70,0,0
225460,-117.647058823529,4,2,1,60,0,0
225889,-117.647058823529,4,2,1,70,0,0
226317,-100,4,2,1,75,0,0
240032,-90.9090909090909,4,2,1,80,0,0
253746,-90.9090909090909,4,2,1,85,0,0
267460,-100,4,2,1,90,0,0
268317,-100,4,2,1,70,0,0
269174,-100,4,2,1,50,0,0
270032,-100,4,2,1,30,0,0
270889,-100,4,2,1,5,0,0

[Colours]
Combo1 : 166,213,238
Combo2 : 249,218,155
Combo3 : 208,180,224
Combo4 : 232,172,199

[HitObjects]
426,326,6032,5,2,0:0:0:0:
485,226,6353,1,8,0:0:0:0:
485,226,6460,2,0,P|442:211|397:210,1,67.5000025749208,2|8,0:0|0:0,0:0:0:0:
306,218,6889,5,14,0:0:0:0:
423,167,7103,1,2,0:0:0:0:
225,102,7532,5,2,0:0:0:0:
225,102,7960,2,0,P|269:90|304:87,1,76.5000014591217,2|2,0:0|0:0,0:0:0:0:
416,96,8389,1,2,0:0:0:0:
416,96,8817,1,2,0:0:0:0:
222,183,9245,5,2,0:0:0:0:
222,183,9674,2,0,L|197:78,1,76.5000014591217,2|2,0:0|0:0,0:0:0:0:
190,12,10103,5,2,0:0:0:0:
190,12,10532,2,0,L|295:37,1,76.5000014591217,2|2,0:0|0:0,0:0:0:0:
367,58,10960,5,2,0:0:0:0:
367,58,11389,2,0,L|262:83,1,76.5000014591217,2|2,0:0|0:0,0:0:0:0:
190,104,11817,5,2,0:0:0:0:
403,179,12246,1,2,0:0:0:0:
357,15,12674,1,2,0:0:0:0:
312,146,13103,1,2,0:0:0:0:
312,146,13317,2,0,L|325:255,1,76.5000014591217,0|2,0:0|0:0,0:0:0:0:
338,338,13746,5,2,0:0:0:0:
418,278,13960,1,2,0:0:0:0:
207,234,14389,5,2,0:0:0:0:
207,234,14817,2,0,P|245:161|251:136,1,76.5000014591217,2|2,0:0|0:0,0:0:0:0:
263,59,15246,5,2,0:0:0:0:
263,59,15674,1,2,0:0:0:0:
307,263,16103,1,2,0:0:0:0:
307,263,16532,5,2,0:0:0:0:
394,212,16746,1,2,0:0:0:0:
418,354,16960,1,2,0:0:0:0:
418,354,17174,6,0,L|318:349,1,76.5000014591217,0|2,0:0|0:0,0:0:0:0:
167,343,17817,1,2,0:0:0:0:
167,343,18246,2,0,L|158:254,2,76.5000014591217,2|2|2,0:0|0:0|0:0,0:0:0:0:
182,361,19317,1,2,0:0:0:0:
58,211,19746,5,2,1:2:0:0:
58,211,20174,1,2,0:0:0:0:
58,211,20603,6,0,P|147:180|200:254,1,180,14|8,0:0|0:0,0:0:0:0:
289,378,21245,2,0,L|298:288,1,90,2|8,0:0|0:0,0:0:0:0:
335,157,21674,1,2,0:0:0:0:
446,238,21889,1,10,0:0:0:0:
512,66,22103,6,0,B|440:57|440:57|407:74|407:74|336:65,1,180,2|2,0:0|0:0,0:0:0:0:
173,0,22746,1,10,0:0:0:0:
173,0,22960,2,0,P|191:40|199:84,1,90,2|8,0:0|0:0,0:0:0:0:
185,236,23389,1,2,0:0:0:0:
330,178,23603,1,10,0:0:0:0:
423,314,23817,6,0,B|360:290|360:290|249:314,1,180,2|2,0:0|0:0,0:0:0:0:
90,240,24460,1,10,0:0:0:0:
90,240,24675,2,0,L|99:329,1,90,2|8,0:0|0:0,0:0:0:0:
205,209,25103,1,2,0:0:0:0:
53,128,25317,1,10,0:0:0:0:
238,60,25532,6,0,P|318:61|417:86,1,180,2|2,0:0|0:0,0:0:0:0:
512,188,26174,1,8,0:0:0:0:
393,46,26389,1,2,0:0:0:0:
316,163,26603,2,0,P|312:208|335:254,1,90,10|0,0:0|0:0,0:0:0:0:
227,374,27032,2,0,P|231:329|208:283,1,90,10|0,0:0|0:0,0:0:0:0:
32,199,27460,6,0,L|210:179,1,180,10|8,0:0|0:0,0:0:0:0:
368,86,28103,2,0,L|278:77,1,90,2|8,0:0|0:0,0:0:0:0:
150,35,28532,1,2,0:0:0:0:
69,155,28747,1,10,0:0:0:0:
184,240,28960,6,0,P|185:178|163:125,1,90,2|8,0:0|0:0,0:0:0:0:
300,292,29389,2,0,P|298:230|320:177,1,90,2|8,0:0|0:0,0:0:0:0:
421,69,29817,2,0,L|430:158,1,90,2|8,0:0|0:0,0:0:0:0:
470,298,30247,1,2,0:0:0:0:
334,215,30461,1,10,0:0:0:0:
234,363,30674,6,0,P|231:314|216:277,1,90,2|8,0:0|1:2,0:0:0:0:
120,161,31103,2,0,P|103:202|101:247,1,90,2|8,0:0|1:2,0:0:0:0:
209,88,31532,2,0,P|117:42|32:81,1,180,2|10,0:0|1:2,0:0:0:0:
9,253,32175,1,10,1:2:0:0:
166,196,32389,1,10,1:2:0:0:
166,196,32603,6,0,P|208:196|253:213,1,90,10|10,1:2|0:0,0:0:0:0:
441,311,33032,1,10,1:2:0:0:
441,311,33246,2,0,L|428:199,1,90,6|0,0:0|0:0,0:0:0:0:
438,89,33674,1,2,0:0:0:0:
438,89,33889,1,2,0:0:0:0:
335,173,34104,1,2,0:0:0:0:
178,34,34317,6,0,L|189:151,1,99.0000030212403,14|0,0:0|0:0,0:0:0:0:
197,233,34746,1,2,1:2:0:0:
52,95,34960,2,0,B|80:130|80:130|56:287,1,198.000006042481,2|0,0:0|0:0,0:0:0:0:
23,70,35603,1,2,1:2:0:0:
117,144,35817,1,0,0:0:0:0:
236,85,36032,6,0,P|301:61|365:53,1,99.0000030212403,10|0,0:0|0:0,0:0:0:0:
431,47,36460,1,2,1:2:0:0:
309,163,36674,2,0,P|374:187|442:195,1,99.0000030212403,2|8,0:0|0:0,0:0:0:0:
452,196,36996,1,2,0:0:0:0:
501,191,37103,1,2,0:0:0:0:
276,143,37317,1,2,1:2:0:0:
209,243,37532,1,2,0:0:0:0:
209,243,37639,1,2,0:0:0:0:
209,243,37746,6,0,P|145:227|85:225,1,99.0000030212403,10|0,0:0|0:0,0:0:0:0:
137,342,38174,1,2,1:2:0:0:
286,354,38389,2,0,P|332:336|323:178,1,198.000006042481,2|0,0:0|0:0,0:0:0:0:
266,382,39032,1,2,1:2:0:0:
213,262,39246,1,0,0:0:0:0:
352,204,39460,6,0,P|364:135|361:71,1,99.0000030212403,10|0,0:0|0:0,0:0:0:0:
355,6,39888,1,2,1:2:0:0:
234,63,40103,2,0,L|100:53,1,99.0000030212403,2|8,0:0|0:0,0:0:0:0:
85,52,40424,1,2,0:0:0:0:
36,48,40532,1,2,0:0:0:0:
255,33,40745,1,2,1:2:0:0:
295,152,40960,1,2,0:0:0:0:
295,152,41067,1,2,0:0:0:0:
295,152,41174,6,0,P|289:201|276:248,1,99.0000030212403,14|0,0:0|0:0,0:0:0:0:
236,341,41602,1,2,1:2:0:0:
48,207,41817,2,0,B|193:185|193:185|176:156|143:148,1,198.000006042481,2|0,0:0|0:0,0:0:0:0:
30,241,42460,1,2,1:2:0:0:
63,115,42674,1,0,0:0:0:0:
209,39,42889,6,0,P|274:15|338:7,1,99.0000030212403,10|0,0:0|0:0,0:0:0:0:
404,1,43317,1,2,1:2:0:0:
461,111,43532,2,0,L|452:245,1,99.0000030212403,2|8,0:0|0:0,0:0:0:0:
468,259,43853,1,2,0:0:0:0:
482,309,43960,1,2,0:0:0:0:
448,83,44174,1,2,1:2:0:0:
304,120,44389,1,2,0:0:0:0:
304,120,44496,1,2,0:0:0:0:
304,120,44603,6,0,P|254:114|207:101,1,99.0000030212403,10|0,0:0|0:0,0:0:0:0:
126,43,45031,1,2,1:2:0:0:
65,231,45246,2,0,P|41:150|-8:37,1,198.000006042481,2|0,0:0|0:0,0:0:0:0:
40,262,45889,1,2,1:2:0:0:
130,155,46103,1,0,0:0:0:0:
216,297,46317,6,0,P|281:321|345:329,1,99.0000030212403,10|0,0:0|0:0,0:0:0:0:
411,335,46746,1,2,1:2:0:0:
309,163,46960,2,0,P|374:187|447:182,1,99.0000030212403,2|8,0:0|0:0,0:0:0:0:
452,182,47282,1,2,0:0:0:0:
492,150,47389,2,0,L|484:101,1,49.5000015106202,2|0,0:0|0:0,0:0:0:0:
467,0,47603,1,2,1:2:0:0:
305,78,47817,1,2,0:0:0:0:
305,78,48032,6,0,L|289:204,1,99.0000030212403,14|2,0:0|0:0,0:0:0:0:
289,227,48353,1,2,0:0:0:0:
289,227,48460,1,2,1:2:0:0:
424,346,48674,2,0,P|376:331|327:334,1,99.0000030212403,2|8,0:0|0:0,0:0:0:0:
168,370,49103,1,2,0:0:0:0:
57,229,49317,2,0,L|45:348,1,99.0000030212403,2|0,1:2|0:0,0:0:0:0:
24,120,49746,5,10,0:0:0:0:
173,184,49960,1,2,0:0:0:0:
173,184,50067,1,2,0:0:0:0:
173,184,50174,1,2,1:2:0:0:
82,18,50389,2,0,B|147:54|147:54|280:41,1,198.000006042481,2|2,0:0|0:0,0:0:0:0:
472,0,51032,1,2,1:2:0:0:
427,134,51246,1,2,0:0:0:0:
427,134,51353,1,2,0:0:0:0:
427,134,51460,6,0,P|414:192|422:266,1,99.0000030212403,10|2,0:0|0:0,0:0:0:0:
426,280,51781,1,2,0:0:0:0:
426,280,51888,1,2,1:2:0:0:
281,384,52103,2,0,P|284:283|255:190,1,198.000006042481,2|0,0:0|0:0,0:0:0:0:
134,53,52746,1,2,1:2:0:0:
134,53,52960,1,0,0:0:0:0:
135,228,53174,5,10,0:0:0:0:
22,169,53388,1,2,0:0:0:0:
22,169,53495,1,2,0:0:0:0:
22,169,53602,1,2,1:2:0:0:
204,135,53817,2,0,P|252:137|305:144,1,99.0000030212403,2|10,0:0|0:0,0:0:0:0:
347,157,54139,1,2,0:0:0:0:
347,157,54246,1,2,0:0:0:0:
459,77,54460,1,2,1:2:0:0:
512,245,54674,1,2,0:0:0:0:
512,245,54889,6,0,P|463:251|413:254,1,99.0000030212403,14|2,0:0|0:0,0:0:0:0:
373,261,55210,1,2,0:0:0:0:
373,261,55317,1,2,1:2:0:0:
209,137,55532,2,0,P|247:220|204:315,1,198.000006042481,2|0,0:0|0:0,0:0:0:0:
37,248,56174,2,0,P|84:234|133:224,1,99.0000030212403,2|2,1:2|0:0,0:0:0:0:
349,204,56603,5,10,0:0:0:0:
302,89,56817,1,2,0:0:0:0:
302,89,56924,1,2,0:0:0:0:
302,89,57031,1,2,1:2:0:0:
467,0,57246,2,0,B|475:73|475:73|453:115|453:115|461:191,1,198.000006042481,2|2,0:0|0:0,0:0:0:0:
442,362,57889,1,2,1:2:0:0:
442,362,58103,1,2,0:0:0:0:
318,217,58317,6,0,L|328:118,2,99.0000030212403,10|0|10,0:0|0:0|0:0,0:0:0:0:
216,359,58960,2,0,B|195:162,1,198.000006042481,2|0,0:0|0:0,0:0:0:0:
200,30,59603,1,2,1:2:0:0:
200,30,59817,1,0,0:0:0:0:
32,154,60032,5,10,1:2:0:0:
76,37,60246,1,8,0:0:0:0:
76,37,60353,1,8,0:0:0:0:
76,37,60459,1,10,1:2:0:0:
195,162,60674,2,0,P|219:227|211:291,1,99.0000030212403,10|8,1:2|1:2,0:0:0:0:
222,307,60996,1,2,0:0:0:0:
222,307,61103,1,2,0:0:0:0:
351,152,61317,1,2,1:2:0:0:
436,251,61531,1,2,0:0:0:0:
307,366,61746,6,0,P|259:315|281:201,1,180,14|0,0:0|1:0,0:0:0:0:
349,275,62389,2,0,L|448:260,1,90,2|8,0:0|0:0,0:0:0:0:
487,365,62817,1,2,0:0:0:0:
512,194,63032,6,0,P|429:206|406:128,1,180,2|8,1:2|0:0,0:0:0:0:
454,30,63674,1,2,0:0:0:0:
454,30,63782,1,2,0:0:0:0:
454,30,63889,1,2,1:2:0:0:
335,0,64103,1,2,0:0:0:0:
267,106,64317,1,8,0:0:0:0:
149,0,64532,2,0,L|158:121,2,90,2|2|2,0:0|1:2|0:0,0:0:0:0:
67,177,65174,5,10,0:0:0:0:
67,177,65389,2,0,P|117:183|198:177,1,90,2|0,0:0|1:0,0:0:0:0:
300,140,65817,1,2,0:0:0:0:
329,315,66032,1,10,0:0:0:0:
240,243,66246,1,2,0:0:0:0:
413,207,66460,1,2,1:2:0:0:
500,378,66674,6,0,P|507:298|513:162,1,180,2|0,0:0|0:0,0:0:0:0:
493,82,67317,1,2,1:2:0:0:
402,175,67532,1,2,0:0:0:0:
402,175,67639,1,2,0:0:0:0:
402,175,67746,2,0,L|310:172,1,90,10|0,0:0|0:0,0:0:0:0:
214,164,68174,1,2,1:2:0:0:
214,164,68389,1,8,0:0:0:0:
305,7,68603,6,0,P|307:88|298:193,1,180,10|2,0:0|1:2,0:0:0:0:
254,294,69246,2,0,L|144:285,1,90,2|8,0:0|0:0,0:0:0:0:
272,206,69674,1,2,0:0:0:0:
352,333,69889,6,0,P|435:345|458:267,1,180,2|8,1:2|0:0,0:0:0:0:
419,166,70532,1,2,0:0:0:0:
419,166,70639,1,2,0:0:0:0:
419,166,70746,1,2,1:2:0:0:
334,244,70960,1,2,0:0:0:0:
284,104,71174,1,10,0:0:0:0:
174,203,71389,2,0,L|294:195,2,90,2|2|2,0:0|1:2|0:0,0:0:0:0:
124,311,72031,5,10,0:0:0:0:
35,213,72246,2,0,L|27:93,1,90,2|0,0:0|1:0,0:0:0:0:
23,26,72674,1,2,0:0:0:0:
23,26,72889,1,10,0:0:0:0:
130,67,73103,1,2,0:0:0:0:
267,19,73317,2,0,L|372:8,1,90,2|0,1:2|0:0,0:0:0:0:
487,5,73746,5,10,0:0:0:0:
487,5,73853,1,2,0:0:0:0:
487,5,73960,1,2,0:0:0:0:
424,122,74174,1,2,1:2:0:0:
341,47,74389,1,0,0:0:0:0:
337,200,74603,2,0,L|332:310,1,90,10|8,0:0|0:0,0:0:0:0:
343,322,74924,1,8,0:0:0:0:
367,362,75032,1,10,1:2:0:0:
475,282,75246,1,8,0:0:0:0:
300,187,75460,6,0,B|234:180|234:180|194:199|194:199|96:190,1,180,14|0,0:0|1:0,0:0:0:0:
15,96,76103,2,0,L|114:84,1,90,2|8,0:0|0:0,0:0:0:0:
235,21,76531,1,2,0:0:0:0:
407,73,76746,6,0,P|319:78|304:158,1,180,2|8,1:2|0:0,0:0:0:0:
445,230,77388,1,2,0:0:0:0:
445,230,77496,1,2,0:0:0:0:
445,230,77603,1,2,1:2:0:0:
410,104,77817,1,2,0:0:0:0:
338,262,78031,1,8,0:0:0:0:
338,262,78246,2,0,L|347:383,2,90,2|2|2,0:0|1:2|0:0,0:0:0:0:
259,136,78888,5,10,0:0:0:0:
259,136,79103,2,0,P|260:180|246:223,1,90,2|0,0:0|1:2,0:0:0:0:
159,346,79532,2,0,P|159:301|144:259,1,90,2|10,0:0|0:0,0:0:0:0:
65,165,79960,1,2,0:0:0:0:
192,67,80174,1,2,1:2:0:0:
192,67,80388,6,0,P|276:46|371:72,1,180,2|2,0:0|0:0,0:0:0:0:
490,200,81031,1,2,1:2:0:0:
403,275,81246,1,2,0:0:0:0:
403,275,81353,1,2,0:0:0:0:
403,275,81460,2,0,L|311:265,1,90,10|0,0:0|0:0,0:0:0:0:
188,202,81888,1,2,1:2:0:0:
232,104,82103,1,10,0:0:0:0:
68,42,82317,6,0,B|99:101|99:101|77:213,1,180,14|2,0:0|1:2,0:0:0:0:
0,359,82960,2,0,P|41:335|86:330,1,90,2|8,0:0|0:0,0:0:0:0:
217,348,83388,1,2,0:0:0:0:
290,239,83603,1,2,1:2:0:0:
290,239,83710,1,2,0:0:0:0:
290,239,83817,1,2,0:0:0:0:
421,313,84032,6,0,L|410:224,1,90,10|2,0:0|0:0,0:0:0:0:
406,179,84353,1,2,0:0:0:0:
406,179,84460,1,2,1:2:0:0:
308,42,84674,2,0,L|297:131,1,90,2|8,0:0|0:0,0:0:0:0:
293,272,85103,1,2,0:0:0:0:
200,160,85317,1,2,1:2:0:0:
200,160,85424,1,2,0:0:0:0:
200,160,85532,1,2,0:0:0:0:
75,269,85745,6,0,P|78:224|69:180,1,90,10|0,0:0|0:0,0:0:0:0:
21,58,86174,1,10,0:0:0:0:
21,58,86388,1,0,0:0:0:0:
166,29,86603,2,0,P|162:73|171:117,1,90,10|0,0:0|0:0,0:0:0:0:
228,236,87032,1,10,0:0:0:0:
228,236,87246,1,2,0:0:0:0:
377,115,87460,5,14,1:2:0:0:
409,130,87888,1,10,0:0:0:0:
443,145,88317,2,0,L|438:255,1,90,2|10,1:2|0:0,0:0:0:0:
473,293,88638,1,10,0:0:0:0:
473,293,88746,2,0,P|407:259|321:288,1,135,2|0,1:2|0:0,0:0:0:0:
281,316,89174,5,14,0:0:0:0:
220,216,89389,2,0,L|103:200,1,107.999996704102,0|0,0:0|1:0,0:0:0:0:
246,103,89817,2,0,P|324:73|391:172,1,215.999993408203,2|2,0:0|0:0,0:0:0:0:
459,74,90460,1,2,1:2:0:0:
496,232,90674,6,0,P|436:215|360:217,1,107.999996704102,2|8,0:0|0:0,0:0:0:0:
512,340,91103,2,0,P|460:355|406:358,1,107.999996704102,2|0,0:0|1:0,0:0:0:0:
291,343,91532,1,2,0:0:0:0:
364,234,91746,1,8,0:0:0:0:
410,379,91960,5,2,0:0:0:0:
410,379,92174,1,2,1:2:0:0:
480,258,92389,2,0,P|469:175|458:125,1,107.999996704102,2|8,0:0|0:0,0:0:0:0:
319,325,92817,5,2,0:0:0:0:
319,325,93031,1,2,1:2:0:0:
249,204,93246,2,0,P|260:121|271:71,1,107.999996704102,2|8,0:0|0:0,0:0:0:0:
305,0,93674,5,2,0:0:0:0:
384,87,93889,1,2,1:2:0:0:
195,50,94103,2,0,L|72:30,1,107.999996704102,2|8,0:0|0:0,0:0:0:0:
178,143,94532,2,0,L|301:123,1,107.999996704102,2|0,0:0|1:0,0:0:0:0:
412,104,94960,1,2,0:0:0:0:
505,225,95174,6,0,B|451:212|451:212|387:223,1,107.999996704102,10|0,0:0|0:0,0:0:0:0:
272,336,95603,2,0,L|262:215,1,107.999996704102,2|8,1:2|0:0,0:0:0:0:
248,74,96032,5,14,0:0:0:0:
159,136,96246,2,0,P|89:152|30:151,1,107.999996704102,0|0,0:0|1:0,0:0:0:0:
227,20,96674,2,0,P|207:178|203:244,1,215.999993408203,2|2,0:0|0:0,0:0:0:0:
206,336,97317,1,2,1:2:0:0:
322,269,97531,6,0,P|382:252|458:254,1,107.999996704102,2|8,0:0|0:0,0:0:0:0:
398,366,97960,2,0,P|346:381|292:384,1,107.999996704102,2|0,0:0|1:0,0:0:0:0:
451,255,98389,2,0,L|441:138,1,107.999996704102,2|8,0:0|0:0,0:0:0:0:
429,33,98817,1,2,0:0:0:0:
340,75,99032,2,0,P|286:84|233:90,1,107.999996704102,2|2,1:2|0:0,0:0:0:0:
102,75,99460,5,10,0:0:0:0:
175,193,99674,2,0,L|293:184,1,107.999996704102,2|0,0:0|1:0,0:0:0:0:
391,141,100103,2,0,P|397:87|406:34,1,107.999996704102,2|8,0:0|0:0,0:0:0:0:
488,202,100531,5,2,0:0:0:0:
376,270,100746,1,2,1:2:0:0:
222,168,100960,2,0,L|104:159,1,107.999996704102,2|8,0:0|0:0,0:0:0:0:
109,177,101603,5,0,1:0:0:0:
222,195,101817,1,2,0:0:0:0:
179,105,102032,6,0,P|237:97|308:145,1,107.999996704102,0|8,1:0|0:0,0:0:0:0:
321,273,102460,2,0,P|245:267|222:195,1,161.999995056153,10|0,1:2|0:0,0:0:0:0:
294,138,102889,5,14,0:0:0:0:
429,214,103104,2,0,L|439:324,1,107.999996704102,0|0,0:0|1:0,0:0:0:0:
489,112,103532,2,0,B|367:74|403:154|276:116,1,215.999993408203,2|2,0:0|0:0,0:0:0:0:
146,50,104175,1,2,1:2:0:0:
62,190,104389,6,0,P|57:136|34:87,1,107.999996704102,2|8,0:0|0:0,0:0:0:0:
170,253,104817,2,0,P|174:199|197:150,1,107.999996704102,2|0,0:0|1:0,0:0:0:0:
290,62,105247,1,2,0:0:0:0:
301,206,105461,1,8,0:0:0:0:
458,138,105675,5,2,0:0:0:0:
458,138,105889,1,2,1:2:0:0:
511,243,106104,2,0,P|445:240|381:282,1,107.999996704102,2|8,0:0|0:0,0:0:0:0:
262,376,106532,5,2,0:0:0:0:
262,376,106746,1,2,1:2:0:0:
264,252,106961,2,0,P|253:169|242:119,1,107.999996704102,2|8,0:0|0:0,0:0:0:0:
214,9,107389,5,2,0:0:0:0:
145,110,107604,1,2,1:2:0:0:
9,26,107818,2,0,L|22:146,1,107.999996704102,2|8,0:0|0:0,0:0:0:0:
127,246,108246,2,0,L|139:138,1,107.999996704102,2|0,0:0|1:0,0:0:0:0:
187,33,108675,1,2,0:0:0:0:
322,87,108889,6,0,P|331:148|305:208,1,107.999996704102,10|0,0:0|0:0,0:0:0:0:
418,338,109317,2,0,P|407:285|423:234,1,107.999996704102,2|8,1:2|0:0,0:0:0:0:
303,341,109747,5,14,0:0:0:0:
207,298,109961,2,0,P|154:285|100:284,1,107.999996704102,0|0,0:0|1:0,0:0:0:0:
252,204,110389,2,0,P|146:178|37:185,1,215.999993408203,2|2,0:0|0:0,0:0:0:0:
123,72,111032,1,2,1:2:0:0:
277,149,111246,6,0,L|291:284,1,107.999996704102,2|8,0:0|0:0,0:0:0:0:
409,322,111674,2,0,L|397:214,1,107.999996704102,2|0,0:0|1:0,0:0:0:0:
504,78,112104,2,0,P|449:98|389:84,1,107.999996704102,2|8,0:0|0:0,0:0:0:0:
268,47,112532,1,2,0:0:0:0:
142,123,112747,1,2,1:2:0:0:
142,123,112960,6,0,P|131:182|127:230,1,107.999996704102,2|10,0:0|0:0,0:0:0:0:
260,319,113389,2,0,P|256:265|245:212,1,107.999996704102,2|8,0:0|0:0,0:0:0:0:
151,93,113817,1,2,0:0:0:0:
262,61,114032,2,0,P|316:59|373:77,1,107.999996704102,8|2,0:0|0:0,0:0:0:0:
484,153,114460,1,10,0:0:0:0:
484,153,114674,1,2,0:0:0:0:
399,286,114888,1,2,1:2:0:0:
360,116,115103,1,10,0:0:0:0:
360,116,115210,1,10,0:0:0:0:
360,116,115318,5,2,1:2:0:0:
275,225,115532,2,0,P|268:279|263:338,1,107.999996704102,6|0,0:0|0:0,0:0:0:0:
147,185,115960,1,2,1:2:0:0:
66,280,116174,1,2,1:2:0:0:
43,101,116389,1,10,0:0:0:0:
245,0,116603,6,0,L|256:117,1,99.0000030212403,14|0,0:0|0:0,0:0:0:0:
264,199,117032,1,2,1:2:0:0:
402,109,117246,2,0,B|430:144|430:144|406:301,1,198.000006042481,2|0,0:0|0:0,0:0:0:0:
378,90,117889,1,2,1:2:0:0:
313,226,118103,1,0,0:0:0:0:
229,145,118318,6,0,P|164:121|100:113,1,99.0000030212403,10|0,0:0|0:0,0:0:0:0:
34,107,118746,1,2,1:2:0:0:
28,276,118960,2,0,L|140:263,1,99.0000030212403,2|8,0:0|0:0,0:0:0:0:
164,286,119282,1,2,0:0:0:0:
202,308,119389,1,2,0:0:0:0:
0,282,119603,1,2,1:2:0:0:
64,164,119818,1,2,0:0:0:0:
64,164,119925,1,2,0:0:0:0:
64,164,120032,6,0,P|74:98|71:38,1,99.0000030212403,10|0,0:0|0:0,0:0:0:0:
139,217,120460,1,2,1:2:0:0:
357,172,120675,2,0,P|339:126|181:135,1,198.000006042481,2|0,0:0|0:0,0:0:0:0:
352,204,121318,1,2,1:2:0:0:
213,262,121532,1,0,0:0:0:0:
363,344,121746,6,0,P|375:275|372:211,1,99.0000030212403,10|0,0:0|0:0,0:0:0:0:
366,146,122174,1,2,1:2:0:0:
225,285,122388,2,0,L|91:275,1,99.0000030212403,2|8,0:0|0:0,0:0:0:0:
76,274,122709,1,2,0:0:0:0:
27,270,122817,1,2,0:0:0:0:
256,291,123031,1,2,1:2:0:0:
324,179,123246,1,2,0:0:0:0:
324,179,123353,1,2,0:0:0:0:
324,179,123460,6,0,P|373:185|420:198,1,99.0000030212403,14|0,0:0|0:0,0:0:0:0:
512,239,123888,1,2,1:2:0:0:
331,350,124103,2,0,B|309:205|309:205|298:241|272:255,1,198.000006042481,2|0,0:0|0:0,0:0:0:0:
337,383,124746,1,2,1:2:0:0:
212,337,124960,1,2,0:0:0:0:
212,337,125067,1,2,0:0:0:0:
212,337,125175,6,0,P|166:318|117:307,1,99.0000030212403,10|0,0:0|0:0,0:0:0:0:
17,299,125603,1,2,1:2:0:0:
83,167,125817,2,0,L|216:152,1,99.0000030212403,2|8,0:0|0:0,0:0:0:0:
227,134,126138,1,2,0:0:0:0:
274,111,126245,1,2,0:0:0:0:
61,190,126460,1,2,1:2:0:0:
149,302,126675,1,2,0:0:0:0:
149,302,126782,1,2,0:0:0:0:
149,302,126889,6,0,P|99:296|52:283,1,99.0000030212403,10|0,0:0|0:0,0:0:0:0:
197,213,127317,1,2,1:2:0:0:
276,350,127532,2,0,P|291:266|299:144,1,198.000006042481,2|0,0:0|0:0,0:0:0:0:
259,384,128175,1,2,1:2:0:0:
200,234,128389,1,0,0:0:0:0:
437,188,128603,5,10,1:2:0:0:
437,188,128817,1,0,0:0:0:0:
233,126,129032,1,2,1:2:0:0:
233,126,129246,1,2,0:0:0:0:
427,98,129460,6,0,L|491:90,1,49.5000015106202,8|2,1:2|0:0,0:0:0:0:
384,191,129674,2,0,L|334:184,1,49.5000015106202,10|0,1:2|0:0,0:0:0:0:
159,156,129889,1,2,1:2:0:0:
322,52,130103,1,10,0:0:0:0:
101,13,130317,6,0,B|135:67|135:67|121:198,1,180,14|0,0:0|1:0,0:0:0:0:
15,180,130960,2,0,L|24:269,1,90,2|8,0:0|0:0,0:0:0:0:
65,378,131388,1,2,0:0:0:0:
254,363,131603,6,0,P|216:289|122:305,1,180,2|8,1:2|0:0,0:0:0:0:
166,172,132245,1,2,0:0:0:0:
166,172,132353,1,2,0:0:0:0:
166,172,132460,1,2,1:2:0:0:
235,262,132674,1,2,0:0:0:0:
319,192,132888,1,8,0:0:0:0:
451,258,133103,2,0,P|456:302|444:347,2,90,2|2|2,0:0|1:2|0:0,0:0:0:0:
359,104,133745,5,10,0:0:0:0:
359,104,133960,2,0,L|349:193,1,90,2|0,0:0|1:0,0:0:0:0:
295,343,134388,1,2,0:0:0:0:
295,343,134603,1,8,0:0:0:0:
209,255,134817,1,2,0:0:0:0:
118,330,135031,1,2,1:2:0:0:
27,207,135246,6,0,B|95:199|95:199|134:225|134:225|215:216,1,180,2|0,0:0|0:0,0:0:0:0:
347,168,135888,1,2,1:2:0:0:
453,242,136103,1,2,0:0:0:0:
453,242,136210,1,2,0:0:0:0:
453,242,136317,2,0,P|445:194|450:149,1,90,10|0,0:0|0:0,0:0:0:0:
475,36,136745,1,2,1:2:0:0:
475,36,136960,1,8,0:0:0:0:
336,123,137174,6,0,P|244:138|183:78,1,180,10|2,0:0|1:2,0:0:0:0:
77,0,137817,2,0,L|65:99,1,90,2|8,0:0|0:0,0:0:0:0:
18,202,138245,1,2,0:0:0:0:
67,327,138460,6,0,B|133:301|133:301|254:325,1,180,2|8,1:2|0:0,0:0:0:0:
389,359,139103,1,2,0:0:0:0:
389,359,139210,1,2,0:0:0:0:
389,359,139317,1,2,1:2:0:0:
346,244,139531,1,2,0:0:0:0:
236,292,139745,1,8,0:0:0:0:
118,192,139960,2,0,L|105:311,2,90,2|2|2,0:0|1:2|0:0,0:0:0:0:
69,59,140602,5,10,0:0:0:0:
69,59,140817,2,0,P|106:76|155:83,1,90,2|0,0:0|1:0,0:0:0:0:
331,120,141246,2,0,P|286:126|245:144,1,90,2|8,0:0|0:0,0:0:0:0:
150,217,141674,1,2,0:0:0:0:
271,337,141888,2,0,L|282:232,1,90,2|0,1:2|0:0,0:0:0:0:
339,128,142317,5,10,0:0:0:0:
339,128,142424,1,2,0:0:0:0:
339,128,142531,1,2,0:0:0:0:
414,281,142745,1,2,1:2:0:0:
490,185,142960,1,2,0:0:0:0:
490,185,143174,2,0,L|477:75,1,90,10|8,0:0|0:0,0:0:0:0:
472,59,143495,1,8,0:0:0:0:
472,59,143603,1,10,1:2:0:0:
339,128,143817,1,8,0:0:0:0:
204,6,144032,6,0,B|211:72|211:72|192:112|192:112|201:210,1,180,14|0,0:0|1:0,0:0:0:0:
209,290,144675,2,0,L|308:278,1,90,2|8,0:0|0:0,0:0:0:0:
420,265,145103,1,2,0:0:0:0:
455,96,145318,6,0,P|372:98|351:179,1,180,2|8,1:2|0:0,0:0:0:0:
382,306,145960,1,2,0:0:0:0:
382,306,146068,1,2,0:0:0:0:
382,306,146175,1,2,1:2:0:0:
477,222,146389,1,2,0:0:0:0:
271,174,146603,1,8,0:0:0:0:
271,174,146818,2,0,L|280:295,2,90,2|2|2,0:0|1:2|0:0,0:0:0:0:
264,68,147460,5,10,0:0:0:0:
264,68,147675,2,0,P|219:55|177:55,1,90,2|0,0:0|1:2,0:0:0:0:
115,172,148103,2,0,P|159:172|203:160,1,90,2|8,0:0|0:0,0:0:0:0:
49,62,148532,1,2,0:0:0:0:
0,261,148746,1,2,1:2:0:0:
0,261,148960,6,0,P|96:254|186:245,1,180,2|2,0:0|0:0,0:0:0:0:
311,225,149603,1,2,1:2:0:0:
396,345,149818,1,2,0:0:0:0:
396,345,149925,1,2,0:0:0:0:
396,345,150032,2,0,L|406:253,1,90,10|0,0:0|0:0,0:0:0:0:
469,130,150460,1,2,1:2:0:0:
350,63,150675,1,10,0:0:0:0:
234,213,150889,6,0,B|204:185|204:185|191:15,1,180,14|2,0:0|1:2,0:0:0:0:
365,96,151532,2,0,P|324:120|279:125,1,90,2|8,0:0|0:0,0:0:0:0:
148,107,151960,1,2,0:0:0:0:
99,271,152175,1,2,1:2:0:0:
99,271,152282,1,2,0:0:0:0:
99,271,152389,1,2,0:0:0:0:
255,202,152604,6,0,L|166:191,1,90,10|2,0:0|0:0,0:0:0:0:
121,187,152925,1,2,0:0:0:0:
121,187,153032,1,2,1:2:0:0:
277,120,153246,2,0,L|366:109,1,90,2|8,0:0|0:0,0:0:0:0:
320,252,153675,1,2,0:0:0:0:
253,103,153889,1,2,1:2:0:0:
253,103,153996,1,2,0:0:0:0:
253,103,154104,1,2,0:0:0:0:
132,228,154317,6,0,P|87:225|43:234,1,90,10|0,0:0|0:0,0:0:0:0:
170,360,154746,1,10,0:0:0:0:
170,360,154960,1,0,0:0:0:0:
380,228,155174,6,0,P|425:225|469:234,1,90,10|0,0:0|0:0,0:0:0:0:
342,360,155603,1,10,0:0:0:0:
342,360,155817,1,2,0:0:0:0:
256,128,156032,5,14,1:2:0:0:
256,160,156460,1,10,0:0:0:0:
256,192,156889,2,0,P|307:182|355:154,1,90,2|10,1:2|0:0,0:0:0:0:
376,126,157210,1,10,0:0:0:0:
376,126,157317,2,0,L|393:273,1,135,2|0,1:2|0:0,0:0:0:0:
414,342,157746,5,14,0:0:0:0:
296,302,157960,2,0,P|239:298|187:313,1,107.999996704102,2|0,0:0|1:0,0:0:0:0:
0,359,158389,2,0,P|87:300|42:207,1,215.999993408203,2|2,0:0|0:0,0:0:0:0:
174,176,159032,1,2,1:2:0:0:
31,80,159246,6,0,L|138:68,1,107.999996704102,2|8,0:0|0:0,0:0:0:0:
281,187,159674,2,0,L|173:175,1,107.999996704102,2|0,0:0|1:0,0:0:0:0:
304,77,160104,1,2,0:0:0:0:
391,149,160318,1,8,0:0:0:0:
271,299,160532,5,2,0:0:0:0:
271,299,160746,1,2,1:2:0:0:
179,199,160961,2,0,P|227:177|280:186,1,107.999996704102,2|8,0:0|0:0,0:0:0:0:
421,315,161389,5,2,0:0:0:0:
421,315,161603,1,2,1:2:0:0:
486,219,161818,2,0,P|482:163|464:113,1,107.999996704102,2|8,0:0|0:0,0:0:0:0:
368,8,162246,5,2,0:0:0:0:
319,113,162461,1,2,1:2:0:0:
180,6,162675,2,0,P|197:57|185:113,1,107.999996704102,2|8,0:0|0:0,0:0:0:0:
74,213,163103,2,0,P|64:160|81:110,1,107.999996704102,2|0,0:0|1:0,0:0:0:0:
186,221,163532,1,2,0:0:0:0:
186,221,163746,6,0,L|303:232,1,107.999996704102,10|0,0:0|0:0,0:0:0:0:
389,331,164174,2,0,L|271:342,1,107.999996704102,2|8,1:2|0:0,0:0:0:0:
138,361,164604,5,14,0:0:0:0:
88,267,164818,2,0,P|81:207|102:156,1,107.999996704102,0|0,0:0|1:0,0:0:0:0:
3,43,165246,2,0,L|217:65,1,215.999993408203,2|2,0:0|0:0,0:0:0:0:
312,123,165889,1,2,1:2:0:0:
467,30,166103,6,0,P|448:80|448:133,1,107.999996704102,2|8,0:0|0:0,0:0:0:0:
355,250,166532,2,0,P|353:189|320:124,1,107.999996704102,2|0,0:0|1:0,0:0:0:0:
213,15,166961,2,0,L|203:122,1,107.999996704102,2|8,0:0|0:0,0:0:0:0:
100,115,167389,1,2,0:0:0:0:
100,115,167603,2,0,L|109:222,1,107.999996704102,2|2,1:2|0:0,0:0:0:0:
110,346,168032,5,10,0:0:0:0:
236,255,168246,2,0,P|289:237|354:246,1,107.999996704102,2|0,0:0|1:0,0:0:0:0:
438,357,168674,2,0,P|384:360|333:343,1,107.999996704102,2|8,0:0|0:0,0:0:0:0:
236,255,169103,5,2,0:0:0:0:
101,350,169318,1,2,1:2:0:0:
101,350,169532,2,0,L|92:232,1,107.999996704102,2|8,0:0|0:0,0:0:0:0:
92,242,170175,5,0,1:0:0:0:
73,126,170389,1,2,0:0:0:0:
73,126,170603,2,0,P|134:151|190:141,1,107.999996704102,0|8,1:0|0:0,0:0:0:0:
286,30,171032,2,0,P|278:138|281:196,1,161.999995056153,10|0,1:2|0:0,0:0:0:0:
301,283,171460,5,14,0:0:0:0:
438,321,171675,2,0,L|429:214,1,107.999996704102,0|0,0:0|1:0,0:0:0:0:
409,88,172103,2,0,P|466:123|442:26,1,215.999993408203,2|2,0:0|0:0,0:0:0:0:
356,152,172746,1,2,1:2:0:0:
231,43,172960,6,0,P|253:91|258:145,1,107.999996704102,2|8,0:0|0:0,0:0:0:0:
138,231,173388,2,0,P|142:178|165:129,1,107.999996704102,2|0,0:0|1:0,0:0:0:0:
257,26,173818,1,2,0:0:0:0:
337,188,174032,1,8,0:0:0:0:
458,138,174246,5,2,0:0:0:0:
458,138,174460,1,2,1:2:0:0:
511,243,174675,2,0,P|445:240|381:282,1,107.999996704102,2|8,0:0|0:0,0:0:0:0:
282,375,175103,5,2,0:0:0:0:
282,375,175317,1,2,1:2:0:0:
229,270,175532,2,0,P|295:273|359:231,1,107.999996704102,2|8,0:0|0:0,0:0:0:0:
443,151,175960,5,2,0:0:0:0:
362,34,176175,1,2,1:2:0:0:
243,92,176389,2,0,P|191:99|123:105,1,107.999996704102,2|8,0:0|0:0,0:0:0:0:
43,202,176817,2,0,P|96:206|150:214,1,107.999996704102,2|0,0:0|1:0,0:0:0:0:
106,28,177246,1,2,0:0:0:0:
240,127,177460,6,0,P|301:118|361:144,1,107.999996704102,10|0,0:0|0:0,0:0:0:0:
404,259,177889,2,0,P|352:273|299:264,1,107.999996704102,2|8,1:2|0:0,0:0:0:0:
171,187,178318,5,14,0:0:0:0:
236,361,178532,2,0,P|249:308|258:247,1,107.999996704102,0|0,0:0|1:0,0:0:0:0:
288,117,178960,2,0,P|290:224|270:330,1,215.999993408203,2|2,0:0|0:0,0:0:0:0:
171,187,179603,1,2,1:2:0:0:
329,148,179817,6,0,L|442:141,1,107.999996704102,2|8,0:0|0:0,0:0:0:0:
300,38,180246,2,0,P|232:24|161:18,1,107.999996704102,2|0,0:0|1:0,0:0:0:0:
75,179,180674,2,0,P|128:172|181:160,1,107.999996704102,2|8,0:0|0:0,0:0:0:0:
286,58,181103,1,2,0:0:0:0:
357,195,181318,1,2,1:2:0:0:
357,195,181531,6,0,P|367:248|371:301,1,107.999996704102,0|10,0:0|0:0,0:0:0:0:
211,169,181960,2,0,P|200:221|196:275,1,107.999996704102,2|8,0:0|0:0,0:0:0:0:
147,93,182389,2,0,L|261:82,2,107.999996704102,2|8|2,0:0|0:0|0:0,0:0:0:0:
32,112,183031,1,10,0:0:0:0:
32,112,183245,1,2,0:0:0:0:
129,210,183459,1,2,1:2:0:0:
302,83,183674,1,10,0:0:0:0:
302,83,183781,1,10,0:0:0:0:
302,83,183889,5,2,1:2:0:0:
365,201,184103,2,0,P|381:252|396:310,1,107.999996704102,6|0,0:0|0:0,0:0:0:0:
457,159,184531,1,2,1:2:0:0:
457,159,184745,1,2,1:2:0:0:
286,60,184960,1,10,0:0:0:0:
181,167,185174,6,0,P|177:111|154:53,1,99.0000030212403,14|0,0:0|0:0,0:0:0:0:
34,178,185603,1,2,1:2:0:0:
34,278,185817,2,0,B|108:270|108:270|152:296|152:296|259:283,1,198.000006042481,2|0,0:0|0:0,0:0:0:0:
356,226,186460,1,2,1:2:0:0:
456,315,186674,1,0,0:0:0:0:
456,315,186889,6,0,P|448:266|463:219,1,99.0000030212403,10|0,0:0|0:0,0:0:0:0:
376,60,187317,1,2,1:2:0:0:
376,60,187532,2,0,P|383:108|368:155,1,99.0000030212403,2|8,0:0|0:0,0:0:0:0:
351,188,187853,1,2,0:0:0:0:
351,188,187960,1,2,0:0:0:0:
212,85,188174,1,2,1:2:0:0:
115,123,188389,1,2,0:0:0:0:
115,123,188496,1,2,0:0:0:0:
115,123,188603,6,0,L|124:227,1,99.0000030212403,10|0,0:0|0:0,0:0:0:0:
211,331,189032,1,2,1:2:0:0:
363,257,189246,2,0,P|349:209|226:262,1,198.000006042481,2|0,0:0|0:0,0:0:0:0:
181,349,189889,1,2,1:2:0:0:
121,236,190103,1,0,0:0:0:0:
121,236,190317,6,0,P|128:187|151:143,1,99.0000030212403,10|0,0:0|0:0,0:0:0:0:
272,49,190745,1,2,1:2:0:0:
383,40,190960,2,0,L|390:138,1,99.0000030212403,2|8,0:0|0:0,0:0:0:0:
397,187,191281,1,2,0:0:0:0:
397,187,191389,1,2,0:0:0:0:
508,289,191602,1,2,1:2:0:0:
411,350,191817,1,2,0:0:0:0:
411,350,191924,1,2,0:0:0:0:
411,350,192031,6,0,P|362:353|315:333,1,99.0000030212403,14|0,0:0|0:0,0:0:0:0:
209,245,192459,1,2,1:2:0:0:
147,374,192674,2,0,B|181:311|181:311|160:182,1,198.000006042481,2|0,0:0|0:0,0:0:0:0:
85,48,193317,1,2,1:2:0:0:
56,155,193531,1,0,0:0:0:0:
212,90,193746,6,0,P|279:75|344:76,1,99.0000030212403,10|0,0:0|0:0,0:0:0:0:
434,80,194174,1,2,1:2:0:0:
486,192,194389,2,0,P|418:177|353:178,1,99.0000030212403,2|8,0:0|0:0,0:0:0:0:
350,184,194710,1,2,0:0:0:0:
350,184,194817,1,2,0:0:0:0:
333,349,195031,1,2,1:2:0:0:
235,278,195246,1,2,0:0:0:0:
235,278,195353,1,2,0:0:0:0:
235,278,195460,6,0,L|224:177,1,99.0000030212403,10|0,0:0|0:0,0:0:0:0:
283,70,195888,1,2,1:2:0:0:
283,70,196103,2,0,B|164:33|199:110|76:73,1,198.000006042481,2|0,0:0|0:0,0:0:0:0:
36,205,196746,1,2,1:2:0:0:
132,114,196960,1,0,0:0:0:0:
224,179,197174,6,0,P|241:240|228:311,1,99.0000030212403,10|0,0:0|0:0,0:0:0:0:
339,381,197603,1,2,1:2:0:0:
339,381,197817,2,0,P|338:331|354:284,1,99.0000030212403,2|8,0:0|0:0,0:0:0:0:
386,249,198139,1,2,0:0:0:0:
426,220,198246,2,0,L|419:154,1,49.5000015106202,2|0,0:0|0:0,0:0:0:0:
406,54,198460,1,2,1:2:0:0:
256,152,198674,1,2,0:0:0:0:
158,11,198889,6,0,L|174:139,1,103.500001974106,14|0,0:0|0:0,0:0:0:0:
162,165,199210,1,2,0:0:0:0:
154,217,199317,1,2,1:2:0:0:
0,139,199532,2,0,P|49:123|100:127,1,103.500001974106,2|8,0:0|0:0,0:0:0:0:
237,200,199960,1,2,0:0:0:0:
237,200,200067,1,0,0:0:0:0:
237,200,200174,2,0,L|218:342,1,103.500001974106,6|0,1:2|0:0,0:0:0:0:
327,158,200603,5,10,0:0:0:0:
398,340,200817,1,0,0:0:0:0:
398,340,200924,1,2,0:0:0:0:
398,340,201031,1,2,1:2:0:0:
511,257,201246,2,0,P|498:193|387:243,1,207.000003948212,2|2,0:0|0:0,0:0:0:0:
451,80,201889,1,6,1:2:0:0:
305,64,202103,1,2,0:0:0:0:
305,64,202210,1,2,0:0:0:0:
305,64,202317,6,0,P|246:51|169:18,1,103.500001974106,14|0,0:0|0:0,0:0:0:0:
368,0,202745,1,2,1:2:0:0:
422,163,202960,2,0,P|419:265|407:387,1,207.000003948212,2|0,0:0|0:0,0:0:0:0:
311,271,203603,1,6,1:2:0:0:
504,184,203817,1,0,0:0:0:0:
335,37,204031,5,10,0:0:0:0:
320,240,204245,1,0,0:0:0:0:
320,240,204352,1,2,0:0:0:0:
320,240,204459,1,2,1:2:0:0:
215,121,204674,2,0,P|263:123|321:132,1,103.500001974106,2|8,0:0|0:0,0:0:0:0:
364,146,204996,1,2,0:0:0:0:
411,179,205103,1,2,0:0:0:0:
466,54,205317,1,6,1:2:0:0:
512,245,205531,1,10,0:0:0:0:
512,245,205746,6,0,P|463:251|405:253,1,103.500001974106,14|2,0:0|0:0,0:0:0:0:
358,248,206067,1,2,0:0:0:0:
306,227,206174,1,2,1:2:0:0:
188,152,206389,2,0,P|203:90|321:140,1,207.000003948212,2|0,0:0|0:0,0:0:0:0:
256,304,207031,2,0,P|208:289|151:278,1,103.500001974106,6|2,1:2|0:0,0:0:0:0:
355,213,207460,5,10,0:0:0:0:
413,371,207674,1,2,0:0:0:0:
413,371,207781,1,2,0:0:0:0:
413,371,207888,1,2,1:2:0:0:
495,180,208103,2,0,B|422:172|375:196,1,103.500001974106,2|10,0:0|0:0,0:0:0:0:
349,217,208424,1,2,0:0:0:0:
309,259,208532,1,2,0:0:0:0:
168,179,208746,1,6,1:2:0:0:
168,179,208960,1,2,0:0:0:0:
325,119,209174,6,0,L|319:18,2,99.0000030212403,10|0|10,0:0|0:0|0:0,0:0:0:0:
436,286,209817,2,0,P|450:190|460:65,1,198.000006042481,2|0,0:0|0:0,0:0:0:0:
355,213,210460,1,10,0:0:0:0:
355,213,210674,1,0,0:0:0:0:
480,64,210889,5,14,1:2:0:0:
256,160,211317,1,14,1:2:0:0:
32,64,211746,1,14,1:2:0:0:
256,64,211960,1,10,0:0:0:0:
256,36,212067,1,10,0:0:0:0:
256,8,212174,5,14,1:2:0:0:
256,192,212389,1,8,0:0:0:0:
256,192,212603,5,14,0:0:0:0:
139,141,212817,1,2,0:0:0:0:
233,317,213246,5,2,0:0:0:0:
233,317,213674,2,0,P|277:329|312:332,1,76.5000014591217,2|2,0:0|0:0,0:0:0:0:
440,332,214103,1,2,0:0:0:0:
440,332,214531,1,2,0:0:0:0:
512,175,214960,1,2,0:0:0:0:
350,240,215388,2,0,L|340:152,1,76.5000014591217,2|2,0:0|0:0,0:0:0:0:
329,59,215817,5,2,0:0:0:0:
329,59,216246,2,0,P|291:68|253:68,1,76.5000014591217,2|2,0:0|0:0,0:0:0:0:
143,53,216674,5,2,0:0:0:0:
143,53,217103,2,0,L|150:129,1,76.5000014591217,2|2,0:0|0:0,0:0:0:0:
164,228,217531,5,2,0:0:0:0:
307,96,217960,1,2,0:0:0:0:
274,320,218388,1,2,0:0:0:0:
468,218,218817,1,2,0:0:0:0:
468,218,219031,2,0,P|431:208|392:208,1,76.5000014591217,0|2,0:0|0:0,0:0:0:0:
235,232,219460,5,2,0:0:0:0:
253,103,219674,1,2,0:0:0:0:
82,44,220103,5,2,0:0:0:0:
82,44,220531,2,0,P|71:91|81:151,1,76.5000014591217,2|2,0:0|0:0,0:0:0:0:
99,235,220960,5,2,0:0:0:0:
99,235,221388,1,2,0:0:0:0:
286,131,221817,1,2,0:0:0:0:
330,277,222246,5,2,0:0:0:0:
243,226,222460,1,2,0:0:0:0:
182,378,222674,1,2,0:0:0:0:
182,378,222888,6,0,P|181:339|168:302,1,76.5000014591217,0|2,0:0|0:0,0:0:0:0:
76,139,223531,1,2,0:0:0:0:
76,139,223960,2,0,L|0:146,2,76.5000014591217,2|2|2,0:0|0:0|0:0,0:0:0:0:
93,164,225031,1,2,0:0:0:0:
266,230,225460,5,2,1:2:0:0:
266,230,225888,1,2,0:0:0:0:
266,230,226317,6,0,P|204:171|126:205,1,180,14|8,0:0|0:0,0:0:0:0:
45,312,226959,2,0,P|34:268|21:225,1,90,2|8,0:0|0:0,0:0:0:0:
0,381,227388,1,2,0:0:0:0:
124,290,227603,1,10,0:0:0:0:
247,366,227817,6,0,B|319:357|319:357|352:374|352:374|423:365,1,180,2|2,0:0|0:0,0:0:0:0:
512,354,228460,1,10,0:0:0:0:
377,260,228674,2,0,P|359:220|351:176,1,90,2|8,0:0|0:0,0:0:0:0:
373,62,229103,5,2,0:0:0:0:
373,62,229317,1,10,0:0:0:0:
236,56,229532,2,0,P|180:60|53:77,1,180,2|2,0:0|0:0,0:0:0:0:
147,20,230174,1,10,0:0:0:0:
165,152,230389,2,0,L|153:258,1,90,2|8,0:0|0:0,0:0:0:0:
136,342,230817,5,2,0:0:0:0:
136,342,231032,1,10,0:0:0:0:
262,306,231246,2,0,P|343:296|366:295,1,90,2|8,0:0|0:0,0:0:0:0:
208,181,231674,2,0,P|289:191|312:192,1,90,2|8,0:0|0:0,0:0:0:0:
413,174,232103,1,2,0:0:0:0:
477,318,232317,6,0,P|491:276|501:199,1,90,10|0,0:0|0:0,0:0:0:0:
421,68,232746,2,0,P|407:110|397:187,1,90,10|0,0:0|0:0,0:0:0:0:
414,271,233174,6,0,L|236:251,1,180,10|8,0:0|0:0,0:0:0:0:
121,237,233817,2,0,P|170:194|208:168,1,90,2|8,0:0|0:0,0:0:0:0:
283,139,234246,1,2,0:0:0:0:
246,13,234461,1,10,0:0:0:0:
150,79,234674,6,0,L|41:68,1,90,2|8,0:0|0:0,0:0:0:0:
14,226,235103,2,0,P|68:216|117:195,1,90,2|8,0:0|0:0,0:0:0:0:
224,135,235532,2,0,L|214:250,1,90,2|8,0:0|0:0,0:0:0:0:
201,350,235961,1,2,0:0:0:0:
321,294,236175,1,10,0:0:0:0:
128,252,236389,6,0,P|131:203|146:166,1,90,2|8,0:0|1:2,0:0:0:0:
242,50,236818,2,0,P|259:91|261:136,1,90,2|8,0:0|1:2,0:0:0:0:
48,276,237246,2,0,P|49:199|116:78,1,180,2|10,0:0|1:2,0:0:0:0:
216,224,237889,1,10,1:2:0:0:
216,224,238103,2,0,L|313:218,1,90,10|10,1:2|1:2,0:0:0:0:
481,216,238532,1,10,0:0:0:0:
481,216,238639,1,10,0:0:0:0:
481,216,238746,5,10,1:2:0:0:
368,115,238960,2,0,L|380:5,1,90,6|0,0:0|0:0,0:0:0:0:
399,193,239389,1,2,0:0:0:0:
399,193,239603,1,2,0:0:0:0:
256,120,239817,1,2,0:0:0:0:
141,256,240032,6,0,P|191:240|255:256,1,99.0000030212403,14|0,0:0|0:0,0:0:0:0:
345,296,240460,1,2,1:2:0:0:
499,208,240675,2,0,P|426:136|358:188,1,198.000006042481,2|0,0:0|0:0,0:0:0:0:
318,316,241318,1,2,1:2:0:0:
227,243,241532,1,0,0:0:0:0:
139,381,241746,6,0,L|126:272,1,99.0000030212403,10|0,0:0|0:0,0:0:0:0:
33,160,242175,1,2,1:2:0:0:
33,160,242389,2,0,L|21:258,1,99.0000030212403,2|8,0:0|0:0,0:0:0:0:
17,301,242711,1,2,0:0:0:0:
17,301,242818,1,2,0:0:0:0:
151,183,243032,1,2,1:2:0:0:
89,65,243247,1,2,0:0:0:0:
89,65,243354,1,2,0:0:0:0:
89,65,243461,6,0,P|152:81|211:75,1,99.0000030212403,10|0,0:0|0:0,0:0:0:0:
287,52,243889,1,2,1:2:0:0:
395,182,244104,2,0,B|334:153|334:153|181:178,1,198.000006042481,2|0,0:0|0:0,0:0:0:0:
54,229,244747,1,2,1:2:0:0:
117,133,244961,1,0,0:0:0:0:
180,285,245175,6,0,P|187:335|172:381,1,99.0000030212403,10|0,0:0|0:0,0:0:0:0:
289,202,245603,1,2,1:2:0:0:
289,202,245817,6,0,P|281:252|297:298,1,99.0000030212403,2|8,0:0|0:0,0:0:0:0:
326,333,246139,1,2,0:0:0:0:
326,333,246247,1,2,0:0:0:0:
442,203,246460,1,2,1:2:0:0:
373,102,246675,1,2,0:0:0:0:
373,102,246782,1,2,0:0:0:0:
373,102,246889,6,0,L|269:91,1,99.0000030212403,14|0,0:0|0:0,0:0:0:0:
165,125,247317,1,2,1:2:0:0:
65,5,247532,2,0,B|72:76|72:76|48:114|48:114|58:196,1,198.000006042481,2|0,0:0|0:0,0:0:0:0:
147,362,248175,1,2,1:2:0:0:
182,240,248389,1,0,0:0:0:0:
345,296,248604,6,0,P|299:314|250:316,1,99.0000030212403,10|0,0:0|0:0,0:0:0:0:
364,193,249032,1,2,1:2:0:0:
364,193,249246,6,0,P|413:194|458:213,1,99.0000030212403,2|8,0:0|0:0,0:0:0:0:
493,238,249568,1,2,0:0:0:0:
493,238,249675,1,2,0:0:0:0:
399,66,249889,1,2,1:2:0:0:
273,56,250104,1,2,0:0:0:0:
273,56,250211,1,2,0:0:0:0:
273,56,250318,6,0,L|261:157,1,99.0000030212403,10|0,0:0|0:0,0:0:0:0:
193,251,250746,1,2,1:2:0:0:
344,346,250961,2,0,B|235:303|240:387|138:341,1,198.000006042481,2|0,0:0|0:0,0:0:0:0:
7,279,251604,1,2,1:2:0:0:
43,384,251818,1,0,0:0:0:0:
124,248,252032,6,0,L|109:115,1,99.0000030212403,10|0,0:0|0:0,0:0:0:0:
212,25,252461,1,2,1:2:0:0:
211,25,252674,2,0,L|221:123,1,99.0000030212403,2|8,0:0|0:0,0:0:0:0:
264,144,252997,1,2,0:0:0:0:
297,181,253104,2,0,P|297:202|294:233,1,49.5000015106202,2|0,0:0|0:0,0:0:0:0:
273,342,253318,1,2,1:2:0:0:
156,220,253532,1,2,0:0:0:0:
320,198,253746,6,0,L|446:182,1,99.0000030212403,14|2,0:0|0:0,0:0:0:0:
463,180,254067,1,2,0:0:0:0:
512,174,254174,1,2,1:2:0:0:
461,347,254388,2,0,P|411:349|364:334,1,99.0000030212403,2|8,0:0|0:0,0:0:0:0:
278,259,254817,1,2,0:0:0:0:
121,362,255031,2,0,L|133:243,1,99.0000030212403,2|0,1:2|0:0,0:0:0:0:
152,110,255460,5,10,0:0:0:0:
233,204,255674,1,2,0:0:0:0:
233,204,255781,1,2,0:0:0:0:
233,204,255888,1,2,1:2:0:0:
370,48,256103,2,0,P|400:100|418:168,1,99.0000030212403,2|10,0:0|0:0,0:0:0:0:
416,186,256424,1,2,0:0:0:0:
410,243,256532,1,2,0:0:0:0:
362,384,256746,1,2,1:2:0:0:
276,293,256960,1,2,0:0:0:0:
276,293,257067,1,2,0:0:0:0:
276,293,257174,6,0,P|245:240|227:172,1,99.0000030212403,10|2,0:0|0:0,0:0:0:0:
160,352,257602,1,0,1:0:0:0:
20,229,257817,2,0,P|108:234|117:144,1,198.000006042481,2|0,0:0|0:0,0:0:0:0:
249,188,258460,1,2,1:2:0:0:
249,188,258674,1,0,0:0:0:0:
301,23,258888,5,10,0:0:0:0:
390,131,259102,1,2,0:0:0:0:
390,131,259209,1,2,0:0:0:0:
390,131,259316,1,2,1:2:0:0:
238,78,259531,2,0,P|188:71|139:69,1,99.0000030212403,2|10,0:0|0:0,0:0:0:0:
95,84,259853,1,2,0:0:0:0:
44,103,259960,1,2,0:0:0:0:
236,0,260174,1,2,1:2:0:0:
293,157,260388,1,2,0:0:0:0:
293,157,260496,1,2,0:0:0:0:
293,157,260603,6,0,P|342:154|391:148,1,99.0000030212403,14|0,0:0|0:0,0:0:0:0:
368,264,261031,1,2,1:2:0:0:
219,86,261246,2,0,P|200:242|187:312,1,198.000006042481,2|0,0:0|0:0,0:0:0:0:
31,244,261888,2,0,P|78:230|127:220,1,99.0000030212403,2|2,1:2|0:0,0:0:0:0:
300,185,262317,5,10,0:0:0:0:
372,291,262531,1,2,0:0:0:0:
372,291,262638,1,2,0:0:0:0:
372,291,262745,1,2,1:2:0:0:
501,170,262960,2,0,P|446:155|377:116,1,99.0000030212403,2|10,0:0|0:0,0:0:0:0:
376,98,263282,1,2,0:0:0:0:
354,46,263389,1,2,0:0:0:0:
244,184,263603,1,2,1:2:0:0:
152,90,263817,1,2,0:0:0:0:
152,90,263924,1,2,0:0:0:0:
152,90,264032,6,0,P|204:86|251:80,2,99.0000030212403,10|0|10,0:0|0:0|0:0,0:0:0:0:
231,218,264674,2,0,P|178:214|27:184,1,198.000006042481,2|0,0:0|0:0,0:0:0:0:
152,176,265317,1,2,1:2:0:0:
152,176,265531,1,0,0:0:0:0:
214,344,265746,5,10,1:2:0:0:
278,246,265960,1,8,0:0:0:0:
278,246,266067,1,8,0:0:0:0:
278,246,266173,1,2,1:2:0:0:
421,367,266389,2,0,L|409:243,1,99.0000030212403,10|8,1:2|1:2,0:0:0:0:
407,219,266710,1,2,0:0:0:0:
401,162,266817,1,2,0:0:0:0:
265,270,267031,1,2,1:2:0:0:
131,149,267245,1,2,0:0:0:0:
256,192,267460,12,0,270889,0:0:0:0:
