osu file format v14

[General]
AudioFilename: audio.mp3
AudioLeadIn: 0
PreviewTime: 96204
Countdown: 0
SampleSet: Soft
StackLeniency: 0.7
Mode: 0
LetterboxInBreaks: 0
WidescreenStoryboard: 0

[Editor]
Bookmarks: 312,14026,27740,41454,55169,68883,82597,110026,123740,137454,151169,164883,178597,192312,206026,219740,233454,247169,260883,288097
DistanceSpacing: 0.6
BeatDivisor: 4
GridSize: 32
TimelineZoom: 3.399999

[Metadata]
Title:Sweet Refrain
TitleUnicode:Sweet Refrain
Artist:Perfume
ArtistUnicode:Perfume
Creator:eiri-
Version:Memory
Source:
Tags:Ayyri MaridiuS COSMIC EXPLORER jpop
BeatmapID:1872256
BeatmapSetID:896085

[Difficulty]
HPDrainRate:5
CircleSize:4
OverallDifficulty:8
ApproachRate:8.5
SliderMultiplier:1.8
SliderTickRate:1

[Events]
//Background and Video events
0,0,"Sweet Refrain.jpg",0,0
//Break Periods
//Storyboard Layer 0 (Background)
//Storyboard Layer 1 (Fail)
//Storyboard Layer 2 (Pass)
//Storyboard Layer 3 (Foreground)
//Storyboard Sound Samples

[TimingPoints]
312,428.571428571429,4,2,1,75,1,0
312,-117.647058823529,4,2,1,75,0,0
13597,-200,4,2,1,75,0,0
14026,-100,4,2,1,80,0,0
38026,-200,4,2,1,75,0,0
41026,-133.333333333333,4,2,1,75,0,0
41240,-100,4,2,1,75,0,0
41454,-90.9090909090909,4,2,1,80,0,0
65454,-200,4,2,1,75,0,0
68454,-133.333333333333,4,2,1,75,0,0
68669,-100,4,2,1,75,0,0
68883,-83.3333333333333,4,2,1,80,0,0
96312,-83.3333333333333,4,2,1,100,0,1
108526,-100,4,2,1,90,0,0
110026,-83.3333333333333,4,2,1,100,0,1
122026,-83.3333333333333,4,2,1,90,0,0
122883,-83.3333333333333,4,2,1,100,0,1
123740,-100,4,2,1,80,0,0
137454,-100,4,2,1,75,0,0
151169,-90.9090909090909,4,2,1,80,0,0
175169,-133.333333333333,4,2,1,75,0,0
177954,-200,4,2,1,75,0,0
178169,-133.333333333333,4,2,1,75,0,0
178383,-100,4,2,1,75,0,0
178597,-83.3333333333333,4,2,1,80,0,0
202597,-100,4,2,1,80,0,0
206026,-83.3333333333333,4,2,1,100,0,1
218240,-100,4,2,1,90,0,0
219740,-83.3333333333333,4,2,1,100,0,1
231740,-100,4,2,1,90,0,0
232597,-83.3333333333333,4,2,1,100,0,1
233454,-100,4,2,1,80,0,0
247169,-100,4,2,1,75,0,0
260883,-100,4,2,1,70,0,0
274597,-100,4,2,1,65,0,0
288097,-100,4,2,1,60,0,0

[Colours]
Combo1 : 0,98,196
Combo2 : 0,147,147
Combo3 : 116,170,237
Combo4 : 128,128,255

[HitObjects]
430,346,312,6,0,L|417:259,1,76.5000014591217,8|0,0:0|0:0,0:0:0:0:
319,260,740,2,0,L|371:189,1,76.5000014591217,2|0,0:0|0:0,0:0:0:0:
306,114,1169,2,0,P|346:98|392:101,1,76.5000014591217,8|0,0:0|0:0,0:0:0:0:
480,147,1597,1,2,0:0:0:0:
380,7,1812,1,0,0:0:0:0:
222,69,2026,6,0,P|179:58|140:38,1,76.5000014591217,8|0,0:0|0:0,0:0:0:0:
148,136,2454,2,0,P|109:158|68:172,1,76.5000014591217,2|0,0:0|0:0,0:0:0:0:
143,235,2883,2,0,L|123:322,1,76.5000014591217,8|0,0:0|0:0,0:0:0:0:
38,384,3312,1,0,1:0:0:0:
0,264,3526,1,0,0:0:0:0:
195,346,3740,6,0,L|287:335,1,76.5000014591217,8|0,0:0|0:0,0:0:0:0:
251,206,4169,2,0,L|323:263,1,76.5000014591217,2|0,0:0|0:0,0:0:0:0:
390,147,4597,2,0,P|401:188|401:239,1,76.5000014591217,8|0,0:0|0:0,0:0:0:0:
378,341,5026,1,2,0:0:0:0:
510,260,5240,1,0,0:0:0:0:
483,143,5454,6,0,P|500:95|520:53,1,76.5000014591217,8|0,0:0|0:0,0:0:0:0:
400,69,5883,2,0,P|378:23|362:-20,1,76.5000014591217,2|0,0:0|0:0,0:0:0:0:
288,75,6312,2,0,L|190:64,1,76.5000014591217,8|0,0:0|0:0,0:0:0:0:
76,48,6740,1,0,1:0:0:0:
164,0,6954,1,0,0:0:0:0:
253,154,7169,6,0,B|307:164|307:164|346:135|346:135|410:148,1,153.000002918243,10|0,0:0|0:0,0:0:0:0:
500,164,7812,1,10,0:0:0:0:
397,261,8026,1,2,1:2:0:0:
361,60,8240,1,2,0:0:0:0:
361,60,8347,1,2,0:0:0:0:
361,60,8454,2,0,L|299:42,1,38.2500007295609,2|0,0:0|0:0,0:0:0:0:
212,20,8669,1,10,0:0:0:0:
165,143,8883,6,0,B|125:149|125:149|78:133,1,76.5000014591217,2|10,0:0|0:0,0:0:0:0:
1,90,9312,1,2,0:0:0:0:
135,30,9526,1,8,0:0:0:0:
135,30,9633,1,8,0:0:0:0:
135,30,9740,5,2,1:2:0:0:
254,106,9954,1,2,0:0:0:0:
254,106,10062,1,2,0:0:0:0:
254,106,10169,2,0,L|320:100,1,38.2500007295609,10|0,0:0|0:0,0:0:0:0:
413,93,10383,1,10,0:0:0:0:
479,191,10597,6,0,L|484:244,1,38.2500007295609,10|0,0:0|0:0,0:0:0:0:
376,298,10812,1,2,0:0:0:0:
376,298,10919,1,2,0:0:0:0:
376,298,11026,2,0,L|371:245,1,38.2500007295609,10|0,0:0|0:0,0:0:0:0:
362,120,11240,1,2,0:0:0:0:
232,186,11454,5,2,1:2:0:0:
267,326,11669,1,2,0:0:0:0:
267,326,11776,1,2,0:0:0:0:
267,326,11883,2,0,L|200:319,1,38.2500007295609,10|0,0:0|0:0,0:0:0:0:
153,257,12097,2,0,L|86:250,1,38.2500007295609,10|0,0:0|0:0,0:0:0:0:
0,241,12312,5,2,1:2:0:0:
26,107,12526,1,8,0:0:0:0:
165,223,12740,5,2,1:2:0:0:
132,55,12954,1,8,0:0:0:0:
313,120,13169,5,10,0:0:0:0:
313,120,13383,1,10,0:0:0:0:
313,120,13597,6,2,L|370:117,1,45,2|2,0:0|0:0,0:1:0:0:
335,212,14026,6,0,P|331:256|341:299,1,90,14|0,0:0|0:0,0:0:0:0:
196,204,14454,2,0,P|200:160|189:116,1,90,2|0,1:2|0:0,0:0:0:0:
0,200,14883,1,10,0:0:0:0:
118,287,15097,1,2,0:0:0:0:
109,146,15312,1,2,1:2:0:0:
26,301,15526,1,0,0:0:0:0:
17,89,15740,6,0,L|30:-11,1,90,10|0,0:0|0:0,0:0:0:0:
154,71,16169,2,0,L|215:-9,1,90,2|0,1:2|0:0,0:0:0:0:
281,123,16597,2,0,P|317:101|376:90,1,90,10|2,0:0|0:0,0:0:0:0:
461,177,17026,1,2,1:2:0:0:
461,177,17240,1,8,0:0:0:0:
329,268,17454,6,0,L|310:375,1,90,10|0,0:0|0:0,0:0:0:0:
169,214,17883,2,0,L|188:321,1,90,2|0,1:2|0:0,0:0:0:0:
30,255,18312,2,0,P|37:303|17:370,1,90,10|2,0:0|0:0,0:0:0:0:
68,142,18740,2,0,P|60:93|81:27,1,90,2|0,1:2|0:0,0:0:0:0:
275,27,19169,5,10,0:0:0:0:
166,97,19383,1,0,0:0:0:0:
304,130,19597,1,2,1:2:0:0:
304,130,19812,1,0,0:0:0:0:
217,218,20026,2,0,P|209:266|230:333,1,90,10|2,0:0|0:0,0:0:0:0:
119,186,20454,5,2,1:2:0:0:
52,365,20669,1,0,1:0:0:0:
2,241,20883,6,0,L|103:285,1,90,10|0,0:0|0:0,0:0:0:0:
246,339,21312,2,0,L|202:238,1,90,2|0,1:2|0:0,0:0:0:0:
326,102,21740,1,10,0:0:0:0:
334,256,21954,1,2,0:0:0:0:
223,153,22169,1,2,1:2:0:0:
399,162,22383,1,0,0:0:0:0:
191,73,22597,6,0,P|203:141|116:226,1,180,10|2,0:0|1:2,0:0:0:0:
26,143,23240,1,2,0:0:0:0:
26,143,23347,1,2,0:0:0:0:
26,143,23454,1,10,0:0:0:0:
47,277,23669,1,2,0:0:0:0:
125,115,23883,1,2,1:2:0:0:
212,236,24097,1,8,0:0:0:0:
332,111,24312,6,0,P|332:157|351:209,1,90,10|0,0:0|0:0,0:0:0:0:
475,292,24740,2,0,P|475:246|456:194,1,90,2|0,1:2|0:0,0:0:0:0:
266,168,25169,1,10,0:0:0:0:
237,311,25383,1,2,0:0:0:0:
152,183,25597,1,2,1:2:0:0:
62,269,25812,1,2,0:0:0:0:
62,269,25919,1,2,0:0:0:0:
62,269,26026,6,0,P|41:227|43:155,1,90,10|0,0:0|0:0,0:0:0:0:
72,63,26454,1,2,1:2:0:0:
187,139,26669,1,2,0:0:0:0:
213,175,26776,1,2,0:0:0:0:
211,219,26883,1,10,0:0:0:0:
309,95,27097,1,2,1:2:0:0:
377,273,27312,1,2,1:2:0:0:
454,58,27526,1,10,0:0:0:0:
454,58,27633,1,2,0:0:0:0:
454,58,27740,6,0,L|375:49,1,45,14|2,0:0|0:0,0:0:0:0:
258,37,27954,1,0,0:0:0:0:
285,187,28169,1,2,1:2:0:0:
346,0,28383,1,0,0:0:0:0:
448,166,28597,5,10,0:0:0:0:
448,166,28812,1,2,0:0:0:0:
380,288,29026,2,0,P|316:302|272:304,1,90,2|2,1:2|0:0,0:0:0:0:
243,300,29347,1,2,0:0:0:0:
243,300,29454,6,0,L|230:237,2,45,10|0|0,0:0|0:0|0:0,0:0:0:0:
145,364,29883,2,0,P|81:350|37:348,1,90,2|2,1:2|0:0,0:0:0:0:
9,353,30204,1,2,0:0:0:0:
9,353,30312,2,0,L|-6:253,1,90,10|2,0:0|0:0,0:0:0:0:
29,136,30740,1,2,1:2:0:0:
174,168,30954,1,10,0:0:0:0:
174,168,31062,1,2,0:0:0:0:
174,168,31169,6,0,P|162:100|147:67,1,90,10|0,0:0|0:0,0:0:0:0:
245,234,31597,2,0,P|284:177|297:143,1,90,2|0,1:2|0:0,0:0:0:0:
248,330,32026,2,0,L|366:319,1,90,10|2,0:0|0:0,0:0:0:0:
465,309,32454,1,2,1:2:0:0:
499,149,32669,1,2,0:0:0:0:
499,149,32776,1,2,0:0:0:0:
499,149,32883,6,0,L|505:196,2,45,10|0|2,0:0|0:0|0:0,0:0:0:0:
476,23,33312,1,2,1:2:0:0:
358,98,33526,1,0,0:0:0:0:
194,26,33740,2,0,P|175:66|159:108,1,90,10|2,0:0|0:0,0:0:0:0:
121,240,34169,1,2,1:2:0:0:
69,68,34383,1,0,1:0:0:0:
0,274,34597,5,10,0:0:0:0:
0,274,34704,1,2,0:0:0:0:
0,274,34812,2,0,L|63:266,1,45,2|2,0:0|0:0,0:0:0:0:
213,247,35026,1,2,1:2:0:0:
279,346,35240,1,0,0:0:0:0:
388,234,35454,6,0,P|393:154|388:135,1,90,10|2,0:0|0:0,0:0:0:0:
318,65,35883,2,0,L|196:59,1,90,2|2,1:2|0:0,0:0:0:0:
185,61,36204,1,2,0:0:0:0:
185,61,36312,6,0,L|172:3,2,45,10|0|0,0:0|0:0|0:0,0:0:0:0:
152,197,36740,1,2,1:2:0:0:
244,157,36954,1,2,0:0:0:0:
244,157,37062,1,2,0:0:0:0:
244,157,37169,2,0,P|265:218|273:250,1,90,10|2,0:0|0:0,0:0:0:0:
287,351,37597,6,0,L|221:341,1,45,2|0,1:2|0:0,0:0:0:0:
158,292,37812,2,0,L|92:302,1,45,0|0,0:0|0:0,0:0:0:0:
0,318,38026,6,2,L|18:124,1,180,4|0,0:0|1:0,0:1:0:0:
16,138,39526,5,8,0:0:0:0:
94,95,39740,1,8,0:0:0:0:
94,95,40169,2,2,L|145:92,1,45,0|0,0:0|0:0,0:1:0:0:
270,81,40597,1,2,0:0:0:0:
274,96,40704,1,2,0:0:0:0:
270,111,40812,6,0,L|274:149,1,22.5,10|0,0:0|0:0,0:0:0:0:
294,214,41026,6,0,L|288:261,1,33.7500012874604,10|0,0:0|0:0,0:0:0:0:
265,331,41240,6,0,L|272:384,1,45,10|0,0:0|0:0,0:0:0:0:
176,330,41454,6,0,P|113:287|114:170,1,198.000006042481,14|0,0:0|1:0,0:0:0:0:
190,89,42097,1,2,0:0:0:0:
336,184,42312,2,0,P|375:193|450:184,1,99.0000030212403,10|0,0:0|0:0,0:0:0:0:
444,32,42740,1,2,1:2:0:0:
512,134,42954,1,2,0:0:0:0:
346,2,43169,6,0,P|362:52|364:116,1,99.0000030212403,10|0,0:0|0:0,0:0:0:0:
252,170,43597,2,0,P|240:221|210:277,1,99.0000030212403,2|2,1:2|0:0,0:0:0:0:
197,288,43919,1,2,0:0:0:0:
165,303,44026,1,10,0:0:0:0:
149,182,44240,1,0,0:0:0:0:
306,295,44454,1,2,1:2:0:0:
386,126,44669,1,8,0:0:0:0:
210,91,44883,5,10,0:2:0:0:
274,172,45097,1,2,0:0:0:0:
171,186,45312,1,2,1:2:0:0:
171,186,45526,1,0,0:0:0:0:
239,384,45740,6,0,L|248:274,1,99.0000030212403,10|0,0:0|0:0,0:0:0:0:
74,218,46169,2,0,L|83:328,1,99.0000030212403,2|0,1:2|0:0,0:0:0:0:
242,181,46597,2,0,L|375:149,1,99.0000030212403,10|2,0:0|0:0,0:0:0:0:
417,42,47026,5,2,1:2:0:0:
427,209,47240,1,2,0:0:0:0:
294,101,47454,1,10,0:0:0:0:
474,117,47669,1,2,0:0:0:0:
274,0,47883,1,2,1:2:0:0:
291,238,48097,1,8,0:0:0:0:
197,129,48312,6,0,L|272:132,2,49.5000015106202,10|0|0,0:0|0:0|0:0,0:0:0:0:
88,235,48740,2,0,L|205:225,1,99.0000030212403,2|2,1:2|0:0,0:0:0:0:
14,157,49169,2,0,P|20:119|-1:40,1,99.0000030212403,10|0,0:0|0:0,0:0:0:0:
100,252,49597,2,0,P|94:290|115:369,1,99.0000030212403,2|2,1:2|0:0,0:0:0:0:
247,194,50026,5,10,0:0:0:0:
195,290,50240,1,0,0:0:0:0:
164,161,50454,1,2,1:2:0:0:
278,323,50669,1,2,0:0:0:0:
278,323,50776,1,2,0:0:0:0:
278,323,50883,1,10,0:0:0:0:
355,231,51097,1,0,0:0:0:0:
477,373,51312,1,2,1:2:0:0:
436,149,51526,1,8,0:0:0:0:
256,182,51740,6,0,P|204:187|146:167,1,99.0000030212403,10|2,0:2|0:0,0:0:0:0:
79,233,52169,2,0,P|31:211|-8:165,1,99.0000030212403,2|0,1:2|0:0,0:0:0:0:
38,25,52597,2,0,L|77:128,1,99.0000030212403,10|0,0:0|0:0,0:0:0:0:
159,39,53026,2,0,L|244:108,1,99.0000030212403,2|2,1:2|0:0,0:0:0:0:
267,114,53347,1,2,0:0:0:0:
299,102,53454,5,10,0:0:0:0:
301,241,53669,1,2,0:0:0:0:
409,167,53883,1,2,1:2:0:0:
188,172,54097,1,2,0:0:0:0:
188,172,54204,1,2,0:0:0:0:
188,172,54312,1,10,0:0:0:0:
124,353,54526,5,2,1:2:0:0:
88,132,54740,1,2,1:2:0:0:
297,229,54954,1,10,0:0:0:0:
297,229,55062,1,2,0:0:0:0:
297,229,55169,6,0,P|350:123|317:18,1,198.000006042481,14|0,0:0|1:0,0:0:0:0:
190,89,55812,1,2,0:0:0:0:
341,167,56026,2,0,L|450:160,1,99.0000030212403,10|0,0:0|0:0,0:0:0:0:
500,41,56455,1,2,1:2:0:0:
389,7,56669,1,2,0:0:0:0:
305,89,56883,6,0,P|248:87|200:73,1,99.0000030212403,10|0,0:0|0:0,0:0:0:0:
83,24,57312,2,0,P|100:78|103:128,1,99.0000030212403,2|2,1:2|0:0,0:0:0:0:
124,159,57633,1,2,0:0:0:0:
124,159,57740,2,0,P|117:215|98:262,1,99.0000030212403,10|0,0:0|0:0,0:0:0:0:
18,336,58169,1,2,1:2:0:0:
0,178,58384,1,8,0:0:0:0:
208,111,58597,5,10,0:2:0:0:
208,111,58812,1,2,0:0:0:0:
271,192,59026,2,0,L|376:184,1,99.0000030212403,2|0,1:2|0:0,0:0:0:0:
498,175,59454,2,0,P|455:226|426:275,1,99.0000030212403,10|0,0:0|0:0,0:0:0:0:
246,216,59883,2,0,P|289:267|318:316,1,99.0000030212403,2|2,1:2|0:0,0:0:0:0:
328,338,60204,1,2,0:0:0:0:
328,338,60312,2,0,L|375:323,2,49.5000015106202,10|0|2,0:0|0:0|0:0,0:0:0:0:
224,377,60741,5,2,1:2:0:0:
162,274,60955,1,2,0:0:0:0:
245,147,61169,1,10,0:0:0:0:
164,14,61384,1,2,0:0:0:0:
120,179,61598,1,2,1:2:0:0:
255,50,61812,1,8,0:0:0:0:
83,70,62026,6,0,P|146:94|258:172,1,198.000006042481,10|2,0:0|1:2,0:0:0:0:
319,264,62669,1,2,0:0:0:0:
247,324,62883,2,0,L|136:315,1,99.0000030212403,10|0,0:0|0:0,0:0:0:0:
339,229,63312,2,0,L|437:220,1,99.0000030212403,2|2,1:2|0:0,0:0:0:0:
489,135,63740,6,0,P|449:107|384:92,1,99.0000030212403,10|0,0:0|0:0,0:0:0:0:
270,107,64169,1,2,1:2:0:0:
202,268,64383,1,2,0:0:0:0:
202,268,64490,1,2,0:0:0:0:
202,268,64597,2,0,P|175:193|173:153,1,99.0000030212403,10|0,0:0|0:0,0:0:0:0:
43,325,65026,2,0,P|70:250|72:210,1,99.0000030212403,2|8,1:2|0:0,0:0:0:0:
43,100,65454,6,2,L|237:82,1,180,4|0,0:0|1:0,0:1:0:0:
222,83,66954,5,8,0:0:0:0:
300,40,67168,1,8,0:0:0:0:
300,40,67597,2,2,L|351:37,1,45,0|0,0:0|0:0,0:1:0:0:
476,26,68025,1,2,0:0:0:0:
480,41,68132,1,2,0:0:0:0:
476,56,68240,6,0,L|480:94,1,22.5,10|0,0:0|0:0,0:0:0:0:
500,159,68454,6,0,L|494:206,1,33.7500012874604,10|0,0:0|0:0,0:0:0:0:
471,276,68669,6,0,L|478:329,1,45,10|0,0:0|0:0,0:0:0:0:
358,313,68883,6,0,B|328:301|328:301|296:312|296:312|227:298,1,107.999996704102,14|0,0:2|0:0,0:0:0:0:
379,180,69312,1,2,0:0:0:0:
218,215,69526,1,10,0:0:0:0:
271,101,69740,2,0,B|238:102|238:102|201:79|148:83,1,107.999996704102,0|2,1:0|0:0,0:0:0:0:
129,94,70062,5,2,0:0:0:0:
119,93,70169,2,0,L|58:91,1,53.9999983520508,2|0,0:0|0:0,0:0:0:0:
0,68,70383,2,0,L|59:82,1,53.9999983520508,10|0,0:0|0:0,0:0:0:0:
17,177,70597,6,0,L|-2:242,3,53.9999983520508,10|2|10|2,0:0|0:0|0:0|0:0,0:0:0:0:
102,179,71026,2,0,L|102:254,1,53.9999983520508,2|0,0:0|0:0,0:0:0:0:
204,271,71240,1,10,0:0:0:0:
199,229,71347,1,8,0:0:0:0:
193,187,71454,1,2,1:2:0:0:
392,223,71669,2,0,P|342:232|259:207,2,107.999996704102,2|8|10,0:0|0:0|0:0,0:0:0:0:
484,15,72312,6,0,B|496:70|496:70|460:165|460:165|477:185|484:225,1,215.999993408203,10|2,0:0|0:0,0:0:0:0:
498,366,72954,1,8,0:0:0:0:
281,333,73169,2,0,P|298:277|352:226,1,107.999996704102,2|2,1:2|0:0,0:0:0:0:
341,198,73490,1,2,0:0:0:0:
341,198,73597,2,0,L|331:116,2,53.9999983520508,2|0|10,0:0|0:0|0:0,0:0:0:0:
156,63,74026,6,0,L|149:128,1,53.9999983520508,10|0,0:0|0:0,0:0:0:0:
249,85,74240,2,0,L|276:20,1,53.9999983520508,10|0,0:0|0:0,0:0:0:0:
214,161,74454,1,10,0:0:0:0:
60,106,74669,1,10,0:0:0:0:
70,147,74776,1,8,0:0:0:0:
81,188,74883,5,2,1:2:0:0:
165,249,75097,1,0,0:0:0:0:
278,239,75312,1,2,1:2:0:0:
391,290,75526,1,8,0:0:0:0:
263,365,75740,6,0,B|279:309|248:256|248:256|239:251|239:251|229:201|256:146,1,215.999993408203,6|2,0:2|0:0,0:0:0:0:
334,5,76383,1,10,0:0:0:0:
142,18,76597,1,0,1:0:0:0:
70,94,76812,5,2,0:0:0:0:
71,104,76919,1,2,0:0:0:0:
72,114,77026,1,2,0:0:0:0:
72,124,77133,1,0,0:0:0:0:
72,134,77240,2,0,L|76:197,1,53.9999983520508,10|0,0:0|0:0,0:0:0:0:
157,162,77454,5,10,0:0:0:0:
158,151,77562,1,2,0:0:0:0:
159,140,77669,2,0,L|167:64,1,53.9999983520508,10|2,0:0|0:0,0:0:0:0:
240,134,77883,2,0,L|244:197,1,53.9999983520508,2|0,0:0|0:0,0:0:0:0:
349,266,78097,1,10,0:0:0:0:
306,275,78204,1,8,0:0:0:0:
263,284,78312,1,2,1:2:0:0:
145,259,78526,2,0,B|110:261|92:271|92:271|64:257|24:260,2,107.999996704102,2|8|10,0:0|0:0|0:0,0:0:0:0:
176,128,79169,6,2,B|178:84|178:84|156:29,1,80.9999975280763,10|0,0:0|0:0,0:1:0:0:
259,106,79383,2,2,B|282:68|282:68|291:10,1,80.9999975280763,2|0,0:0|0:0,0:1:0:0:
341,128,79597,2,2,B|380:107|380:107|416:61,1,80.9999975280763,2|0,0:0|0:0,0:1:0:0:
401,188,79812,2,2,B|445:190|445:190|500:168,1,80.9999975280763,10|0,0:0|0:0,0:1:0:0:
316,218,80026,5,2,1:2:0:0:
422,269,80240,2,0,B|459:292|459:292|517:301,1,80.9999975280763,2|0,0:0|0:0,0:0:0:0:
365,328,80454,6,2,L|310:337,1,35.9999989013672,2|0,0:0|0:0,0:1:0:0:
293,340,80597,6,2,L|238:349,1,35.9999989013672,2|8,0:0|0:0,0:1:0:0:
221,352,80740,6,2,L|166:361,1,35.9999989013672,2|0,0:0|0:0,0:1:0:0:
149,330,80883,6,2,B|151:286|151:286|129:231,1,80.9999975280763,10|0,0:0|0:0,0:1:0:0:
227,234,81097,2,2,B|225:190|225:190|247:135,1,80.9999975280763,10|0,0:0|0:0,0:1:0:0:
228,69,81312,6,2,L|224:12,1,53.9999983520508,8|0,0:0|0:0,0:1:0:0:
132,42,81526,1,10,0:0:0:0:
89,49,81633,1,10,0:0:0:0:
46,56,81740,6,2,L|40:127,1,53.9999983520508,2|0,0:0|0:0,0:1:0:0:
26,268,81954,2,2,L|32:197,1,53.9999983520508,2|0,0:0|0:0,0:1:0:0:
52,71,82169,2,2,L|47:128,1,53.9999983520508,2|0,1:2|0:0,0:1:0:0:
19,252,82383,2,2,L|23:195,1,53.9999983520508,2|0,0:0|0:0,0:1:0:0:
131,119,82597,6,0,B|170:106|170:106|199:125|199:125|248:121,1,107.999996704102,14|0,0:0|0:0,0:0:0:0:
349,111,83026,1,2,0:0:0:0:
263,243,83240,1,8,0:0:0:0:
300,32,83454,2,0,B|357:24|357:24|430:51,1,107.999996704102,2|0,1:2|0:0,0:0:0:0:
473,157,83883,6,2,L|469:205,1,35.9999989013672,2|0,0:0|0:0,0:1:0:0:
486,234,84026,6,2,L|482:282,1,35.9999989013672,2|8,0:0|0:0,0:1:0:0:
499,311,84169,6,2,L|495:359,1,35.9999989013672,2|0,0:0|0:0,0:1:0:0:
455,368,84312,6,0,B|406:347|406:347|326:353,1,107.999996704102,10|10,0:0|0:0,0:0:0:0:
233,384,84740,1,10,0:0:0:0:
279,253,84954,1,8,0:0:0:0:
274,199,85061,1,8,0:0:0:0:
269,145,85168,1,2,1:2:0:0:
306,41,85383,2,0,L|442:28,2,107.999996704102,2|8|10,0:0|0:0|0:0,0:0:0:0:
143,59,86026,6,0,P|116:92|108:117,1,53.9999983520508,10|0,0:0|0:0,0:0:0:0:
69,131,86240,2,0,P|73:173|85:196,1,53.9999983520508,2|0,0:0|0:0,0:0:0:0:
67,234,86454,1,2,0:0:0:0:
141,339,86669,1,8,0:0:0:0:
277,264,86883,2,0,P|242:176|228:153,1,107.999996704102,2|0,1:2|0:0,0:0:0:0:
166,76,87312,6,2,L|230:68,1,35.9999989013672,2|0,0:0|0:0,0:1:0:0:
230,28,87454,6,2,L|294:20,1,35.9999989013672,2|8,0:0|0:0,0:1:0:0:
307,56,87597,6,2,L|371:48,1,35.9999989013672,2|0,0:0|0:0,0:1:0:0:
371,8,87740,6,0,P|417:62|445:102,1,107.999996704102,10|10,0:0|0:0,0:0:0:0:
496,218,88168,1,10,0:0:0:0:
339,287,88383,1,8,0:0:0:0:
336,329,88490,1,8,0:0:0:0:
332,371,88597,5,2,1:2:0:0:
190,337,88811,1,0,0:0:0:0:
252,236,89026,6,2,L|246:172,1,35.9999989013672,2|0,0:0|0:0,0:1:0:0:
282,164,89169,6,2,L|276:100,1,35.9999989013672,2|8,0:0|0:0,0:1:0:0:
310,91,89312,6,2,L|304:27,1,35.9999989013672,2|0,0:0|0:0,0:1:0:0:
268,20,89454,6,0,L|145:14,1,107.999996704102,10|2,0:0|0:0,0:0:0:0:
17,7,89883,1,2,0:0:0:0:
88,151,90097,1,10,0:0:0:0:
177,0,90311,1,2,1:2:0:0:
0,95,90526,1,0,0:0:0:0:
196,169,90740,6,2,L|199:220,1,35.9999989013672,2|0,0:0|0:0,0:1:0:0:
237,236,90883,6,2,L|240:287,1,35.9999989013672,2|8,0:0|0:0,0:1:0:0:
278,303,91026,6,2,L|281:354,1,35.9999989013672,2|0,0:0|0:0,0:1:0:0:
309,378,91169,6,0,P|352:363|418:371,1,107.999996704102,10|2,0:0|0:0,0:0:0:0:
377,252,91597,1,10,0:0:0:0:
504,180,91811,1,8,0:0:0:0:
493,137,91919,1,8,0:0:0:0:
483,94,92026,1,2,1:2:0:0:
450,0,92240,1,0,0:0:0:0:
323,83,92454,2,0,L|192:73,1,107.999996704102,2|0,1:2|0:0,0:0:0:0:
42,57,92883,5,10,0:0:0:0:
50,78,93740,1,10,0:0:0:0:
42,99,94597,1,14,0:0:0:0:
42,99,95026,1,10,0:0:0:0:
89,209,95454,1,10,0:0:0:0:
155,50,95669,1,2,1:2:0:0:
255,242,95883,1,10,0:0:0:0:
380,16,96097,1,2,1:2:0:0:
477,275,96312,5,14,0:0:0:0:
512,151,96526,1,0,0:0:0:0:
341,133,96740,2,0,L|354:248,1,107.999996704102,2|0,1:2|0:0,0:0:0:0:
370,376,97169,2,0,P|310:369|252:353,1,107.999996704102,10|0,0:0|0:0,0:0:0:0:
177,286,97597,1,2,1:2:0:0:
253,155,97812,1,2,0:0:0:0:
253,155,97919,1,2,0:0:0:0:
253,155,98026,5,10,0:0:0:0:
102,89,98240,1,2,0:0:0:0:
102,89,98347,1,2,0:0:0:0:
102,89,98454,2,0,L|96:214,1,107.999996704102,2|0,1:2|0:0,0:0:0:0:
93,337,98883,2,0,P|170:319|221:315,1,107.999996704102,10|0,0:0|0:0,0:0:0:0:
347,333,99312,1,2,1:2:0:0:
398,149,99526,1,0,0:0:0:0:
490,280,99740,5,14,0:0:0:0:
490,280,99954,1,0,0:0:0:0:
272,231,100169,1,2,1:2:0:0:
376,58,100383,1,0,0:0:0:0:
469,188,100597,5,10,0:0:0:0:
253,113,100812,1,0,0:0:0:0:
177,249,101026,1,2,1:2:0:0:
66,86,101240,1,2,0:0:0:0:
66,86,101347,1,2,0:0:0:0:
66,86,101454,5,10,0:0:0:0:
7,204,101669,1,2,0:0:0:0:
188,152,101883,2,0,P|203:79|197:32,1,107.999996704102,2|0,1:2|0:0,0:0:0:0:
344,204,102312,2,0,P|329:131|335:84,1,107.999996704102,10|0,0:0|0:0,0:0:0:0:
376,0,102740,1,2,1:2:0:0:
507,78,102954,1,0,0:0:0:0:
479,288,103169,5,14,0:0:0:0:
439,176,103383,1,0,0:0:0:0:
333,346,103597,2,0,L|180:331,1,107.999996704102,2|0,1:2|0:0,0:0:0:0:
94,321,104026,1,10,0:0:0:0:
216,211,104240,1,0,0:0:0:0:
257,323,104454,1,2,1:2:0:0:
359,234,104669,6,0,P|345:130|337:109,1,107.999996704102,2|10,0:0|0:0,0:0:0:0:
288,36,105097,1,2,0:0:0:0:
195,150,105312,2,0,L|65:140,1,107.999996704102,2|0,1:2|0:0,0:0:0:0:
25,50,105740,1,10,0:0:0:0:
0,222,105954,1,0,0:0:0:0:
135,60,106169,1,2,1:2:0:0:
135,60,106383,1,0,0:0:0:0:
221,189,106597,6,0,L|398:174,1,161.999995056153,14|0,0:0|0:0,0:0:0:0:
419,137,107026,1,2,1:2:0:0:
473,287,107240,2,0,P|437:345|396:371,1,107.999996704102,0|10,0:0|0:0,0:0:0:0:
213,240,107669,2,0,P|273:270|303:309,1,107.999996704102,0|2,0:0|1:2,0:0:0:0:
174,377,108097,1,0,0:0:0:0:
63,187,108312,1,10,0:0:0:0:
63,187,108526,6,0,L|43:89,2,90,10|2|10,0:0|1:2|0:0,0:0:0:0:
49,292,109169,1,2,1:2:0:0:
49,292,109383,1,0,0:0:0:0:
205,170,109597,1,2,1:2:0:0:
297,261,109812,1,0,0:0:0:0:
460,36,110026,6,0,L|452:124,1,53.9999983520508,14|0,0:0|0:0,0:0:0:0:
508,248,110240,2,0,L|516:160,1,53.9999983520508,2|0,0:0|0:0,0:0:0:0:
344,109,110454,1,2,1:2:0:0:
297,261,110669,1,2,0:0:0:0:
297,261,110776,1,2,0:0:0:0:
297,261,110883,2,0,P|245:236|151:236,1,107.999996704102,10|0,0:0|0:0,0:0:0:0:
116,327,111312,1,2,1:2:0:0:
178,122,111526,1,2,0:0:0:0:
7,224,111740,6,0,L|125:208,1,107.999996704102,10|2,0:0|0:0,0:0:0:0:
266,193,112169,1,2,1:2:0:0:
77,78,112383,1,0,0:0:0:0:
279,80,112597,1,10,0:0:0:0:
172,256,112812,1,0,0:0:0:0:
374,258,113026,1,2,1:2:0:0:
457,102,113240,6,0,L|465:222,2,107.999996704102,0|14|0,0:0|0:0|0:0,0:0:0:0:
196,57,113883,1,2,1:2:0:0:
335,161,114097,1,0,0:0:0:0:
88,163,114312,1,10,0:0:0:0:
319,34,114526,1,0,0:0:0:0:
221,240,114740,1,2,1:2:0:0:
125,59,114954,6,0,P|80:74|1:41,1,107.999996704102,2|10,0:0|0:0,0:0:0:0:
6,205,115383,1,2,0:0:0:0:
172,264,115597,2,0,P|216:279|296:246,1,107.999996704102,2|0,1:2|0:0,0:0:0:0:
299,229,115919,1,2,0:0:0:0:
294,186,116026,2,0,L|423:172,1,107.999996704102,10|0,0:0|0:0,0:0:0:0:
501,228,116454,1,2,1:2:0:0:
365,79,116669,1,0,0:0:0:0:
365,79,116883,6,0,L|251:67,1,107.999996704102,14|0,0:0|0:0,0:0:0:0:
0,149,117312,2,0,L|114:137,1,107.999996704102,2|0,1:2|0:0,0:0:0:0:
285,268,117740,2,0,P|297:215|291:162,1,107.999996704102,10|0,0:0|0:0,0:0:0:0:
81,241,118169,2,0,P|68:293|74:346,1,107.999996704102,2|2,1:2|0:0,0:0:0:0:
191,200,118597,5,10,0:0:0:0:
191,200,118812,1,2,0:0:0:0:
315,313,119026,1,2,1:2:0:0:
289,98,119240,1,0,0:0:0:0:
90,250,119454,2,0,L|67:113,1,107.999996704102,10|0,0:0|0:0,0:0:0:0:
332,206,119883,2,0,L|309:343,1,107.999996704102,2|0,1:2|0:0,0:0:0:0:
445,69,120312,6,0,P|344:53|252:86,1,161.999995056153,14|0,0:0|0:0,0:0:0:0:
259,104,120740,1,2,1:2:0:0:
114,292,120954,2,0,P|103:251|112:146,1,107.999996704102,0|10,0:0|0:0,0:0:0:0:
181,21,121383,1,0,0:0:0:0:
212,236,121597,1,2,1:2:0:0:
40,65,121812,1,0,0:0:0:0:
225,119,122026,5,10,0:0:0:0:
249,128,122454,1,10,0:0:0:0:
273,140,122883,5,2,1:2:0:0:
273,140,122990,1,2,1:2:0:0:
284,253,123204,1,8,0:0:0:0:
284,253,123311,1,2,1:2:0:0:
252,355,123526,1,10,0:0:0:0:
95,276,123740,6,0,P|108:220|109:173,1,90,14|0,0:0|0:0,0:0:0:0:
221,154,124169,2,0,P|190:105|158:71,1,90,2|0,1:2|0:0,0:0:0:0:
302,95,124597,2,0,L|411:73,1,90,10|2,0:0|0:0,0:0:0:0:
501,58,125025,1,2,1:2:0:0:
442,193,125240,1,0,0:0:0:0:
288,117,125454,6,0,L|300:214,1,90,10|0,0:0|0:0,0:0:0:0:
187,169,125883,2,0,L|175:266,1,90,2|0,1:2|0:0,0:0:0:0:
53,293,126312,2,0,P|34:240|43:189,1,90,10|2,0:0|0:0,0:0:0:0:
78,108,126740,1,2,1:2:0:0:
208,188,126954,1,8,0:0:0:0:
301,42,127169,6,0,P|365:19|422:11,1,90,10|0,0:0|0:0,0:0:0:0:
324,200,127597,2,0,P|348:136|378:86,1,90,2|0,1:2|0:0,0:0:0:0:
468,294,128026,2,0,L|455:168,1,90,10|2,0:0|0:0,0:0:0:0:
378,341,128454,1,2,1:2:0:0:
496,272,128668,1,0,0:0:0:0:
310,180,128883,6,0,L|213:168,1,90,10|0,0:0|0:0,0:0:0:0:
240,35,129312,2,0,L|162:95,1,90,2|0,1:2|0:0,0:0:0:0:
61,164,129740,2,0,P|106:206|119:264,1,90,10|2,0:0|0:0,0:0:0:0:
192,299,130169,2,0,P|167:355|117:387,1,90,2|0,1:2|1:0,0:0:0:0:
25,287,130597,6,0,L|5:82,1,180,10|2,0:0|1:2,0:0:0:0:
39,0,131240,1,0,0:0:0:0:
157,61,131454,2,0,P|203:51|259:44,1,90,10|2,0:0|0:0,0:0:0:0:
327,169,131883,2,0,P|283:159|238:153,1,90,2|0,1:2|0:0,0:0:0:0:
157,286,132312,6,0,L|252:266,1,90,10|0,0:0|0:0,0:0:0:0:
89,148,132740,2,0,L|170:201,1,90,2|0,1:2|0:0,0:0:0:0:
145,0,133169,2,0,P|152:46|179:97,1,90,10|2,0:0|0:0,0:0:0:0:
257,168,133597,1,2,1:2:0:0:
335,42,133812,1,8,0:0:0:0:
468,160,134026,6,0,P|473:220|470:266,1,90,10|0,0:0|0:0,0:0:0:0:
358,277,134454,2,0,P|319:322|284:353,1,90,2|0,1:2|0:0,0:0:0:0:
197,281,134883,2,0,L|92:273,1,90,10|2,0:0|0:0,0:0:0:0:
0,264,135312,1,2,1:2:0:0:
74,130,135526,1,0,0:0:0:0:
240,196,135740,6,0,L|227:97,1,90,10|0,0:0|0:0,0:0:0:0:
349,238,136169,2,0,L|336:139,1,90,2|0,1:2|0:0,0:0:0:0:
458,280,136597,2,0,P|465:226|493:170,1,90,10|2,0:0|1:2,0:0:0:0:
512,364,137026,1,2,1:2:0:0:
373,384,137240,1,8,0:0:0:0:
258,276,137454,6,0,P|264:227|269:173,2,90,14|2|2,0:0|0:0|0:0,0:0:0:0:
162,137,138097,1,8,0:0:0:0:
66,240,138312,2,0,P|114:239|168:232,2,90,2|2|2,1:2|0:0|0:0,0:0:0:0:
241,50,138954,5,10,0:0:0:0:
323,199,139169,1,0,0:0:0:0:
173,161,139383,1,10,0:0:0:0:
390,88,139597,1,0,0:0:0:0:
407,288,139812,1,10,0:0:0:0:
407,288,139919,1,10,0:0:0:0:
407,288,140026,2,0,P|360:295|310:284,1,90,2|0,1:2|0:0,0:0:0:0:
208,243,140454,1,10,0:0:0:0:
283,96,140669,1,8,0:0:0:0:
118,123,140883,6,0,L|8:114,2,90,10|2|2,0:0|0:0|0:0,0:0:0:0:
181,31,141526,1,8,0:0:0:0:
177,224,141740,2,0,L|67:233,2,90,2|2|2,1:2|0:0|0:0,0:0:0:0:
321,125,142383,5,10,0:0:0:0:
231,301,142597,1,0,0:0:0:0:
214,147,142812,1,10,0:0:0:0:
346,299,143026,1,0,0:0:0:0:
423,119,143240,1,10,0:0:0:0:
423,119,143347,1,10,0:0:0:0:
423,119,143454,2,0,P|463:112|519:113,1,90,2|0,1:2|0:0,0:0:0:0:
507,212,143883,1,10,0:0:0:0:
363,44,144097,1,8,0:0:0:0:
259,241,144312,6,0,L|133:248,1,90,14|2,0:0|0:0,0:0:0:0:
51,248,144740,1,2,0:0:0:0:
0,111,144954,1,8,0:0:0:0:
165,140,145169,2,0,L|278:122,1,90,2|2,1:2|0:0,0:0:0:0:
372,111,145597,1,0,0:0:0:0:
211,31,145812,5,10,0:0:0:0:
227,226,146026,1,4,0:0:0:0:
95,93,146240,1,10,0:0:0:0:
72,255,146454,1,0,0:0:0:0:
229,141,146669,1,10,0:0:0:0:
229,141,146776,1,10,0:0:0:0:
229,141,146883,2,0,P|269:133|326:137,1,90,2|0,1:2|0:0,0:0:0:0:
428,188,147312,1,2,0:0:0:0:
487,6,147526,1,8,0:0:0:0:
344,130,147740,6,0,P|324:89|295:47,2,90,10|2|2,0:0|0:0|0:0,0:0:0:0:
175,66,148383,1,8,0:0:0:0:
175,66,148597,2,0,P|137:40|91:18,1,90,2|2,1:2|0:0,0:0:0:0:
157,172,149026,1,10,0:0:0:0:
157,172,149240,1,10,0:0:0:0:
363,166,149454,5,2,1:2:0:0:
210,354,149669,1,8,0:0:0:0:
216,96,149883,5,2,1:2:0:0:
369,285,150098,1,8,0:0:0:0:
95,195,150312,5,10,0:0:0:0:
215,122,150526,1,10,0:0:0:0:
286,243,150740,1,10,0:0:0:0:
165,315,150954,1,10,0:0:0:0:
126,76,151169,6,0,P|175:31|308:84,1,198.000006042481,14|0,0:0|1:0,0:0:0:0:
346,168,151812,1,2,0:0:0:0:
204,220,152026,2,0,L|215:122,1,99.0000030212403,10|0,0:0|0:0,0:0:0:0:
229,0,152455,1,2,1:2:0:0:
99,73,152669,1,2,0:0:0:0:
83,238,152884,6,0,P|129:223|179:219,1,99.0000030212403,10|0,0:0|0:0,0:0:0:0:
273,344,153312,2,0,P|224:364|161:372,1,99.0000030212403,2|2,1:2|0:0,0:0:0:0:
145,368,153634,1,2,0:0:0:0:
114,351,153741,1,10,0:0:0:0:
171,186,153955,1,0,0:0:0:0:
292,331,154169,1,2,1:2:0:0:
352,117,154384,1,8,0:0:0:0:
167,18,154598,5,10,0:2:0:0:
203,160,154812,1,2,0:0:0:0:
63,110,155026,2,0,L|52:224,1,99.0000030212403,2|0,1:2|0:0,0:0:0:0:
186,289,155454,5,10,0:0:0:0:
279,116,155669,1,0,0:0:0:0:
416,219,155883,2,0,L|427:105,1,99.0000030212403,2|2,1:2|0:0,0:0:0:0:
431,74,156204,1,2,0:0:0:0:
431,74,156312,2,0,P|388:48|340:36,1,99.0000030212403,10|2,0:0|0:0,0:0:0:0:
209,53,156741,1,2,1:2:0:0:
124,197,156954,5,2,0:0:0:0:
70,85,157169,1,10,0:0:0:0:
244,40,157384,1,2,0:0:0:0:
213,273,157598,1,2,1:2:0:0:
353,199,157812,1,8,0:0:0:0:
460,383,158026,6,0,L|483:258,1,99.0000030212403,10|0,0:0|0:0,0:0:0:0:
355,168,158454,2,0,L|378:293,1,99.0000030212403,2|2,1:2|0:0,0:0:0:0:
284,364,158883,2,0,B|235:368|235:368|152:344,1,99.0000030212403,10|0,0:0|0:0,0:0:0:0:
132,232,159312,2,0,B|181:228|181:228|264:252,1,99.0000030212403,2|2,1:2|0:0,0:0:0:0:
72,366,159741,5,10,0:0:0:0:
130,267,159955,1,0,0:0:0:0:
63,100,160169,1,2,1:2:0:0:
185,42,160383,2,0,L|181:-14,2,49.5000015106202,2|2|10,0:0|0:0|0:0,0:0:0:0:
199,174,160812,1,0,0:0:0:0:
332,100,161027,1,2,1:2:0:0:
510,218,161241,1,8,0:0:0:0:
336,318,161454,6,0,P|359:248|383:188,1,99.0000030212403,10|2,0:0|0:0,0:0:0:0:
226,356,161883,2,0,P|179:338|132:324,1,99.0000030212403,2|0,1:2|0:0,0:0:0:0:
17,328,162312,1,10,0:0:0:0:
0,203,162526,1,0,0:0:0:0:
134,235,162740,2,0,P|183:189|201:134,1,99.0000030212403,2|2,1:2|0:0,0:0:0:0:
198,124,163062,1,2,0:0:0:0:
185,76,163169,5,10,0:0:0:0:
57,2,163383,2,0,L|52:79,1,49.5000015106202
36,215,163598,1,2,1:2:0:0:
198,124,163812,2,0,L|275:119,2,49.5000015106202,2|2|10,0:0|0:0|0:0,0:0:0:0:
0,143,164240,5,2,1:2:0:0:
0,143,164347,1,2,0:0:0:0:
0,143,164454,1,2,1:2:0:0:
128,32,164669,1,10,0:0:0:0:
128,32,164777,1,10,0:0:0:0:
128,32,164883,6,0,L|194:37,2,49.5000015106202,14|0|0,0:0|0:0|0:0,0:0:0:0:
312,47,165312,2,0,P|294:96|294:169,1,99.0000030212403,0|2,1:0|0:0,0:0:0:0:
316,288,165740,1,10,0:0:0:0:
173,224,165954,1,0,0:0:0:0:
187,355,166169,2,0,P|137:372|65:373,1,99.0000030212403,2|2,1:2|0:0,0:0:0:0:
54,362,166490,1,2,0:0:0:0:
54,362,166597,2,0,L|49:296,2,49.5000015106202,10|0|0,0:0|0:0|0:0,0:0:0:0:
44,165,167026,5,2,1:2:0:0:
212,242,167240,1,2,0:0:0:0:
252,133,167454,2,0,P|304:131|361:129,1,99.0000030212403,10|0,0:0|0:0,0:0:0:0:
421,311,167883,1,2,1:2:0:0:
512,143,168097,1,10,0:0:0:0:
512,143,168204,1,2,0:0:0:0:
512,143,168312,5,10,0:2:0:0:
372,201,168526,1,2,0:0:0:0:
217,150,168740,2,0,L|190:36,1,99.0000030212403,2|0,1:2|0:0,0:0:0:0:
46,53,169169,2,0,P|29:100|19:167,1,99.0000030212403,10|0,0:0|0:0,0:0:0:0:
66,297,169597,2,0,P|112:280|161:271,1,99.0000030212403,2|0,1:2|0:0,0:0:0:0:
296,328,170026,5,10,0:0:0:0:
296,328,170133,1,2,0:0:0:0:
296,328,170240,1,2,0:0:0:0:
316,180,170454,2,0,P|312:129|324:53,1,99.0000030212403,2|2,1:2|0:0,0:0:0:0:
412,19,170883,1,10,0:0:0:0:
218,103,171097,1,2,0:0:0:0:
434,148,171312,1,2,1:2:0:0:
227,217,171526,1,10,0:0:0:0:
227,217,171633,1,2,0:0:0:0:
227,217,171740,2,0,L|293:218,2,49.5000015106202,10|0|0,0:0|0:0|0:0,0:0:0:0:
432,275,172169,5,2,1:2:0:0:
354,160,172383,1,2,0:0:0:0:
316,357,172597,2,0,P|291:318|239:282,1,99.0000030212403,10|0,0:0|0:0,0:0:0:0:
59,318,173026,2,0,P|84:279|136:243,1,99.0000030212403,2|2,1:2|0:0,0:0:0:0:
243,97,173454,6,0,L|239:222,1,99.0000030212403,10|0,0:0|0:0,0:0:0:0:
83,41,173883,2,0,L|87:166,1,99.0000030212403,2|2,1:2|0:0,0:0:0:0:
87,169,174204,1,2,0:0:0:0:
88,198,174312,1,10,0:0:0:0:
204,48,174526,1,0,0:0:0:0:
254,271,174740,1,2,1:2:0:0:
360,119,174954,1,8,0:0:0:0:
451,319,175169,6,0,P|391:284|345:325,1,135.000005149842,4|0,0:0|0:0,0:0:0:0:
206,357,176026,2,0,L|215:209,1,135.000005149842,0|0,1:0|0:0,0:0:0:0:
214,222,176669,1,8,0:0:0:0:
284,143,176883,2,0,P|216:122|150:145,1,135.000005149842,8|0,0:0|0:0,0:0:0:0:
156,140,177526,1,0,0:0:0:0:
67,52,177740,1,2,0:0:0:0:
69,72,177847,1,2,0:0:0:0:
66,92,177954,6,0,L|68:126,1,22.5,10|0,0:0|0:0,0:0:0:0:
0,230,178169,6,0,L|48:232,1,33.7500012874604,10|0,0:0|0:0,0:0:0:0:
142,331,178383,6,0,L|76:327,1,45,10|0,0:0|0:0,0:0:0:0:
253,209,178597,6,0,B|265:179|265:179|114:166,1,161.999995056153,6|0,0:2|0:0,0:0:0:0:
83,161,179026,1,2,0:0:0:0:
165,315,179240,1,10,0:0:0:0:
247,99,179454,1,0,1:0:0:0:
354,226,179669,5,2,0:0:0:0:
354,226,179776,1,2,0:0:0:0:
354,226,179883,2,0,L|419:220,1,53.9999983520508,2|0,0:0|0:0,0:0:0:0:
327,339,180097,2,0,L|262:333,1,53.9999983520508,10|0,0:0|0:0,0:0:0:0:
151,277,180312,6,0,P|145:236|146:207,3,53.9999983520508,10|2|10|2,0:0|0:0|0:0|0:0,0:0:0:0:
161,175,180740,1,2,0:0:0:0:
320,234,180954,1,10,0:0:0:0:
325,192,181061,1,8,0:0:0:0:
331,150,181168,1,2,1:2:0:0:
350,17,181383,2,0,P|414:7|467:20,2,107.999996704102,2|8|10,0:0|0:0|0:0,0:0:0:0:
253,116,182026,6,0,B|238:184|181:189|181:189|127:137|44:173,1,215.999993408203,10|2,0:0|0:0,0:0:0:0:
103,275,182668,1,8,0:0:0:0:
288,356,182883,2,0,L|274:218,1,107.999996704102,2|2,1:2|0:0,0:0:0:0:
258,89,183312,1,2,0:0:0:0:
258,89,183526,1,8,0:0:0:0:
403,116,183740,6,0,L|471:109,1,53.9999983520508,10|0,0:0|0:0,0:0:0:0:
387,225,183954,2,0,L|319:218,1,53.9999983520508,10|0,0:0|0:0,0:0:0:0:
211,208,184168,1,10,0:0:0:0:
65,317,184383,1,10,0:0:0:0:
55,276,184490,1,8,0:0:0:0:
44,235,184597,5,2,1:2:0:0:
179,325,184811,1,0,0:0:0:0:
281,152,185026,1,2,1:2:0:0:
334,256,185240,1,8,0:0:0:0:
487,183,185454,2,0,B|494:118|427:82|427:82|449:-21,1,215.999993408203,6|2,0:2|0:0,0:0:0:0:
389,175,186097,1,10,0:0:0:0:
136,160,186312,6,0,L|261:146,1,107.999996704102,0|2,1:0|0:0,0:0:0:0:
294,85,186633,1,2,0:0:0:0:
294,85,186740,2,0,P|245:52|212:46,2,53.9999983520508,2|0|10,0:0|0:0|0:0,0:0:0:0:
293,261,187168,5,10,0:0:0:0:
282,260,187276,1,2,0:0:0:0:
271,259,187383,2,0,L|195:251,1,53.9999983520508,10|2,0:0|0:0,0:0:0:0:
130,354,187597,2,0,L|206:362,1,53.9999983520508,2|0,0:0|0:0,0:0:0:0:
307,369,187811,1,10,0:0:0:0:
350,360,187918,1,8,0:0:0:0:
393,351,188026,6,0,P|416:291|410:228,1,107.999996704102,2|2,1:2|0:0,0:0:0:0:
203,189,188454,2,0,P|252:211|306:212,1,107.999996704102,8|10,0:0|0:0,0:0:0:0:
188,107,188883,6,2,B|190:63|190:63|168:8,1,80.9999975280763,10|0,0:0|0:0,0:1:0:0:
271,85,189097,2,2,B|294:47|294:47|303:-11,1,80.9999975280763,2|0,0:0|0:0,0:1:0:0:
353,107,189311,2,2,B|392:86|392:86|428:40,1,80.9999975280763,2|0,0:0|0:0,0:1:0:0:
413,167,189526,2,2,B|457:169|457:169|512:147,1,80.9999975280763,2|0,0:0|0:0,0:1:0:0:
435,248,189740,5,2,1:2:0:0:
435,248,190169,6,2,L|383:240,1,35.9999989013672,2|0,0:0|0:0,0:1:0:0:
353,266,190312,6,2,L|301:258,1,35.9999989013672,2|8,0:0|0:0,0:1:0:0:
271,284,190454,6,2,L|219:276,1,35.9999989013672,2|0,0:0|0:0,0:1:0:0:
186,266,190597,6,2,B|188:222|188:222|166:167,1,80.9999975280763,10|0,0:0|0:0,0:1:0:0:
264,170,190811,2,2,B|262:126|262:126|284:71,1,80.9999975280763,10|0,0:0|0:0,0:1:0:0:
344,13,191026,2,2,L|268:8,1,53.9999983520508,8|0,0:0|0:0,0:1:0:0:
163,2,191240,1,10,0:0:0:0:
120,9,191347,1,10,0:0:0:0:
77,16,191454,6,2,L|71:87,1,53.9999983520508,2|0,0:0|0:0,0:1:0:0:
18,229,191669,2,2,L|24:158,1,53.9999983520508,2|0,0:0|0:0,0:1:0:0:
60,1,191883,6,2,L|54:72,1,53.9999983520508,2|0,1:2|0:0,0:1:0:0:
1,214,192098,2,2,L|7:143,1,53.9999983520508,2|0,0:0|0:0,0:1:0:0:
140,160,192312,6,0,L|213:163,1,53.9999983520508,14|0,0:0|0:0,0:0:0:0:
303,191,192526,2,0,L|376:194,1,53.9999983520508,2|0,0:0|0:0,0:0:0:0:
512,158,192740,2,0,L|445:157,1,53.9999983520508,2|0,0:0|0:0,0:0:0:0:
360,214,192954,2,0,L|287:211,1,53.9999983520508,10|0,0:0|0:0,0:0:0:0:
229,373,193169,6,0,B|218:331|218:331|229:287|224:238,1,107.999996704102,2|0,1:2|0:0,0:0:0:0:
209,8,193597,6,2,L|210:55,1,35.9999989013672,2|0,0:0|0:0,0:1:0:0:
197,79,193740,6,2,L|196:126,1,35.9999989013672,2|8,0:0|0:0,0:1:0:0:
209,150,193883,6,2,L|210:197,1,35.9999989013672,2|0,0:0|0:0,0:1:0:0:
140,237,194026,6,0,P|93:224|30:237,1,107.999996704102,10|10,0:0|0:0,0:0:0:0:
224,350,194454,1,10,0:0:0:0:
317,218,194669,1,8,0:0:0:0:
332,258,194776,1,8,0:0:0:0:
348,298,194883,1,2,1:2:0:0:
433,190,195097,6,0,L|447:136,1,53.9999983520508,2|0,0:0|0:0,0:0:0:0:
345,57,195312,2,0,L|290:72,1,53.9999983520508,8|0,0:0|0:0,0:0:0:0:
274,200,195526,2,0,L|315:239,1,53.9999983520508,10|0,0:0|0:0,0:0:0:0:
354,151,195740,5,10,0:0:0:0:
205,119,195954,2,0,L|135:110,1,53.9999983520508,2|0,0:0|0:0,0:0:0:0:
48,113,196169,2,0,L|-19:125,1,53.9999983520508,2|0,0:0|0:0,0:0:0:0:
122,239,196383,2,0,L|115:162,1,53.9999983520508,10|0,0:0|0:0,0:0:0:0:
179,34,196597,1,2,1:2:0:0:
257,202,196812,1,0,0:0:0:0:
374,125,197026,6,2,L|377:169,1,35.9999989013672,2|0,0:0|0:0,0:1:0:0:
380,203,197169,6,2,L|383:247,1,35.9999989013672,2|8,0:0|0:0,0:1:0:0:
386,281,197312,6,2,L|389:325,1,35.9999989013672,2|0,0:0|0:0,0:1:0:0:
397,355,197454,5,10,0:0:0:0:
268,250,197669,2,0,P|226:230|165:248,1,107.999996704102,10|10,0:0|0:0,0:0:0:0:
32,209,198097,1,8,0:0:0:0:
25,160,198204,1,8,0:0:0:0:
16,111,198312,1,2,1:2:0:0:
170,140,198526,1,0,0:0:0:0:
294,52,198740,6,2,L|289:112,1,35.9999989013672,2|0,0:0|0:0,0:1:0:0:
298,131,198883,6,2,L|293:191,1,35.9999989013672,2|8,0:0|0:0,0:1:0:0:
302,210,199026,6,2,L|297:270,1,35.9999989013672,2|0,0:0|0:0,0:1:0:0:
246,325,199169,6,0,B|211:341|211:341|179:341|179:341|141:325,1,107.999996704102,10|2,0:0|0:0,0:0:0:0:
200,49,199597,2,0,L|192:118,1,53.9999983520508,2|0,0:0|0:0,0:0:0:0:
189,198,199812,2,0,L|197:267,1,53.9999983520508,10|0,0:0|0:0,0:0:0:0:
347,340,200026,1,2,1:2:0:0:
347,340,200454,6,2,L|358:289,1,35.9999989013672,2|0,0:0|0:0,0:1:0:0:
348,262,200597,6,2,L|337:211,1,35.9999989013672,2|8,0:0|0:0,0:1:0:0:
347,184,200740,6,2,L|358:133,1,35.9999989013672,2|0,0:0|0:0,0:1:0:0:
342,58,200883,5,10,0:0:0:0:
444,237,201097,1,10,0:0:0:0:
206,199,201312,1,10,0:0:0:0:
65,301,201526,1,8,0:0:0:0:
59,252,201633,1,8,0:0:0:0:
53,203,201740,2,0,L|46:121,1,53.9999983520508,2|0,1:2|0:0,0:0:0:0:
147,134,201954,2,0,L|154:52,1,53.9999983520508,2|0,0:0|0:0,0:0:0:0:
314,174,202169,2,0,L|307:92,1,53.9999983520508,2|0,1:2|0:0,0:0:0:0:
408,105,202383,2,0,L|415:23,1,53.9999983520508,2|0,0:0|0:0,0:0:0:0:
440,239,202597,6,0,P|451:293|433:343,3,90,10|0|0|0,0:0|0:0|0:0|0:0,0:0:0:0:
258,244,203454,2,0,P|247:298|265:348,3,90,10|0|0|0,0:0|0:0|0:0|0:0,0:0:0:0:
307,111,204312,2,0,P|253:100|203:118,1,90,14|0,0:0|0:0,0:0:0:0:
0,253,204740,2,0,P|54:264|104:246,1,90,10|0,0:0|0:0,0:0:0:0:
42,93,205169,5,10,0:0:0:0:
248,213,205383,1,2,1:2:0:0:
81,354,205597,5,10,0:0:0:0:
343,311,205812,1,2,1:2:0:0:
224,64,206026,5,14,0:0:0:0:
366,4,206240,1,0,0:0:0:0:
478,147,206454,2,0,P|454:211|404:261,1,107.999996704102,2|0,1:2|0:0,0:0:0:0:
247,174,206883,2,0,L|261:312,1,107.999996704102,10|0,0:0|0:0,0:0:0:0:
271,384,207311,1,2,1:2:0:0:
428,284,207526,1,2,0:0:0:0:
428,284,207633,1,2,0:0:0:0:
428,284,207740,5,10,0:0:0:0:
228,137,207954,1,2,0:0:0:0:
228,137,208061,1,2,0:0:0:0:
228,137,208169,2,0,L|242:275,1,107.999996704102,2|0,1:2|0:0,0:0:0:0:
428,374,208597,2,0,P|446:297|450:246,1,107.999996704102,10|0,0:0|0:0,0:0:0:0:
335,337,209026,1,2,1:2:0:0:
311,162,209240,1,0,0:0:0:0:
484,287,209454,5,14,0:0:0:0:
484,287,209668,1,0,0:0:0:0:
268,235,209883,1,2,1:2:0:0:
399,134,210097,1,0,0:0:0:0:
199,54,210311,5,10,0:0:0:0:
103,216,210526,1,2,0:0:0:0:
82,95,210740,1,2,1:2:0:0:
281,268,210954,1,2,0:0:0:0:
281,268,211061,1,2,0:0:0:0:
281,268,211168,5,10,0:0:0:0:
112,295,211383,1,2,0:0:0:0:
228,193,211597,2,0,P|252:138|253:73,1,107.999996704102,2|0,1:2|0:0,0:0:0:0:
367,271,212026,2,0,P|344:222|340:169,1,107.999996704102,10|0,0:0|0:0,0:0:0:0:
384,52,212454,1,2,1:2:0:0:
488,117,212668,1,0,0:0:0:0:
413,277,212883,5,14,0:0:0:0:
370,148,213097,1,0,0:0:0:0:
273,286,213311,2,0,L|120:271,1,107.999996704102,2|0,1:2|0:0,0:0:0:0:
62,269,213740,1,10,0:0:0:0:
157,151,213954,1,0,0:0:0:0:
252,322,214168,1,2,1:2:0:0:
371,226,214383,6,0,P|383:173|385:119,1,107.999996704102,2|10,0:0|0:0,0:0:0:0:
358,15,214811,1,2,0:0:0:0:
221,100,215026,2,0,L|91:90,1,107.999996704102,2|0,1:2|0:0,0:0:0:0:
0,82,215454,1,10,0:0:0:0:
75,218,215668,1,0,0:0:0:0:
159,18,215883,1,2,1:2:0:0:
159,18,216097,1,0,0:0:0:0:
267,117,216312,6,0,P|267:174|202:267,1,161.999995056153,14|0,0:0|0:0,0:0:0:0:
162,275,216740,1,2,1:2:0:0:
59,200,216954,2,0,P|39:149|40:96,1,107.999996704102,0|10,0:0|0:0,0:0:0:0:
213,25,217383,2,0,P|248:66|267:117,1,107.999996704102,0|2,0:0|1:2,0:0:0:0:
215,280,217811,1,0,0:0:0:0:
63,187,218026,1,10,0:0:0:0:
63,187,218240,6,0,L|43:89,2,90,10|2|10,0:0|1:2|0:0,0:0:0:0:
49,292,218883,1,2,1:2:0:0:
49,292,219097,1,0,0:0:0:0:
205,170,219311,1,2,1:2:0:0:
297,261,219526,1,0,0:0:0:0:
473,62,219740,6,0,L|388:75,1,53.9999983520508,14|0,0:0|0:0,0:0:0:0:
176,75,219954,2,0,L|246:95,1,53.9999983520508,2|0,0:0|0:0,0:0:0:0:
448,181,220169,1,2,1:2:0:0:
263,282,220383,1,0,0:0:0:0:
263,282,220490,1,0,0:0:0:0:
263,282,220597,2,0,P|207:297|139:278,1,107.999996704102,10|0,0:0|0:0,0:0:0:0:
43,203,221026,1,2,1:2:0:0:
211,69,221240,1,2,0:0:0:0:
0,60,221454,6,0,L|125:40,1,107.999996704102,10|2,0:0|0:0,0:0:0:0:
321,75,221883,1,2,1:2:0:0:
321,75,222097,1,0,0:0:0:0:
180,253,222312,5,10,0:0:0:0:
225,42,222526,1,0,0:0:0:0:
264,166,222740,1,2,1:2:0:0:
128,73,222954,2,0,P|103:121|98:174,1,107.999996704102,0|14,0:0|0:0,0:0:0:0:
119,292,223383,1,0,0:0:0:0:
351,182,223597,5,2,1:2:0:0:
181,218,223812,1,0,0:0:0:0:
405,340,224026,1,10,0:0:0:0:
247,87,224240,1,0,0:0:0:0:
506,130,224454,1,2,1:2:0:0:
342,290,224669,6,0,L|225:310,2,107.999996704102,2|8|0,0:0|0:0|0:0,0:0:0:0:
212,210,225312,2,0,L|95:188,1,107.999996704102,2|2,1:2|0:0,0:0:0:0:
92,149,225633,1,2,0:0:0:0:
95,105,225740,2,0,P|140:72|220:74,1,107.999996704102,10|2,0:0|0:0,0:0:0:0:
325,98,226169,1,2,1:2:0:0:
264,281,226383,1,0,0:0:0:0:
445,148,226597,6,0,P|432:205|406:272,1,107.999996704102,14|0,0:0|0:0,0:0:0:0:
214,113,227026,2,0,P|205:54|208:-16,1,107.999996704102,2|0,1:2|0:0,0:0:0:0:
25,190,227454,2,0,P|27:248|41:318,1,107.999996704102,10|0,0:0|0:0,0:0:0:0:
258,311,227883,1,2,1:2:0:0:
258,311,228097,1,2,0:0:0:0:
131,54,228312,5,10,0:0:0:0:
204,231,228526,1,2,0:0:0:0:
299,47,228740,1,2,1:2:0:0:
176,142,228954,1,2,0:0:0:0:
176,142,229062,1,2,0:0:0:0:
176,142,229169,2,0,P|225:135|317:143,1,107.999996704102,10|0,0:0|0:0,0:0:0:0:
381,188,229597,1,2,1:2:0:0:
285,39,229812,1,0,0:0:0:0:
215,328,230026,6,0,P|171:266|172:136,1,161.999995056153,14|0,0:0|0:0,0:0:0:0:
176,142,230454,1,2,1:2:0:0:
383,223,230669,2,0,P|331:211|256:238,1,107.999996704102,2|10,0:0|0:0,0:0:0:0:
145,358,231097,1,2,0:0:0:0:
51,232,231312,1,2,1:2:0:0:
257,246,231526,1,0,0:0:0:0:
387,312,231740,6,0,L|381:192,1,90,10|0,0:0|0:0,0:0:0:0:
378,119,232169,1,10,0:0:0:0:
265,255,232383,1,2,0:0:0:0:
265,255,232490,1,2,0:0:0:0:
265,255,232597,5,2,1:2:0:0:
210,252,232704,1,0,1:0:0:0:
162,225,232812,1,0,1:0:0:0:
136,177,232919,1,0,1:0:0:0:
144,124,233026,5,2,1:2:0:0:
89,126,233133,1,0,1:0:0:0:
40,102,233240,1,0,1:0:0:0:
14,55,233347,1,0,1:0:0:0:
13,1,233454,6,0,P|69:0|138:14,1,90,14|0,0:0|0:0,0:0:0:0:
260,136,233883,2,0,P|204:137|135:123,1,90,2|0,1:2|0:0,0:0:0:0:
391,35,234312,1,10,0:0:0:0:
391,35,234419,1,2,0:0:0:0:
391,35,234526,2,0,B|402:81|402:81|387:156,1,90,2|2,0:0|1:2,0:0:0:0:
343,263,234954,1,0,0:0:0:0:
169,158,235169,6,0,L|162:256,1,90,10|0,0:0|0:0,0:0:0:0:
40,102,235597,2,0,L|47:200,1,90,2|0,1:2|0:0,0:0:0:0:
263,83,236026,2,0,P|272:138|266:189,1,90,10|2,0:0|0:0,0:0:0:0:
233,317,236454,1,2,1:2:0:0:
81,278,236669,1,10,0:0:0:0:
81,278,236776,1,2,0:0:0:0:
81,278,236883,6,0,P|24:267|-35:262,1,90,10|0,0:0|0:0,0:0:0:0:
158,188,237312,2,0,P|113:182|69:173,1,90,2|0,1:2|0:0,0:0:0:0:
256,295,237740,2,0,L|344:280,1,90,10|2,0:0|0:0,0:0:0:0:
354,147,238169,1,2,1:2:0:0:
240,331,238383,1,2,0:0:0:0:
240,331,238490,1,2,0:0:0:0:
240,331,238597,6,0,L|121:310,1,90,10|0,0:0|0:0,0:0:0:0:
251,213,239026,2,0,L|181:114,1,90,2|0,1:2|0:0,0:0:0:0:
342,137,239454,2,0,P|351:88|380:18,1,90,10|2,0:0|0:0,0:0:0:0:
450,257,239883,2,0,P|440:306|412:376,1,90,2|0,1:2|1:0,0:0:0:0:
413,182,240312,6,0,L|517:171,1,90,10|0,0:0|0:0,0:0:0:0:
318,249,240740,2,0,L|214:238,1,90,2|0,1:2|0:0,0:0:0:0:
445,87,241169,2,0,P|435:38|407:-32,1,90,10|2,0:0|0:0,0:0:0:0:
326,166,241597,1,2,1:2:0:0:
261,68,241812,1,2,0:0:0:0:
261,68,241919,1,2,0:0:0:0:
261,68,242026,6,0,P|201:80|165:69,1,90,10|0,0:0|0:0,0:0:0:0:
65,199,242454,2,0,P|125:187|161:198,1,90,2|0,1:2|0:0,0:0:0:0:
308,290,242883,2,0,L|289:195,1,90,10|2,0:0|0:0,0:0:0:0:
261,68,243312,1,0,1:2:0:0:
466,107,243526,1,10,0:0:0:0:
466,107,243633,1,2,0:0:0:0:
466,107,243740,6,0,P|464:56|447:5,1,90,10|0,0:0|0:0,0:0:0:0:
418,214,244169,2,0,P|420:265|437:316,1,90,2|0,1:2|0:0,0:0:0:0:
314,131,244597,2,0,B|311:176|311:176|289:232,1,90,10|2,0:0|0:0,0:0:0:0:
195,305,245026,1,2,1:2:0:0:
81,163,245240,1,2,0:0:0:0:
81,163,245347,1,2,0:0:0:0:
81,163,245454,6,0,L|183:152,1,90,10|0,0:0|0:0,0:0:0:0:
29,38,245883,2,0,L|131:49,1,90,2|2,1:2|0:0,0:0:0:0:
291,72,246312,1,10,0:0:0:0:
136,15,246526,1,2,1:2:0:0:
315,52,246740,1,2,1:2:0:0:
111,88,246954,1,8,0:0:0:0:
245,212,247169,6,0,L|251:269,2,45,14|0|2,0:0|0:0|0:0,0:0:0:0:
224,74,247597,1,2,0:0:0:0:
97,221,247812,1,8,0:0:0:0:
90,194,247919,1,2,0:0:0:0:
122,317,248133,1,2,0:0:0:0:
194,191,248347,1,0,0:0:0:0:
201,164,248454,1,2,1:2:0:0:
382,277,248669,6,0,L|394:347,2,45,10|2|2,0:0|0:0|0:0,0:0:0:0:
383,250,248990,1,2,0:0:0:0:
385,223,249097,1,10,0:0:0:0:
406,94,249312,1,2,0:0:0:0:
264,157,249526,1,10,0:0:0:0:
264,157,249633,1,10,0:0:0:0:
264,157,249740,2,0,P|252:202|251:265,1,90,2|0,1:2|0:0,0:0:0:0:
135,82,250169,2,0,P|147:127|148:190,1,90,2|8,0:0|0:0,0:0:0:0:
39,285,250597,6,0,L|32:230,2,45,10|2|2,0:0|0:0|0:0,0:0:0:0:
158,384,251026,2,0,L|167:271,1,90,2|8,0:0|0:0,0:0:0:0:
166,267,251347,1,2,0:0:0:0:
350,207,251562,1,2,0:0:0:0:
268,113,251776,1,0,0:0:0:0:
266,87,251883,2,0,L|164:122,1,90,2|10,0:0|0:0,0:0:0:0:
56,68,252312,6,0,L|41:168,1,90,2|10,0:0|0:0,0:0:0:0:
144,271,252740,1,2,0:0:0:0:
273,171,252954,1,2,0:0:0:0:
273,171,253062,1,10,0:0:0:0:
273,171,253169,2,0,L|288:271,1,90,2|0,1:2|0:0,0:0:0:0:
144,271,253597,1,10,0:0:0:0:
185,77,253812,1,8,0:0:0:0:
56,68,254026,6,0,L|41:168,1,90,14|2,0:0|0:0,0:0:0:0:
231,53,254454,2,0,L|246:153,1,90,2|8,0:0|0:0,0:0:0:0:
396,8,254883,2,0,P|363:9|320:8,3,45,2|2|2|2,1:2|0:0|0:0|0:0,0:0:0:0:
474,73,255312,1,2,0:0:0:0:
380,204,255526,1,10,0:0:0:0:
380,204,255633,1,2,0:0:0:0:
380,204,255740,5,4,0:0:0:0:
404,347,255954,1,10,0:0:0:0:
245,231,256169,1,2,0:0:0:0:
481,232,256383,1,10,0:0:0:0:
481,232,256490,1,10,0:0:0:0:
481,232,256597,2,0,L|485:123,1,90,2|0,1:2|0:0,0:0:0:0:
305,104,257026,2,0,P|331:107|360:107,3,45,2|2|10|2,0:0|0:0|0:0|0:0,0:0:0:0:
206,60,257454,6,0,P|203:147|210:258,1,180,10|2,0:0|0:0,0:0:0:0:
110,126,258097,1,8,0:0:0:0:
31,242,258312,2,0,P|32:196|26:138,1,90,2|2,1:2|0:0,0:0:0:0:
125,323,258740,2,0,B|121:275|121:275|136:223,1,90,2|10,0:0|0:0,0:0:0:0:
313,276,259169,6,0,L|241:278,2,45,2|2|10,0:0|0:0|0:0,0:0:0:0:
390,149,259597,1,2,0:0:0:0:
261,100,259812,1,10,0:0:0:0:
261,100,259919,1,10,0:0:0:0:
261,100,260026,2,0,L|176:113,1,45,2|0,1:2|0:0,0:0:0:0:
74,94,260240,2,0,L|159:107,1,45,2|0,0:0|0:0,0:0:0:0:
168,220,260454,1,10,0:0:0:0:
182,14,260669,1,10,0:0:0:0:
182,14,260883,6,0,L|82:-2,3,90,14|0|0|0,0:0|0:0|0:0|0:0,0:0:0:0:
118,100,261740,2,0,L|18:116,3,90,2|0|0|0,1:2|0:0|0:0|0:0,0:0:0:0:
83,199,262597,2,0,L|-7:245,3,90,10|0|0|0,0:0|0:0|0:0|0:0,0:0:0:0:
80,305,263454,2,0,L|8:376,3,90,2|0|0|0,1:2|0:0|0:0|0:0,0:0:0:0:
204,382,264312,6,0,P|221:327|213:275,3,90,10|0|0|0,0:0|0:0|0:0|0:0,0:0:0:0:
319,278,265169,2,0,P|292:227|249:195,3,90,2|0|0|0,1:2|0:0|0:0|0:0,0:0:0:0:
326,123,266026,2,0,P|270:105|218:113,3,90,10|0|0|0,0:0|0:0|0:0|0:0,0:0:0:0:
221,8,266883,2,0,P|170:34|138:77,3,90,2|0|0|0,1:2|0:0|0:0|0:0,0:0:0:0:
82,177,267740,6,0,L|-17:164,3,90,10|0|0|0,0:0|0:0|0:0|0:0,0:0:0:0:
105,275,268597,2,0,L|204:262,3,90,2|0|0|0,1:2|0:0|0:0|0:0,0:0:0:0:
290,139,269454,2,0,L|191:126,3,90,10|0|0|0,0:0|0:0|0:0|0:0,0:0:0:0:
313,237,270311,2,0,L|412:224,3,90,2|0|0|0,1:2|0:0|0:0|0:0,0:0:0:0:
512,151,271169,6,0,P|507:92|482:49,3,90,10|0|0|0,0:0|0:0|0:0|0:0,0:0:0:0:
398,128,272026,2,0,P|353:88|305:76,3,90,2|0|0|0,1:2|0:0|0:0|0:0,0:0:0:0:
304,194,272883,2,0,P|244:197|202:223,3,90,10|0|0|0,0:0|0:0|0:0|0:0,0:0:0:0:
284,307,273740,2,0,P|244:351|233:399,3,90,2|0|0|0,1:2|0:0|0:0|0:0,0:0:0:0:
114,332,274597,6,0,L|99:135,1,180,2|0,0:0|0:0,0:0:0:0:
236,49,275454,2,0,L|251:246,1,180,2|0,0:0|0:0,0:0:0:0:
262,370,276312,6,0,P|321:375|424:290,1,180,2|2,0:0|0:0,0:0:0:0:
371,174,277169,2,0,P|312:169|209:254,1,180,2|2,0:0|0:0,0:0:0:0:
136,354,278026,6,0,B|62:303|62:303|22:195,1,180,2|0,0:0|0:0,0:0:0:0:
144,137,278883,2,0,B|218:188|218:188|258:296,1,180,2|0,0:0|0:0,0:0:0:0:
217,384,279740,6,0,L|422:377,1,180,2|2,0:0|0:0,0:0:0:0:
429,266,280597,2,0,L|224:273,1,180,2|2,0:0|0:0,0:0:0:0:
95,279,281454,6,0,P|53:213|71:81,1,180,2|0,0:0|0:0,0:0:0:0:
240,80,282312,2,0,P|282:146|264:278,1,180,2|0,0:0|0:0,0:0:0:0:
200,360,283169,6,0,B|110:373|110:373|2:355,1,180,2|2,0:0|0:0,0:0:0:0:
30,240,284026,2,0,B|120:227|120:227|228:245,1,180,2|2,0:0|0:0,0:0:0:0:
345,326,284883,6,0,L|328:114,1,180,2|0,0:0|0:0,0:0:0:0:
449,29,285740,2,0,L|466:241,1,180,2|0,0:0|0:0,0:0:0:0:
479,346,286597,6,0,P|419:362|305:313,1,180,2|2,0:0|0:0,0:0:0:0:
338,172,287454,2,0,P|398:156|512:205,1,180,2|2,0:0|0:0,0:0:0:0:
504,197,288097,5,2,0:0:0:0:
