osu file format v14

[General]
AudioFilename: audio.mp3
AudioLeadIn: 0
PreviewTime: 95940
Countdown: 0
SampleSet: Soft
StackLeniency: 0.7
Mode: 0
LetterboxInBreaks: 0
WidescreenStoryboard: 0

[Editor]
Bookmarks: 48,13762,27476,41190,54905,68619,82333,96048,109762,123476,137190,150905,164619,178333,192048,205762,219476,233190,246905,260619,273905
DistanceSpacing: 0.4
BeatDivisor: 4
GridSize: 32
TimelineZoom: 3.499999

[Metadata]
Title:Sweet Refrain (Album-mix)
TitleUnicode:Sweet Refrain (Album-mix)
Artist:Perfume
ArtistUnicode:Perfume
Creator:eiri-
Version:Forthcoming
Source:
Tags:Ayyri Lafayla COSMIC EXPLORER Jpop Japanese Pop
BeatmapID:2047954
BeatmapSetID:978579

[Difficulty]
HPDrainRate:5
CircleSize:4
OverallDifficulty:8
ApproachRate:8.5
SliderMultiplier:1.6
SliderTickRate:1

[Events]
//Background and Video events
0,0,"Sweet Refrain.jpg",0,0
//Break Periods
//Storyboard Layer 0 (Background)
//Storyboard Layer 1 (Fail)
//Storyboard Layer 2 (Pass)
//Storyboard Layer 3 (Foreground)
//Storyboard Sound Samples

[TimingPoints]
48,428.571428571429,4,2,1,50,1,0
48,-125,4,2,1,50,0,0
3476,-125,4,2,1,55,0,0
6905,-125,4,2,1,60,0,0
10333,-125,4,2,1,65,0,0
13762,-100,4,2,1,75,0,0
27476,-90.9090909090909,4,2,1,80,0,0
41190,-90.9090909090909,4,2,1,70,0,0
54905,-90.9090909090909,4,2,1,75,0,0
68619,-90.9090909090909,4,2,1,80,0,0
82333,-90.9090909090909,4,2,1,85,0,0
89190,-125,4,2,1,90,0,0
92619,-111.111111111111,4,2,1,95,0,0
96048,-80,4,2,1,100,0,1
109333,-80,4,2,1,100,0,0
109762,-80,4,2,1,100,0,1
123476,-90.9090909090909,4,2,1,80,0,0
137190,-90.9090909090909,4,2,1,75,0,0
150905,-90.9090909090909,4,2,1,80,0,0
164619,-90.9090909090909,4,2,1,85,0,0
178333,-90.9090909090909,4,2,1,90,0,0
188619,-90.9090909090909,4,2,1,95,0,0
192048,-80,4,2,1,100,0,1
205333,-80,4,2,1,100,0,0
205762,-80,4,2,1,100,0,1
219476,-86.9565217391304,4,2,1,85,0,0
233190,-86.9565217391304,4,2,1,80,0,0
246905,-125,4,2,1,60,0,0
260619,-125,4,2,1,50,0,0
273905,-125,4,2,1,40,0,0

[Colours]
Combo1 : 123,114,141
Combo2 : 149,172,191
Combo3 : 173,137,182
Combo4 : 194,214,220

[HitObjects]
412,240,48,6,0,P|363:272|278:266,3,128,10|2|0|2,0:0|0:0|0:0|0:0,0:0:0:0:
218,337,1762,2,0,P|154:337|101:304,3,128,10|2|0|2,0:0|0:0|0:0|0:0,0:0:0:0:
78,190,3262,1,2,0:0:0:0:
78,190,3476,6,0,L|223:178,3,128,10|2|0|2,0:0|0:0|0:0|0:0,0:0:0:0:
319,138,5190,2,0,L|446:148,3,128,2|2|0|2,0:0|0:0|0:0|0:0,0:0:0:0:
427,49,6905,2,0,P|373:22|304:13,3,128,10|2|0|2,0:0|0:0|0:0|0:0,0:0:0:0:
209,84,8405,1,2,0:0:0:0:
209,84,8619,6,0,P|151:112|88:120,3,128,10|2|0|2,0:0|0:0|0:0|0:0,0:0:0:0:
239,16,10333,2,0,L|254:153,3,128,10|2|0|2,0:0|0:0|0:0|0:0,0:0:0:0:
320,239,12048,2,0,L|306:366,2,128,2|2|2,0:0|0:0|0:0,0:0:0:0:
320,239,13333,1,0,1:0:0:0:
406,323,13548,1,8,0:0:0:0:
406,323,13762,6,0,P|440:313|497:328,2,80,14|2|10,0:0|0:0|0:0,0:0:0:0:
259,378,14405,1,2,0:0:0:0:
171,272,14619,2,0,P|158:311|156:358,1,80,10|0,0:0|0:0,0:0:0:0:
32,209,15048,2,0,P|45:246|48:286,1,80,10|2,0:0|0:0,0:0:0:0:
79,122,15476,6,0,P|42:106|3:110,2,80,10|2|10,0:0|0:0|0:0,0:0:0:0:
172,187,16119,1,2,0:0:0:0:
288,68,16333,2,0,L|200:78,1,80,10|0,0:0|0:0,0:0:0:0:
374,190,16762,1,2,1:2:0:0:
459,122,16976,1,2,0:0:0:0:
459,122,17190,6,0,L|448:13,2,80,10|2|10,0:0|0:0|0:0,0:0:0:0:
512,227,17833,1,2,0:0:0:0:
381,302,18048,2,0,P|341:302|302:292,1,80,10|0,0:0|0:0,0:0:0:0:
176,198,18476,2,0,P|214:187|254:188,1,80,10|2,0:0|0:0,0:0:0:0:
369,125,18904,6,0,L|380:228,2,80,10|2|10,0:0|0:0|0:0,0:0:0:0:
310,26,19547,1,2,0:0:0:0:
163,99,19762,2,0,P|198:116|238:117,1,80,10|0,0:0|0:0,0:0:0:0:
74,25,20190,1,2,1:2:0:0:
0,107,20404,1,2,0:0:0:0:
0,107,20619,6,0,P|6:145|10:195,1,80,10|0,0:0|0:0,0:0:0:0:
106,322,21048,2,0,P|109:282|115:242,1,80,10|8,0:0|0:0,0:0:0:0:
164,72,21476,1,2,1:2:0:0:
235,168,21690,1,0,0:0:0:0:
375,96,21905,2,0,P|337:83|297:83,1,80,10|0,0:0|0:0,0:0:0:0:
402,215,22333,6,0,L|481:205,2,80,10|2|10,0:0|0:0|0:0,0:0:0:0:
299,300,22976,1,10,0:0:0:0:
188,172,23190,1,2,1:2:0:0:
123,273,23404,1,2,0:0:0:0:
123,273,23619,2,0,P|158:284|202:276,1,80,10|0,0:0|0:0,0:0:0:0:
14,291,24048,6,0,L|23:211,1,80,10|8,0:0|0:0,0:0:0:0:
104,41,24476,2,0,L|113:120,1,80,10|8,0:0|0:0,0:0:0:0:
151,308,24905,1,2,1:2:0:0:
235,221,25119,1,10,0:0:0:0:
322,380,25333,2,0,P|324:334|341:293,1,80,10|10,0:0|0:0,0:0:0:0:
430,141,25762,5,2,1:2:0:0:
430,141,25976,1,10,0:0:0:0:
263,200,26190,1,2,1:2:0:0:
263,200,26404,1,10,0:0:0:0:
161,88,26619,2,0,P|200:73|249:78,1,80,10|10,0:0|0:0,0:0:0:0:
436,119,27048,1,0,1:0:0:0:
263,200,27262,1,8,0:0:0:0:
348,86,27476,6,0,B|378:164|310:138|357:239,1,132.00000402832,14|0,0:0|0:0,0:0:0:0:
369,255,27905,2,0,L|267:246,1,88.000002685547,2|0,1:2|0:0,0:0:0:0:
138,235,28333,1,10,0:0:0:0:
249,113,28548,1,2,0:0:0:0:
249,113,28655,1,2,0:0:0:0:
249,113,28762,2,0,L|240:11,1,88.000002685547,2|0,1:2|0:0,0:0:0:0:
200,181,29190,6,0,P|256:145|338:182,1,132.00000402832,10|0,0:0|0:0,0:0:0:0:
355,185,29619,2,0,L|457:176,1,88.000002685547,2|0,1:2|0:0,0:0:0:0:
320,307,30048,2,0,L|422:316,1,88.000002685547,10|0,0:0|0:0,0:0:0:0:
237,240,30476,1,2,1:2:0:0:
186,331,30690,1,2,0:0:0:0:
148,159,30905,6,0,P|89:179|40:115,1,132.00000402832,10|0,0:0|0:0,0:0:0:0:
61,89,31333,2,0,L|43:-10,1,88.000002685547,2|0,1:2|0:0,0:0:0:0:
189,124,31762,2,0,L|207:25,1,88.000002685547,10|0,0:0|0:0,0:0:0:0:
249,214,32190,1,2,1:2:0:0:
85,198,32405,1,2,0:0:0:0:
85,198,32512,1,2,0:0:0:0:
85,198,32619,6,0,P|105:250|35:314,1,132.00000402832,10|0,0:0|0:0,0:0:0:0:
29,326,33048,2,0,L|148:318,1,88.000002685547,2|0,1:2|0:0,0:0:0:0:
265,312,33476,1,10,0:0:0:0:
265,312,33690,1,2,0:0:0:0:
197,206,33905,1,2,1:2:0:0:
352,149,34119,1,0,0:0:0:0:
263,50,34333,6,0,L|377:38,1,88.000002685547,10|2,0:0|0:0,0:0:0:0:
193,116,34762,1,2,1:2:0:0:
193,116,34976,2,0,P|135:77|93:162,1,176.000005371094,2|2,0:0|0:0,0:0:0:0:
60,263,35619,1,2,1:2:0:0:
212,196,35833,1,2,0:0:0:0:
212,196,35940,1,2,0:0:0:0:
212,196,36048,6,0,L|328:187,1,88.000002685547,10|2,0:0|0:0,0:0:0:0:
437,184,36476,1,2,1:2:0:0:
437,184,36690,2,0,B|452:226|452:226|417:368,1,176.000005371094,2|2,0:0|0:0,0:0:0:0:
365,253,37333,1,2,1:2:0:0:
502,345,37548,1,8,0:0:0:0:
512,140,37762,5,2,1:2:0:0:
512,140,37976,1,8,0:0:0:0:
411,131,38190,2,0,L|313:121,1,88.000002685547,2|4,1:2|0:3,0:0:0:0:
327,220,38620,5,2,1:2:0:0:
327,220,38834,1,8,0:0:0:0:
226,229,39048,2,0,L|128:239,1,88.000002685547,2|4,1:2|0:3,0:0:0:0:
138,237,39476,5,2,1:2:0:0:
196,93,39690,1,8,0:0:0:0:
316,323,39905,5,2,1:2:0:0:
294,172,40119,1,8,0:0:0:0:
200,356,40333,6,0,L|164:351,5,29.3333342285157,2|8|8|8|8|8,1:2|0:0|0:0|0:0|0:0|0:0,0:0:0:0:
131,347,40762,1,2,1:2:0:0:
5,150,41190,6,0,B|102:188|94:103|206:155,1,176.000005371094,14|0,0:0|1:0,0:0:0:0:
306,187,41833,1,2,0:0:0:0:
306,187,42048,2,0,L|297:99,1,88.000002685547,10|0,0:0|0:0,0:0:0:0:
441,10,42476,2,0,L|426:136,1,88.000002685547,2|2,1:2|0:0,0:0:0:0:
512,224,42905,6,0,P|442:211|366:267,1,132.00000402832,10|0,0:0|0:0,0:0:0:0:
375,269,43333,2,0,L|249:254,1,88.000002685547,2|2,1:2|0:0,0:0:0:0:
307,132,43762,6,0,L|175:145,1,132.00000402832,10|0,0:0|0:0,0:0:0:0:
141,156,44190,1,2,1:2:0:0:
10,106,44405,1,8,0:0:0:0:
15,258,44619,6,0,P|64:269|112:258,1,88.000002685547,10|2,0:2|0:0,0:0:0:0:
200,362,45048,2,0,L|220:190,1,132.00000402832,2|0,1:2|0:0,0:0:0:0:
230,187,45476,2,0,P|238:230|257:269,1,88.000002685547,10|0,0:0|0:0,0:0:0:0:
352,363,45905,2,0,P|360:319|379:280,1,88.000002685547,2|0,1:2|0:0,0:0:0:0:
484,185,46333,6,0,P|492:228|512:268,2,88.000002685547,10|2|2,0:0|0:0|1:2,0:0:0:0:
483,62,46976,1,2,0:0:0:0:
483,62,47190,2,0,L|395:51,1,88.000002685547,10|2,0:0|0:0,0:0:0:0:
212,79,47619,1,2,1:2:0:0:
332,221,47833,1,8,0:0:0:0:
332,221,48048,6,0,L|244:229,1,88.000002685547,10|0,0:0|0:0,0:0:0:0:
130,321,48476,2,0,L|217:329,1,88.000002685547,2|2,1:2|0:0,0:0:0:0:
122,219,48905,2,0,L|34:227,1,88.000002685547,10|0,0:0|0:0,0:0:0:0:
164,103,49333,1,2,1:2:0:0:
241,186,49547,1,2,0:0:0:0:
331,55,49762,6,0,L|351:227,1,132.00000402832,10|0,0:0|0:0,0:0:0:0:
378,213,50190,2,0,L|388:125,1,88.000002685547,2|2,1:2|0:0,0:0:0:0:
461,281,50619,6,0,P|401:317|309:300,1,132.00000402832,10|0,0:0|0:0,0:0:0:0:
309,301,51048,1,2,1:2:0:0:
215,196,51262,1,8,0:0:0:0:
106,332,51476,2,0,L|95:244,1,88.000002685547,10|2,0:2|0:0,0:0:0:0:
61,74,51905,1,2,1:2:0:0:
0,181,52119,1,0,0:0:0:0:
168,141,52333,2,0,P|213:140|254:155,1,88.000002685547,10|0,0:0|0:0,0:0:0:0:
203,285,52762,2,0,P|248:285|289:270,1,88.000002685547,2|2,1:2|0:0,0:0:0:0:
425,194,53190,6,0,L|414:281,2,88.000002685547,10|2|2,0:0|0:0|1:2,0:0:0:0:
470,25,53833,1,2,0:0:0:0:
470,25,53940,1,2,0:0:0:0:
470,25,54048,1,10,0:0:0:0:
340,68,54262,2,0,P|318:70|296:68,1,44.0000013427735,2|10,1:2|0:0,0:0:0:0:
186,49,54476,1,2,1:2:0:0:
93,149,54690,1,10,0:0:0:0:
93,149,54798,1,10,0:0:0:0:
93,149,54905,6,0,B|211:122|136:228|292:189,1,176.000005371094,14|0,0:0|1:0,0:0:0:0:
351,177,55548,1,2,0:0:0:0:
351,177,55762,2,0,P|312:256|280:341,1,176.000005371094,10|2,0:0|1:2,0:0:0:0:
202,282,56405,1,2,0:0:0:0:
418,355,56619,6,0,L|403:247,1,88.000002685547,10|0,0:0|0:0,0:0:0:0:
458,122,57048,2,0,L|473:230,1,88.000002685547,2|2,1:2|0:0,0:0:0:0:
322,151,57476,2,0,L|341:10,1,132.00000402832,10|0,0:0|0:0,0:0:0:0:
327,42,57905,2,0,L|220:33,1,88.000002685547,2|8,1:2|0:0,0:0:0:0:
108,23,58333,5,10,0:2:0:0:
219,34,58548,1,2,0:0:0:0:
63,19,58762,2,0,L|80:155,1,132.00000402832,2|0,1:2|0:0,0:0:0:0:
77,169,59190,1,10,0:0:0:0:
205,151,59405,1,0,0:0:0:0:
172,292,59619,2,0,P|233:273|272:274,1,88.000002685547,2|2,1:2|0:0,0:0:0:0:
388,336,60048,6,0,L|370:236,1,88.000002685547,10|2,0:0|0:0,0:0:0:0:
351,136,60476,2,0,P|290:117|251:118,1,88.000002685547,2|2,1:2|0:0,0:0:0:0:
155,149,60905,1,10,0:0:0:0:
193,47,61119,1,2,0:0:0:0:
360,155,61333,1,2,1:2:0:0:
321,0,61548,1,8,0:0:0:0:
169,170,61762,6,0,P|103:152|47:191,1,132.00000402832,10|0,0:0|0:0,0:0:0:0:
30,223,62190,2,0,L|16:108,1,88.000002685547,2|2,1:2|0:0,0:0:0:0:
185,198,62619,1,10,0:0:0:0:
156,294,62833,1,0,0:0:0:0:
258,377,63048,2,0,L|360:365,1,88.000002685547,2|2,1:2|0:0,0:0:0:0:
475,354,63476,6,0,P|502:309|485:203,1,132.00000402832,10|0,0:0|0:0,0:0:0:0:
470,188,63905,2,0,P|439:130|444:65,1,132.00000402832,2|2,1:2|0:0,0:0:0:0:
465,13,64333,2,0,L|358:1,1,88.000002685547,10|0,0:0|0:0,0:0:0:0:
233,107,64762,2,0,L|340:95,1,88.000002685547,2|8,1:2|0:0,0:0:0:0:
121,15,65190,5,2,1:2:0:0:
121,15,65405,1,4,0:3:0:0:
245,132,65619,5,2,1:2:0:0:
245,132,65834,1,4,0:3:0:0:
89,238,66048,5,2,1:2:0:0:
89,238,66263,1,4,0:3:0:0:
305,320,66476,6,0,L|309:253,3,44.0000013427735,2|2|2|2,1:2|0:0|0:0|0:0,0:0:0:0:
322,301,66905,5,2,1:2:0:0:
364,135,67119,1,8,0:0:0:0:
509,363,67333,5,2,1:2:0:0:
456,155,67547,1,8,0:0:0:0:
305,376,67762,5,8,0:0:0:0:
305,376,67976,1,8,0:0:0:0:
512,254,68190,6,0,P|456:237|446:237,1,44.0000013427735,2|0,1:2|0:0,0:0:0:0:
347,257,68405,1,10,0:0:0:0:
347,257,68512,1,10,0:0:0:0:
347,257,68619,6,0,P|366:194|377:121,1,132.00000402832,14|0,0:0|0:0,0:0:0:0:
382,83,69048,1,0,1:0:0:0:
261,140,69262,1,2,0:0:0:0:
118,54,69476,2,0,L|225:42,1,88.000002685547,10|0,0:0|0:0,0:0:0:0:
36,156,69905,2,0,L|123:165,1,88.000002685547,2|2,1:2|0:0,0:0:0:0:
256,252,70333,6,0,P|212:252|174:274,2,88.000002685547,10|0|2,0:0|0:0|1:2,0:0:0:0:
382,291,70976,1,2,0:0:0:0:
382,291,71190,2,0,L|394:184,1,88.000002685547,10|0,0:0|0:0,0:0:0:0:
445,31,71619,1,2,1:2:0:0:
445,31,71833,1,8,0:0:0:0:
293,144,72048,5,10,0:2:0:0:
424,252,72262,1,2,0:0:0:0:
220,286,72476,2,0,P|283:266|331:310,1,132.00000402832,2|0,1:2|0:0,0:0:0:0:
340,344,72905,1,10,0:0:0:0:
204,383,73119,1,0,0:0:0:0:
94,260,73334,2,0,L|84:347,1,88.000002685547,2|0,1:2|0:0,0:0:0:0:
165,187,73762,6,0,P|140:150|125:109,2,88.000002685547,10|2|2,0:0|0:0|1:2,0:0:0:0:
293,301,74405,1,2,0:0:0:0:
293,301,74619,2,0,L|205:291,1,88.000002685547,10|2,0:0|0:0,0:0:0:0:
19,314,75048,1,2,1:2:0:0:
132,209,75262,1,8,0:0:0:0:
0,82,75476,6,0,B|72:99|56:51|141:80,1,132.00000402832,10|0,0:0|0:0,0:0:0:0:
160,90,75905,1,2,1:2:0:0:
282,1,76119,1,2,0:0:0:0:
391,130,76333,2,0,P|398:78|424:27,1,88.000002685547,10|0,0:0|0:0,0:0:0:0:
281,188,76762,2,0,P|273:136|247:85,1,88.000002685547,2|2,1:2|0:0,0:0:0:0:
177,244,77190,6,0,L|89:234,2,88.000002685547,10|0|2,0:0|0:0|1:2,0:0:0:0:
209,350,77833,1,2,0:0:0:0:
209,350,78047,2,0,P|246:326|288:316,1,88.000002685547,10|0,0:0|0:0,0:0:0:0:
462,314,78476,1,2,1:2:0:0:
462,314,78690,1,8,0:0:0:0:
324,162,78905,5,10,0:2:0:0:
256,290,79119,1,2,0:0:0:0:
109,146,79333,2,0,L|126:317,1,132.00000402832,2|0,1:2|0:0,0:0:0:0:
130,314,79762,1,10,0:0:0:0:
222,197,79976,1,0,0:0:0:0:
341,298,80191,2,0,P|297:301|255:289,1,88.000002685547,2|2,1:2|0:0,0:0:0:0:
436,234,80619,6,0,L|448:341,2,88.000002685547,10|2|2,0:0|0:0|1:2,0:0:0:0:
446,109,81262,1,2,0:0:0:0:
314,274,81476,1,10,0:0:0:0:
348,155,81690,1,2,1:2:0:0:
348,155,81798,1,10,0:0:0:0:
348,155,81905,1,2,1:2:0:0:
393,366,82119,1,10,0:0:0:0:
393,366,82226,1,10,0:0:0:0:
393,366,82333,6,0,P|404:294|432:213,1,132.00000402832,14|0,0:0|0:0,0:0:0:0:
431,250,82762,1,0,1:0:0:0:
300,296,82976,1,2,0:0:0:0:
233,184,83190,2,0,L|340:172,1,88.000002685547,10|0,0:0|0:0,0:0:0:0:
130,300,83619,2,0,L|217:309,1,88.000002685547,2|2,1:2|0:0,0:0:0:0:
33,184,84048,6,0,L|21:76,2,88.000002685547,10|0|2,0:0|0:0|1:2,0:0:0:0:
141,263,84690,1,2,0:0:0:0:
141,263,84904,2,0,L|153:156,1,88.000002685547,10|0,0:0|0:0,0:0:0:0:
165,65,85333,1,2,1:2:0:0:
165,65,85547,1,8,0:0:0:0:
323,146,85762,5,10,0:2:0:0:
392,51,85976,1,2,0:0:0:0:
304,178,86190,2,0,P|390:168|454:142,1,132.00000402832,2|0,1:2|0:0,0:0:0:0:
476,125,86619,1,10,0:0:0:0:
411,262,86833,1,0,0:0:0:0:
279,160,87048,2,0,L|269:247,1,88.000002685547,2|0,1:2|0:0,0:0:0:0:
163,344,87476,6,0,P|138:307|123:266,2,88.000002685547,10|2|2,0:0|0:0|1:2,0:0:0:0:
315,271,88119,1,2,0:0:0:0:
315,271,88333,2,0,L|227:261,1,88.000002685547,10|2,0:0|0:0,0:0:0:0:
90,284,88762,1,2,1:2:0:0:
142,172,88976,1,8,0:0:0:0:
5,93,89190,6,0,L|146:83,3,128,14|2|0|2,0:0|0:0|0:0|0:0,0:0:0:0:
301,72,90690,1,10,0:0:0:0:
350,138,90905,6,0,L|340:279,3,128,14|2|0|2,0:0|0:0|0:0|0:0,0:0:0:0:
331,351,92405,1,0,0:0:0:0:
204,311,92619,5,6,1:2:0:0:
204,311,92833,1,8,0:0:0:0:
320,266,93048,1,2,1:2:0:0:
320,266,93262,1,8,0:0:0:0:
154,214,93476,1,2,1:2:0:0:
154,214,93690,1,8,0:0:0:0:
364,170,93905,1,2,1:2:0:0:
364,170,94119,1,8,0:0:0:0:
114,94,94333,5,2,1:2:0:0:
151,16,94548,1,8,0:0:0:0:
340,141,94762,5,2,1:2:0:0:
309,6,94976,1,8,0:0:0:0:
185,258,95190,5,2,1:2:0:0:
185,258,95333,2,0,L|229:253,3,23.9999992675781,8|8|8|8,0:0|0:0|0:0|0:0,0:0:0:0:
260,254,95619,1,2,1:2:0:0:
260,254,96048,6,0,L|359:263,1,100,14|0,0:0|0:0,0:0:0:0:
208,139,96476,1,2,1:2:0:0:
72,198,96690,1,2,0:0:0:0:
187,33,96905,2,0,B|287:8|264:89|376:53,1,150,10|0,0:0|0:0,0:0:0:0:
368,62,97333,1,2,1:2:0:0:
485,200,97548,6,0,L|492:100,1,100,2|8,0:0|0:0,0:0:0:0:
356,188,97976,1,2,0:0:0:0:
252,69,98190,1,2,1:2:0:0:
252,69,98405,1,2,0:0:0:0:
87,169,98619,2,0,P|132:185|195:183,1,100,10|0,0:0|0:0,0:0:0:0:
30,323,99048,2,0,P|76:305|126:306,1,100,2|0,1:2|0:0,0:0:0:0:
331,348,99476,5,10,0:0:0:0:
357,198,99690,1,2,0:0:0:0:
324,384,99905,1,2,1:2:0:0:
458,316,100119,1,2,0:0:0:0:
255,257,100333,2,0,P|206:258|157:277,2,100,10|2|2,0:0|0:0|1:2,0:0:0:0:
93,378,100976,5,2,0:0:0:0:
93,378,101083,1,2,0:0:0:0:
93,378,101190,1,10,0:0:0:0:
0,272,101404,1,2,0:0:0:0:
0,272,101619,2,0,L|9:172,1,100,2|0,1:2|0:0,0:0:0:0:
141,31,102048,2,0,L|150:130,1,100,10|0,0:0|0:0,0:0:0:0:
121,286,102476,1,2,1:2:0:0:
304,247,102690,6,0,P|256:217|206:219,1,100,2|8,0:0|0:0,0:0:0:0:
252,359,103119,1,2,0:0:0:0:
442,322,103333,2,0,L|426:171,1,150,2|0,1:2|0:0,0:0:0:0:
422,137,103762,1,10,0:0:0:0:
291,197,103976,1,2,0:0:0:0:
184,46,104190,1,2,1:2:0:0:
184,46,104405,6,0,P|186:98|161:142,1,100,2|8,0:0|0:0,0:0:0:0:
66,200,104833,1,2,0:0:0:0:
0,346,105048,2,0,P|67:315|142:314,1,150,2|0,1:2|0:0,0:0:0:0:
175,320,105476,1,10,0:0:0:0:
267,249,105690,1,2,0:0:0:0:
351,382,105905,2,0,P|353:332|370:285,1,100,2|2,1:2|0:0,0:0:0:0:
512,152,106333,6,0,B|482:182|451:188|451:188|405:151|337:168,1,150,10|0,0:0|0:0,0:0:0:0:
341,169,106761,1,2,1:2:0:0:
196,264,106976,2,0,L|187:165,1,100,2|8,0:0|0:0,0:0:0:0:
102,22,107405,1,2,0:0:0:0:
102,22,107619,2,0,L|93:121,1,100,2|0,1:2|0:0,0:0:0:0:
102,309,108048,5,10,0:0:0:0:
0,173,108262,1,2,0:0:0:0:
128,332,108476,1,0,1:2:0:0:
240,187,108690,2,0,L|246:257,1,50,2|2,0:0|0:0,0:0:0:0:
274,212,108905,1,2,1:2:0:0:
344,91,109119,1,2,0:0:0:0:
344,91,109226,1,2,0:0:0:0:
344,91,109333,2,0,P|340:52|328:17,1,50,2|0,1:2|0:0,0:0:0:0:
431,157,109548,2,0,P|425:181|424:206,1,50,8|0,0:0|0:0,0:0:0:0:
450,338,109762,5,14,0:0:0:0:
337,287,109976,1,2,0:0:0:0:
175,364,110190,1,2,1:2:0:0:
136,217,110405,1,2,0:0:0:0:
181,381,110619,6,0,P|200:293|235:200,1,150,10|0,0:0|0:0,0:0:0:0:
225,253,111048,1,2,1:2:0:0:
99,311,111262,2,0,L|-9:303,1,100,2|8,0:0|0:0,0:0:0:0:
129,314,111690,1,2,0:0:0:0:
84,170,111905,5,2,1:2:0:0:
196,150,112119,1,2,0:0:0:0:
137,29,112333,2,0,P|216:41|276:42,1,100,10|2,0:0|0:0,0:0:0:0:
309,211,112762,1,2,1:2:0:0:
438,83,112976,6,0,P|389:88|339:97,1,100,2|8,0:0|0:0,0:0:0:0:
487,194,113405,1,2,0:0:0:0:
273,131,113619,1,2,1:2:0:0:
316,14,113833,1,2,0:0:0:0:
400,165,114048,1,10,0:0:0:0:
196,153,114262,1,2,0:0:0:0:
145,243,114476,1,2,1:2:0:0:
194,379,114690,6,0,L|64:370,2,100,2|8|0,0:0|0:0|0:0,0:0:0:0:
342,299,115333,2,0,P|410:316|452:343,1,100,2|0,1:2|0:0,0:0:0:0:
445,212,115762,2,0,L|455:91,1,100,10|0,0:0|0:0,0:0:0:0:
461,4,116190,1,2,1:2:0:0:
342,93,116405,1,2,0:0:0:0:
240,26,116619,6,0,P|180:16|125:22,1,100,2|8,1:2|0:0,0:0:0:0:
83,129,117048,2,0,P|132:139|182:137,1,100,2|8,1:2|0:0,0:0:0:0:
342,93,117476,1,2,1:2:0:0:
381,273,117690,1,10,0:0:0:0:
425,191,117905,1,2,1:2:0:0:
264,174,118119,1,10,0:0:0:0:
233,375,118333,6,0,L|111:361,1,100,2|8,1:2|0:0,0:0:0:0:
421,295,118762,1,2,1:2:0:0:
421,295,118976,2,0,L|299:309,1,100,10|2,0:0|1:2,0:0:0:0:
510,382,119405,1,8,0:0:0:0:
456,207,119619,1,2,1:2:0:0:
421,325,119833,1,8,0:0:0:0:
396,126,120048,6,0,P|466:106|508:121,1,100,10|0,0:0|0:0,0:0:0:0:
330,221,120476,1,2,1:2:0:0:
330,221,120690,2,0,P|260:241|218:226,1,100,2|8,0:0|0:0,0:0:0:0:
114,181,121119,1,2,0:0:0:0:
88,343,121333,1,2,1:2:0:0:
53,264,121548,1,8,0:0:0:0:
244,339,121762,5,2,0:0:0:0:
244,339,123048,2,2,B|302:324|302:324|331:348|331:348|410:332,1,150,2|0,0:0|0:0,0:1:0:0:
419,320,123476,6,0,P|430:248|390:196,1,132.00000402832,14|0,0:0|0:0,0:0:0:0:
450,169,123905,2,0,L|348:160,1,88.000002685547,2|0,1:2|0:0,0:0:0:0:
178,207,124333,1,10,0:0:0:0:
81,132,124548,1,2,0:0:0:0:
81,132,124655,1,2,0:0:0:0:
81,132,124762,2,0,L|90:30,1,88.000002685547,2|0,1:2|0:0,0:0:0:0:
235,117,125190,6,0,B|307:146|298:85|387:122,1,132.00000402832,10|0,0:0|0:0,0:0:0:0:
405,87,125619,2,0,L|414:189,1,88.000002685547,2|0,1:2|0:0,0:0:0:0:
504,286,126048,2,0,L|512:199,1,88.000002685547,10|0,0:0|0:0,0:0:0:0:
408,352,126476,1,2,1:2:0:0:
312,300,126690,1,2,0:0:0:0:
312,300,126905,6,0,P|238:294|178:308,1,132.00000402832,10|0,0:0|0:0,0:0:0:0:
141,326,127333,2,0,P|137:277|115:230,1,88.000002685547,2|0,1:2|0:0,0:0:0:0:
32,113,127762,2,0,P|16:153|13:197,1,88.000002685547,10|0,0:0|0:0,0:0:0:0:
164,67,128190,1,2,1:2:0:0:
277,74,128405,1,2,0:0:0:0:
277,74,128512,1,2,0:0:0:0:
277,74,128619,6,0,P|307:120|252:197,1,132.00000402832,10|0,0:0|0:0,0:0:0:0:
228,230,129048,2,0,L|347:222,1,88.000002685547,2|0,1:2|0:0,0:0:0:0:
512,239,129476,1,10,0:0:0:0:
512,239,129690,1,2,0:0:0:0:
415,131,129905,1,2,1:2:0:0:
499,60,130119,1,0,0:0:0:0:
333,18,130333,6,0,P|289:20|248:36,1,88.000002685547,10|2,0:0|0:0,0:0:0:0:
86,92,130762,2,0,P|129:94|170:110,1,88.000002685547,2|0,1:2|0:0,0:0:0:0:
340,219,131190,6,0,B|289:203|289:203|201:221,1,132.00000402832,10|0,0:0|0:0,0:0:0:0:
173,233,131619,1,2,1:2:0:0:
19,168,131833,1,2,0:0:0:0:
19,168,131940,1,2,0:0:0:0:
19,168,132048,6,0,P|33:207|28:284,1,88.000002685547,10|0,0:0|0:0,0:0:0:0:
29,381,132476,1,2,1:2:0:0:
155,269,132690,1,2,0:0:0:0:
346,315,132905,2,0,B|256:302|277:384|175:364,1,176.000005371094,10|2,0:0|1:2,0:0:0:0:
27,344,133548,1,8,0:0:0:0:
3,226,133762,5,2,1:2:0:0:
3,226,133976,1,8,0:0:0:0:
104,217,134190,2,0,L|202:207,1,88.000002685547,2|4,1:2|0:3,0:0:0:0:
111,69,134620,5,2,1:2:0:0:
111,69,134834,1,8,0:0:0:0:
212,78,135048,2,0,L|310:88,1,88.000002685547,2|4,1:2|0:3,0:0:0:0:
490,157,135476,5,2,1:2:0:0:
432,13,135690,1,8,0:0:0:0:
312,243,135905,5,2,1:2:0:0:
332,94,136119,1,8,0:0:0:0:
332,94,136333,6,0,L|368:99,5,29.3333342285157,2|8|8|8|8|8,1:2|0:0|0:0|0:0|0:0|0:0,0:0:0:0:
401,103,136762,1,2,1:2:0:0:
257,4,137190,6,0,B|160:-34|168:51|56:-1,1,176.000005371094,14|0,0:0|1:0,0:0:0:0:
24,145,137833,1,2,0:0:0:0:
24,145,138048,2,0,L|112:136,1,88.000002685547,10|0,0:0|0:0,0:0:0:0:
253,129,138476,2,0,L|238:255,1,88.000002685547,2|2,1:2|0:0,0:0:0:0:
224,355,138905,2,0,P|296:353|333:290,1,132.00000402832,10|0,0:0|0:0,0:0:0:0:
352,260,139333,2,0,L|478:245,1,88.000002685547,2|0,1:2|0:0,0:0:0:0:
242,216,139762,6,0,L|79:195,1,132.00000402832,10|0,0:0|0:0,0:0:0:0:
62,191,140190,1,2,1:2:0:0:
183,95,140405,1,8,0:0:0:0:
263,302,140619,5,10,0:0:0:0:
318,181,140833,2,0,L|315:67,2,88.000002685547,2|2|0,0:0|1:2|0:0,0:0:0:0:
314,8,141476,2,0,P|257:20|212:49,1,88.000002685547,10|2,0:0|0:0,0:0:0:0:
136,106,141905,1,2,1:2:0:0:
190,173,142119,1,2,0:0:0:0:
113,262,142333,6,0,L|7:253,1,88.000002685547,10|0,0:0|0:0,0:0:0:0:
166,328,142762,1,2,1:2:0:0:
195,249,142976,1,2,0:0:0:0:
335,342,143190,2,0,L|441:333,1,88.000002685547,10|0,0:0|0:0,0:0:0:0:
224,264,143619,1,2,1:2:0:0:
338,151,143833,1,10,0:0:0:0:
338,151,144048,6,0,P|317:93|321:48,1,88.000002685547,10|0,0:0|0:0,0:0:0:0:
434,85,144476,1,2,1:2:0:0:
240,150,144690,2,0,L|135:144,1,88.000002685547,2|8,0:0|0:0,0:0:0:0:
42,137,145119,1,2,0:0:0:0:
203,42,145333,1,2,1:2:0:0:
248,179,145547,1,2,0:0:0:0:
337,102,145762,6,0,P|395:80|465:129,1,132.00000402832,10|0,0:0|0:0,0:0:0:0:
485,95,146190,2,0,L|474:201,1,88.000002685547,2|0,1:2|0:0,0:0:0:0:
459,323,146619,2,0,P|387:303|320:306,1,132.00000402832,10|0,0:0|0:0,0:0:0:0:
338,320,147048,1,2,1:2:0:0:
449,338,147262,1,8,0:0:0:0:
436,189,147476,6,0,L|425:83,1,88.000002685547,10|2,0:0|0:0,0:0:0:0:
415,1,147905,2,0,P|365:30|253:119,1,176.000005371094,2|8,1:2|0:0,0:0:0:0:
200,174,148548,1,0,0:0:0:0:
151,49,148762,2,0,L|46:41,1,88.000002685547,2|0,1:2|0:0,0:0:0:0:
0,207,149190,6,0,L|105:199,2,88.000002685547,10|2|2,0:0|0:0|1:2,0:0:0:0:
149,79,149833,1,2,0:0:0:0:
149,79,149940,1,2,0:0:0:0:
149,79,150048,1,10,0:0:0:0:
195,274,150262,2,0,P|232:267|248:259,1,44.0000013427735,2|2,0:0|0:0,0:0:0:0:
106,226,150476,1,2,1:2:0:0:
300,121,150690,1,10,0:0:0:0:
300,121,150798,1,10,0:0:0:0:
300,121,150905,6,0,B|369:90|369:90|467:112,1,176.000005371094,14|0,0:0|1:0,0:0:0:0:
506,306,151548,1,2,0:0:0:0:
506,306,151762,2,0,P|447:231|354:266,1,176.000005371094,10|0,0:0|1:0,0:0:0:0:
247,354,152405,1,2,0:0:0:0:
140,250,152619,6,0,L|127:360,1,88.000002685547,10|0,0:0|0:0,0:0:0:0:
9,189,153048,2,0,L|21:299,1,88.000002685547,2|0,1:2|0:0,0:0:0:0:
90,88,153476,2,0,B|175:63|166:134|252:90,1,132.00000402832,10|0,0:0|0:0,0:0:0:0:
259,94,153905,1,2,1:2:0:0:
352,4,154120,1,8,0:0:0:0:
512,95,154334,6,0,P|468:92|428:109,1,88.000002685547,10|2,0:0|0:0,0:0:0:0:
252,195,154762,2,0,P|320:189|378:225,1,132.00000402832,2|0,1:2|0:0,0:0:0:0:
402,256,155190,1,10,0:0:0:0:
355,362,155405,1,0,0:0:0:0:
217,300,155619,2,0,P|236:361|235:400,1,88.000002685547,2|0,1:2|0:0,0:0:0:0:
116,249,156048,6,0,P|119:205|135:164,1,88.000002685547,10|0,0:0|0:0,0:0:0:0:
1,51,156476,2,0,L|9:138,1,88.000002685547,2|0,1:2|0:0,0:0:0:0:
0,293,156905,1,10,0:0:0:0:
91,213,157119,1,2,0:0:0:0:
153,359,157333,1,2,1:2:0:0:
110,185,157548,1,8,0:0:0:0:
264,147,157762,6,0,P|303:166|332:203,1,88.000002685547,10|2,0:0|0:0,0:0:0:0:
504,201,158190,2,0,P|464:220|436:257,1,88.000002685547,2|0,1:2|0:0,0:0:0:0:
512,91,158619,2,0,L|381:72,1,132.00000402832,10|0,0:0|0:0,0:0:0:0:
409,34,159048,2,0,L|321:44,1,88.000002685547,2|0,1:2|0:0,0:0:0:0:
186,20,159476,6,0,P|213:65|196:171,1,132.00000402832,10|0,0:0|0:0,0:0:0:0:
176,186,159905,2,0,P|172:142|150:105,1,88.000002685547,2|0,1:2|0:0,0:0:0:0:
0,243,160333,2,0,L|87:252,1,88.000002685547,10|0,0:0|0:0,0:0:0:0:
248,353,160762,2,0,L|160:362,1,88.000002685547,2|0,1:2|0:0,0:0:0:0:
283,183,161190,5,10,0:0:0:0:
283,183,162048,1,2,1:2:0:0:
382,152,162690,5,10,0:0:0:0:
283,183,162905,1,10,0:0:0:0:
261,152,163333,5,2,0:0:0:0:
162,121,163548,1,2,0:0:0:0:
162,121,163762,6,2,P|163:179|166:189,1,44.0000013427735,10|0,0:0|0:0,0:1:0:0:
74,198,163976,2,2,P|104:248|111:254,1,44.0000013427735,10|0,0:0|0:0,0:1:0:0:
36,308,164190,2,2,P|87:336|97:338,1,44.0000013427735,10|0,0:0|0:0,0:1:0:0:
210,355,164405,1,10,0:0:0:0:
210,355,164512,1,10,0:0:0:0:
210,355,164619,6,2,B|261:344|261:344|301:373|301:373|352:368|375:327,1,176.000005371094,14|2,0:0|0:0,0:1:0:0:
404,249,165262,1,10,0:0:0:0:
178,195,165476,1,0,1:0:0:0:
325,174,165690,2,0,L|318:123,1,44.0000013427735,2|0,0:0|0:0,0:0:0:0:
307,42,165905,2,0,L|314:93,1,44.0000013427735,2|0,0:0|0:0,0:0:0:0:
330,217,166119,1,10,0:0:0:0:
362,212,166333,6,0,L|426:202,1,44.0000013427735,2|0,0:0|0:0,0:0:0:0:
291,307,166548,2,0,L|227:317,1,44.0000013427735,10|0,0:0|0:0,0:0:0:0:
134,201,166762,2,0,L|198:191,1,44.0000013427735,2|0,0:0|0:0,0:0:0:0:
71,378,166976,1,10,0:0:0:0:
71,378,167083,1,10,0:0:0:0:
71,378,167190,6,0,L|7:388,1,44.0000013427735,2|0,1:2|0:0,0:0:0:0:
106,294,167405,1,2,0:0:0:0:
272,341,167619,1,10,0:0:0:0:
346,279,167833,1,10,0:0:0:0:
486,375,168048,6,0,B|501:331|501:331|489:259,2,88.000002685547,10|2|2,0:0|0:0|0:0,0:0:0:0:
375,289,168690,1,8,0:0:0:0:
206,384,168905,1,2,1:2:0:0:
351,322,169119,6,0,L|341:248,1,44.0000013427735,2|0,0:0|0:0,0:0:0:0:
301,189,169333,2,0,L|311:115,1,44.0000013427735,2|0,0:0|0:0,0:0:0:0:
328,29,169548,1,10,0:0:0:0:
354,47,169762,6,0,L|436:43,1,44.0000013427735,2|0,0:0|0:0,0:0:0:0:
230,116,169976,2,0,L|312:120,1,44.0000013427735,10|0,0:0|0:0,0:0:0:0:
108,12,170190,2,0,L|190:8,1,44.0000013427735,10|0,0:0|0:0,0:0:0:0:
19,178,170405,1,10,0:0:0:0:
19,178,170512,1,10,0:0:0:0:
19,178,170619,6,0,L|7:79,1,88.000002685547,2|2,1:2|0:0,0:0:0:0:
29,265,171048,1,10,0:0:0:0:
111,226,171262,1,10,0:0:0:0:
222,350,171476,6,2,P|313:338|323:255,1,176.000005371094,14|2,0:0|0:0,0:1:0:0:
140,367,172119,1,10,0:0:0:0:
418,330,172333,1,0,1:0:0:0:
330,236,172548,2,0,P|344:205|361:184,1,44.0000013427735,2|0,0:0|0:0,0:0:0:0:
264,145,172762,2,0,P|251:113|249:86,1,44.0000013427735,2|0,0:0|0:0,0:0:0:0:
257,0,172976,1,10,0:0:0:0:
235,22,173190,6,0,L|162:17,1,44.0000013427735,2|0,0:0|0:0,0:0:0:0:
325,68,173405,2,0,L|398:63,1,44.0000013427735,10|0,0:0|0:0,0:0:0:0:
217,138,173619,2,0,L|144:133,1,44.0000013427735,2|0,0:0|0:0,0:0:0:0:
325,208,173833,1,10,0:0:0:0:
325,208,173940,1,10,0:0:0:0:
325,208,174048,6,0,L|398:203,1,44.0000013427735,2|0,1:2|0:0,0:0:0:0:
512,197,174262,1,2,0:0:0:0:
388,329,174476,1,10,0:0:0:0:
497,317,174690,1,10,0:0:0:0:
436,116,174905,6,2,L|443:51,1,44.0000013427735,10|0,0:0|0:0,0:1:0:0:
441,202,175119,2,2,L|434:137,1,44.0000013427735,2|0,0:0|0:0,0:1:0:0:
436,288,175333,2,2,L|443:223,1,44.0000013427735,2|0,0:0|0:0,0:1:0:0:
441,374,175548,2,2,L|434:309,1,44.0000013427735,10|0,0:0|0:0,0:1:0:0:
426,139,175762,1,2,1:2:0:0:
325,188,175976,1,0,0:0:0:0:
276,37,176190,6,2,L|233:31,1,29.3333342285157,2|0,0:0|0:0,0:1:0:0:
252,71,176333,6,2,L|209:77,1,29.3333342285157,2|8,0:0|0:0,0:1:0:0:
236,105,176476,6,2,L|196:123,1,29.3333342285157,2|0,0:0|0:0,0:1:0:0:
229,142,176619,5,10,0:0:0:0:
257,1,176833,1,10,0:0:0:0:
284,224,177048,2,0,L|336:215,1,44.0000013427735,10|0,0:0|0:0,0:0:0:0:
158,256,177262,1,10,0:0:0:0:
158,256,177369,1,10,0:0:0:0:
158,256,177476,6,0,L|146:160,1,88.000002685547,2|2,0:0|0:0,0:0:0:0:
339,384,177905,2,0,L|351:288,1,88.000002685547,2|2,1:2|0:0,0:0:0:0:
374,113,178333,6,2,P|395:111|415:103,1,44.0000013427735,14|0,0:0|0:0,0:1:0:0:
305,61,178548,2,2,P|326:62|346:70,1,44.0000013427735,2|0,0:0|0:0,0:1:0:0:
235,114,178762,2,2,P|256:112|276:104,1,44.0000013427735,2|0,0:0|0:0,0:1:0:0:
166,62,178977,2,2,P|187:63|207:71,1,44.0000013427735,10|0,0:0|0:0,0:1:0:0:
343,208,179190,1,2,1:2:0:0:
253,269,179404,1,0,0:0:0:0:
97,174,179619,6,2,L|100:203,1,29.3333342285157,2|0,0:0|0:0,0:1:0:0:
72,225,179762,6,2,L|68:254,1,29.3333342285157,2|8,0:0|0:0,0:1:0:0:
91,279,179905,6,2,L|94:308,1,29.3333342285157,2|0,0:0|0:0,0:1:0:0:
126,353,180048,6,0,P|82:351|40:364,2,88.000002685547,10|10|2,0:0|0:0|0:0,0:0:0:0:
298,274,180690,2,0,L|293:317,1,44.0000013427735,10|10,0:0|0:0,0:0:0:0:
388,180,180905,1,10,1:2:0:0:
267,113,181119,1,2,0:0:0:0:
267,113,181333,2,0,P|223:110|174:120,1,88.000002685547,10|10,0:0|0:0,0:0:0:0:
390,33,181762,6,2,L|433:37,1,44.0000013427735,10|0,0:0|0:0,0:1:0:0:
512,117,181976,2,2,L|468:121,1,44.0000013427735,2|0,0:0|0:0,0:1:0:0:
387,201,182190,2,2,L|430:205,1,44.0000013427735,2|0,0:0|0:0,0:1:0:0:
509,285,182404,2,2,L|465:289,1,44.0000013427735,10|0,0:0|0:0,0:1:0:0:
274,297,182619,2,0,P|315:308|347:341,1,88.000002685547,2|0,1:2|0:0,0:0:0:0:
173,278,183047,6,2,P|168:253|172:226,1,29.3333342285157,2|0,0:0|0:0,0:1:0:0:
145,295,183190,6,2,P|128:275|118:250,1,29.3333342285157,2|8,0:0|0:0,0:1:0:0:
125,323,183333,6,2,P|100:314|79:297,1,29.3333342285157,2|0,0:0|0:0,0:1:0:0:
114,351,183476,5,10,0:0:0:0:
1,253,183690,1,10,0:0:0:0:
1,253,183905,2,0,L|13:157,1,88.000002685547,2|10,0:0|0:0,0:0:0:0:
31,90,184226,1,10,0:0:0:0:
31,90,184334,1,2,1:2:0:0:
150,178,184548,1,2,0:0:0:0:
277,65,184762,6,2,L|320:59,1,29.3333342285157,10|0,0:0|0:0,0:1:0:0:
330,103,184905,6,2,L|300:98,1,29.3333342285157,2|8,0:0|0:0,0:1:0:0:
282,136,185048,6,2,L|325:130,1,29.3333342285157,2|0,0:0|0:0,0:1:0:0:
335,174,185190,5,10,0:0:0:0:
339,178,186690,1,10,0:0:0:0:
339,178,186905,1,10,0:0:0:0:
339,178,188619,6,0,L|327:274,1,88.000002685547,10|0,0:0|0:0,0:0:0:0:
328,265,189048,1,8,0:0:0:0:
168,66,189476,6,0,L|180:162,1,88.000002685547,10|0,0:0|0:0,0:0:0:0:
179,153,189905,1,8,0:0:0:0:
363,42,190333,5,10,0:0:0:0:
363,42,190762,1,2,1:2:0:0:
478,244,191190,5,10,0:0:0:0:
387,170,191405,1,8,0:0:0:0:
330,328,191619,2,0,P|318:259|255:237,1,132.00000402832,2|0,1:2|0:0,0:0:0:0:
235,255,192048,6,0,L|352:245,1,100,14|0,0:0|0:0,0:0:0:0:
401,147,192476,1,2,1:2:0:0:
460,340,192690,1,2,0:0:0:0:
512,155,192905,2,0,P|441:113|363:114,1,150,10|0,0:0|0:0,0:0:0:0:
325,127,193333,1,2,1:2:0:0:
196,46,193548,6,0,L|203:146,1,100,2|8,0:0|0:0,0:0:0:0:
214,282,193976,1,2,0:0:0:0:
115,204,194190,1,2,1:2:0:0:
325,127,194405,1,2,0:0:0:0:
194,8,194619,2,0,P|132:-6|119:91,1,150,10|0,0:0|0:0,0:0:0:0:
82,98,195048,2,0,P|128:80|178:81,1,100,2|0,1:2|0:0,0:0:0:0:
363,149,195476,5,10,0:0:0:0:
333,31,195690,1,2,0:0:0:0:
284,241,195905,1,2,1:2:0:0:
483,186,196119,1,2,0:0:0:0:
244,116,196333,2,0,L|138:128,2,100,10|2|2,0:0|0:0|1:2,0:0:0:0:
318,232,196976,5,2,0:0:0:0:
318,232,197083,1,2,0:0:0:0:
318,232,197190,1,10,0:0:0:0:
107,251,197404,1,2,0:0:0:0:
107,251,197619,2,0,L|116:151,1,100,2|0,1:2|0:0,0:0:0:0:
141,31,198048,2,0,L|150:130,1,100,10|0,0:0|0:0,0:0:0:0:
14,211,198476,1,2,1:2:0:0:
175,343,198690,6,0,P|215:315|265:312,1,100,2|8,0:0|0:0,0:0:0:0:
102,286,199119,1,2,0:0:0:0:
307,233,199333,2,0,L|291:82,1,150,2|0,1:2|0:0,0:0:0:0:
301,99,199762,1,10,0:0:0:0:
153,152,199976,1,2,0:0:0:0:
373,66,200190,1,2,1:2:0:0:
373,66,200405,6,0,P|375:118|350:162,1,100,2|8,0:0|0:0,0:0:0:0:
207,80,200833,1,2,0:0:0:0:
111,255,201048,2,0,P|196:274|272:338,1,150,2|0,1:2|0:0,0:0:0:0:
284,347,201476,1,10,0:0:0:0:
327,187,201690,1,2,0:0:0:0:
478,291,201905,2,0,P|480:241|497:194,1,100,2|2,1:2|0:0,0:0:0:0:
512,363,202333,6,0,P|451:326|377:354,1,150,10|0,0:0|0:0,0:0:0:0:
392,353,202761,1,2,1:2:0:0:
405,209,202976,2,0,L|396:110,1,100,2|8,0:0|0:0,0:0:0:0:
324,269,203405,1,2,0:0:0:0:
324,269,203619,2,0,L|228:242,1,100,2|0,1:2|0:0,0:0:0:0:
48,322,204048,5,10,0:0:0:0:
195,252,204262,1,2,0:0:0:0:
80,313,204476,1,0,1:2:0:0:
124,132,204690,2,0,L|118:62,1,50,2|2,0:0|0:0,0:0:0:0:
149,107,204905,1,2,1:2:0:0:
325,227,205119,1,2,0:0:0:0:
325,227,205226,1,2,0:0:0:0:
325,227,205333,2,0,P|364:223|399:211,1,50,2|0,1:2|0:0,0:0:0:0:
482,173,205548,1,8,0:0:0:0:
315,57,205762,6,0,P|266:46|220:63,1,100,14|2,0:0|0:0,0:0:0:0:
60,165,206190,1,2,1:2:0:0:
107,31,206404,1,2,0:0:0:0:
277,161,206619,2,0,B|366:195|344:125|441:166,1,150,10|0,0:0|0:0,0:0:0:0:
458,177,207047,1,2,1:2:0:0:
364,336,207262,1,2,0:0:0:0:
364,336,207476,6,0,P|314:338|251:321,1,100,8|2,0:0|0:0,0:0:0:0:
77,240,207904,1,2,1:2:0:0:
201,179,208119,1,2,0:0:0:0:
13,34,208333,2,0,L|162:49,1,150,10|0,0:0|0:0,0:0:0:0:
130,83,208762,2,0,L|242:70,1,100,2|2,1:2|0:0,0:0:0:0:
449,15,209190,5,8,0:0:0:0:
375,100,209404,1,2,0:0:0:0:
497,290,209619,1,2,1:2:0:0:
393,373,209833,1,2,0:0:0:0:
393,373,210047,2,0,L|381:267,2,100,10|2|2,0:0|0:0|1:2,0:0:0:0:
261,281,210690,5,2,0:0:0:0:
261,281,210797,1,2,0:0:0:0:
261,281,210904,1,10,0:0:0:0:
383,146,211118,1,0,0:0:0:0:
383,146,211333,2,0,P|332:146|284:126,1,100,2|0,1:2|0:0,0:0:0:0:
88,44,211762,2,0,P|134:25|184:26,1,100,10|0,0:0|0:0,0:0:0:0:
32,174,212190,1,2,1:2:0:0:
146,301,212404,1,2,0:0:0:0:
146,301,212619,6,0,L|157:201,1,100,2|8,1:2|0:0,0:0:0:0:
288,55,213048,2,0,L|299:154,1,100,2|8,1:2|0:0,0:0:0:0:
378,384,213476,1,2,1:2:0:0:
460,257,213690,1,10,0:0:0:0:
237,349,213904,1,2,1:2:0:0:
192,210,214119,5,10,0:0:0:0:
192,210,214333,2,0,P|235:187|285:189,1,100,2|8,1:2|0:0,0:0:0:0:
497,136,214762,2,0,P|447:138|403:115,1,100,2|10,1:2|0:0,0:0:0:0:
265,5,215190,1,2,1:2:0:0:
182,175,215404,1,8,0:0:0:0:
60,53,215619,2,0,L|172:64,1,100,2|0,1:2|0:0,0:0:0:0:
404,116,216047,6,0,P|331:121|316:202,1,150,10|0,0:0|0:0,0:0:0:0:
309,226,216475,1,2,1:2:0:0:
421,361,216690,2,0,P|377:337|328:333,1,100,2|8,0:0|0:0,0:0:0:0:
114,288,217119,1,2,0:0:0:0:
114,288,217333,2,0,P|157:264|207:259,1,100,2|0,1:2|0:0,0:0:0:0:
429,263,217762,5,2,1:2:0:0:
429,263,218190,1,2,0:0:0:0:
205,75,218619,1,2,1:2:0:0:
200,101,218726,1,2,1:2:0:0:
65,239,218940,1,2,1:2:0:0:
60,212,219048,2,0,L|46:131,1,50,10|0,0:0|0:0,0:0:0:0:
200,289,219262,1,10,0:0:0:0:
200,289,219369,1,10,0:0:0:0:
200,289,219476,6,0,P|269:290|309:359,1,138.000002632141,14|0,0:0|0:0,0:0:0:0:
304,374,219905,2,0,L|171:356,1,92.0000017547608,2|0,1:2|0:0,0:0:0:0:
381,286,220333,1,10,0:0:0:0:
381,286,220440,1,2,0:0:0:0:
381,286,220548,1,2,0:0:0:0:
290,193,220762,2,0,L|423:175,1,92.0000017547608,2|0,1:2|0:0,0:0:0:0:
214,128,221190,6,0,P|194:75|198:32,1,92.0000017547608,10|0,0:0|0:0,0:0:0:0:
126,178,221619,2,0,P|74:154|46:121,1,92.0000017547608,2|0,1:2|0:0,0:0:0:0:
163,299,222048,2,0,P|202:258|243:243,1,92.0000017547608,10|2,0:0|0:0,0:0:0:0:
364,274,222476,2,0,P|393:308|406:352,1,92.0000017547608,2|2,1:2|0:0,0:0:0:0:
392,348,222798,1,2,0:0:0:0:
392,348,222905,6,0,L|499:337,1,92.0000017547608,10|0,0:0|0:0,0:0:0:0:
282,238,223333,2,0,L|175:227,1,92.0000017547608,2|0,1:2|0:0,0:0:0:0:
416,176,223762,1,10,0:0:0:0:
416,176,223869,1,2,0:0:0:0:
416,176,223976,1,2,0:0:0:0:
342,77,224190,2,0,P|355:23|380:-14,1,92.0000017547608,2|0,1:2|0:0,0:0:0:0:
512,189,224619,6,0,P|499:135|474:98,1,92.0000017547608,10|0,0:0|0:0,0:0:0:0:
343,282,225048,2,0,L|236:271,1,92.0000017547608,2|0,1:2|0:0,0:0:0:0:
91,254,225476,2,0,L|82:200,2,46.0000008773804,10|2|2,0:0|0:0|0:0,0:0:0:0:
207,94,225905,2,0,L|198:148,2,46.0000008773804,2|2|2,1:2|0:0|0:0,0:0:0:0:
25,17,226333,6,0,P|80:16|30:46,1,138.000002632141,10|0,0:0|0:0,0:0:0:0:
56,37,226762,2,0,L|48:148,1,92.0000017547608,2|0,1:2|0:0,0:0:0:0:
45,345,227190,1,10,0:0:0:0:
45,345,227298,1,2,0:0:0:0:
45,345,227405,1,2,0:0:0:0:
162,289,227619,2,0,P|218:278|271:283,1,92.0000017547608,2|0,1:2|0:0,0:0:0:0:
121,152,228048,6,0,P|167:185|217:203,1,92.0000017547608,10|0,0:0|0:0,0:0:0:0:
210,88,228476,2,0,P|193:45|187:0,1,92.0000017547608,2|0,1:2|0:0,0:0:0:0:
36,147,228905,1,10,0:0:0:0:
36,147,229012,1,2,0:0:0:0:
36,147,229119,1,2,0:0:0:0:
222,189,229333,2,0,L|340:173,1,92.0000017547608,2|0,1:2|0:0,0:0:0:0:
417,82,229762,6,0,P|365:109|346:166,1,92.0000017547608,10|0,0:0|0:0,0:0:0:0:
209,34,230190,2,0,P|261:61|280:118,1,92.0000017547608,2|0,1:2|0:0,0:0:0:0:
215,276,230619,2,0,L|97:260,1,92.0000017547608,10|0,0:0|0:0,0:0:0:0:
329,345,231048,2,0,L|447:329,1,92.0000017547608,2|2,1:2|0:0,0:0:0:0:
470,327,231369,1,2,0:0:0:0:
470,327,231476,6,0,P|496:260|539:236,1,92.0000017547608,10|0,0:0|0:0,0:0:0:0:
376,171,231905,2,0,P|441:142|489:155,1,92.0000017547608,2|0,1:2|0:0,0:0:0:0:
258,120,232333,1,10,0:0:0:0:
258,120,232440,1,2,0:0:0:0:
258,120,232548,1,2,0:0:0:0:
318,0,232762,2,0,P|252:28|204:15,1,92.0000017547608,2|0,1:2|0:0,0:0:0:0:
0,15,233190,6,0,P|62:43|53:125,1,138.000002632141,14|0,0:0|0:0,0:0:0:0:
35,136,233619,2,0,P|26:194|63:260,1,92.0000017547608,2|8,0:0|0:0,0:0:0:0:
131,363,234047,1,2,1:2:0:0:
262,251,234262,1,2,0:0:0:0:
262,251,234369,1,2,0:0:0:0:
262,251,234476,2,0,L|170:260,1,92.0000017547608,2|8,0:0|0:0,0:0:0:0:
349,147,234905,6,0,L|257:137,1,92.0000017547608,2|8,0:0|0:0,0:0:0:0:
134,43,235333,2,0,L|225:33,1,92.0000017547608,2|10,0:0|0:0,0:0:0:0:
272,34,235655,1,10,0:0:0:0:
272,34,235762,1,2,1:2:0:0:
366,147,235976,1,2,0:0:0:0:
502,21,236190,2,0,P|480:60|477:106,1,92.0000017547608,10|8,0:0|0:0,0:0:0:0:
504,191,236512,1,10,0:0:0:0:
504,191,236619,6,0,P|458:187|420:215,1,92.0000017547608,10|0,0:0|0:0,0:0:0:0:
391,343,237048,2,0,P|354:316|309:320,1,92.0000017547608,2|8,0:0|0:0,0:0:0:0:
140,375,237476,1,2,1:2:0:0:
25,252,237690,1,2,0:0:0:0:
25,252,237798,1,2,0:0:0:0:
25,252,237904,2,0,L|13:359,1,92.0000017547608,2|8,0:0|0:0,0:0:0:0:
112,142,238333,6,0,P|102:97|79:57,1,92.0000017547608,2|8,0:0|0:0,0:0:0:0:
47,228,238762,1,2,0:0:0:0:
173,288,238976,1,10,0:0:0:0:
173,288,239083,1,10,0:0:0:0:
173,288,239190,6,0,P|182:243|205:203,1,92.0000017547608,2|0,1:2|0:0,0:0:0:0:
318,87,239619,1,10,0:0:0:0:
512,187,239833,1,10,0:0:0:0:
512,187,239940,1,10,0:0:0:0:
512,187,240047,6,0,B|434:169|459:244|346:196,1,138.000002632141,14|0,0:0|0:0,0:0:0:0:
343,194,240476,2,0,P|297:193|253:206,1,92.0000017547608,2|8,0:0|0:0,0:0:0:0:
108,296,240904,1,2,1:2:0:0:
227,383,241119,1,2,0:0:0:0:
227,383,241226,1,2,0:0:0:0:
227,383,241333,2,0,L|339:372,1,92.0000017547608,2|8,0:0|0:0,0:0:0:0:
512,335,241762,6,0,P|467:325|425:305,1,92.0000017547608,2|8,0:0|0:0,0:0:0:0:
223,263,242190,2,0,P|267:253|309:233,1,92.0000017547608,2|10,0:0|0:0,0:0:0:0:
351,213,242512,1,10,0:0:0:0:
351,213,242619,1,2,1:2:0:0:
485,165,242833,1,2,0:0:0:0:
414,36,243048,2,0,L|301:46,1,92.0000017547608,10|10,0:0|0:0,0:0:0:0:
266,105,243369,1,10,0:0:0:0:
266,105,243476,6,0,P|215:110|174:96,1,92.0000017547608,14|0,0:0|0:0,0:0:0:0:
1,200,243905,2,0,P|44:186|89:192,1,92.0000017547608,2|8,0:0|0:0,0:0:0:0:
265,285,244333,2,0,L|173:272,1,92.0000017547608,2|0,1:2|0:0,0:0:0:0:
292,376,244762,2,0,L|383:363,1,92.0000017547608,2|10,0:0|0:0,0:0:0:0:
464,345,245083,1,10,0:0:0:0:
464,345,245190,6,0,P|482:275|461:230,1,92.0000017547608,10|8,0:0|0:0,0:0:0:0:
406,101,245619,2,0,P|410:146|392:187,1,92.0000017547608,2|10,0:0|0:0,0:0:0:0:
361,225,245940,1,10,0:0:0:0:
361,225,246047,1,2,1:2:0:0:
265,136,246262,1,2,0:0:0:0:
158,302,246476,1,10,0:0:0:0:
50,254,246690,1,10,0:0:0:0:
193,323,246905,6,0,L|186:232,3,64,14|0|2|0,0:0|0:0|0:0|0:0,0:0:0:0:
321,167,247762,2,0,L|314:258,3,64,2|0|2|0,1:2|0:0|0:0|0:0,0:0:0:0:
308,376,248619,6,0,P|360:375|397:355,3,64,10|0|2|0,0:0|0:0|0:0|0:0,0:0:0:0:
416,227,249476,2,0,P|364:228|327:248,3,64,2|0|2|0,1:2|0:0|0:0|0:0,0:0:0:0:
225,329,250333,6,0,B|213:296|213:296|219:242,3,64,10|0|2|0,0:0|0:0|0:0|0:0,0:0:0:0:
339,132,251190,2,0,B|351:165|351:165|345:219,3,64,2|0|2|0,1:2|0:0|0:0|0:0,0:0:0:0:
207,143,252048,6,0,L|117:139,3,64,10|0|2|0,0:0|0:0|0:0|0:0,0:0:0:0:
284,62,252905,2,0,L|374:58,3,64,2|0|2|0,1:2|0:0|0:0|0:0,0:0:0:0:
478,56,253762,6,0,P|490:101|491:130,3,64,10|0|2|0,0:0|0:0|0:0|0:0,0:0:0:0:
421,190,254619,2,0,P|397:230|377:251,3,64,2|0|2|0,1:2|0:0|0:0|0:0,0:0:0:0:
279,195,255476,6,0,B|249:184|249:184|209:191,3,64,10|0|2|0,0:0|0:0|0:0|0:0,0:0:0:0:
167,294,256333,2,0,B|197:305|197:305|237:298,3,64,2|0|2|0,1:2|0:0|0:0|0:0,0:0:0:0:
344,284,257190,6,0,L|334:375,3,64,10|0|2|0,0:0|0:0|0:0|0:0,0:0:0:0:
411,231,258048,2,0,L|401:140,3,64,2|0|2|0,1:2|0:0|0:0|0:0,0:0:0:0:
396,66,258905,6,0,P|435:55|469:58,3,64,10|0|2|0,0:0|0:0|0:0|0:0,0:0:0:0:
321,27,259762,2,0,P|282:16|248:19,3,64,2|0|2|0,1:2|0:0|0:0|0:0,0:0:0:0:
161,11,260619,6,0,P|135:66|128:132,1,128,10|2,0:0|0:0,0:0:0:0:
21,149,261262,1,2,0:0:0:0:
21,149,261476,2,0,P|47:207|53:270,1,128,2|2,0:0|0:0,0:0:0:0:
241,378,262333,6,0,L|368:364,1,128,10|2,0:0|0:0,0:0:0:0:
450,286,262976,1,2,0:0:0:0:
450,286,263190,2,0,L|322:272,1,128,2|2,0:0|0:0,0:0:0:0:
137,293,264048,6,0,P|190:263|211:192,1,128,10|2,0:0|0:0,0:0:0:0:
149,135,264691,1,2,0:0:0:0:
149,135,264905,2,0,P|169:75|224:44,1,128,2|2,0:0|0:0,0:0:0:0:
433,133,265762,6,0,B|369:114|369:114|304:135,3,128,10|2|0|2,0:0|0:0|0:0|0:0,0:0:0:0:
189,282,267476,6,0,P|144:240|74:236,1,128,10|2,0:0|0:0,0:0:0:0:
4,156,268119,1,2,0:0:0:0:
4,156,268333,2,0,P|66:151|113:108,1,128,2|2,0:0|0:0,0:0:0:0:
284,2,269190,6,0,L|270:129,1,128,10|2,0:0|0:0,0:0:0:0:
373,103,269833,1,2,0:0:0:0:
373,103,270048,2,0,L|386:230,1,128,2|2,0:0|0:0,0:0:0:0:
512,372,270905,6,0,B|453:352|453:352|375:372,1,128,10|2,0:0|0:0,0:0:0:0:
303,307,271548,1,2,0:0:0:0:
303,307,271762,2,0,B|244:326|244:326|166:306,1,128,2|2,0:0|0:0,0:0:0:0:
40,160,272619,6,0,B|110:143|99:208|184:176,3,128,10|2|0|2,0:0|0:0|0:0|0:0,0:0:0:0:
250,151,274119,1,2,0:0:0:0:
