osu file format v14

[General]
AudioFilename: audio.mp3
AudioLeadIn: 0
PreviewTime: 47750
Countdown: 0
SampleSet: Normal
StackLeniency: 0.7
Mode: 1
LetterboxInBreaks: 0
WidescreenStoryboard: 0

[Editor]
Bookmarks: 16000,36980,54750,62750,70750,108980,116980
DistanceSpacing: 1.1
BeatDivisor: 2
GridSize: 8
TimelineZoom: 0.6999999

[Metadata]
Title:Relax In The City (short ver.)
TitleUnicode:Relax In The City (short ver.)
Artist:Perfume
ArtistUnicode:Perfume
Creator:Jonawaga
Version:Futsuu
Source:
Tags:electropop Yasutaka Nakata Universal Japan J snowball112 中田ヤスタカ Ayyri cosmic explorer jpop pick me up A-chan Nocchi Kashiyuka
BeatmapID:998065
BeatmapSetID:466361

[Difficulty]
HPDrainRate:7
CircleSize:3
OverallDifficulty:4
ApproachRate:2
SliderMultiplier:1.4
SliderTickRate:1

[Events]
//Background and Video events
0,0,"parfum.jpg",0,25
//Break Periods
//Storyboard Layer 0 (Background)
//Storyboard Layer 1 (Fail)
//Storyboard Layer 2 (Pass)
//Storyboard Layer 3 (Foreground)
//Storyboard Sound Samples

[TimingPoints]
0,500,4,1,0,70,1,0
48000,-100,4,1,0,70,0,1
80000,-100,4,1,0,70,0,0

[HitObjects]
344,116,0,5,0,0:0:0:0:
344,116,500,1,0,0:0:0:0:
344,116,1000,1,8,0:0:0:0:
168,116,2000,1,8,0:0:0:0:
168,116,3000,1,0,0:0:0:0:
344,116,3500,1,8,0:0:0:0:
344,116,4000,1,8,0:0:0:0:
344,116,4500,1,0,0:0:0:0:
344,116,5000,1,8,0:0:0:0:
168,116,6000,1,8,0:0:0:0:
344,116,7000,1,0,0:0:0:0:
344,116,7500,1,8,0:0:0:0:
344,116,8000,1,0,0:0:0:0:
344,116,8500,1,0,0:0:0:0:
344,116,9000,1,8,0:0:0:0:
168,116,10000,1,8,0:0:0:0:
344,116,11000,1,0,0:0:0:0:
344,116,11500,1,8,0:0:0:0:
344,116,12000,1,8,0:0:0:0:
344,116,12500,1,0,0:0:0:0:
344,116,13000,1,8,0:0:0:0:
168,116,14000,1,0,0:0:0:0:
168,116,16000,5,8,0:0:0:0:
344,116,16500,1,0,0:0:0:0:
344,116,17000,1,8,0:0:0:0:
344,116,17500,1,0,0:0:0:0:
168,116,18000,1,0,0:0:0:0:
168,116,18750,1,8,0:0:0:0:
168,116,19000,1,0,0:0:0:0:
168,116,20000,1,8,0:0:0:0:
344,116,20500,1,0,0:0:0:0:
344,116,21000,1,8,0:0:0:0:
344,116,21500,1,0,0:0:0:0:
168,116,22000,1,8,0:0:0:0:
168,116,22750,1,0,0:0:0:0:
344,116,23000,1,8,0:0:0:0:
344,116,23500,1,8,0:0:0:0:
168,116,24000,1,0,0:0:0:0:
168,116,24500,1,0,0:0:0:0:
168,116,25000,1,0,0:0:0:0:
344,116,25500,1,2,0:0:0:0:
344,116,25750,1,2,0:0:0:0:
168,116,26000,1,0,0:0:0:0:
168,116,26500,1,0,0:0:0:0:
168,116,27000,1,0,0:0:0:0:
168,116,27500,1,2,0:0:0:0:
168,116,27750,1,2,0:0:0:0:
344,116,28000,1,0,0:0:0:0:
168,116,28750,1,0,0:0:0:0:
344,116,29000,1,8,0:0:0:0:
168,116,29750,1,0,0:0:0:0:
168,116,30000,1,8,0:0:0:0:
344,116,30500,1,8,0:0:0:0:
168,116,30750,1,8,0:0:0:0:
168,116,31000,1,8,0:0:0:0:
168,116,32000,5,8,0:0:0:0:
344,116,32500,1,0,0:0:0:0:
344,116,33000,1,8,0:0:0:0:
168,116,33500,1,0,0:0:0:0:
168,116,34000,1,0,0:0:0:0:
344,116,34750,1,8,0:0:0:0:
344,116,35000,1,0,0:0:0:0:
168,116,36000,1,8,0:0:0:0:
344,116,36500,1,0,0:0:0:0:
344,116,37000,1,8,0:0:0:0:
344,116,37500,1,0,0:0:0:0:
168,116,38000,1,8,0:0:0:0:
344,116,38750,1,0,0:0:0:0:
344,116,39000,1,8,0:0:0:0:
344,116,39500,1,0,0:0:0:0:
168,116,40000,1,8,0:0:0:0:
168,116,40500,1,8,0:0:0:0:
168,116,41000,1,8,0:0:0:0:
344,116,41500,1,0,0:0:0:0:
344,116,41750,1,0,0:0:0:0:
168,116,42000,1,8,0:0:0:0:
168,116,42500,1,8,0:0:0:0:
168,116,43000,1,8,0:0:0:0:
168,116,43500,1,0,0:0:0:0:
168,116,43750,1,0,0:0:0:0:
344,116,44000,1,8,0:0:0:0:
344,116,44750,1,0,0:0:0:0:
344,116,45000,1,8,0:0:0:0:
344,120,45750,1,0,0:0:0:0:
344,116,46000,1,8,0:0:0:0:
168,116,46500,1,8,0:0:0:0:
344,116,47000,1,0,0:0:0:0:
344,116,48000,5,12,0:0:0:0:
256,192,48500,1,0,0:0:0:0:
360,240,49000,1,8,0:0:0:0:
256,192,49500,1,0,0:0:0:0:
256,192,50000,1,8,0:0:0:0:
360,240,50750,1,0,0:0:0:0:
256,192,51250,1,0,0:0:0:0:
360,240,51500,1,8,0:0:0:0:
360,144,52000,1,8,0:0:0:0:
360,144,52750,1,0,0:0:0:0:
256,192,53250,1,0,0:0:0:0:
360,240,53500,1,8,0:0:0:0:
360,144,54000,1,8,0:0:0:0:
256,192,54750,1,0,0:0:0:0:
360,144,56000,1,8,0:0:0:0:
256,192,56500,1,0,0:0:0:0:
360,144,57000,1,8,0:0:0:0:
256,192,57500,1,0,0:0:0:0:
360,240,58000,1,8,0:0:0:0:
360,240,58750,1,0,0:0:0:0:
256,192,59250,1,0,0:0:0:0:
360,240,59500,1,8,0:0:0:0:
360,144,60000,1,8,0:0:0:0:
256,192,60750,1,0,0:0:0:0:
256,192,61250,1,0,0:0:0:0:
360,240,61500,1,8,0:0:0:0:
360,144,62000,1,8,0:0:0:0:
256,192,62750,1,0,0:0:0:0:
344,116,64000,5,12,0:0:0:0:
256,192,64500,1,0,0:0:0:0:
360,240,65000,1,8,0:0:0:0:
256,192,65500,1,0,0:0:0:0:
256,192,66000,1,8,0:0:0:0:
360,240,66750,1,0,0:0:0:0:
360,240,67500,1,8,0:0:0:0:
360,240,67750,1,8,0:0:0:0:
360,144,68000,1,0,0:0:0:0:
360,144,68750,1,0,0:0:0:0:
360,240,69500,1,8,0:0:0:0:
256,192,69750,1,8,0:0:0:0:
360,144,70000,1,8,0:0:0:0:
256,192,70750,1,0,0:0:0:0:
360,144,72000,1,8,0:0:0:0:
256,192,72500,1,0,0:0:0:0:
360,144,73000,1,8,0:0:0:0:
256,192,73500,1,0,0:0:0:0:
360,240,74000,1,8,0:0:0:0:
360,240,74750,1,0,0:0:0:0:
360,240,75500,1,8,0:0:0:0:
360,144,75750,1,8,0:0:0:0:
256,192,76000,1,0,0:0:0:0:
256,192,76750,1,0,0:0:0:0:
360,240,77500,1,8,0:0:0:0:
256,192,77750,1,8,0:0:0:0:
360,144,78000,1,8,0:0:0:0:
256,192,78750,1,0,0:0:0:0:
256,192,79250,1,0,0:0:0:0:
256,192,79500,1,8,0:0:0:0:
256,192,80000,1,4,0:0:0:0:
