osu file format v14

[General]
AudioFilename: audio.mp3
AudioLeadIn: 0
PreviewTime: 47750
Countdown: 0
SampleSet: Normal
StackLeniency: 1
Mode: 1
LetterboxInBreaks: 0
WidescreenStoryboard: 0

[Editor]
Bookmarks: 0,8000,16000,24000,32000,40000,48000,56000,64000,72000,80000
DistanceSpacing: 1.1
BeatDivisor: 4
GridSize: 32
TimelineZoom: 1.3

[Metadata]
Title:Relax In The City (short ver.)
TitleUnicode:Relax In The City (short ver.)
Artist:Perfume
ArtistUnicode:Perfume
Creator:Jonawaga
Version:Ayyri's Inner Oni
Source:
Tags:electropop Yasutaka Nakata Universal Japan J snowball112 中田ヤスタカ Ayyri cosmic explorer jpop pick me up A-chan Nocchi Kashiyuka
BeatmapID:1002287
BeatmapSetID:466361

[Difficulty]
HPDrainRate:5
CircleSize:2
OverallDifficulty:6
ApproachRate:10
SliderMultiplier:1.4
SliderTickRate:1

[Events]
//Background and Video events
0,0,"Relax In The City.png",0,35
//Break Periods
//Storyboard Layer 0 (Background)
//Storyboard Layer 1 (Fail)
//Storyboard Layer 2 (Pass)
//Storyboard Layer 3 (Foreground)
//Storyboard Sound Samples

[TimingPoints]
0,500,4,1,0,70,1,0
48000,-100,4,1,0,70,0,1
80000,-100,4,1,0,70,0,0

[HitObjects]
256,192,0,5,0,0:0:0:0:
256,192,250,1,0,0:0:0:0:
256,192,500,1,8,0:0:0:0:
256,192,750,1,8,0:0:0:0:
256,192,1000,1,0,0:0:0:0:
256,192,1500,1,8,0:0:0:0:
256,192,1750,1,0,0:0:0:0:
256,192,2000,1,8,0:0:0:0:
256,192,2250,1,0,0:0:0:0:
256,192,2500,1,8,0:0:0:0:
256,192,2750,1,8,0:0:0:0:
256,192,3000,1,0,0:0:0:0:
256,192,3250,1,0,0:0:0:0:
256,192,3500,1,8,0:0:0:0:
256,192,3750,1,8,0:0:0:0:
256,192,4000,1,0,0:0:0:0:
256,192,4500,1,8,0:0:0:0:
256,192,4750,1,8,0:0:0:0:
256,192,5000,1,0,0:0:0:0:
256,192,5500,1,8,0:0:0:0:
256,192,5750,1,0,0:0:0:0:
256,192,6000,1,8,0:0:0:0:
256,192,6250,1,0,0:0:0:0:
256,192,6500,1,8,0:0:0:0:
256,192,6750,1,8,0:0:0:0:
256,192,7000,1,0,0:0:0:0:
256,192,7250,1,0,0:0:0:0:
256,192,7500,1,8,0:0:0:0:
256,192,7750,1,8,0:0:0:0:
256,192,8000,1,0,0:0:0:0:
256,192,8375,1,0,0:0:0:0:
256,192,8500,1,8,0:0:0:0:
256,192,8750,1,0,0:0:0:0:
256,192,8875,1,0,0:0:0:0:
256,192,9000,1,8,0:0:0:0:
256,192,9250,1,8,0:0:0:0:
256,192,9375,1,8,0:0:0:0:
256,192,9500,1,0,0:0:0:0:
256,192,9750,1,0,0:0:0:0:
256,192,10000,1,8,0:0:0:0:
256,192,10375,1,0,0:0:0:0:
256,192,10500,1,8,0:0:0:0:
256,192,10750,1,8,0:0:0:0:
256,192,11000,1,0,0:0:0:0:
256,192,11250,1,0,0:0:0:0:
256,192,11375,1,0,0:0:0:0:
256,192,11500,1,8,0:0:0:0:
256,192,11750,1,0,0:0:0:0:
256,192,12000,1,0,0:0:0:0:
256,192,12250,1,8,0:0:0:0:
256,192,12375,1,0,0:0:0:0:
256,192,12500,1,8,0:0:0:0:
256,192,12750,1,8,0:0:0:0:
256,192,12875,1,8,0:0:0:0:
256,192,13000,1,0,0:0:0:0:
256,192,13250,1,0,0:0:0:0:
256,192,13375,1,0,0:0:0:0:
256,192,13500,1,8,0:0:0:0:
256,192,13750,1,8,0:0:0:0:
256,192,14000,1,0,0:0:0:0:
256,192,14500,1,0,0:0:0:0:
256,192,15500,1,12,0:0:0:0:
256,192,16000,1,4,0:0:0:0:
256,192,16500,1,8,0:0:0:0:
256,192,16750,1,0,0:0:0:0:
256,192,17000,1,8,0:0:0:0:
256,192,17250,1,0,0:0:0:0:
256,192,17375,1,8,0:0:0:0:
256,192,17500,1,0,0:0:0:0:
256,192,17750,1,8,0:0:0:0:
256,192,18000,1,0,0:0:0:0:
256,192,18375,1,0,0:0:0:0:
256,192,18500,1,8,0:0:0:0:
256,192,18750,1,8,0:0:0:0:
256,192,19000,1,8,0:0:0:0:
256,192,19125,1,0,0:0:0:0:
256,192,19375,1,0,0:0:0:0:
256,192,19500,1,8,0:0:0:0:
256,192,19750,1,0,0:0:0:0:
256,192,20000,1,8,0:0:0:0:
256,192,20375,1,0,0:0:0:0:
256,192,20500,1,8,0:0:0:0:
256,192,20750,1,8,0:0:0:0:
256,192,21000,1,0,0:0:0:0:
256,192,21250,1,0,0:0:0:0:
256,192,21375,1,8,0:0:0:0:
256,192,21500,1,0,0:0:0:0:
256,192,21750,1,8,0:0:0:0:
256,192,22000,1,0,0:0:0:0:
256,192,22250,1,8,0:0:0:0:
256,192,22375,1,8,0:0:0:0:
256,192,22500,1,0,0:0:0:0:
256,192,22750,1,8,0:0:0:0:
256,192,23000,1,8,0:0:0:0:
256,192,23125,1,0,0:0:0:0:
256,192,23375,1,0,0:0:0:0:
256,192,23500,1,8,0:0:0:0:
256,192,23750,1,8,0:0:0:0:
256,192,24000,1,0,0:0:0:0:
256,192,24500,1,8,0:0:0:0:
256,192,24750,1,0,0:0:0:0:
256,192,25000,1,8,0:0:0:0:
256,192,25250,1,0,0:0:0:0:
256,192,25375,1,8,0:0:0:0:
256,192,25500,1,0,0:0:0:0:
256,192,25750,1,8,0:0:0:0:
256,192,26000,1,0,0:0:0:0:
256,192,26250,1,0,0:0:0:0:
256,192,26375,1,0,0:0:0:0:
256,192,26500,1,8,0:0:0:0:
256,192,26750,1,0,0:0:0:0:
256,192,27000,1,8,0:0:0:0:
256,192,27250,1,0,0:0:0:0:
256,192,27375,1,8,0:0:0:0:
256,192,27500,1,8,0:0:0:0:
256,192,27750,1,8,0:0:0:0:
256,192,28000,1,0,0:0:0:0:
256,192,28375,1,0,0:0:0:0:
256,192,28500,1,8,0:0:0:0:
256,192,28750,1,0,0:0:0:0:
256,192,29000,1,0,0:0:0:0:
256,192,29250,1,0,0:0:0:0:
256,192,29375,1,0,0:0:0:0:
256,192,29500,1,8,0:0:0:0:
256,192,29750,1,8,0:0:0:0:
256,192,30000,1,0,0:0:0:0:
256,192,30250,1,0,0:0:0:0:
256,192,30375,1,8,0:0:0:0:
256,192,30500,1,8,0:0:0:0:
256,192,30750,1,0,0:0:0:0:
256,192,31000,1,0,0:0:0:0:
256,192,31250,1,8,0:0:0:0:
256,192,31500,1,8,0:0:0:0:
256,192,31750,1,8,0:0:0:0:
256,192,31875,1,8,0:0:0:0:
256,192,32000,1,0,0:0:0:0:
256,192,32500,1,8,0:0:0:0:
256,192,32750,1,8,0:0:0:0:
256,192,32875,1,0,0:0:0:0:
256,192,33000,1,8,0:0:0:0:
256,192,33250,1,8,0:0:0:0:
256,192,33375,1,8,0:0:0:0:
256,192,33500,1,0,0:0:0:0:
256,192,33750,1,8,0:0:0:0:
256,192,34000,1,0,0:0:0:0:
256,192,34250,1,0,0:0:0:0:
256,192,34375,1,8,0:0:0:0:
256,192,34500,1,0,0:0:0:0:
256,192,34750,1,8,0:0:0:0:
256,192,35000,1,8,0:0:0:0:
256,192,35250,1,8,0:0:0:0:
256,192,35375,1,0,0:0:0:0:
256,192,35500,1,8,0:0:0:0:
256,192,35750,1,8,0:0:0:0:
256,192,36000,1,0,0:0:0:0:
256,192,36500,1,8,0:0:0:0:
256,192,36750,1,8,0:0:0:0:
256,192,36875,1,0,0:0:0:0:
256,192,37000,1,8,0:0:0:0:
256,192,37250,1,8,0:0:0:0:
256,192,37375,1,8,0:0:0:0:
256,192,37500,1,0,0:0:0:0:
256,192,37750,1,8,0:0:0:0:
256,192,38000,1,8,0:0:0:0:
256,192,38125,1,0,0:0:0:0:
256,192,38375,1,0,0:0:0:0:
256,192,38500,1,8,0:0:0:0:
256,192,38750,1,8,0:0:0:0:
256,192,39000,1,0,0:0:0:0:
256,192,39125,1,8,0:0:0:0:
256,192,39375,1,0,0:0:0:0:
256,192,39500,1,8,0:0:0:0:
256,192,39750,1,8,0:0:0:0:
256,192,40000,1,0,0:0:0:0:
256,192,40500,1,8,0:0:0:0:
256,192,40750,1,8,0:0:0:0:
256,192,40875,1,8,0:0:0:0:
256,192,41000,1,0,0:0:0:0:
256,192,41250,1,0,0:0:0:0:
256,192,41375,1,8,0:0:0:0:
256,192,41500,1,0,0:0:0:0:
256,192,41750,1,8,0:0:0:0:
256,192,42000,1,0,0:0:0:0:
256,192,42250,1,0,0:0:0:0:
256,192,42375,1,0,0:0:0:0:
256,192,42500,1,8,0:0:0:0:
256,192,42750,1,0,0:0:0:0:
256,192,43000,1,8,0:0:0:0:
256,192,43250,1,0,0:0:0:0:
256,192,43375,1,8,0:0:0:0:
256,192,43500,1,8,0:0:0:0:
256,192,43750,1,8,0:0:0:0:
256,192,44000,1,0,0:0:0:0:
256,192,44375,1,0,0:0:0:0:
256,192,44500,1,8,0:0:0:0:
256,192,44750,1,8,0:0:0:0:
256,192,44875,1,8,0:0:0:0:
256,192,45000,1,0,0:0:0:0:
256,192,45250,1,0,0:0:0:0:
256,192,45500,1,8,0:0:0:0:
256,192,45750,1,0,0:0:0:0:
256,192,45875,1,8,0:0:0:0:
256,192,46000,1,8,0:0:0:0:
256,192,46250,1,8,0:0:0:0:
256,192,46375,1,8,0:0:0:0:
256,192,46500,1,0,0:0:0:0:
256,192,46750,1,0,0:0:0:0:
256,192,47000,1,8,0:0:0:0:
256,192,47250,1,0,0:0:0:0:
256,192,47375,1,8,0:0:0:0:
256,192,47500,1,8,0:0:0:0:
256,192,47625,1,0,0:0:0:0:
256,192,47750,1,8,0:0:0:0:
256,192,48000,1,4,0:0:0:0:
256,192,48375,1,0,0:0:0:0:
256,192,48500,1,8,0:0:0:0:
256,192,48750,1,0,0:0:0:0:
256,192,49000,1,8,0:0:0:0:
256,192,49250,1,0,0:0:0:0:
256,192,49375,1,8,0:0:0:0:
256,192,49500,1,8,0:0:0:0:
256,192,49750,1,0,0:0:0:0:
256,192,50000,1,8,0:0:0:0:
256,192,50250,1,8,0:0:0:0:
256,192,50375,1,0,0:0:0:0:
256,192,50500,1,8,0:0:0:0:
256,192,50625,1,8,0:0:0:0:
256,192,50750,1,0,0:0:0:0:
256,192,50875,1,0,0:0:0:0:
256,192,51000,1,8,0:0:0:0:
256,192,51250,1,0,0:0:0:0:
256,192,51375,1,8,0:0:0:0:
256,192,51500,1,8,0:0:0:0:
256,192,51750,1,8,0:0:0:0:
256,192,52000,1,0,0:0:0:0:
256,192,52375,1,0,0:0:0:0:
256,192,52500,1,8,0:0:0:0:
256,192,52750,1,0,0:0:0:0:
256,192,53000,1,0,0:0:0:0:
256,192,53125,1,8,0:0:0:0:
256,192,53250,1,0,0:0:0:0:
256,192,53375,1,8,0:0:0:0:
256,192,53500,1,8,0:0:0:0:
256,192,53625,1,0,0:0:0:0:
256,192,53750,1,8,0:0:0:0:
256,192,54000,1,0,0:0:0:0:
256,192,54375,1,0,0:0:0:0:
256,192,54500,1,8,0:0:0:0:
256,192,54750,1,8,0:0:0:0:
256,192,54875,1,8,0:0:0:0:
256,192,55000,1,0,0:0:0:0:
256,192,55250,1,8,0:0:0:0:
256,192,55375,1,0,0:0:0:0:
256,192,55500,1,8,0:0:0:0:
256,192,55625,1,0,0:0:0:0:
256,192,55750,1,8,0:0:0:0:
256,192,56000,1,4,0:0:0:0:
256,192,56375,1,0,0:0:0:0:
256,192,56500,1,8,0:0:0:0:
256,192,56750,1,0,0:0:0:0:
256,192,56875,1,0,0:0:0:0:
256,192,57000,1,8,0:0:0:0:
256,192,57250,1,8,0:0:0:0:
256,192,57375,1,8,0:0:0:0:
256,192,57500,1,0,0:0:0:0:
256,192,57625,1,8,0:0:0:0:
256,192,57750,1,0,0:0:0:0:
256,192,58000,1,8,0:0:0:0:
256,192,58250,1,8,0:0:0:0:
256,192,58375,1,0,0:0:0:0:
256,192,58500,1,8,0:0:0:0:
256,192,58625,1,8,0:0:0:0:
256,192,58750,1,0,0:0:0:0:
256,192,58875,1,0,0:0:0:0:
256,192,59000,1,8,0:0:0:0:
256,192,59250,1,0,0:0:0:0:
256,192,59375,1,8,0:0:0:0:
256,192,59500,1,0,0:0:0:0:
256,192,59750,1,8,0:0:0:0:
256,192,60000,1,0,0:0:0:0:
256,192,60375,1,0,0:0:0:0:
256,192,60500,1,8,0:0:0:0:
256,192,60750,1,0,0:0:0:0:
256,192,60875,1,0,0:0:0:0:
256,192,61000,1,8,0:0:0:0:
256,192,61125,1,0,0:0:0:0:
256,192,61250,1,0,0:0:0:0:
256,192,61375,1,8,0:0:0:0:
256,192,61500,1,8,0:0:0:0:
256,192,61750,1,8,0:0:0:0:
256,192,62000,1,0,0:0:0:0:
256,192,62375,1,0,0:0:0:0:
256,192,62500,1,8,0:0:0:0:
256,192,62750,1,0,0:0:0:0:
256,192,62875,1,8,0:0:0:0:
256,192,63000,1,0,0:0:0:0:
256,192,63250,1,8,0:0:0:0:
256,192,63375,1,8,0:0:0:0:
256,192,63500,1,0,0:0:0:0:
256,192,63625,1,8,0:0:0:0:
256,192,63750,1,0,0:0:0:0:
256,192,64000,1,4,0:0:0:0:
256,192,64375,1,0,0:0:0:0:
256,192,64500,1,8,0:0:0:0:
256,192,64750,1,0,0:0:0:0:
256,192,65000,1,8,0:0:0:0:
256,192,65250,1,0,0:0:0:0:
256,192,65375,1,8,0:0:0:0:
256,192,65500,1,8,0:0:0:0:
256,192,65750,1,0,0:0:0:0:
256,192,66000,1,8,0:0:0:0:
256,192,66250,1,0,0:0:0:0:
256,192,66375,1,8,0:0:0:0:
256,192,66500,1,8,0:0:0:0:
256,192,66625,1,0,0:0:0:0:
256,192,66750,1,8,0:0:0:0:
256,192,66875,1,0,0:0:0:0:
256,192,67000,1,8,0:0:0:0:
256,192,67250,1,0,0:0:0:0:
256,192,67375,1,8,0:0:0:0:
256,192,67500,1,8,0:0:0:0:
256,192,67625,1,0,0:0:0:0:
256,192,67750,1,8,0:0:0:0:
256,192,68000,1,0,0:0:0:0:
256,192,68250,1,0,0:0:0:0:
256,192,68375,1,8,0:0:0:0:
256,192,68500,1,0,0:0:0:0:
256,192,68750,1,0,0:0:0:0:
256,192,69000,1,8,0:0:0:0:
256,192,69125,1,0,0:0:0:0:
256,192,69375,1,8,0:0:0:0:
256,192,69500,1,8,0:0:0:0:
256,192,69625,1,0,0:0:0:0:
256,192,69750,1,8,0:0:0:0:
256,192,70000,1,0,0:0:0:0:
256,192,70375,1,0,0:0:0:0:
256,192,70500,1,8,0:0:0:0:
256,192,70750,1,0,0:0:0:0:
256,192,70875,1,8,0:0:0:0:
256,192,71000,1,0,0:0:0:0:
256,192,71250,1,8,0:0:0:0:
256,192,71375,1,0,0:0:0:0:
256,192,71500,1,8,0:0:0:0:
256,192,71625,1,0,0:0:0:0:
256,192,71750,1,8,0:0:0:0:
256,192,72000,1,4,0:0:0:0:
256,192,72375,1,0,0:0:0:0:
256,192,72500,1,8,0:0:0:0:
256,192,72750,1,0,0:0:0:0:
256,192,73000,1,8,0:0:0:0:
256,192,73250,1,0,0:0:0:0:
256,192,73375,1,8,0:0:0:0:
256,192,73500,1,0,0:0:0:0:
256,192,73750,1,0,0:0:0:0:
256,192,74000,1,8,0:0:0:0:
256,192,74250,1,8,0:0:0:0:
256,192,74375,1,0,0:0:0:0:
256,192,74500,1,8,0:0:0:0:
256,192,74625,1,8,0:0:0:0:
256,192,74750,1,0,0:0:0:0:
256,192,74875,1,0,0:0:0:0:
256,192,75000,1,8,0:0:0:0:
256,192,75250,1,8,0:0:0:0:
256,192,75375,1,8,0:0:0:0:
256,192,75500,1,0,0:0:0:0:
256,192,75750,1,8,0:0:0:0:
256,192,76000,1,0,0:0:0:0:
256,192,76250,1,0,0:0:0:0:
256,192,76375,1,0,0:0:0:0:
256,192,76500,1,8,0:0:0:0:
256,192,76750,1,0,0:0:0:0:
256,192,77000,1,8,0:0:0:0:
256,192,77125,1,0,0:0:0:0:
256,192,77375,1,8,0:0:0:0:
256,192,77500,1,8,0:0:0:0:
256,192,77625,1,0,0:0:0:0:
256,192,77750,1,8,0:0:0:0:
256,192,78000,1,0,0:0:0:0:
256,192,78375,1,0,0:0:0:0:
256,192,78500,1,8,0:0:0:0:
256,192,78750,1,0,0:0:0:0:
256,192,78875,1,8,0:0:0:0:
256,192,79000,1,0,0:0:0:0:
256,192,79250,1,8,0:0:0:0:
256,192,79375,1,0,0:0:0:0:
256,192,79500,1,8,0:0:0:0:
256,192,79625,1,0,0:0:0:0:
256,192,79750,1,8,0:0:0:0:
256,192,80000,1,4,0:0:0:0:
