osu file format v14

[General]
AudioFilename: audio.mp3
AudioLeadIn: 0
PreviewTime: 47750
Countdown: 0
SampleSet: Normal
StackLeniency: 0.4
Mode: 1
LetterboxInBreaks: 0
WidescreenStoryboard: 0

[Editor]
Bookmarks: 16000,36990
DistanceSpacing: 1.1
BeatDivisor: 4
GridSize: 8
TimelineZoom: 0.6999999

[Metadata]
Title:Relax In The City (short ver.)
TitleUnicode:Relax In The City (short ver.)
Artist:Perfume
ArtistUnicode:Perfume
Creator:Jonawaga
Version:Muzukashii
Source:
Tags:electropop Yasutaka Nakata Universal Japan J snowball112 中田ヤスタカ Ayyri cosmic explorer jpop pick me up A-chan Nocchi Kashiyuka
BeatmapID:998066
BeatmapSetID:466361

[Difficulty]
HPDrainRate:6
CircleSize:2
OverallDifficulty:5
ApproachRate:4
SliderMultiplier:1.4
SliderTickRate:1

[Events]
//Background and Video events
0,0,"parfum.jpg",0,25
//Break Periods
//Storyboard Layer 0 (Background)
//Storyboard Layer 1 (Fail)
//Storyboard Layer 2 (Pass)
//Storyboard Layer 3 (Foreground)
//Storyboard Sound Samples

[TimingPoints]
0,500,4,1,0,70,1,0
48000,-100,4,1,0,70,0,1
80000,-100,4,1,0,70,0,0

[HitObjects]
256,192,0,5,8,0:0:0:0:
256,192,500,1,8,0:0:0:0:
256,192,750,1,0,0:0:0:0:
256,192,1000,1,8,0:0:0:0:
256,192,1500,1,0,0:0:0:0:
256,188,2000,1,8,0:0:0:0:
256,188,2500,1,8,0:0:0:0:
256,188,3000,1,0,0:0:0:0:
256,192,4000,1,8,0:0:0:0:
256,192,4500,1,8,0:0:0:0:
256,192,4750,1,0,0:0:0:0:
256,192,5000,1,8,0:0:0:0:
256,192,5500,1,8,0:0:0:0:
256,188,6000,1,8,0:0:0:0:
256,188,6500,1,0,0:0:0:0:
256,188,7000,1,8,0:0:0:0:
256,188,8000,1,0,0:0:0:0:
256,188,8500,1,8,0:0:0:0:
256,192,8750,1,0,0:0:0:0:
256,188,9000,1,8,0:0:0:0:
256,188,9500,1,0,0:0:0:0:
256,184,10000,1,8,0:0:0:0:
256,192,10500,1,8,0:0:0:0:
256,192,11000,1,0,0:0:0:0:
256,188,12000,1,0,0:0:0:0:
256,188,12500,1,8,0:0:0:0:
256,188,12750,1,0,0:0:0:0:
256,188,13000,1,8,0:0:0:0:
256,188,13500,1,8,0:0:0:0:
256,184,14000,1,0,0:0:0:0:
256,184,15500,1,12,3:3:0:0:
200,264,16000,5,8,0:0:0:0:
200,264,16500,1,0,0:0:0:0:
312,264,16750,1,0,0:0:0:0:
312,264,17000,1,8,0:0:0:0:
312,264,17500,1,0,0:0:0:0:
200,264,18000,1,2,0:0:0:0:
200,264,18375,1,2,0:0:0:0:
200,264,18750,1,0,0:0:0:0:
312,264,19000,1,0,0:0:0:0:
312,264,19500,1,8,0:0:0:0:
200,264,20000,5,8,0:0:0:0:
200,264,20500,1,0,0:0:0:0:
312,264,20750,1,0,0:0:0:0:
312,264,21000,1,8,0:0:0:0:
312,264,21500,1,0,0:0:0:0:
200,264,22000,1,2,0:0:0:0:
200,264,22375,1,2,0:0:0:0:
312,264,22750,1,0,0:0:0:0:
312,264,23000,1,2,0:0:0:0:
200,264,23500,1,8,0:0:0:0:
312,264,24000,1,0,0:0:0:0:
312,264,24500,1,0,0:0:0:0:
312,264,25000,1,0,0:0:0:0:
312,264,25250,1,0,0:0:0:0:
312,264,25500,1,8,0:0:0:0:
312,264,25750,1,8,0:0:0:0:
312,264,26000,1,0,0:0:0:0:
312,264,26500,1,0,0:0:0:0:
312,264,27000,1,0,0:0:0:0:
312,264,27250,1,0,0:0:0:0:
312,264,27500,1,8,0:0:0:0:
312,264,27750,1,8,0:0:0:0:
312,264,28000,1,0,0:0:0:0:
312,264,28500,1,0,0:0:0:0:
312,264,28750,1,8,0:0:0:0:
312,264,29000,1,8,0:0:0:0:
312,264,29500,1,0,0:0:0:0:
312,264,29750,1,0,0:0:0:0:
200,264,30000,1,8,0:0:0:0:
200,264,30375,1,8,0:0:0:0:
200,264,30750,1,8,0:0:0:0:
200,264,31000,1,8,0:0:0:0:
200,264,32000,5,8,0:0:0:0:
200,264,32500,1,0,0:0:0:0:
312,264,32750,1,0,0:0:0:0:
312,264,33000,1,8,0:0:0:0:
312,264,33500,1,0,0:0:0:0:
200,264,34000,1,2,0:0:0:0:
200,264,34375,1,2,0:0:0:0:
200,264,34750,1,0,0:0:0:0:
312,264,35000,1,0,0:0:0:0:
312,264,35500,5,8,0:0:0:0:
200,264,36000,5,8,0:0:0:0:
200,264,36500,1,0,0:0:0:0:
312,264,36750,1,0,0:0:0:0:
312,264,37000,1,8,0:0:0:0:
312,264,37500,1,0,0:0:0:0:
200,264,38000,1,2,0:0:0:0:
200,264,38375,1,2,0:0:0:0:
312,264,38750,1,0,0:0:0:0:
312,264,39000,1,2,0:0:0:0:
200,264,39500,1,0,0:0:0:0:
312,264,40000,1,8,0:0:0:0:
312,264,40500,1,8,0:0:0:0:
312,264,41000,1,8,0:0:0:0:
312,264,41250,1,8,0:0:0:0:
312,264,41500,1,0,0:0:0:0:
312,264,41750,1,0,0:0:0:0:
312,264,42000,1,8,0:0:0:0:
312,264,42500,1,8,0:0:0:0:
312,264,43000,1,8,0:0:0:0:
312,264,43250,1,8,0:0:0:0:
312,264,43500,1,0,0:0:0:0:
312,264,43750,1,0,0:0:0:0:
312,264,44000,1,8,0:0:0:0:
312,264,44500,1,0,0:0:0:0:
312,264,44750,1,8,0:0:0:0:
312,264,45000,1,8,0:0:0:0:
312,264,45500,1,0,0:0:0:0:
312,264,45750,1,0,0:0:0:0:
200,264,46000,1,8,0:0:0:0:
200,264,46375,1,8,0:0:0:0:
200,264,46750,5,8,0:0:0:0:
200,264,47000,1,8,0:0:0:0:
304,84,48000,5,12,0:0:0:0:
208,84,48500,1,0,0:0:0:0:
208,84,48750,1,0,0:0:0:0:
304,84,49000,1,8,0:0:0:0:
208,84,49500,1,0,0:0:0:0:
208,84,49750,1,0,0:0:0:0:
304,84,50000,1,8,0:0:0:0:
304,84,50375,1,8,0:0:0:0:
208,84,50750,1,0,0:0:0:0:
208,84,51000,1,8,0:0:0:0:
304,84,51250,1,0,0:0:0:0:
208,84,51500,5,8,0:0:0:0:
208,84,51625,1,8,0:0:0:0:
208,84,51750,1,8,0:0:0:0:
304,84,52000,1,8,0:0:0:0:
304,84,52375,1,0,0:0:0:0:
208,84,52750,1,0,0:0:0:0:
208,84,53000,1,8,0:0:0:0:
304,84,53250,1,0,0:0:0:0:
208,84,53500,5,8,0:0:0:0:
208,84,53625,1,8,0:0:0:0:
208,84,53750,1,8,0:0:0:0:
304,84,54000,1,8,0:0:0:0:
304,84,54375,1,0,0:0:0:0:
208,84,54750,1,8,0:0:0:0:
208,84,55250,1,0,0:0:0:0:
304,84,55500,1,8,0:0:0:0:
208,84,55750,1,0,0:0:0:0:
304,84,56000,5,8,0:0:0:0:
208,84,56500,1,0,0:0:0:0:
208,84,56750,1,0,0:0:0:0:
304,84,57000,1,8,0:0:0:0:
208,84,57500,1,0,0:0:0:0:
208,84,57750,1,0,0:0:0:0:
304,84,58000,1,8,0:0:0:0:
304,84,58375,1,8,0:0:0:0:
304,84,58750,1,0,0:0:0:0:
208,84,59000,1,8,0:0:0:0:
208,84,59250,1,0,0:0:0:0:
208,84,59500,1,8,0:0:0:0:
208,84,59625,1,8,0:0:0:0:
208,84,59750,1,8,0:0:0:0:
304,84,60000,1,8,0:0:0:0:
304,84,60375,1,0,0:0:0:0:
304,84,60750,1,0,0:0:0:0:
208,84,61000,1,8,0:0:0:0:
304,84,61250,1,0,0:0:0:0:
208,84,61500,1,8,0:0:0:0:
208,84,61625,1,8,0:0:0:0:
208,84,61750,1,8,0:0:0:0:
304,84,62000,1,8,0:0:0:0:
304,84,62375,1,8,0:0:0:0:
304,84,62750,1,0,0:0:0:0:
208,84,63000,1,8,0:0:0:0:
304,84,63375,1,8,0:0:0:0:
208,84,63750,1,8,0:0:0:0:
304,84,64000,5,12,0:0:0:0:
208,84,64500,1,0,0:0:0:0:
208,84,64750,1,0,0:0:0:0:
304,84,65000,1,8,0:0:0:0:
208,84,65500,1,0,0:0:0:0:
208,84,65750,1,0,0:0:0:0:
304,84,66000,1,8,0:0:0:0:
304,84,66375,1,8,0:0:0:0:
208,84,66750,1,0,0:0:0:0:
208,84,67000,1,8,0:0:0:0:
304,84,67250,1,0,0:0:0:0:
208,84,67500,5,8,0:0:0:0:
208,84,67625,1,8,0:0:0:0:
208,84,67750,1,8,0:0:0:0:
304,84,68000,1,8,0:0:0:0:
304,84,68375,1,0,0:0:0:0:
208,84,68750,1,0,0:0:0:0:
208,84,69000,1,8,0:0:0:0:
304,84,69250,1,0,0:0:0:0:
208,84,69500,5,8,0:0:0:0:
208,84,69625,1,8,0:0:0:0:
208,84,69750,1,8,0:0:0:0:
304,84,70000,1,8,0:0:0:0:
304,84,70375,1,0,0:0:0:0:
208,84,70750,1,8,0:0:0:0:
208,84,71250,1,0,0:0:0:0:
304,84,71500,1,8,0:0:0:0:
208,84,71750,1,0,0:0:0:0:
304,84,72000,5,8,0:0:0:0:
208,84,72500,1,0,0:0:0:0:
208,84,72750,1,0,0:0:0:0:
304,84,73000,1,8,0:0:0:0:
208,84,73500,1,0,0:0:0:0:
208,84,73750,1,0,0:0:0:0:
304,84,74000,1,8,0:0:0:0:
304,84,74375,1,8,0:0:0:0:
304,84,74750,1,0,0:0:0:0:
208,84,75000,1,8,0:0:0:0:
208,84,75250,1,0,0:0:0:0:
208,84,75500,1,8,0:0:0:0:
208,84,75625,1,8,0:0:0:0:
208,84,75750,1,8,0:0:0:0:
304,84,76000,1,8,0:0:0:0:
304,84,76375,1,0,0:0:0:0:
304,84,76750,1,0,0:0:0:0:
208,84,77000,1,8,0:0:0:0:
304,84,77250,1,0,0:0:0:0:
208,84,77500,1,8,0:0:0:0:
208,84,77625,1,8,0:0:0:0:
208,84,77750,1,8,0:0:0:0:
304,84,78000,1,8,0:0:0:0:
304,84,78375,1,8,0:0:0:0:
304,84,78750,1,0,0:0:0:0:
304,84,79250,1,0,0:0:0:0:
208,84,79500,1,8,0:0:0:0:
304,84,79750,1,8,0:0:0:0:
208,84,80000,1,4,0:0:0:0:
