osu file format v14

[General]
AudioFilename: audio.mp3
AudioLeadIn: 0
PreviewTime: 47750
Countdown: 0
SampleSet: Normal
StackLeniency: 0.7
Mode: 1
LetterboxInBreaks: 0
WidescreenStoryboard: 0

[Editor]
Bookmarks: 36980,52980,108980,116980
DistanceSpacing: 1.1
BeatDivisor: 2
GridSize: 4
TimelineZoom: 0.6999999

[Metadata]
Title:Relax In The City (short ver.)
TitleUnicode:Relax In The City (short ver.)
Artist:Perfume
ArtistUnicode:Perfume
Creator:Jonawaga
Version:Kantan
Source:
Tags:electropop Yasutaka Nakata Universal Japan J snowball112 中田ヤスタカ Ayyri cosmic explorer jpop pick me up A-chan Nocchi Kashiyuka
BeatmapID:1046109
BeatmapSetID:466361

[Difficulty]
HPDrainRate:8
CircleSize:2
OverallDifficulty:3
ApproachRate:2
SliderMultiplier:1.4
SliderTickRate:1

[Events]
//Background and Video events
0,0,"parfum.jpg",0,25
//Break Periods
//Storyboard Layer 0 (Background)
//Storyboard Layer 1 (Fail)
//Storyboard Layer 2 (Pass)
//Storyboard Layer 3 (Foreground)
//Storyboard Sound Samples

[TimingPoints]
0,500,4,1,0,70,1,0
48000,-100,4,1,0,70,0,1
80000,-100,4,1,0,70,0,0

[HitObjects]
256,192,0,5,0,0:0:0:0:
256,192,1000,1,0,0:0:0:0:
256,192,2000,1,2,0:0:0:0:
256,192,3000,1,0,0:0:0:0:
256,192,3500,1,8,0:0:0:0:
256,192,4000,1,0,0:0:0:0:
256,192,5000,1,0,0:0:0:0:
256,192,6000,1,2,0:0:0:0:
256,192,8000,1,0,0:0:0:0:
256,192,9000,1,0,0:0:0:0:
256,192,10000,1,2,0:0:0:0:
256,192,11000,1,0,0:0:0:0:
256,192,11500,1,8,0:0:0:0:
256,192,12000,1,0,0:0:0:0:
256,192,13000,1,0,0:0:0:0:
256,192,14000,1,2,0:0:0:0:
256,192,16000,1,8,0:0:0:0:
256,192,17000,1,0,0:0:0:0:
256,192,18000,1,2,0:0:0:0:
256,192,18500,1,8,0:0:0:0:
256,192,19000,1,0,0:0:0:0:
256,192,20000,1,8,0:0:0:0:
256,192,21000,1,0,0:0:0:0:
256,192,22000,1,2,0:0:0:0:
256,192,22500,1,8,0:0:0:0:
256,192,23000,1,8,0:0:0:0:
256,192,24000,1,0,0:0:0:0:
256,192,24500,1,0,0:0:0:0:
256,192,25000,1,0,0:0:0:0:
256,192,26000,1,0,0:0:0:0:
256,192,26500,1,0,0:0:0:0:
256,192,27000,1,0,0:0:0:0:
256,192,28000,1,2,0:0:0:0:
256,192,29000,1,0,0:0:0:0:
256,192,30000,1,2,0:0:0:0:
256,192,32000,1,8,0:0:0:0:
256,192,33000,1,0,0:0:0:0:
256,192,34000,1,2,0:0:0:0:
256,192,34500,1,8,0:0:0:0:
256,192,35000,1,0,0:0:0:0:
256,192,36000,1,8,0:0:0:0:
256,192,37000,1,0,0:0:0:0:
256,192,38000,1,2,0:0:0:0:
256,192,38500,1,8,0:0:0:0:
256,192,39000,1,8,0:0:0:0:
256,192,40000,1,0,0:0:0:0:
256,192,40500,1,0,0:0:0:0:
256,192,41000,1,0,0:0:0:0:
256,192,42000,1,0,0:0:0:0:
256,192,42500,1,0,0:0:0:0:
256,192,43000,1,0,0:0:0:0:
256,192,44000,1,2,0:0:0:0:
256,192,45000,1,0,0:0:0:0:
256,192,46000,1,2,0:0:0:0:
256,192,48000,5,4,0:0:0:0:
256,192,49000,1,2,0:0:0:0:
256,192,50000,1,0,0:0:0:0:
256,192,50750,1,2,0:0:0:0:
256,192,52000,1,0,0:0:0:0:
256,192,52750,1,0,0:0:0:0:
256,192,54000,1,2,0:0:0:0:
256,192,54750,1,0,0:0:0:0:
256,192,56000,5,4,0:0:0:0:
256,192,57000,1,2,0:0:0:0:
256,192,58000,1,0,0:0:0:0:
256,192,58750,1,2,0:0:0:0:
256,192,60000,1,0,0:0:0:0:
256,192,60750,1,0,0:0:0:0:
256,192,62000,1,2,0:0:0:0:
256,192,64000,5,4,0:0:0:0:
256,192,65000,1,2,0:0:0:0:
256,192,66000,1,0,0:0:0:0:
256,192,66750,1,2,0:0:0:0:
256,192,68000,1,0,0:0:0:0:
256,192,68750,1,0,0:0:0:0:
256,192,70000,1,2,0:0:0:0:
256,192,70750,1,0,0:0:0:0:
256,192,72000,5,4,0:0:0:0:
256,192,73000,1,2,0:0:0:0:
256,192,74000,1,0,0:0:0:0:
256,192,74750,1,2,0:0:0:0:
256,192,76000,1,0,0:0:0:0:
256,192,76750,1,0,0:0:0:0:
256,192,78000,1,2,0:0:0:0:
256,192,78750,1,2,0:0:0:0:
256,192,80000,1,4,0:0:0:0:
