osu file format v14

[General]
AudioFilename: audio.mp3
AudioLeadIn: 0
PreviewTime: 67129
Countdown: 0
SampleSet: Soft
StackLeniency: 0.6
Mode: 0
LetterboxInBreaks: 0
WidescreenStoryboard: 0

[Editor]
Bookmarks: 98,22598,37598,52598,67598,82598,97598,112598,127598,142598,157598,172598,187598,202598,217598,232598,248066,262598,277598,292598,301973
DistanceSpacing: 0.8
BeatDivisor: 4
GridSize: 32
TimelineZoom: 1.8

[Metadata]
Title:One Room Disco
TitleUnicode:ワンルーム・ディスコ
Artist:Perfume
ArtistUnicode:Perfume
Creator:eiri-
Version:Twirling
Source:
Tags:Ayyri Trynna Triangle ⊿ Toraianguru トライアングル J-Pop Collab Japanese Pop
BeatmapID:2007931
BeatmapSetID:959072

[Difficulty]
HPDrainRate:5
CircleSize:4
OverallDifficulty:8
ApproachRate:8.5
SliderMultiplier:1.6
SliderTickRate:1

[Events]
//Background and Video events
0,0,"One Room Disco.jpg",0,0
//Break Periods
//Storyboard Layer 0 (Background)
//Storyboard Layer 1 (Fail)
//Storyboard Layer 2 (Pass)
//Storyboard Layer 3 (Foreground)
//Storyboard Sound Samples

[TimingPoints]
98,468.75,4,2,1,75,1,0
22598,-76.9230769230769,4,2,1,80,0,0
37598,-90.9090909090909,4,2,1,70,0,0
52129,-76.9230769230769,4,2,1,70,0,0
52598,-86.9565217391304,4,2,1,75,0,0
67598,-74.0740740740741,4,2,1,90,0,1
81660,-74.0740740740741,4,2,1,90,0,0
82598,-74.0740740740741,4,2,1,90,0,1
95488,-105.263157894737,4,2,1,75,0,0
96191,-90.9090909090909,4,2,1,75,0,0
97598,-76.9230769230769,4,2,1,80,0,0
127598,-86.9565217391304,4,2,1,70,0,0
142129,-76.9230769230769,4,2,1,70,0,0
142598,-86.9565217391304,4,2,1,75,0,0
154551,-222.222222222221,4,2,1,70,0,0
155488,-133.333333333333,4,2,1,75,0,0
157129,-100,4,2,1,75,0,0
157598,-74.0740740740741,4,2,1,90,0,1
171660,-74.0740740740741,4,2,1,90,0,0
172598,-74.0740740740741,4,2,1,90,0,1
185488,-105.263157894737,4,2,1,90,0,0
187598,-125,4,2,1,50,0,0
202598,-111.111111111111,4,2,1,60,0,0
217598,-74.0740740740741,4,2,1,90,0,1
230723,-74.0740740740741,4,2,1,90,0,0
232598,-74.0740740740741,4,2,1,90,0,1
245723,-74.0740740740741,4,2,1,90,0,0
248066,-74.0740740740741,4,2,1,90,0,1
260723,-74.0740740740741,4,2,1,90,0,0
262598,-74.0740740740741,4,2,1,90,0,1
275723,-399.999999999997,4,2,1,90,0,0
276894,-74.0740740740741,4,2,1,75,0,0
277598,-76.9230769230769,4,2,1,80,0,0
292598,-76.9230769230769,4,2,1,100,0,0
294473,-76.9230769230769,4,2,1,75,0,0
296348,-76.9230769230769,4,2,1,50,0,0
298223,-76.9230769230769,4,2,1,25,0,0
300098,-76.9230769230769,4,2,1,15,0,0
301035,-76.9230769230769,4,2,1,10,0,0
301973,-76.9230769230769,4,2,1,5,0,0

[Colours]
Combo1 : 242,216,136
Combo2 : 117,202,242
Combo3 : 221,175,245
Combo4 : 244,159,162

[HitObjects]
286,320,98,6,2,P|324:277|370:266,1,80,2|0,0:0|0:0,0:1:0:0:
311,241,449,2,2,P|368:237|408:262,1,80,2|0,0:0|0:0,0:1:0:0:
384,202,801,2,2,P|427:240|438:286,1,80,2|0,0:0|0:0,0:1:0:0:
463,227,1152,2,2,P|466:284|441:324,1,80,2|0,0:0|0:0,0:1:0:0:
502,300,1504,2,2,P|464:342|418:353,1,80,2|0,0:0|0:0,0:1:0:0:
502,300,1973,6,2,P|464:342|418:353,1,80,2|0,0:0|0:0,0:1:0:0:
458,304,2324,6,2,P|469:266|462:226,1,80,2|0,0:0|0:0,0:1:0:0:
435,259,2675,2,2,P|416:224|383:201,1,80,2|0,0:0|0:0,0:1:0:0:
311,239,3027,6,2,P|350:233|388:245,1,80,2|0,0:0|0:0,0:1:0:0:
341,265,3378,6,2,P|305:283|283:316,1,80,2|0,0:0|0:0,0:1:0:0:
283,316,3848,6,2,P|317:297|341:265,1,80,2|0,0:0|0:0,0:1:0:0:
240,342,4199,2,2,P|277:353|317:346,1,80,2|0,0:0|0:0,0:1:0:0:
193,327,4551,2,2,P|211:361|244:384,1,80,2|0,0:0|0:0,0:1:0:0:
170,283,4902,2,2,P|158:320|165:360,1,80,2|0,0:0|0:0,0:1:0:0:
183,236,5254,2,2,P|147:254|125:286,1,80,2|0,0:0|0:0,0:1:0:0:
183,236,5723,6,2,P|147:254|125:286,1,80,2|0,0:0|0:0,0:1:0:0:
164,359,6075,6,2,P|157:319|169:282,1,80,2|0,0:0|0:0,0:1:0:0:
244,384,6426,2,2,P|211:361|192:326,1,80,2|0,0:0|0:0,0:1:0:0:
239,341,6778,6,2,P|277:352|317:345,1,80,2|0,0:0|0:0,0:1:0:0:
342,266,7129,6,2,P|319:298|284:318,1,80,2|2,0:0|0:0,0:1:0:0:
243,328,7480,1,2,0:0:0:0:
243,328,7598,6,2,L|224:237,1,80,6|0,0:0|0:0,0:1:0:0:
212,275,7949,2,2,L|193:184,1,80,2|0,0:0|0:0,0:1:0:0:
181,222,8301,2,2,L|162:131,1,80,2|0,0:0|0:0,0:1:0:0:
150,169,8652,2,2,L|131:78,1,80,2|0,0:0|0:0,0:1:0:0:
119,116,9004,2,2,L|102:37,1,80,2|0,0:0|0:0,0:1:0:0:
119,116,9473,6,2,L|102:37,1,80,2|0,0:0|0:0,0:1:0:0:
133,90,9825,6,2,L|150:169,1,80,2|0,0:0|0:0,0:1:0:0:
164,143,10176,2,2,L|181:222,1,80,2|0,0:0|0:0,0:1:0:0:
212,275,10528,6,2,L|195:196,1,80,2|0,0:0|0:0,0:1:0:0:
226,249,10879,6,2,L|243:328,1,80,2|0,0:0|0:0,0:1:0:0:
242,327,11348,6,2,L|261:236,1,80,2|0,0:0|0:0,0:1:0:0:
273,274,11699,2,2,L|292:183,1,80,2|0,0:0|0:0,0:1:0:0:
304,221,12051,2,2,L|323:130,1,80,2|0,0:0|0:0,0:1:0:0:
335,168,12402,2,2,L|354:77,1,80,2|0,0:0|0:0,0:1:0:0:
366,115,12754,2,2,L|383:36,1,80,2|0,0:0|0:0,0:1:0:0:
366,115,13223,6,2,L|383:36,1,80,2|0,0:0|0:0,0:1:0:0:
352,89,13575,6,2,L|335:168,1,80,2|0,0:0|0:0,0:1:0:0:
321,142,13926,2,2,L|304:221,1,80,2|0,0:0|0:0,0:1:0:0:
273,274,14278,6,2,L|290:195,1,80,2|0,0:0|0:0,0:1:0:0:
259,248,14629,6,2,L|242:327,1,80,2|0,0:0|0:0,0:1:0:0:
242,326,15098,6,0,P|315:285|464:334,1,240,14|8,0:0|0:0,0:0:0:0:
457,326,18848,2,0,P|349:281|242:326,1,240,14|8,0:0|0:0,0:0:0:0:
241,326,19785,1,14,0:0:0:0:
214,248,20019,1,2,0:0:0:0:
255,151,20254,1,2,0:0:0:0:
236,0,20488,5,14,0:0:0:0:
218,19,21660,2,0,L|110:7,1,80,10|2,0:0|0:0,0:0:0:0:
247,101,22129,2,0,L|355:89,1,80,10|10,0:0|0:0,0:0:0:0:
116,221,22598,5,14,0:0:0:0:
132,107,22832,1,0,0:0:0:0:
190,294,23066,1,2,1:2:0:0:
26,258,23301,5,2,0:0:0:0:
205,173,23535,1,10,0:0:0:0:
258,343,23769,2,0,P|218:376|168:381,1,103.999995239258,2|0,0:0|1:0,0:0:0:0:
329,238,24238,2,0,P|379:242|419:275,1,103.999995239258,2|8,0:0|0:0,0:0:0:0:
346,326,24707,5,2,0:0:0:0:
313,143,24941,1,2,1:2:0:0:
366,343,25176,1,0,0:0:0:0:
434,142,25410,5,10,0:0:0:0:
224,37,25644,1,2,0:0:0:0:
358,16,25879,1,2,1:2:0:0:
202,177,26113,1,2,0:0:0:0:
103,100,26348,6,0,P|89:54|95:-4,2,103.999995239258,10|0|2,0:0|0:0|1:2,0:0:0:0:
202,177,27051,2,0,P|215:222|209:281,2,103.999995239258,2|10|2,0:0|0:0|0:0,0:0:0:0:
103,238,27754,1,0,1:0:0:0:
292,321,27988,1,0,0:0:0:0:
276,114,28223,5,10,0:0:0:0:
356,69,28457,1,2,0:0:0:0:
437,116,28691,1,2,1:2:0:0:
351,198,28926,5,2,0:0:0:0:
256,25,29160,1,10,0:0:0:0:
456,23,29394,1,2,0:0:0:0:
345,220,29629,6,0,L|355:328,1,103.999995239258,2|2,1:2|0:0,0:0:0:0:
347,349,29980,1,2,0:0:0:0:
347,349,30098,5,10,0:0:0:0:
225,275,30332,1,0,0:0:0:0:
110,342,30566,1,2,1:2:0:0:
226,244,30801,5,2,0:0:0:0:
230,91,31035,1,10,0:0:0:0:
111,160,31269,1,2,0:0:0:0:
339,168,31504,1,0,1:0:0:0:
219,0,31738,6,0,P|171:17|143:59,1,103.999995239258,2|8,0:0|0:0,0:0:0:0:
332,197,32207,1,2,0:0:0:0:
377,46,32441,1,2,1:2:0:0:
415,280,32676,1,0,0:0:0:0:
509,113,32910,6,0,L|406:131,1,103.999995239258,10|2,0:0|0:0,0:0:0:0:
265,258,33379,2,0,L|162:239,1,103.999995239258,2|2,1:2|0:0,0:0:0:0:
86,330,33848,5,10,0:0:0:0:
66,142,34082,1,0,0:0:0:0:
70,353,34316,1,2,1:2:0:0:
167,138,34551,5,2,0:0:0:0:
0,62,34785,1,10,0:0:0:0:
214,32,35019,1,2,0:0:0:0:
298,116,35254,2,0,P|364:100|403:97,1,103.999995239258,0|0,1:0|0:0,0:0:0:0:
500,171,35723,6,0,P|487:96|482:15,1,155.999992858887,10|0,0:0|0:0,0:0:0:0:
506,31,36191,1,10,0:0:0:0:
399,97,36426,1,2,0:0:0:0:
481,187,36660,2,0,L|468:305,2,103.999995239258,10|0|2,0:0|0:0|1:2,0:0:0:0:
483,314,37363,1,2,1:2:0:0:
289,256,37598,6,0,P|232:272|183:299,1,88.000002685547,14|0,0:0|0:0,0:0:0:0:
130,357,38066,2,0,P|167:284|151:201,1,132.00000402832,10|0,0:0|0:0,0:0:0:0:
136,192,38535,2,0,L|20:183,1,88.000002685547,10|0,0:0|0:0,0:0:0:0:
201,112,39004,2,0,P|267:133|363:140,1,132.00000402832,10|0,0:0|0:0,0:0:0:0:
382,133,39473,5,10,0:0:0:0:
435,23,39707,1,2,0:0:0:0:
507,195,39941,1,10,0:0:0:0:
512,65,40176,2,0,L|390:53,2,88.000002685547,2|8|0,0:0|0:0|0:0,0:0:0:0:
401,54,40879,1,10,0:0:0:0:
431,153,41113,1,2,0:0:0:0:
384,285,41348,2,0,P|346:331|312:350,1,88.000002685547,8|0,0:0|0:0,0:0:0:0:
111,259,41816,6,0,L|242:250,1,132.00000402832,10|0,0:0|0:0,0:0:0:0:
287,247,42285,2,0,P|303:189|299:150,1,88.000002685547,10|0,0:0|0:0,0:0:0:0:
180,64,42754,2,0,P|163:121|167:160,1,88.000002685547,10|0,0:0|0:0,0:0:0:0:
199,307,43223,5,10,0:0:0:0:
377,275,43457,1,2,0:0:0:0:
274,175,43691,1,10,0:0:0:0:
452,207,43926,2,0,L|464:319,2,88.000002685547,2|8|10,0:0|0:0|0:0,0:0:0:0:
473,383,44629,1,10,0:0:0:0:
499,298,44863,1,2,0:0:0:0:
301,258,45098,6,0,P|281:208|272:162,1,88.000002685547,14|0,0:0|0:0,0:0:0:0:
333,84,45566,2,0,P|263:125|208:83,1,132.00000402832,10|0,0:0|0:0,0:0:0:0:
181,75,46035,2,0,P|178:133|170:183,1,88.000002685547,10|0,0:0|0:0,0:0:0:0:
26,105,46504,2,0,P|29:163|43:248,1,132.00000402832,10|0,0:0|0:0,0:0:0:0:
61,277,46973,5,10,0:0:0:0:
179,225,47207,1,2,0:0:0:0:
273,371,47441,1,10,0:0:0:0:
120,350,47676,2,0,L|111:250,1,88.000002685547,2|8,0:0|0:0,0:0:0:0:
101,127,48144,1,2,0:0:0:0:
178,193,48379,1,10,0:0:0:0:
268,179,48613,1,2,0:0:0:0:
268,179,48848,2,0,L|276:63,1,88.000002685547,8|0,0:0|0:0,0:0:0:0:
351,244,49316,5,10,0:0:0:0:
170,214,49551,1,2,0:0:0:0:
368,146,49785,2,0,P|426:139|462:139,1,88.000002685547,10|0,0:0|0:0,0:0:0:0:
341,267,50254,1,10,0:0:0:0:
252,219,50488,1,2,0:0:0:0:
122,327,50723,1,10,0:0:0:0:
341,267,51426,1,2,0:0:0:0:
22,193,51894,1,8,0:0:0:0:
22,193,52129,6,2,B|78:203|138:190|138:190|116:208|101:233,1,155.999992858887,2|0,1:2|0:0,0:1:0:0:
115,246,52598,6,0,P|156:227|201:224,1,92.0000017547608,14|0,0:0|0:0,0:0:0:0:
339,167,53066,2,0,P|293:164|252:144,1,92.0000017547608,2|0,1:2|0:0,0:0:0:0:
231,53,53535,1,10,0:0:0:0:
331,16,53769,1,0,0:0:0:0:
401,112,54004,2,0,P|380:177|369:261,1,138.000002632141,2|0,1:2|0:0,0:0:0:0:
382,272,54473,5,10,0:0:0:0:
471,211,54707,1,2,0:0:0:0:
412,358,54941,1,2,1:2:0:0:
272,267,55176,1,2,0:0:0:0:
148,371,55410,5,8,0:0:0:0:
233,348,55644,1,8,0:0:0:0:
221,186,55879,1,2,1:2:0:0:
136,170,56113,1,2,0:0:0:0:
105,271,56348,2,0,L|242:267,1,138.000002632141,10|0,0:0|0:0,0:0:0:0:
272,267,56816,6,0,P|318:242|358:232,1,92.0000017547608,2|0,1:2|0:0,0:0:0:0:
459,341,57285,1,10,0:0:0:0:
347,324,57519,1,2,0:0:0:0:
426,185,57754,2,0,L|445:46,1,138.000002632141,2|0,1:2|0:0,0:0:0:0:
427,22,58223,5,10,0:0:0:0:
338,100,58457,1,2,0:0:0:0:
209,18,58691,1,2,1:2:0:0:
322,6,58926,1,2,0:0:0:0:
322,6,59043,1,2,0:0:0:0:
322,6,59160,1,10,0:0:0:0:
226,114,59394,2,0,P|200:109|180:109,1,46.0000008773804,8|0,0:0|0:0,0:0:0:0:
124,44,59629,2,0,P|75:56|33:58,1,92.0000017547608,2|0,1:2|0:0,0:0:0:0:
97,154,60098,6,0,L|111:244,1,92.0000017547608,10|2,0:0|0:0,0:0:0:0:
77,342,60566,2,0,P|29:310|9:256,1,92.0000017547608,2|0,1:2|0:0,0:0:0:0:
140,263,61035,2,0,B|237:238|220:312|316:283,1,184.000003509522,10|0,0:0|1:0,0:0:0:0:
426,178,61738,5,2,0:0:0:0:
281,193,61973,1,10,0:0:0:0:
341,54,62207,1,2,0:0:0:0:
351,142,62441,1,2,1:2:0:0:
261,16,62676,2,0,P|205:27|150:91,1,138.000002632141,2|0,0:0|0:0,0:0:0:0:
161,111,63144,5,2,0:0:0:0:
62,30,63379,1,2,1:2:0:0:
96,197,63613,1,2,0:0:0:0:
4,124,63848,5,8,0:0:0:0:
173,135,64082,1,2,0:0:0:0:
173,135,64316,2,0,L|268:120,1,92.0000017547608,0|2,1:2|0:0,0:0:0:0:
406,228,64785,1,10,0:0:0:0:
306,216,65019,1,2,0:0:0:0:
462,134,65254,1,2,1:2:0:0:
390,10,65488,6,0,P|375:77|364:145,1,138.000002632141,2|0,0:0|0:0,0:0:0:0:
361,171,65957,1,8,0:0:0:0:
420,321,66191,1,2,1:2:0:0:
443,305,66308,1,2,1:2:0:0:
469,298,66426,1,10,0:0:0:0:
256,331,66660,5,10,0:0:0:0:
278,104,67012,1,8,0:0:0:0:
278,104,67129,1,10,0:0:0:0:
179,142,67363,1,10,0:0:0:0:
34,81,67598,6,0,L|28:199,2,108.000000411987,14|0|0,0:0|0:0|1:0,0:0:0:0:
93,253,68301,1,2,0:0:0:0:
251,218,68535,1,10,0:0:0:0:
183,100,68769,1,2,0:0:0:0:
353,65,69004,1,2,1:2:0:0:
227,202,69238,6,0,L|479:184,1,216.000000823975,2|0,0:0|0:0,0:0:0:0:
325,167,69941,1,2,1:2:0:0:
356,313,70176,1,0,0:0:0:0:
474,226,70410,1,10,0:0:0:0:
474,226,70644,1,2,0:0:0:0:
227,202,70879,2,0,L|217:331,1,108.000000411987,2|2,1:2|0:0,0:0:0:0:
118,241,71348,5,8,0:0:0:0:
305,172,71582,1,2,0:0:0:0:
361,58,71816,1,2,1:2:0:0:
418,223,72051,1,0,0:0:0:0:
227,202,72285,1,10,0:0:0:0:
441,190,72519,2,0,P|458:125|454:71,1,108.000000411987,2|0,0:0|1:0,0:0:0:0:
315,204,72988,6,0,B|304:238|304:238|314:324,2,108.000000411987,2|8|2,0:0|0:0|0:0,0:0:0:0:
198,124,73691,2,0,B|209:158|209:158|199:244,2,108.000000411987,2|0|10,1:2|0:0|0:0,0:0:0:0:
132,43,74394,1,2,0:0:0:0:
233,101,74629,1,2,1:2:0:0:
375,53,74863,1,2,0:0:0:0:
425,197,75098,6,0,P|359:176|300:174,2,108.000000411987,10|0|2,0:0|0:0|1:2,0:0:0:0:
512,281,75801,1,2,0:0:0:0:
488,115,76035,1,10,0:0:0:0:
407,218,76269,1,2,0:0:0:0:
225,199,76504,1,0,1:2:0:0:
443,191,76738,6,0,P|452:285|327:284,1,216.000000823975,2|2,0:0|0:0,0:0:0:0:
246,244,77441,1,0,1:0:0:0:
175,384,77676,2,0,L|33:369,1,108.000000411987,2|8,0:0|0:0,0:0:0:0:
253,336,78144,1,2,0:0:0:0:
225,199,78379,1,2,1:2:0:0:
362,213,78613,6,0,L|485:204,1,108.000000411987,2|8,0:0|0:0,0:0:0:0:
276,85,79082,2,0,L|399:94,2,108.000000411987,2|0|2,0:0|1:0|0:0,0:0:0:0:
150,77,79785,1,10,0:0:0:0:
150,77,80019,2,0,B|183:206|88:125|125:302,1,216.000000823975,2|2,0:0|0:0,0:0:0:0:
133,384,80723,5,8,0:0:0:0:
226,340,80957,1,2,1:2:0:0:
373,374,81191,1,10,0:0:0:0:
373,374,81308,1,10,0:0:0:0:
373,374,81426,2,0,P|378:330|378:301,1,54.0000002059937,10|0,0:0|0:0,0:0:0:0:
357,201,81660,5,2,1:2:0:0:
214,249,81894,1,2,1:2:0:0:
214,249,82012,1,2,1:2:0:0:
214,249,82129,2,0,P|154:254|136:251,1,54.0000002059937,2|2,1:2|1:2,0:0:0:0:
114,116,82363,2,0,P|140:121|165:131,1,54.0000002059937,2|2,1:2|1:2,0:0:0:0:
279,172,82598,6,0,P|380:165|433:97,1,162.000000617981,14|0,0:0|0:0,0:0:0:0:
430,96,83066,1,0,1:0:0:0:
318,50,83301,1,2,0:0:0:0:
317,276,83535,1,10,0:0:0:0:
396,342,83770,1,2,0:0:0:0:
422,234,84004,1,2,1:2:0:0:
213,236,84238,6,0,P|155:256|51:261,1,162.000000617981,2|0,0:0|0:0,0:0:0:0:
31,280,84707,1,0,0:0:0:0:
118,167,84941,2,0,L|103:55,1,108.000000411987,2|0,1:2|0:0,0:0:0:0:
12,127,85410,1,10,0:0:0:0:
204,97,85644,1,2,0:0:0:0:
4,102,85879,1,2,1:2:0:0:
203,191,86113,6,0,B|294:190|259:136|348:132,1,162.000000617981,2|0,0:0|0:0,0:0:0:0:
372,115,86582,1,2,0:0:0:0:
403,311,86816,1,2,1:2:0:0:
339,221,87051,1,0,0:0:0:0:
407,16,87285,1,10,0:0:0:0:
468,224,87519,2,0,P|498:268|508:320,1,108.000000411987,2|0,0:0|1:0,0:0:0:0:
339,221,87988,6,0,B|282:226|282:226|240:247|240:247|182:248,1,162.000000617981,2|0,0:0|0:0,0:0:0:0:
159,265,88457,1,2,0:0:0:0:
310,318,88691,5,2,1:2:0:0:
210,158,88926,1,0,0:0:0:0:
281,83,89160,1,10,0:0:0:0:
177,64,89394,1,2,0:0:0:0:
0,134,89629,1,2,1:2:0:0:
87,15,89863,6,0,L|92:176,1,162.000000617981,2|0,0:0|0:0,0:0:0:0:
83,206,90332,1,0,0:0:0:0:
34,327,90566,2,0,P|84:311|137:319,1,108.000000411987,2|2,1:2|0:0,0:0:0:0:
317,303,91035,1,10,0:0:0:0:
229,355,91269,1,2,0:0:0:0:
316,196,91504,1,0,1:2:0:0:
407,364,91738,6,0,P|463:334|495:272,1,108.000000411987,2|8,0:0|0:0,0:0:0:0:
445,165,92207,1,2,0:0:0:0:
476,39,92441,2,0,P|423:52|370:61,1,108.000000411987,0|2,1:0|0:0,0:0:0:0:
233,115,92910,1,8,0:0:0:0:
290,15,93144,1,2,0:0:0:0:
316,196,93379,1,2,1:2:0:0:
160,196,93613,6,0,P|104:172|73:54,1,162.000000617981,2|0,0:0|0:0,0:0:0:0:
87,71,94082,1,2,0:0:0:0:
71,257,94316,1,0,1:0:0:0:
6,328,94551,1,2,0:0:0:0:
178,357,94785,5,10,0:0:0:0:
198,204,95019,1,2,0:0:0:0:
319,287,95254,1,0,1:2:0:0:
299,79,95488,6,0,B|382:62|358:117|444:101,1,151.999995941162,2|0,0:0|0:0,0:0:0:0:
511,0,96191,6,0,P|469:11|425:16,1,88.000002685547,14|0,0:0|0:0,0:0:0:0:
319,170,96660,2,0,P|276:158|232:153,1,88.000002685547,10|10,0:0|0:0,0:0:0:0:
206,133,97012,1,10,0:0:0:0:
206,133,97129,1,2,1:2:0:0:
255,261,97363,1,2,1:2:0:0:
408,206,97598,6,0,L|516:200,2,103.999995239258,14|0|2,0:0|0:0|1:2,0:0:0:0:
207,163,98301,2,0,L|99:157,2,103.999995239258,2|10|2,0:0|0:0|0:0,0:0:0:0:
335,121,99004,1,0,1:0:0:0:
307,0,99238,2,0,P|298:75|316:125,1,103.999995239258,2|8,0:0|0:0,0:0:0:0:
350,220,99707,1,2,0:0:0:0:
350,220,99941,2,0,P|359:295|341:345,1,103.999995239258,2|0,1:2|0:0,0:0:0:0:
223,277,100410,5,10,0:0:0:0:
367,239,100644,1,2,0:0:0:0:
149,180,100879,1,2,1:2:0:0:
149,180,101113,1,2,0:0:0:0:
296,124,101348,6,0,P|305:60|298:7,1,103.999995239258,10|0,0:0|0:0,0:0:0:0:
230,174,101816,1,2,1:2:0:0:
131,257,102051,2,0,P|122:321|129:374,1,103.999995239258,2|10,0:0|0:0,0:0:0:0:
197,207,102519,1,2,0:0:0:0:
317,310,102754,2,0,L|440:303,1,103.999995239258,0|0,1:0|0:0,0:0:0:0:
352,205,103223,5,10,0:0:0:0:
325,384,103457,1,2,0:0:0:0:
455,304,103691,1,2,1:2:0:0:
336,189,103926,5,2,0:0:0:0:
278,360,104160,1,10,0:0:0:0:
420,304,104394,1,2,0:0:0:0:
231,220,104629,1,2,1:2:0:0:
361,205,104863,1,2,0:0:0:0:
292,103,105098,6,0,L|301:-5,2,103.999995239258,10|0|2,0:0|0:0|1:2,0:0:0:0:
224,254,105801,2,0,L|233:362,2,103.999995239258,2|10|2,0:0|0:0|0:0,0:0:0:0:
127,323,106504,1,0,1:0:0:0:
54,167,106738,2,0,P|138:167|167:145,1,103.999995239258,2|8,0:0|0:0,0:0:0:0:
237,72,107207,1,2,0:0:0:0:
317,230,107441,2,0,P|401:230|430:252,1,103.999995239258,2|0,1:2|0:0,0:0:0:0:
500,325,107910,5,10,0:0:0:0:
358,324,108144,1,2,0:0:0:0:
510,349,108379,1,2,1:2:0:0:
510,349,108613,1,2,0:0:0:0:
415,238,108848,6,0,P|393:156|407:123,1,103.999995239258,10|0,0:0|0:0,0:0:0:0:
343,342,109316,1,2,1:2:0:0:
223,178,109551,2,0,P|244:96|230:63,1,103.999995239258,2|10,0:0|0:0,0:0:0:0:
295,282,110019,1,2,0:0:0:0:
126,251,110254,1,0,1:0:0:0:
126,251,110488,1,0,0:0:0:0:
355,199,110723,6,2,P|307:179|257:187,1,103.999995239258,10|0,0:0|0:0,0:1:0:0:
341,163,111074,6,2,P|379:190|401:245,1,103.999995239258,10|0,0:0|0:0,0:1:0:0:
417,205,111426,2,2,P|425:252|402:306,1,103.999995239258,10|0,0:0|0:0,0:1:0:0:
361,347,111777,6,2,P|409:328|441:288,1,103.999995239258,10|0,0:0|0:0,0:1:0:0:
399,363,112129,6,2,P|352:371|298:348,1,103.999995239258,10|0,0:0|1:0,0:1:0:0:
299,195,112598,5,14,0:0:0:0:
118,294,112832,1,0,0:0:0:0:
131,107,113066,1,2,1:2:0:0:
187,205,113301,5,2,0:0:0:0:
201,7,113535,1,10,0:0:0:0:
109,130,113769,2,0,P|58:143|4:126,1,103.999995239258,2|0,0:0|1:0,0:0:0:0:
271,82,114238,2,0,P|320:68|370:81,1,103.999995239258,2|8,0:0|0:0,0:0:0:0:
465,172,114707,5,2,0:0:0:0:
322,165,114941,1,2,1:2:0:0:
483,150,115176,1,0,0:0:0:0:
418,287,115410,5,10,0:0:0:0:
370,81,115644,1,2,0:0:0:0:
270,252,115879,1,2,1:2:0:0:
325,350,116113,1,2,0:0:0:0:
224,171,116348,5,10,0:0:0:0:
54,263,116582,1,0,0:0:0:0:
176,294,116816,1,2,1:2:0:0:
92,116,117051,5,2,0:0:0:0:
90,348,117285,1,10,0:0:0:0:
270,252,117519,1,2,0:0:0:0:
197,153,117754,2,0,L|211:50,1,103.999995239258,0|0,1:0|0:0,0:0:0:0:
376,48,118223,5,10,0:0:0:0:
437,120,118457,1,2,0:0:0:0:
379,184,118691,1,2,1:2:0:0:
287,117,118926,5,2,0:0:0:0:
465,23,119160,1,10,0:0:0:0:
471,220,119394,1,2,0:0:0:0:
398,306,119629,6,0,P|352:282|300:273,1,103.999995239258,2|2,1:2|0:0,0:0:0:0:
263,279,119980,1,2,0:0:0:0:
263,279,120098,1,10,0:0:0:0:
62,331,120332,1,0,0:0:0:0:
148,261,120566,1,2,1:2:0:0:
181,144,120801,5,2,0:0:0:0:
85,58,121035,1,10,0:0:0:0:
57,174,121269,1,2,0:0:0:0:
193,45,121504,1,0,1:0:0:0:
294,190,121738,2,0,P|363:197|423:169,1,103.999995239258,2|8,0:0|0:0,0:0:0:0:
488,125,122207,5,2,0:0:0:0:
340,100,122441,1,2,1:2:0:0:
501,151,122676,1,0,0:0:0:0:
446,43,122910,5,10,0:0:0:0:
294,190,123144,1,2,0:0:0:0:
374,310,123379,1,2,1:2:0:0:
200,281,123613,1,2,0:0:0:0:
115,341,123848,5,10,0:0:0:0:
134,131,124082,1,0,0:0:0:0:
88,360,124316,1,2,1:2:0:0:
20,121,124551,5,2,0:0:0:0:
129,237,124785,1,10,0:0:0:0:
249,141,125019,1,2,0:0:0:0:
281,30,125254,2,0,B|196:12|219:67|129:45,1,155.999992858887,0|0,1:0|0:0,0:0:0:0:
108,58,125723,6,0,P|75:24|33:48,1,103.999995239258,10|10,0:0|0:0,0:0:0:0:
249,141,126191,1,10,0:0:0:0:
401,63,126426,1,2,0:0:0:0:
370,187,126660,2,0,L|423:280,1,103.999995239258,10|8,0:0|0:0,0:0:0:0:
274,335,127129,1,2,1:2:0:0:
280,318,127246,1,2,1:2:0:0:
284,299,127363,1,2,1:2:0:0:
170,213,127598,6,0,P|113:229|53:264,1,92.0000017547608,14|0,0:0|0:0,0:0:0:0:
158,373,128066,2,0,P|195:300|178:212,1,138.000002632141,10|0,0:0|0:0,0:0:0:0:
170,213,128535,2,0,L|157:86,1,92.0000017547608,10|0,0:0|0:0,0:0:0:0:
300,17,129004,2,0,L|283:177,1,138.000002632141,10|0,0:0|0:0,0:0:0:0:
273,139,129473,5,10,0:0:0:0:
426,80,129707,1,2,0:0:0:0:
470,199,129941,1,10,0:0:0:0:
490,8,130176,1,2,0:0:0:0:
411,103,130410,6,0,L|280:89,1,92.0000017547608,8|2,0:0|0:0,0:0:0:0:
290,93,130762,1,2,0:0:0:0:
290,93,130879,1,10,0:0:0:0:
325,0,131113,1,2,0:0:0:0:
358,214,131348,2,0,P|340:278|316:316,1,92.0000017547608,8|0,0:0|0:0,0:0:0:0:
236,217,131816,6,0,L|229:58,1,138.000002632141,10|0,0:0|0:0,0:0:0:0:
226,29,132285,2,0,P|167:17|129:24,1,92.0000017547608,10|0,0:0|0:0,0:0:0:0:
56,158,132754,2,0,P|101:162|145:150,1,92.0000017547608,10|0,0:0|0:0,0:0:0:0:
0,32,133223,5,10,0:0:0:0:
17,181,133457,1,2,0:0:0:0:
4,54,133691,1,10,0:0:0:0:
181,17,133926,1,2,0:0:0:0:
193,108,134160,6,0,L|207:228,1,92.0000017547608,8|2,0:0|0:0,0:0:0:0:
214,240,134512,1,2,0:0:0:0:
214,240,134629,1,10,0:0:0:0:
423,203,134863,1,2,0:0:0:0:
326,353,135098,6,0,P|306:303|297:252,1,92.0000017547608,10|0,0:0|0:0,0:0:0:0:
316,138,135566,2,0,P|229:138|181:89,1,138.000002632141,10|0,0:0|0:0,0:0:0:0:
158,76,136035,2,0,P|155:134|143:209,1,92.0000017547608,10|0,0:0|0:0,0:0:0:0:
105,318,136504,2,0,P|163:321|252:338,1,138.000002632141,10|0,0:0|0:0,0:0:0:0:
229,357,136973,5,10,0:0:0:0:
265,182,137207,1,2,0:0:0:0:
314,258,137441,1,10,0:0:0:0:
123,227,137676,1,2,0:0:0:0:
123,227,137910,2,0,L|249:217,2,92.0000017547608,8|2|10,0:0|0:0|0:0,0:0:0:0:
0,236,138613,1,2,0:0:0:0:
48,99,138848,2,0,L|34:-21,1,92.0000017547608,8|0,0:0|0:0,0:0:0:0:
122,199,139316,5,10,0:0:0:0:
122,199,139551,1,2,0:0:0:0:
218,125,139785,2,0,P|266:103|323:94,1,92.0000017547608,10|0,0:0|0:0,0:0:0:0:
257,276,140254,1,10,0:0:0:0:
225,158,140488,1,2,0:0:0:0:
209,384,140723,5,10,0:0:0:0:
209,384,140957,1,8,0:0:0:0:
372,327,141426,1,2,0:0:0:0:
39,276,141894,1,8,0:0:0:0:
39,276,142012,1,8,0:0:0:0:
39,276,142129,6,2,B|55:204|55:204|40:140,1,103.999995239258,2|8,1:2|0:0,0:1:0:0:
36,52,142598,6,0,P|86:70|128:71,1,92.0000017547608,14|0,0:0|0:0,0:0:0:0:
254,145,143066,2,0,P|208:147|165:164,1,92.0000017547608,2|0,1:2|0:0,0:0:0:0:
300,78,143535,2,0,L|294:215,1,138.000002632141,10|0,0:0|0:0,0:0:0:0:
308,243,144004,2,0,P|353:245|396:262,1,92.0000017547608,2|0,1:2|0:0,0:0:0:0:
393,375,144473,5,10,0:0:0:0:
250,308,144707,1,2,0:0:0:0:
396,262,144941,1,2,1:2:0:0:
488,316,145176,1,2,0:0:0:0:
441,173,145410,2,0,P|445:119|443:55,1,92.0000017547608,8|2,0:0|0:0,0:0:0:0:
427,55,145762,1,2,0:0:0:0:
427,55,145879,1,2,1:2:0:0:
322,111,146113,1,2,0:0:0:0:
236,166,146348,6,0,L|133:152,1,92.0000017547608,10|0,0:0|0:0,0:0:0:0:
34,48,146816,2,0,L|125:35,1,92.0000017547608,2|0,1:2|0:0,0:0:0:0:
100,260,147285,2,0,P|43:223|32:157,1,138.000002632141,10|0,0:0|0:0,0:0:0:0:
53,141,147754,2,0,L|144:153,1,92.0000017547608,2|0,1:2|0:0,0:0:0:0:
215,245,148223,5,10,0:0:0:0:
100,260,148457,1,2,0:0:0:0:
270,330,148691,1,2,1:2:0:0:
272,164,148926,1,2,0:0:0:0:
373,282,149160,2,0,L|463:266,1,92.0000017547608,10|2,0:0|0:0,0:0:0:0:
489,286,149512,1,2,0:0:0:0:
489,286,149629,1,2,1:2:0:0:
415,174,149863,1,0,0:0:0:0:
460,65,150098,6,0,L|445:155,1,92.0000017547608,10|2,0:0|0:0,0:0:0:0:
373,282,150566,2,0,P|341:248|298:234,1,92.0000017547608,2|0,1:2|0:0,0:0:0:0:
104,247,151035,2,0,P|161:230|216:150,1,138.000002632141,10|0,0:0|0:0,0:0:0:0:
199,149,151504,2,0,P|197:103|205:57,1,92.0000017547608,2|0,1:2|0:0,0:0:0:0:
101,124,151973,5,10,0:0:0:0:
300,100,152207,1,2,0:0:0:0:
112,33,152441,1,2,1:2:0:0:
20,5,152676,1,2,0:0:0:0:
20,5,152910,1,8,0:0:0:0:
101,124,153144,5,2,0:0:0:0:
51,212,153379,1,2,1:2:0:0:
157,244,153613,1,2,0:0:0:0:
220,326,153848,6,0,P|174:334|130:346,1,92.0000017547608,8|0,0:0|0:0,0:0:0:0:
157,244,154551,6,0,P|182:196|202:146,1,107.999996704102,8|0,0:0|0:0,0:0:0:0:
268,248,155488,6,0,P|318:261|397:270,1,120.000004577637,2|2,1:2|0:0,0:0:0:0:
385,269,156191,1,2,0:0:0:0:
385,269,156426,1,2,0:0:0:0:
335,157,156660,1,10,0:0:0:0:
462,22,156894,5,8,0:0:0:0:
433,40,157012,1,8,0:0:0:0:
399,43,157129,2,0,L|359:40,1,40,2|0,1:2|1:0,0:0:0:0:
178,97,157363,1,10,0:0:0:0:
178,97,157598,6,0,L|184:215,2,108.000000411987,14|0|0,0:0|0:0|1:0,0:0:0:0:
104,272,158301,1,2,0:0:0:0:
292,227,158535,1,10,0:0:0:0:
56,138,158769,1,2,0:0:0:0:
110,293,159004,1,2,1:2:0:0:
138,49,159238,6,0,P|213:57|394:88,1,216.000000823975,2|0,0:0|0:0,0:0:0:0:
250,90,159941,1,2,1:2:0:0:
347,0,160176,1,0,0:0:0:0:
383,207,160410,1,10,0:0:0:0:
383,207,160644,1,2,0:0:0:0:
232,185,160879,2,0,L|242:314,1,108.000000411987,2|2,1:2|0:0,0:0:0:0:
104,244,161348,5,8,0:0:0:0:
258,197,161582,1,2,0:0:0:0:
202,99,161816,1,2,1:2:0:0:
182,351,162051,1,0,0:0:0:0:
263,216,162285,1,10,0:0:0:0:
377,261,162519,2,0,P|394:196|390:142,1,108.000000411987,2|0,0:0|1:0,0:0:0:0:
183,220,162988,6,0,B|172:254|172:254|182:340,2,108.000000411987,2|8|2,0:0|0:0|0:0,0:0:0:0:
374,366,163691,2,0,B|385:332|385:332|377:261,2,108.000000411987,2|0|10,1:2|0:0|0:0,0:0:0:0:
271,190,164394,1,2,0:0:0:0:
318,117,164629,1,2,1:2:0:0:
270,0,164863,1,2,0:0:0:0:
184,60,165098,6,0,P|118:39|59:37,2,108.000000411987,10|0|2,0:0|0:0|1:2,0:0:0:0:
318,194,165801,1,2,0:0:0:0:
348,41,166035,1,10,0:0:0:0:
378,285,166269,1,2,0:0:0:0:
213,193,166504,1,0,1:2:0:0:
512,111,166738,6,0,B|548:227|451:208|508:348,1,216.000000823975,2|2,0:0|0:0,0:0:0:0:
377,261,167441,1,0,1:0:0:0:
296,324,167676,2,0,L|154:309,1,108.000000411987,2|8,0:0|0:0,0:0:0:0:
29,298,168144,1,2,0:0:0:0:
228,234,168379,1,2,1:2:0:0:
0,185,168613,6,0,L|9:62,1,108.000000411987,2|8,0:0|0:0,0:0:0:0:
117,263,169082,2,0,L|108:140,2,108.000000411987,2|0|2,0:0|1:0|0:0,0:0:0:0:
102,57,169785,1,10,0:0:0:0:
102,57,170019,2,0,B|231:24|150:119|327:82,1,216.000000823975,2|2,0:0|0:0,0:0:0:0:
405,56,170723,6,0,L|412:128,1,54.0000002059937,8|0,0:0|0:0,0:0:0:0:
423,251,170957,1,2,1:2:0:0:
305,191,171191,1,10,0:0:0:0:
305,191,171426,2,0,P|261:201|234:211,1,54.0000002059937,10|0,0:0|0:0,0:0:0:0:
137,278,171660,5,2,1:2:0:0:
369,255,171894,1,2,1:2:0:0:
369,255,172012,1,2,1:2:0:0:
369,255,172129,2,0,L|448:249,1,54.0000002059937,2|2,1:2|1:2,0:0:0:0:
318,339,172363,2,0,L|239:333,1,54.0000002059937,2|2,1:2|1:2,0:0:0:0:
145,361,172598,6,0,L|131:199,1,162.000000617981,14|0,0:0|0:0,0:0:0:0:
142,177,173066,1,0,1:0:0:0:
44,300,173301,1,2,0:0:0:0:
234,219,173535,1,10,0:0:0:0:
85,99,173769,1,2,0:0:0:0:
224,40,174004,1,2,1:2:0:0:
310,104,174238,6,0,P|368:84|476:74,1,162.000000617981,2|0,0:0|0:0,0:0:0:0:
489,91,174707,1,0,0:0:0:0:
351,174,174941,2,0,P|289:150|233:153,1,108.000000411987,2|0,1:2|0:0,0:0:0:0:
463,311,175410,1,10,0:0:0:0:
447,174,175644,1,2,0:0:0:0:
445,337,175879,1,2,1:2:0:0:
311,270,176113,6,0,B|226:258|239:299|152:287,1,162.000000617981,2|0,0:0|0:0,0:0:0:0:
136,309,176582,1,2,0:0:0:0:
274,356,176816,1,2,1:2:0:0:
178,201,177051,1,0,0:0:0:0:
38,241,177285,1,10,0:0:0:0:
76,124,177519,2,0,L|55:7,1,108.000000411987,2|0,0:0|1:0,0:0:0:0:
204,105,177988,6,0,P|263:130|280:222,1,162.000000617981,2|0,0:0|0:0,0:0:0:0:
272,246,178457,1,2,0:0:0:0:
403,198,178691,1,2,1:2:0:0:
493,157,178926,1,0,0:0:0:0:
355,92,179160,1,10,0:0:0:0:
462,32,179394,1,2,0:0:0:0:
395,225,179629,1,2,1:2:0:0:
459,332,179863,6,0,L|296:353,1,162.000000617981,2|0,0:0|0:0,0:0:0:0:
275,338,180332,1,0,0:0:0:0:
482,350,180566,1,2,1:2:0:0:
296,247,180801,1,2,0:0:0:0:
180,308,181035,1,10,0:0:0:0:
65,241,181269,1,2,0:0:0:0:
181,175,181504,1,0,1:2:0:0:
148,43,181738,6,0,P|155:98|159:150,1,108.000000411987,2|0,0:0|0:0,0:0:0:0:
273,249,182207,2,0,P|281:196|280:142,1,108.000000411987,2|0,0:0|1:0,0:0:0:0:
257,51,182676,1,2,0:0:0:0:
378,182,182910,1,8,0:0:0:0:
451,22,183144,1,2,0:0:0:0:
361,85,183379,1,2,1:2:0:0:
350,275,183613,6,0,B|433:304|418:234|506:270,1,162.000000617981,2|0,0:0|0:0,0:0:0:0:
496,292,184082,1,2,0:0:0:0:
338,256,184316,1,0,1:0:0:0:
246,336,184551,1,2,0:0:0:0:
262,164,184785,2,0,L|251:46,1,108.000000411987,10|2,0:0|0:0,0:0:0:0:
354,99,185254,1,0,1:2:0:0:
165,139,185488,1,2,0:0:0:0:
0,64,185723,5,10,0:0:0:0:
73,17,185957,1,2,0:0:0:0:
79,98,186191,1,10,0:0:0:0:
11,145,186426,1,2,0:0:0:0:
11,145,186660,6,0,L|2:198,1,37.9999989852906,10|0,0:0|0:0,0:0:0:0:
47,327,186894,1,2,1:2:0:0:
188,235,187129,1,2,1:2:0:0:
151,222,187246,1,2,1:2:0:0:
111,229,187363,1,10,0:0:0:0:
205,355,187598,6,0,L|343:346,3,128,14|2|2|2,0:0|0:0|0:0|0:0,0:0:0:0:
333,347,189473,2,0,P|402:325|262:258,1,384,2|0,0:0|0:0,0:0:0:0:
264,245,191348,6,0,L|251:106,3,128,10|2|2|2,0:0|0:0|0:0|0:0,0:0:0:0:
252,117,193144,2,0,L|311:109,2,42.6666666666667,2|2|2,0:0|0:0|0:0,0:0:0:0:
147,267,195098,6,0,L|19:250,3,128,10|2|2|2,0:0|0:0|0:0|0:0,0:0:0:0:
20,250,196973,2,0,B|-17:104|89:157|36:-19,1,256,2|0,0:0|0:0,0:0:0:0:
42,3,198379,1,2,0:0:0:0:
42,3,198848,6,0,P|84:28|184:45,1,128,10|2,0:0|0:0,0:0:0:0:
161,45,199785,2,0,P|109:82|71:133,1,128,2|2,0:0|0:0,0:0:0:0:
71,133,200723,2,0,P|143:55|406:78,1,384,10|2,0:0|0:0,0:0:0:0:
459,133,202363,1,2,0:0:0:0:
386,216,202598,6,0,L|393:287,1,71.9999978027344,14|0,0:0|0:0,0:0:0:0:
456,360,203066,2,0,P|489:338|526:321,1,71.9999978027344,10|0,0:0|0:0,0:0:0:0:
335,353,203535,2,0,L|246:347,1,71.9999978027344,10|2,0:0|0:0,0:0:0:0:
242,368,203887,1,2,0:0:0:0:
222,347,204004,1,10,0:0:0:0:
200,328,204121,1,2,0:0:0:0:
173,317,204238,2,0,L|127:325,1,35.9999989013672,2|2,0:0|0:0,0:0:0:0:
236,230,204473,6,0,L|328:252,1,71.9999978027344,10|2,0:0|0:0,0:0:0:0:
215,204,204824,1,2,0:0:0:0:
215,204,204941,2,0,L|123:226,1,71.9999978027344,10|0,0:0|0:0,0:0:0:0:
290,143,205410,1,10,0:0:0:0:
154,115,205644,1,2,0:0:0:0:
281,48,205879,1,10,0:0:0:0:
366,8,206113,1,0,0:0:0:0:
431,61,206348,6,0,L|421:159,1,71.9999978027344,10|0,0:0|0:0,0:0:0:0:
473,213,206816,2,0,L|463:311,1,71.9999978027344,10|0,0:0|0:0,0:0:0:0:
371,335,207285,2,0,P|344:311|310:298,1,71.9999978027344,10|2,0:0|0:0,0:0:0:0:
295,273,207637,1,2,0:0:0:0:
267,281,207754,1,10,0:0:0:0:
238,286,207871,1,2,0:0:0:0:
210,286,207988,1,2,0:0:0:0:
81,340,208223,6,0,P|78:304|72:268,1,71.9999978027344,10|0,0:0|0:0,0:0:0:0:
171,129,208691,1,10,0:0:0:0:
145,225,208926,1,0,0:0:0:0:
6,169,209160,2,0,L|79:158,2,71.9999978027344,10|0|10,0:0|0:0|0:0,0:0:0:0:
28,75,209863,1,0,0:0:0:0:
171,129,210098,6,0,P|236:118|318:114,1,143.999995605469,10|10,0:0|0:0,0:0:0:0:
252,213,210801,1,0,0:0:0:0:
325,281,211035,2,0,P|364:268|403:263,1,71.9999978027344,10|2,0:0|0:0,0:0:0:0:
411,284,211387,1,2,0:0:0:0:
415,255,211504,1,10,0:0:0:0:
430,230,211621,1,2,0:0:0:0:
453,213,211738,1,2,0:0:0:0:
341,135,211973,6,0,L|328:36,1,71.9999978027344,10|0,0:0|0:0,0:0:0:0:
427,19,212441,2,0,L|437:91,1,71.9999978027344,10|0,0:0|0:0,0:0:0:0:
312,47,212910,2,0,P|259:41|217:58,1,71.9999978027344,10|2,0:0|0:0,0:0:0:0:
223,26,213262,1,2,0:0:0:0:
196,37,213379,1,10,0:0:0:0:
167,40,213496,1,2,0:0:0:0:
138,35,213613,1,2,0:0:0:0:
186,137,213848,6,0,L|193:227,1,71.9999978027344,10|2,0:0|0:0,0:0:0:0:
212,234,214199,1,2,0:0:0:0:
212,234,214316,2,0,L|205:324,1,71.9999978027344,10|0,0:0|0:0,0:0:0:0:
275,364,214785,1,10,0:0:0:0:
130,350,215019,2,0,L|76:361,1,35.9999989013672,2|2,0:0|0:0,0:0:0:0:
68,346,215254,1,10,0:0:0:0:
87,247,215488,1,2,0:0:0:0:
15,137,215723,5,10,0:0:0:0:
256,192,215840,12,0,216660,0:0:0:0:
255,191,216894,5,0,0:0:0:0:
255,191,217129,1,2,1:2:0:0:
343,129,217363,1,2,1:2:0:0:
147,29,217598,6,0,L|152:146,2,108.000000411987,14|0|0,0:0|0:0|1:0,0:0:0:0:
81,252,218301,1,2,0:0:0:0:
155,163,218535,1,10,0:0:0:0:
34,107,218769,1,2,0:0:0:0:
311,89,219004,1,2,1:2:0:0:
209,266,219238,6,0,L|189:30,1,216.000000823975,2|0,0:0|0:0,0:0:0:0:
155,163,219941,1,2,1:2:0:0:
317,140,220176,1,0,0:0:0:0:
189,19,220410,1,10,0:0:0:0:
282,5,220644,1,2,0:0:0:0:
145,186,220879,2,0,L|16:176,1,108.000000411987,2|2,1:2|0:0,0:0:0:0:
236,98,221348,5,8,0:0:0:0:
295,222,221582,1,2,0:0:0:0:
373,43,221816,1,2,1:2:0:0:
427,139,222051,1,0,0:0:0:0:
224,128,222285,1,10,0:0:0:0:
466,144,222519,2,0,P|483:79|479:25,1,108.000000411987,2|0,0:0|1:0,0:0:0:0:
295,222,222988,6,0,B|284:256|284:256|294:342,2,108.000000411987,2|8|2,0:0|0:0|0:0,0:0:0:0:
178,142,223691,2,0,B|189:176|189:176|179:262,2,108.000000411987,2|0|10,1:2|0:0|0:0,0:0:0:0:
112,63,224394,1,2,0:0:0:0:
239,15,224629,1,2,1:2:0:0:
25,0,224863,1,2,0:0:0:0:
57,168,225098,6,0,L|49:297,2,108.000000411987,10|0|2,0:0|0:0|1:2,0:0:0:0:
64,39,225801,1,2,0:0:0:0:
56,196,226035,1,10,0:0:0:0:
234,173,226269,1,2,0:0:0:0:
137,125,226504,1,0,1:2:0:0:
115,344,226738,6,0,P|202:322|345:308,1,216.000000823975,2|2,0:0|0:0,0:0:0:0:
231,206,227441,1,0,1:0:0:0:
107,365,227676,2,0,L|-35:350,1,108.000000411987,2|8,0:0|0:0,0:0:0:0:
225,303,228144,1,2,0:0:0:0:
212,178,228379,1,2,1:2:0:0:
393,221,228613,6,0,L|535:206,1,108.000000411987,2|8,0:0|0:0,0:0:0:0:
278,63,229082,2,0,L|420:78,2,108.000000411987,2|0|2,0:0|1:0|0:0,0:0:0:0:
115,46,229785,1,10,0:0:0:0:
115,46,230019,2,0,B|148:175|53:94|90:271,1,216.000000823975,2|2,0:0|0:0,0:0:0:0:
249,228,230723,6,2,P|200:247|167:298,1,108.000000411987,10|0,0:0|0:0,0:1:0:0:
213,212,231074,6,2,P|264:206|318:233,1,108.000000411987,10|0,0:0|0:0,0:1:0:0:
297,188,231426,2,2,P|338:219|358:276,1,108.000000411987,10|10,0:0|0:0,0:1:0:0:
348,316,231777,6,2,L|434:306,1,54.0000002059937,10|0,0:0|0:0,0:1:0:0:
512,293,232012,1,10,0:0:0:0:
512,293,232129,6,0,L|500:166,1,108.000000411987,10|10,0:0|0:0,0:0:0:0:
512,75,232598,6,0,B|422:73|447:117|356:111,1,162.000000617981,14|0,0:0|0:0,0:0:0:0:
335,129,233066,2,0,B|321:77|321:77|332:21,1,108.000000411987,0|2,1:0|0:0,0:0:0:0:
256,194,233535,1,10,0:0:0:0:
164,141,233769,1,2,0:0:0:0:
10,195,234004,1,2,1:2:0:0:
63,92,234238,1,2,0:0:0:0:
114,252,234473,6,0,L|117:359,1,108.000000411987,8|0,0:0|0:0,0:0:0:0:
241,252,234941,2,0,P|187:251|136:235,1,108.000000411987,2|0,1:2|0:0,0:0:0:0:
253,160,235410,1,10,0:0:0:0:
319,301,235644,1,2,0:0:0:0:
424,187,235879,1,2,1:2:0:0:
486,260,236113,6,0,P|466:181|460:100,1,162.000000617981,2|0,0:0|0:0,0:0:0:0:
473,75,236582,1,2,0:0:0:0:
281,148,236816,1,2,1:2:0:0:
347,49,237051,1,0,0:0:0:0:
224,15,237285,1,10,0:0:0:0:
253,160,237519,2,0,L|271:282,1,108.000000411987,2|0,0:0|1:0,0:0:0:0:
204,346,237988,6,0,P|150:308|41:301,1,162.000000617981,2|0,0:0|0:0,0:0:0:0:
32,308,238457,1,2,0:0:0:0:
141,179,238691,1,2,1:2:0:0:
59,112,238926,1,0,0:0:0:0:
45,209,239160,1,10,0:0:0:0:
236,143,239394,1,2,0:0:0:0:
222,252,239629,1,2,1:2:0:0:
153,59,239863,6,0,B|225:31|225:31|308:47,1,162.000000617981,2|0,0:0|0:0,0:0:0:0:
327,69,240332,1,0,0:0:0:0:
478,25,240566,2,0,P|454:80|440:130,1,108.000000411987,2|2,1:2|0:0,0:0:0:0:
471,308,241035,1,10,0:0:0:0:
512,210,241269,1,2,0:0:0:0:
397,224,241504,1,0,1:2:0:0:
306,274,241738,6,0,P|264:231|189:214,1,108.000000411987,2|8,0:0|0:0,0:0:0:0:
74,314,242207,2,0,P|119:249|113:170,1,162.000000617981,2|0,0:0|0:0,0:0:0:0:
123,147,242676,1,2,0:0:0:0:
11,43,242910,1,8,0:0:0:0:
25,221,243144,1,2,0:0:0:0:
123,147,243379,1,2,1:2:0:0:
219,214,243613,6,0,P|273:196|331:97,1,162.000000617981,2|0,0:0|0:0,0:0:0:0:
323,89,244082,1,2,0:0:0:0:
499,58,244316,1,0,1:0:0:0:
371,13,244551,1,2,0:0:0:0:
501,188,244785,1,10,0:0:0:0:
329,111,245019,1,2,0:0:0:0:
491,80,245254,1,0,1:2:0:0:
380,238,245488,1,2,0:0:0:0:
490,351,245723,5,0,1:2:0:0:
456,323,245840,1,0,1:2:0:0:
413,316,245957,1,8,0:0:0:0:
371,327,246074,1,8,0:0:0:0:
332,347,246191,1,0,1:2:0:0:
289,353,246308,1,0,1:2:0:0:
250,333,246426,1,8,0:0:0:0:
234,292,246543,1,8,0:0:0:0:
234,248,246660,2,0,L|254:197,1,54.0000002059937,0|0,1:2|1:2,0:0:0:0:
136,168,246894,2,0,L|116:117,1,54.0000002059937,8|8,0:0|0:0,0:0:0:0:
343,121,247129,1,2,1:2:0:0:
215,80,247363,1,10,0:0:0:0:
395,19,247598,5,2,1:2:0:0:
360,150,247832,2,0,L|307:138,1,54.0000002059937,8|8,0:0|0:0,0:0:0:0:
136,56,248066,6,0,L|267:45,1,108.000000411987,14|0,0:0|0:0,0:0:0:0:
419,25,248535,1,0,1:0:0:0:
276,43,248769,1,2,0:0:0:0:
364,184,249003,1,10,0:0:0:0:
431,41,249238,6,0,L|415:276,1,216.000000823975,2|0,0:0|0:0,0:0:0:0:
234,174,249941,1,2,1:2:0:0:
425,128,250176,1,0,0:0:0:0:
167,86,250410,1,10,0:0:0:0:
260,72,250644,1,2,0:0:0:0:
123,253,250879,2,0,L|-6:243,1,108.000000411987,2|2,1:2|0:0,0:0:0:0:
252,160,251348,5,8,0:0:0:0:
309,315,251582,1,2,0:0:0:0:
399,227,251816,1,2,1:2:0:0:
209,255,252051,1,0,0:0:0:0:
263,133,252285,1,10,0:0:0:0:
433,230,252519,2,0,P|450:165|446:111,1,108.000000411987,2|0,0:0|1:0,0:0:0:0:
234,274,252988,6,0,B|223:308|223:308|233:394,2,108.000000411987,2|8|2,0:0|0:0|0:0,0:0:0:0:
117,194,253691,2,0,B|128:228|128:228|118:314,2,108.000000411987,2|0|10,1:2|0:0|0:0,0:0:0:0:
55,102,254394,1,2,0:0:0:0:
179,45,254629,1,2,1:2:0:0:
0,10,254863,1,2,0:0:0:0:
169,137,255098,6,0,L|161:266,2,108.000000411987,10|0|2,0:0|0:0|1:2,0:0:0:0:
98,0,255801,1,2,0:0:0:0:
20,184,256035,1,10,0:0:0:0:
286,134,256269,1,2,0:0:0:0:
176,91,256504,1,0,1:2:0:0:
85,302,256738,6,0,B|234:265|143:371|327:327,1,216.000000823975,2|2,0:0|0:0,0:0:0:0:
263,200,257441,1,0,1:0:0:0:
111,187,257676,2,0,L|-31:172,1,108.000000411987,2|8,0:0|0:0,0:0:0:0:
145,192,258144,1,2,0:0:0:0:
204,113,258379,1,2,1:2:0:0:
335,256,258613,6,0,L|477:241,1,108.000000411987,2|8,0:0|0:0,0:0:0:0:
204,113,259082,2,0,L|62:98,2,108.000000411987,2|0|2,0:0|1:0|0:0,0:0:0:0:
346,128,259785,1,10,0:0:0:0:
297,234,260019,2,0,L|404:221,1,108.000000411987,2|0,0:0|1:2,0:0:0:0:
218,132,260488,1,2,0:0:0:0:
91,226,260723,6,0,L|100:262,2,36.0000001373291,2|0|0,1:2|1:0|1:0,0:0:0:0:
34,155,260957,2,0,L|-1:144,2,36.0000001373291,8|8|8,0:0|0:0|0:0,0:0:0:0:
59,66,261191,6,0,L|23:55,2,36.0000001373291,2|0|0,1:2|1:0|1:0,0:0:0:0:
148,52,261425,2,0,L|174:26,2,36.0000001373291,8|8|8,0:0|0:0|0:0,0:0:0:0:
213,118,261660,6,0,L|239:92,2,36.0000001373291,2|0|0,1:2|1:0|1:0,0:0:0:0:
181,202,261894,2,0,L|189:238,2,36.0000001373291,8|8|8,0:0|0:0|0:0,0:0:0:0:
117,138,262129,5,2,1:2:0:0:
329,197,262363,5,2,1:2:0:0:
348,182,262480,1,2,1:2:0:0:
364,170,262598,6,0,L|351:289,1,108.000000411987,14|0,0:0|0:0,0:0:0:0:
431,343,263066,1,0,1:2:0:0:
452,130,263301,1,2,0:0:0:0:
277,112,263535,1,10,0:0:0:0:
373,36,263769,1,2,0:0:0:0:
258,129,264004,1,2,1:2:0:0:
159,65,264238,6,0,P|94:76|46:75,1,108.000000411987,2|8,0:0|0:0,0:0:0:0:
258,129,264707,2,0,P|276:188|239:295,1,162.000000617981,2|0,0:0|0:0,0:0:0:0:
228,299,265176,1,0,0:0:0:0:
155,200,265410,1,10,0:0:0:0:
340,286,265644,1,2,0:0:0:0:
160,374,265879,1,2,1:2:0:0:
61,294,266113,6,0,L|41:123,1,162.000000617981,2|0,0:0|0:0,0:0:0:0:
22,113,266582,1,2,0:0:0:0:
206,71,266816,1,2,1:2:0:0:
97,25,267051,1,0,0:0:0:0:
239,171,267285,1,10,0:0:0:0:
305,104,267519,1,2,0:0:0:0:
288,11,267754,1,0,1:2:0:0:
236,204,267988,6,0,P|299:191|429:193,1,162.000000617981,2|0,0:0|0:0,0:0:0:0:
418,207,268457,1,2,0:0:0:0:
219,226,268691,1,2,1:2:0:0:
305,104,268926,1,0,0:0:0:0:
334,356,269160,1,10,0:0:0:0:
321,237,269394,1,2,0:0:0:0:
435,293,269629,1,2,1:2:0:0:
235,310,269863,6,0,P|152:335|74:332,1,162.000000617981,2|0,0:0|0:0,0:0:0:0:
57,316,270332,1,2,0:0:0:0:
136,140,270566,2,0,L|146:251,1,108.000000411987,0|2,1:0|0:0,0:0:0:0:
35,190,271035,1,10,0:0:0:0:
231,92,271269,1,2,0:0:0:0:
69,44,271504,1,2,1:2:0:0:
286,174,271738,6,0,P|324:118|315:39,1,108.000000411987,2|8,0:0|0:0,0:0:0:0:
381,261,272207,2,0,P|285:216|178:223,1,216.000000823975,2|0,0:0|0:0,0:0:0:0:
265,317,272910,1,8,0:0:0:0:
102,336,273144,1,2,0:0:0:0:
82,150,273379,1,2,1:2:0:0:
172,50,273613,6,0,P|106:44|-1:30,1,162.000000617981,2|0,0:0|0:0,0:0:0:0:
5,7,274082,1,2,0:0:0:0:
82,150,274316,1,2,1:2:0:0:
8,253,274551,1,0,0:0:0:0:
196,208,274785,2,0,P|253:214|312:216,1,108.000000411987,10|2,0:0|0:0,0:0:0:0:
259,124,275254,1,2,1:2:0:0:
244,309,275488,1,2,0:0:0:0:
377,297,275723,6,0,P|398:263|404:224,1,80
404,224,276894,6,0,P|388:185|385:164,1,54.0000002059937,10|8,0:0|0:0,0:0:0:0:
481,55,277129,2,0,P|481:108|477:162,1,108.000000411987,2|2,1:2|1:2,0:0:0:0:
408,316,277598,6,0,L|516:310,2,103.999995239258,14|0|2,0:0|0:0|1:2,0:0:0:0:
285,235,278301,2,0,L|177:229,2,103.999995239258,2|10|2,0:0|0:0|0:0,0:0:0:0:
142,226,279004,1,0,1:0:0:0:
326,46,279238,2,0,P|335:121|317:171,1,103.999995239258,2|8,0:0|0:0,0:0:0:0:
283,266,279707,1,2,0:0:0:0:
283,266,279941,2,0,P|274:341|292:391,1,103.999995239258,2|0,1:2|0:0,0:0:0:0:
245,176,280410,5,10,0:0:0:0:
371,228,280644,1,2,0:0:0:0:
360,65,280879,1,2,1:2:0:0:
360,65,281113,1,2,0:0:0:0:
324,188,281348,6,0,P|388:197|441:190,1,103.999995239258,10|0,0:0|0:0,0:0:0:0:
274,122,281816,1,2,1:2:0:0:
198,263,282051,2,0,P|134:272|81:265,1,103.999995239258,2|10,0:0|0:0,0:0:0:0:
248,197,282519,1,2,0:0:0:0:
336,365,282754,2,0,L|459:358,1,103.999995239258,0|0,1:0|0:0,0:0:0:0:
205,369,283223,5,10,0:0:0:0:
329,383,283457,1,2,0:0:0:0:
442,296,283691,1,2,1:2:0:0:
238,379,283926,5,2,0:0:0:0:
361,360,284160,1,10,0:0:0:0:
447,246,284394,1,2,0:0:0:0:
277,282,284629,1,2,1:2:0:0:
319,128,284863,1,2,0:0:0:0:
130,138,285098,6,0,L|121:30,2,103.999995239258,10|0|2,0:0|0:0|1:2,0:0:0:0:
203,281,285801,2,0,L|194:389,2,103.999995239258,2|10|2,0:0|0:0|0:0,0:0:0:0:
215,147,286504,1,0,1:0:0:0:
347,67,286738,2,0,P|407:51|463:57,1,103.999995239258,2|8,0:0|0:0,0:0:0:0:
250,54,287207,1,2,0:0:0:0:
411,160,287441,2,0,P|471:176|527:170,1,103.999995239258,2|0,1:2|0:0,0:0:0:0:
409,299,287910,5,10,0:0:0:0:
435,144,288144,1,2,0:0:0:0:
456,374,288379,1,2,1:2:0:0:
456,374,288613,1,2,0:0:0:0:
320,244,288848,6,0,L|182:255,1,103.999995239258,10|0,0:0|0:0,0:0:0:0:
389,315,289316,1,2,1:2:0:0:
398,132,289551,2,0,L|536:143,1,103.999995239258,2|10,0:0|0:0,0:0:0:0:
329,203,290019,1,2,0:0:0:0:
305,36,290254,1,0,1:0:0:0:
197,88,290488,2,0,L|101:80,1,51.999997619629,2|0,0:0|0:0,0:0:0:0:
34,75,290723,5,10,0:0:0:0:
34,75,290957,1,10,0:0:0:0:
173,207,291191,2,0,L|311:196,1,103.999995239258,2|0,0:0|0:0,0:0:0:0:
422,189,291660,1,2,0:0:0:0:
388,280,291894,1,8,0:0:0:0:
431,366,292129,1,2,1:2:0:0:
431,366,292246,1,2,1:2:0:0:
431,366,292363,2,0,L|343:358,1,51.999997619629,2|0,1:2|0:0,0:0:0:0:
197,344,292598,5,14,0:0:0:0:
256,192,292715,12,0,301973,0:0:0:0:
