osu file format v14

[General]
AudioFilename: audio.mp3
AudioLeadIn: 0
PreviewTime: 43928
Countdown: 0
SampleSet: Soft
StackLeniency: 0.5
Mode: 0
LetterboxInBreaks: 0
WidescreenStoryboard: 0

[Editor]
Bookmarks: 164,11458,22752,34046,45340,56634,67928,79222,101811,124399,135693,146987,158281,169575,180869,192163
DistanceSpacing: 1
BeatDivisor: 4
GridSize: 32
TimelineZoom: 2.4

[Metadata]
Title:Mirai no Museum
TitleUnicode:未来のミュージアム
Artist:Perfume
ArtistUnicode:Perfume
Creator:eiri-
Version:Ayynna's Normal
Source:ドラえもん のび太のひみつ道具博物館
Tags:Ayyri Trynna LEVEL3 Japanese Pop Jpop Doraemon Nobita's Secret Gadget Museum
BeatmapID:2056101
BeatmapSetID:970075

[Difficulty]
HPDrainRate:4
CircleSize:3.5
OverallDifficulty:5
ApproachRate:6
SliderMultiplier:1.2
SliderTickRate:1

[Events]
//Background and Video events
0,0,"Mirai no Museum.jpg",0,0
//Break Periods
//Storyboard Layer 0 (Background)
//Storyboard Layer 1 (Fail)
//Storyboard Layer 2 (Pass)
//Storyboard Layer 3 (Foreground)
//Storyboard Sound Samples

[TimingPoints]
164,352.941176470588,4,2,1,60,1,0
164,-100,4,2,1,60,0,0
8634,-100,4,2,1,60,0,0
11458,-100,4,2,1,65,0,0
22752,-100,4,2,1,70,0,0
34046,-100,4,2,1,75,0,0
45340,-100,4,2,1,90,0,1
56105,-100,4,2,1,90,0,0
56634,-100,4,2,1,90,0,1
67928,-100,4,2,1,80,0,0
79222,-100,4,2,1,65,0,0
90516,-100,4,2,1,70,0,0
101811,-100,4,2,1,75,0,0
113105,-100,4,2,1,90,0,1
123869,-100,4,2,1,90,0,0
124399,-100,4,2,1,90,0,1
135693,-100,4,2,1,85,0,0
146987,-100,4,2,1,75,0,0
155458,-100,4,2,1,65,0,0
156869,-100,4,2,1,75,0,0
158281,-100,4,2,1,90,0,1
169046,-100,4,2,1,90,0,0
169575,-100,4,2,1,90,0,1
180869,-100,4,2,1,85,0,0
192163,-100,4,2,1,90,0,0

[Colours]
Combo1 : 244,74,155
Combo2 : 223,181,192
Combo3 : 168,213,236
Combo4 : 233,150,231

[HitObjects]
58,75,164,6,0,L|186:65,1,120,8|0,0:0|1:0,0:0:0:0:
237,61,693,2,0,P|257:99|222:180,1,120,8|8,0:0|0:0,0:0:0:0:
192,211,1222,1,0,1:0:0:0:
75,183,1575,2,0,L|82:263,1,60,8|8,0:0|0:0,0:0:0:0:
86,302,1928,1,0,1:0:0:0:
199,342,2281,1,8,0:0:0:0:
309,295,2634,1,0,1:0:0:0:
422,335,2987,6,0,L|409:201,1,120,8|0,0:0|1:0,0:0:0:0:
400,156,3516,2,0,P|375:133|278:123,1,120,8|8,0:0|0:0,0:0:0:0:
239,146,4046,1,0,1:0:0:0:
202,31,4399,2,0,L|121:25,1,60,8|8,0:0|0:0,0:0:0:0:
88,54,4752,1,0,1:0:0:0:
47,166,5105,1,8,0:0:0:0:
81,280,5458,1,0,1:0:0:0:
81,280,5634,1,0,1:0:0:0:
81,280,5811,6,0,P|133:296|202:333,1,120,8|0,0:0|1:0,0:0:0:0:
239,361,6340,2,0,P|292:333|349:315,1,120,8|8,0:0|0:0,0:0:0:0:
408,306,6869,1,0,1:0:0:0:
329,214,7222,2,0,L|335:142,1,60,8|8,0:0|0:0,0:0:0:0:
338,94,7575,1,0,1:0:0:0:
239,25,7928,1,8,0:0:0:0:
180,129,8281,1,0,1:0:0:0:
180,129,8458,1,0,1:0:0:0:
180,129,8634,6,0,P|133:161|58:190,1,120,8|0,0:0|1:0,0:0:0:0:
18,205,9163,1,8,0:0:0:0:
18,205,9340,2,0,L|34:344,1,120,8|0,0:0|1:0,0:0:0:0:
146,288,10046,5,8,0:0:0:0:
249,348,10399,1,0,1:2:0:0:
352,288,10752,1,8,0:0:0:0:
455,348,11105,1,0,1:0:0:0:
455,348,11281,1,0,1:0:0:0:
455,348,11458,6,0,L|463:210,1,120,14|0,0:0|1:0,0:0:0:0:
499,180,11987,1,2,0:0:0:0:
499,180,12163,2,0,P|456:142|389:147,1,120,10|2,0:0|1:2,0:0:0:0:
285,190,12869,2,0,B|276:140|276:140|292:67,1,120,10|0,0:0|1:0,0:0:0:0:
249,28,13399,1,2,0:0:0:0:
249,28,13575,1,10,0:0:0:0:
133,59,13928,2,0,L|68:49,1,60,2|2,1:2|0:0,0:0:0:0:
24,84,14281,6,0,P|40:112|33:202,1,120,10|0,0:0|1:0,0:0:0:0:
9,251,14811,1,2,0:0:0:0:
97,331,15163,1,2,0:0:0:0:
97,331,15340,2,0,L|170:325,1,60,2|10,1:2|0:0,0:0:0:0:
200,285,15693,2,0,B|263:283|243:322|311:319,1,120,10|0,0:0|1:0,0:0:0:0:
361,351,16222,1,10,0:0:0:0:
361,351,16399,1,8,0:0:0:0:
448,269,16752,1,2,1:2:0:0:
352,195,17105,6,0,P|334:154|356:77,1,120,10|2,0:0|1:2,0:0:0:0:
383,32,17634,1,10,0:0:0:0:
264,48,17987,1,8,0:0:0:0:
264,48,18163,2,0,L|245:119,1,60,2|2,1:2|0:0,0:0:0:0:
197,138,18516,2,0,P|211:196|214:256,1,120,10|2,0:0|1:2,0:0:0:0:
246,306,19046,1,0,0:0:0:0:
246,306,19222,2,0,P|195:337|126:298,1,120,10|2,0:0|1:2,0:0:0:0:
21,321,19928,6,0,L|43:190,1,120,10|2,0:0|1:2,0:0:0:0:
90,167,20458,2,0,P|84:105|29:77,1,120,2|8,0:0|0:0,0:0:0:0:
16,21,20987,1,2,1:2:0:0:
135,25,21340,2,0,L|266:17,1,120,10|0,0:0|1:0,0:0:0:0:
302,54,21869,1,2,0:0:0:0:
229,149,22222,1,8,0:0:0:0:
229,149,22399,2,0,L|236:224,1,60,2|2,1:2|1:2,0:0:0:0:
278,249,22752,6,0,P|322:226|331:155,1,120,14|0,0:0|1:0,0:0:0:0:
306,107,23281,1,2,0:0:0:0:
306,107,23458,2,0,P|373:136|441:146,1,120,10|2,0:0|1:2,0:0:0:0:
494,238,24163,2,0,P|482:300|445:351,1,120,10|0,0:0|1:0,0:0:0:0:
396,374,24693,1,2,0:0:0:0:
396,374,24869,1,10,0:0:0:0:
280,340,25222,2,0,L|272:271,1,60,2|2,1:2|0:0,0:0:0:0:
264,220,25575,6,0,P|296:177|374:167,1,120,10|0,0:0|1:0,0:0:0:0:
412,189,26105,2,0,P|399:119|360:74,1,120,2|2,0:0|0:0,0:0:0:0:
315,54,26634,1,2,1:2:0:0:
204,99,26987,6,0,L|77:93,1,120,10|0,0:0|1:0,0:0:0:0:
43,206,27693,2,0,L|129:210,1,60,8|2,0:0|0:0,0:0:0:0:
162,211,28046,1,2,1:2:0:0:
275,169,28399,6,0,P|314:200|341:292,1,120,10|2,0:0|1:2,0:0:0:0:
333,323,28928,1,10,0:0:0:0:
333,323,29105,2,0,L|460:310,1,120,8|2,0:0|1:2,0:0:0:0:
473,192,29811,2,0,L|480:113,1,60,10|0,0:0|0:0,0:0:0:0:
458,75,30163,1,2,1:2:0:0:
346,119,30516,2,0,L|339:198,1,60,10|8,0:0|0:0,0:0:0:0:
361,236,30868,1,2,1:2:0:0:
292,334,31222,6,0,L|213:327,1,60,10|0,0:0|0:0,0:0:0:0:
172,322,31575,2,0,P|146:287|150:191,1,120,2|8,1:2|0:0,0:0:0:0:
164,156,32105,1,8,0:0:0:0:
164,156,32281,2,0,L|156:85,1,60,2|2,1:2|0:0,0:0:0:0:
150,36,32634,1,10,0:0:0:0:
266,7,32987,1,8,0:0:0:0:
266,7,33693,2,0,L|354:11,1,60,2|2,1:2|1:2,0:0:0:0:
367,53,34046,6,0,P|335:99|326:172,1,120,14|0,0:0|1:0,0:0:0:0:
357,211,34575,1,10,0:0:0:0:
357,211,34752,1,10,0:0:0:0:
308,320,35105,2,0,L|232:322,1,60,2|8,1:2|0:0,0:0:0:0:
204,279,35458,2,0,P|145:270|90:292,1,120,10|2,0:0|1:2,0:0:0:0:
45,333,35987,1,0,0:0:0:0:
45,333,36163,2,0,P|42:265|31:191,1,120,10|2,0:0|1:2,0:0:0:0:
18,94,36869,6,0,P|74:108|114:155,1,120,10|0,0:0|1:0,0:0:0:0:
162,189,37399,1,10,0:0:0:0:
162,189,37575,2,0,L|240:179,1,60,10|10,0:0|0:0,0:0:0:0:
274,209,37928,1,2,1:2:0:0:
355,120,38281,2,0,P|325:69|269:49,2,120,10|2|2,0:0|1:2|1:2,0:0:0:0:
402,156,39163,1,8,0:0:0:0:
402,156,39340,1,2,1:2:0:0:
451,265,39693,6,0,B|387:263|402:300|339:301,1,120,10|0,0:0|1:0,0:0:0:0:
297,343,40222,1,10,0:0:0:0:
297,343,40399,1,10,0:0:0:0:
208,261,40752,2,0,P|214:218|218:175,1,60,2|8,1:2|0:0,0:0:0:0:
267,170,41105,2,0,P|277:111|249:59,1,120,10|2,0:0|1:2,0:0:0:0:
200,25,41634,1,0,0:0:0:0:
200,25,41811,2,0,B|149:17|149:17|80:34,1,120,10|2,0:0|1:2,0:0:0:0:
40,146,42516,6,0,L|60:277,1,120,10|2,0:0|1:2,0:0:0:0:
39,322,43046,1,0,0:0:0:0:
39,322,43222,2,0,P|98:292|170:312,1,120,10|2,0:0|1:2,0:0:0:0:
255,355,43928,2,0,B|360:361|311:299|421:306,1,180,10|0,1:2|1:0,0:0:0:0:
453,255,44634,2,0,P|420:209|415:181,1,60,10|2,0:0|1:2,0:0:0:0:
444,151,44987,1,10,0:0:0:0:
356,69,45340,6,0,P|287:88|219:103,1,120,14|0,0:0|1:0,0:0:0:0:
186,70,45869,1,2,0:0:0:0:
186,70,46046,2,0,P|214:123|230:201,1,120,10|2,0:0|1:2,0:0:0:0:
196,297,46752,2,0,P|127:278|59:263,1,120,14|0,0:0|1:0,0:0:0:0:
26,296,47281,1,10,0:0:0:0:
26,296,47458,2,0,P|54:243|70:165,1,120,10|2,0:0|1:2,0:0:0:0:
58,125,47987,1,2,0:0:0:0:
58,125,48163,5,10,0:0:0:0:
159,61,48516,1,2,1:2:0:0:
159,61,48693,2,0,L|282:71,1,120,2|10,0:0|0:0,0:0:0:0:
394,36,49399,1,10,0:0:0:0:
394,36,49575,6,0,P|375:84|386:170,1,120,10|0,0:0|1:0,0:0:0:0:
420,195,50105,2,0,P|439:243|428:329,1,120,2|8,0:0|0:0,0:0:0:0:
409,364,50634,1,2,1:2:0:0:
302,309,50987,6,0,L|160:317,1,120,10|2,0:0|1:2,0:0:0:0:
139,273,51516,2,0,P|132:226|101:143,2,120,2|10|10,0:0|0:0|0:0,0:0:0:0:
90,309,52399,5,10,0:0:0:0:
17,213,52752,1,2,1:2:0:0:
17,213,52928,2,0,L|7:85,1,120,2|10,0:0|0:0,0:0:0:0:
25,35,53458,1,2,1:2:0:0:
129,94,53811,6,0,P|192:100|272:79,1,120,10|2,0:0|1:2,0:0:0:0:
296,54,54340,2,0,P|269:114|281:188,1,120,10|10,0:0|0:0,0:0:0:0:
300,219,54869,2,0,L|378:209,1,60,2|10,1:2|0:0,0:0:0:0:
412,183,55222,5,10,0:0:0:0:
485,277,55575,1,2,1:2:0:0:
485,277,55752,1,10,0:0:0:0:
410,371,56105,1,8,0:0:0:0:
410,371,56281,2,0,L|325:367,1,60,2|2,1:2|1:2,0:0:0:0:
308,324,56634,6,0,P|227:339|168:349,1,120,14|0,0:0|1:0,0:0:0:0:
136,317,57163,1,2,0:0:0:0:
136,317,57340,2,0,P|113:278|148:197,1,120,10|2,0:0|1:2,0:0:0:0:
186,102,58046,2,0,L|52:83,1,120,14|0,0:0|1:0,0:0:0:0:
26,40,58575,1,10,0:0:0:0:
26,40,58752,1,10,0:0:0:0:
10,159,59105,2,0,L|19:239,1,60,2|2,1:2|0:0,0:0:0:0:
58,261,59458,6,0,B|116:261|100:222|168:221,1,120,10|2,0:0|1:2,0:0:0:0:
222,246,59987,2,0,P|252:295|217:345,1,120,2|10,0:0|0:0,0:0:0:0:
340,361,60693,1,10,0:0:0:0:
340,361,60869,2,0,L|460:336,1,120,10|0,0:0|1:0,0:0:0:0:
480,280,61399,2,0,P|461:253|376:248,1,120,2|8,0:0|0:0,0:0:0:0:
330,210,61928,1,2,1:2:0:0:
413,123,62281,6,0,B|431:66|431:66|399:3,1,120,10|2,0:0|1:2,0:0:0:0:
344,22,62811,2,0,L|213:9,1,120,2|10,0:0|0:0,0:0:0:0:
179,50,63340,1,0,1:0:0:0:
85,125,63693,2,0,L|97:253,1,120,10|2,0:0|1:2,0:0:0:0:
72,299,64222,1,2,0:0:0:0:
190,279,64575,1,10,0:0:0:0:
190,279,64752,2,0,L|259:288,1,60,2|8,1:2|0:0,0:0:0:0:
290,330,65105,6,0,P|335:291|306:221,1,120,10|2,0:0|1:2,0:0:0:0:
295,184,65634,1,10,0:0:0:0:
295,184,65811,2,0,P|273:130|322:79,1,120,8|2,0:0|1:2,0:0:0:0:
401,10,66516,2,0,L|416:134,1,120,10|2,0:0|1:2,0:0:0:0:
486,226,67222,2,0,L|493:291,1,60,10|10,0:0|0:0,0:0:0:0:
450,328,67575,2,0,P|406:305|381:303,1,60,2|2,1:2|1:2,0:0:0:0:
354,259,67928,6,0,P|305:283|237:301,1,120,14|2,0:0|1:2,0:0:0:0:
181,304,68458,1,2,0:0:0:0:
75,361,68811,1,10,0:0:0:0:
75,361,68987,2,0,P|90:303|91:231,1,120,2|10,1:2|0:0,0:0:0:0:
83,183,69516,1,10,0:0:0:0:
83,183,69693,6,0,L|215:192,1,120,2|10,1:2|0:0,0:0:0:0:
304,127,70399,2,0,L|386:121,1,60,2|8,1:2|0:0,0:0:0:0:
411,85,70752,6,0,P|383:40|313:16,1,120,10|0,0:0|1:0,0:0:0:0:
263,24,71281,1,2,0:0:0:0:
169,98,71634,1,8,0:0:0:0:
169,98,71811,2,0,L|87:92,1,60,2|8,1:2|0:0,0:0:0:0:
49,87,72163,6,0,P|38:136|68:211,1,120,10|2,0:0|1:2,0:0:0:0:
99,245,72693,1,8,0:0:0:0:
99,245,72869,1,10,0:0:0:0:
60,358,73222,2,0,L|142:352,1,60,2|2,1:2|1:2,0:0:0:0:
175,331,73575,6,0,P|223:351|298:356,1,120,10|0,0:0|1:0,0:0:0:0:
349,344,74105,1,10,0:0:0:0:
349,344,74281,2,0,L|337:273,2,60,10|8|2,0:0|0:0|1:2,0:0:0:0:
466,369,74987,2,0,P|488:328|480:247,1,120,10|2,0:0|1:2,0:0:0:0:
454,204,75516,1,10,0:0:0:0:
454,204,75693,2,0,L|327:193,1,120,10|2,0:0|1:2,0:0:0:0:
274,189,76222,1,2,1:2:0:0:
274,189,76399,6,0,P|260:134|252:58,1,120,10|2,0:0|1:2,0:0:0:0:
152,4,77105,2,0,P|145:63|130:121,1,120,10|2,0:0|1:2,0:0:0:0:
102,175,77634,1,8,0:0:0:0:
102,175,77811,5,10,0:0:0:0:
216,141,78163,1,10,0:0:0:0:
301,225,78516,2,0,L|364:209,1,60,10|2,0:0|1:2,0:0:0:0:
417,197,78868,1,2,1:2:0:0:
417,197,79046,1,2,1:2:0:0:
417,197,79222,6,0,P|436:136|403:78,1,120,14|0,0:0|1:0,0:0:0:0:
310,25,79928,2,0,L|249:34,1,60,10|8,0:0|0:0,0:0:0:0:
206,74,80281,2,0,P|174:50|171:21,1,60,2|2,1:2|0:0,0:0:0:0:
114,9,80634,2,0,P|90:87|76:139,1,120,10|0,0:0|1:0,0:0:0:0:
100,180,81163,1,2,0:0:0:0:
100,180,81340,1,10,0:0:0:0:
177,270,81693,2,0,P|205:261|234:257,1,60,2|2,1:2|0:0,0:0:0:0:
274,210,82046,6,0,P|314:238|336:322,1,120,10|0,0:0|1:0,0:0:0:0:
378,347,82575,1,2,0:0:0:0:
445,247,82928,1,2,0:0:0:0:
445,247,83105,2,0,L|442:183,1,60,2|10,1:2|0:0,0:0:0:0:
458,129,83458,2,0,B|394:139|408:99|342:111,1,120,10|0,0:0|1:0,0:0:0:0:
291,78,83987,1,10,0:0:0:0:
291,78,84163,2,0,P|277:41|284:16,2,60,8|2|2,0:0|0:0|1:2,0:0:0:0:
241,187,84869,6,0,L|104:174,1,120,10|2,0:0|1:2,0:0:0:0:
73,138,85399,1,10,0:0:0:0:
62,257,85752,1,8,0:0:0:0:
62,257,85928,2,0,L|67:330,1,60,2|2,1:2|0:0,0:0:0:0:
113,353,86281,2,0,P|184:331|194:278,1,120,10|2,0:0|1:2,0:0:0:0:
246,259,86811,1,0,0:0:0:0:
246,259,86987,2,0,L|370:267,1,120,10|2,0:0|1:2,0:0:0:0:
306,161,87693,6,0,B|304:116|304:116|314:86|314:86|314:41,1,120,10|2,0:0|1:2,0:0:0:0:
263,11,88222,1,2,0:0:0:0:
192,107,88575,1,8,0:0:0:0:
192,107,88752,2,0,L|126:101,1,60,2|0,1:2|0:0,0:0:0:0:
83,137,89105,2,0,P|50:121|58:41,1,120,10|0,0:0|1:0,0:0:0:0:
102,14,89634,1,2,0:0:0:0:
221,22,89987,1,8,0:0:0:0:
221,22,90163,2,0,L|304:13,1,60,2|2,1:2|1:2,0:0:0:0:
332,46,90516,6,0,P|374:61|390:142,1,120,14|0,0:0|1:0,0:0:0:0:
364,180,91046,1,2,0:0:0:0:
364,180,91222,2,0,L|380:310,1,120,10|2,0:0|1:2,0:0:0:0:
273,358,91928,2,0,P|236:350|219:268,1,120,10|0,0:0|1:0,0:0:0:0:
236,223,92458,1,2,0:0:0:0:
236,223,92634,2,0,L|223:100,1,120,10|2,0:0|1:2,0:0:0:0:
246,48,93163,1,2,0:0:0:0:
246,48,93340,5,10,0:0:0:0:
126,35,93693,1,0,1:0:0:0:
126,35,93869,2,0,P|75:41|52:107,1,120,2|2,0:0|0:0,0:0:0:0:
29,155,94399,2,0,L|36:218,1,60,2|10,1:2|0:0,0:0:0:0:
23,273,94752,2,0,P|91:281|140:247,1,120,10|0,0:0|1:0,0:0:0:0:
200,155,95458,2,0,P|222:137|254:130,1,60,8|0,0:0|0:0,0:0:0:0:
311,144,95811,1,2,1:2:0:0:
421,189,96163,5,10,0:0:0:0:
333,271,96516,2,0,L|325:354,1,60,2|10,1:2|0:0,0:0:0:0:
279,368,96869,2,0,P|240:371|174:303,1,120,8|2,0:0|1:2,0:0:0:0:
200,204,97575,2,0,L|187:65,1,120,10|2,0:0|1:2,0:0:0:0:
222,34,98105,1,0,0:0:0:0:
222,34,98281,2,0,B|285:24|269:60|336:57,1,120,10|2,0:0|1:2,0:0:0:0:
456,63,98987,6,0,P|426:101|413:177,1,120,10|2,0:0|1:2,0:0:0:0:
382,222,99516,1,2,0:0:0:0:
382,222,99693,2,0,L|396:361,1,120,8|2,0:0|1:2,0:0:0:0:
286,287,100399,1,10,0:0:0:0:
182,347,100752,1,8,0:0:0:0:
132,237,101105,2,0,L|129:155,2,60,8|2|2,0:0|0:0|1:2,0:0:0:0:
91,281,101634,1,2,1:2:0:0:
91,281,101811,6,0,P|43:278|3:204,1,120,14|0,0:0|1:0,0:0:0:0:
12,164,102340,2,0,L|0:94,1,60,10|10,0:0|0:0,0:0:0:0:
42,60,102693,2,0,L|30:-10,2,60,10|2|8,0:0|1:2|0:0,0:0:0:0:
99,76,103222,5,10,0:0:0:0:
214,109,103575,1,2,1:2:0:0:
317,49,103928,2,0,L|394:69,1,60,10|10,0:0|0:0,0:0:0:0:
432,82,104281,1,2,1:2:0:0:
482,190,104634,6,0,P|421:202|365:238,1,120,10|0,0:0|1:0,0:0:0:0:
335,279,105163,1,10,0:0:0:0:
335,279,105340,1,10,0:0:0:0:
335,279,105516,2,0,L|255:272,2,60,10|2|8,0:0|1:2|0:0,0:0:0:0:
374,324,106046,5,10,0:0:0:0:
267,379,106399,1,2,1:2:0:0:
160,322,106752,2,0,L|87:358,1,60,2|8,1:2|0:0,0:0:0:0:
53,377,107105,2,0,L|17:304,1,60,2|8,1:2|0:0,0:0:0:0:
2,267,107458,6,0,P|35:227|112:213,1,120,10|0,0:0|1:0,0:0:0:0:
158,222,107987,2,0,L|160:137,1,60,10|10,0:0|0:0,0:0:0:0:
160,101,108340,2,0,L|72:89,2,60,10|2|8,0:0|1:2|0:0,0:0:0:0:
204,60,108869,5,10,0:0:0:0:
315,104,109222,1,2,1:2:0:0:
429,69,109575,2,0,L|441:143,1,60,10|0,0:0|0:0,0:0:0:0:
430,187,109928,1,2,1:2:0:0:
430,187,110105,1,10,0:0:0:0:
430,187,110281,6,0,L|408:317,1,120,10|2,0:0|1:2,0:0:0:0:
311,236,110987,2,0,L|325:154,2,60,10|8|2,0:0|0:0|1:2,0:0:0:0:
271,281,111516,1,8,0:0:0:0:
271,281,111693,6,0,P|229:290|128:303,2,120,10|8|10,0:0|0:0|0:0,0:0:0:0:
307,43,113105,6,0,P|349:52|450:65,1,120,14|0,0:0|1:0,0:0:0:0:
483,76,113634,1,2,0:0:0:0:
483,76,113811,2,0,P|455:129|439:207,1,120,10|2,0:0|1:2,0:0:0:0:
462,305,114516,2,0,P|420:296|319:283,1,120,14|0,0:0|1:0,0:0:0:0:
286,272,115045,1,10,0:0:0:0:
286,272,115222,2,0,P|314:219|330:141,1,120,10|2,0:0|1:2,0:0:0:0:
323,100,115752,1,2,0:0:0:0:
323,100,115928,5,10,0:0:0:0:
205,123,116281,1,2,1:2:0:0:
205,123,116458,2,0,L|81:110,1,120,2|10,0:0|0:0,0:0:0:0:
40,222,117164,1,10,0:0:0:0:
40,222,117340,6,0,P|83:249|170:253,1,120,10|0,0:0|1:0,0:0:0:0:
209,243,117869,2,0,P|268:248|319:278,1,120,2|8,0:0|0:0,0:0:0:0:
358,324,118399,1,2,1:2:0:0:
462,264,118752,6,0,L|452:118,1,120,10|2,0:0|1:2,0:0:0:0:
446,84,119281,2,0,P|403:103|314:112,2,120,2|10|10,0:0|0:0|0:0,0:0:0:0:
429,25,120164,5,10,0:0:0:0:
308,24,120517,1,2,1:2:0:0:
308,24,120693,2,0,L|180:14,1,120,2|10,0:0|0:0,0:0:0:0:
143,55,121223,1,2,1:2:0:0:
190,165,121576,6,0,P|253:171|333:150,1,120,10|2,0:0|1:2,0:0:0:0:
359,128,122105,2,0,P|332:188|344:262,1,120,10|10,0:0|0:0,0:0:0:0:
347,299,122634,2,0,L|269:289,1,60,2|10,1:2|0:0,0:0:0:0:
235,322,122987,5,10,0:0:0:0:
133,258,123340,1,2,1:2:0:0:
133,258,123517,1,10,0:0:0:0:
31,322,123870,1,8,0:0:0:0:
31,322,124046,2,0,L|18:236,1,60,2|2,1:2|1:2,0:0:0:0:
57,214,124399,6,0,L|44:89,1,120,14|0,0:0|1:0,0:0:0:0:
80,46,124928,1,2,0:0:0:0:
80,46,125105,2,0,P|125:72|212:57,1,120,10|2,0:0|1:2,0:0:0:0:
300,119,125811,2,0,L|431:104,1,120,14|0,0:0|1:0,0:0:0:0:
464,145,126340,1,10,0:0:0:0:
464,145,126516,1,10,0:0:0:0:
468,264,126869,2,0,L|400:251,1,60,2|2,1:2|0:0,0:0:0:0:
361,216,127222,6,0,P|315:227|289:300,1,120,10|2,0:0|1:2,0:0:0:0:
230,311,127752,1,2,0:0:0:0:
119,358,128105,2,0,B|105:312|105:312|119:241,1,120,10|10,0:0|0:0,0:0:0:0:
86,191,128634,2,0,L|112:74,1,120,10|0,0:0|1:0,0:0:0:0:
86,19,129163,1,2,0:0:0:0:
4,106,129516,1,8,0:0:0:0:
4,106,129693,2,0,L|-7:164,1,60,2|10,1:2|0:0,0:0:0:0:
21,217,130046,6,0,L|31:342,1,120,10|2,0:0|1:2,0:0:0:0:
80,370,130575,2,0,P|126:357|126:270,1,120,2|10,0:0|0:0,0:0:0:0:
190,182,131281,1,10,0:0:0:0:
190,182,131458,2,0,L|195:103,1,60,10|2,0:0|0:0,0:0:0:0:
239,83,131811,1,2,1:2:0:0:
239,83,131987,2,0,P|310:104|324:168,1,120,2|10,0:0|0:0,0:0:0:0:
360,191,132516,1,2,1:2:0:0:
368,310,132869,6,0,P|414:313|502:346,2,120,10|2|8,0:0|1:2|0:0,0:0:0:0:
314,338,133752,1,10,0:0:0:0:
314,338,133928,1,2,1:2:0:0:
203,290,134281,2,0,B|183:230|183:230|208:179,1,120,10|2,0:0|1:2,0:0:0:0:
143,78,134987,2,0,L|111:129,1,60,10|10,0:0|0:0,0:0:0:0:
51,125,135340,2,0,L|19:176,1,60,2|2,1:2|1:2,0:0:0:0:
41,235,135693,6,0,B|101:243|100:184|166:212,1,120,14|2,0:0|1:2,0:0:0:0:
190,254,136222,2,0,P|250:233|330:247,1,120,2|10,0:0|0:0,0:0:0:0:
357,268,136752,1,2,1:2:0:0:
442,183,137105,1,10,0:0:0:0:
442,183,137281,2,0,L|454:43,1,120,2|10,0:0|0:0,0:0:0:0:
458,3,137811,2,0,P|409:9|330:49,1,120,10|2,0:0|1:2,0:0:0:0:
240,97,138516,6,0,L|101:90,1,120,10|2,0:0|1:2,0:0:0:0:
59,88,139046,2,0,P|98:130|122:200,1,120,2|10,0:0|0:0,0:0:0:0:
105,246,139575,1,2,1:2:0:0:
105,246,139752,2,0,P|66:288|42:358,1,120,10|8,0:0|0:0,0:0:0:0:
94,377,140281,1,2,1:2:0:0:
189,303,140634,2,0,L|331:316,1,120,10|2,0:0|1:2,0:0:0:0:
357,348,141163,1,2,1:2:0:0:
357,348,141340,6,0,P|380:304|373:219,1,120,10|2,0:0|1:2,0:0:0:0:
356,179,141869,2,0,P|400:202|485:195,1,120,2|10,0:0|0:0,0:0:0:0:
511,157,142399,1,2,1:2:0:0:
438,61,142752,1,10,0:0:0:0:
438,61,142928,2,0,P|368:73|297:67,1,120,10|10,0:0|0:0,0:0:0:0:
260,55,143458,1,10,0:0:0:0:
179,144,143811,1,2,1:2:0:0:
179,144,143987,1,2,1:2:0:0:
179,144,144163,6,0,P|130:123|52:123,1,120,10|2,0:0|1:2,0:0:0:0:
10,147,144693,2,0,P|48:206|56:264,1,120,10|10,0:0|0:0,0:0:0:0:
39,311,145222,1,2,1:2:0:0:
39,311,145399,2,0,L|173:296,1,120,10|10,0:0|0:0,0:0:0:0:
276,318,146105,1,10,0:0:0:0:
276,318,146281,2,0,L|282:232,1,60,8|2,0:0|1:2,0:0:0:0:
290,198,146634,1,2,1:2:0:0:
290,198,146811,1,2,1:2:0:0:
290,198,146987,6,0,P|346:202|403:257,1,120,14|0,0:0|1:0,0:0:0:0:
486,162,147693,2,0,L|480:89,1,60,10|10,0:0|0:0,0:0:0:0:
445,53,148046,2,0,P|413:67|382:68,1,60,2|8,1:2|0:0,0:0:0:0:
347,112,148399,2,0,P|304:88|229:66,1,120,10|2,0:0|1:2,0:0:0:0:
181,91,148928,1,0,0:0:0:0:
181,91,149105,1,10,0:0:0:0:
67,51,149458,1,2,1:2:0:0:
90,168,149811,6,0,L|80:290,1,120,10|0,0:0|1:0,0:0:0:0:
117,334,150340,1,10,0:0:0:0:
117,334,150516,2,0,P|159:316|190:311,1,60,10|10,0:0|0:0,0:0:0:0:
219,275,150869,2,0,P|255:302|275:326,1,60,2|8,1:2|0:0,0:0:0:0:
304,358,151222,1,10,0:0:0:0:
412,307,151575,1,2,1:2:0:0:
360,198,151928,2,0,L|374:62,1,120,2|2,1:2|1:2,0:0:0:0:
336,29,152458,1,8,0:0:0:0:
336,29,152634,6,0,P|296:51|217:52,1,120,10|0,0:0|1:0,0:0:0:0:
168,29,153163,1,10,0:0:0:0:
96,125,153516,1,10,0:0:0:0:
96,125,153693,2,0,L|103:196,1,60,2|8,1:2|0:0,0:0:0:0:
138,232,154046,2,0,P|84:230|26:278,2,120,10|2|10,0:0|1:2|0:0,0:0:0:0:
194,252,154928,1,0,0:0:0:0:
194,252,155105,1,2,1:2:0:0:
293,319,155458,6,0,L|415:302,1,120,10|2,0:0|0:0,0:0:0:0:
430,183,156163,2,0,L|308:200,1,120,2|2,0:0|0:0,0:0:0:0:
222,118,156869,2,0,P|208:70|317:18,1,180,10|0,1:2|0:0,0:0:0:0:
340,54,157575,2,0,P|370:58|400:53,1,60,10|2,0:0|1:2,0:0:0:0:
447,93,157928,1,10,0:0:0:0:
401,204,158281,6,0,P|332:185|264:170,1,120,14|0,0:0|1:0,0:0:0:0:
224,180,158810,1,2,0:0:0:0:
224,180,158987,2,0,P|252:233|268:311,1,120,10|2,0:0|1:2,0:0:0:0:
151,327,159693,6,0,P|88:291|30:254,1,120,14|0,0:0|1:0,0:0:0:0:
8,218,160222,1,10,0:0:0:0:
8,218,160399,2,0,P|65:200|131:156,1,120,10|2,0:0|1:2,0:0:0:0:
151,120,160928,1,2,0:0:0:0:
151,120,161104,5,10,0:0:0:0:
262,163,161457,1,2,1:2:0:0:
262,163,161634,2,0,L|385:153,1,120,2|10,0:0|0:0,0:0:0:0:
453,57,162340,1,10,0:0:0:0:
453,57,162516,6,0,P|405:38|319:49,1,120,10|0,0:0|1:0,0:0:0:0:
284,70,163046,2,0,P|236:89|150:78,1,120,2|8,0:0|0:0,0:0:0:0:
115,59,163575,1,2,1:2:0:0:
20,132,163928,6,0,L|35:274,1,120,10|2,0:0|1:2,0:0:0:0:
73,295,164458,2,0,P|115:273|201:251,2,120,2|10|10,0:0|0:0|0:0,0:0:0:0:
72,356,165340,5,10,0:0:0:0:
191,350,165693,1,2,1:2:0:0:
191,350,165869,2,0,L|318:337,1,120,2|10,0:0|0:0,0:0:0:0:
365,311,166399,1,2,1:2:0:0:
474,359,166752,6,0,P|494:303|499:243,1,120,10|2,0:0|1:2,0:0:0:0:
467,192,167281,2,0,P|407:194|354:168,1,120,10|10,0:0|0:0,0:0:0:0:
309,128,167810,2,0,L|299:50,1,60,2|10,1:2|0:0,0:0:0:0:
273,16,168163,5,10,0:0:0:0:
177,89,168516,1,2,1:2:0:0:
177,89,168693,1,10,0:0:0:0:
63,50,169046,1,8,0:0:0:0:
63,50,169222,2,0,L|67:135,1,60,2|2,1:2|1:2,0:0:0:0:
101,158,169575,6,0,P|49:179|24:251,1,120,14|0,0:0|1:0,0:0:0:0:
54,286,170105,1,2,0:0:0:0:
54,286,170281,2,0,L|190:278,1,120,10|2,0:0|1:2,0:0:0:0:
277,339,170987,2,0,B|343:337|324:303|389:305,1,120,14|0,0:0|1:0,0:0:0:0:
446,323,171516,1,10,0:0:0:0:
446,323,171693,1,10,0:0:0:0:
412,207,172046,2,0,L|415:145,1,60,2|2,1:2|0:0,0:0:0:0:
387,93,172399,6,0,P|347:104|257:105,1,120,10|2,0:0|1:2,0:0:0:0:
221,69,172928,1,2,0:0:0:0:
106,34,173281,1,10,0:0:0:0:
9,105,173634,1,10,0:0:0:0:
9,105,173811,2,0,L|14:172,1,60,10|10,0:0|0:0,0:0:0:0:
55,207,174163,1,0,1:0:0:0:
55,207,174340,2,0,L|41:336,1,120,2|8,0:0|0:0,0:0:0:0:
78,373,174869,1,2,1:2:0:0:
169,295,175222,6,0,P|223:304|255:378,1,120,10|2,0:0|1:2,0:0:0:0:
313,374,175752,2,0,P|301:323|301:250,1,120,2|10,0:0|0:0,0:0:0:0:
335,206,176281,1,0,1:0:0:0:
451,233,176634,2,0,P|469:196|443:119,1,120,10|2,0:0|1:2,0:0:0:0:
447,63,177163,2,0,P|393:36|333:34,1,120,2|10,0:0|0:0,0:0:0:0:
279,7,177693,1,2,1:2:0:0:
243,121,178046,6,0,L|258:249,1,120,10|2,0:0|1:2,0:0:0:0:
221,288,178575,1,10,0:0:0:0:
220,287,178752,2,0,P|191:281|161:280,1,60,8|10,0:0|0:0,0:0:0:0:
113,316,179105,1,2,1:2:0:0:
30,228,179458,2,0,L|46:89,1,120,10|2,0:0|1:2,0:0:0:0:
142,40,180163,2,0,L|204:48,1,60,10|10,0:0|0:0,0:0:0:0:
244,90,180516,2,0,L|303:82,1,60,2|2,1:2|1:2,0:0:0:0:
363,77,180869,6,0,P|387:126|405:194,1,120,14|2,0:0|1:2,0:0:0:0:
408,250,181399,1,2,0:0:0:0:
317,328,181752,1,10,0:0:0:0:
317,328,181928,2,0,L|232:318,1,60,2|2,1:2|0:0,0:0:0:0:
209,284,182281,2,0,L|124:294,1,60,10|10,0:0|0:0,0:0:0:0:
90,302,182634,6,0,L|99:170,1,120,2|10,1:2|0:0,0:0:0:0:
110,62,183340,2,0,L|195:52,1,60,2|10,1:2|0:0,0:0:0:0:
229,47,183693,6,0,P|200:91|207:164,1,120,10|2,0:0|1:2,0:0:0:0:
236,206,184222,1,2,0:0:0:0:
341,147,184575,1,8,0:0:0:0:
341,147,184752,2,0,L|423:141,1,60,2|10,1:2|0:0,0:0:0:0:
460,137,185105,6,0,P|471:186|441:261,1,120,10|2,0:0|1:2,0:0:0:0:
410,295,185634,1,10,0:0:0:0:
410,295,185810,1,10,0:0:0:0:
296,255,186163,2,0,L|214:249,1,60,2|2,1:2|1:2,0:0:0:0:
191,210,186516,6,0,P|132:224|81:255,1,120,10|2,0:0|1:2,0:0:0:0:
31,289,187046,1,10,0:0:0:0:
31,289,187222,2,0,L|19:218,2,60,10|8|2,0:0|0:0|1:2,0:0:0:0:
130,356,187928,2,0,P|188:341|239:310,1,120,10|2,0:0|1:2,0:0:0:0:
280,267,188457,1,10,0:0:0:0:
280,267,188634,2,0,L|407:256,1,120,10|2,0:0|1:2,0:0:0:0:
460,252,189163,1,2,1:2:0:0:
460,252,189340,6,0,P|446:197|438:121,1,120,10|2,0:0|1:2,0:0:0:0:
342,62,190046,2,0,P|335:121|320:179,1,120,10|2,0:0|1:2,0:0:0:0:
292,233,190575,1,10,0:0:0:0:
292,233,190752,5,2,1:2:0:0:
184,179,191104,1,2,1:2:0:0:
115,277,191457,2,0,L|52:261,1,60,10|2,0:0|1:2,0:0:0:0:
0,249,191811,1,0,0:0:0:0:
0,249,191987,6,0,P|-8:207|-5:178,1,60,2|14,1:2|0:0,0:0:0:0:
