osu file format v14

[General]
AudioFilename: audio.mp3
AudioLeadIn: 0
PreviewTime: 15194
Countdown: 0
SampleSet: Soft
StackLeniency: 0.7
Mode: 0
LetterboxInBreaks: 0
WidescreenStoryboard: 0

[Editor]
Bookmarks: 649,4285,7921,11558,15194,18830,33376
DistanceSpacing: 0.5
BeatDivisor: 4
GridSize: 32
TimelineZoom: 1

[Metadata]
Title:Lovefool (30 Byou Ver.)
TitleUnicode:Lovefool (30秒Ver.)
Artist:Perfume
ArtistUnicode:Perfume
Creator:eiri-
Version:Insane
Source:
Tags:Ayyri Trynna Lafayla Cover Second Version 30ser ver Pepsi NEX The Cardigans English Remix Pop
BeatmapID:2065548
BeatmapSetID:987389

[Difficulty]
HPDrainRate:5
CircleSize:5
OverallDifficulty:8.5
ApproachRate:9
SliderMultiplier:1.8
SliderTickRate:1

[Events]
//Background and Video events
0,0,"Lovefool.jpg",0,0
//Break Periods
//Storyboard Layer 0 (Background)
//Storyboard Layer 1 (Fail)
//Storyboard Layer 2 (Pass)
//Storyboard Layer 3 (Foreground)
//Storyboard Layer 4 (Overlay)
//Storyboard Sound Samples

[TimingPoints]
649,454.545454545455,4,2,1,90,1,0
15194,-66.6666666666667,4,2,1,90,0,0
15649,-200,4,2,1,90,0,0
16103,-57.1428571428571,4,2,1,90,0,0
16558,-400,4,2,1,90,0,0
17012,-50,4,2,1,90,0,0
18830,-80,4,2,1,100,0,1
24285,-66.6666666666667,4,2,1,100,0,1
25876,-200,4,2,1,100,0,1
26103,-80,4,2,1,100,0,1
31558,-66.6666666666667,4,2,1,100,0,1
33149,-200,4,2,1,100,0,1
33376,-80,4,2,1,100,0,0

[Colours]
Combo1 : 140,206,242
Combo2 : 243,182,209
Combo3 : 225,191,255
Combo4 : 255,128,131

[HitObjects]
190,145,649,6,0,P|265:107|329:102,1,135,10|0,0:0|0:0,0:0:0:0:
298,114,1103,1,2,1:2:0:0:
158,158,1330,2,0,P|184:78|225:29,1,135,2|0,0:0|0:0,0:0:0:0:
212,59,1784,1,2,0:0:0:0:
144,189,2012,1,0,1:0:0:0:
67,18,2239,6,0,L|54:199,2,180,14|2|2,0:0|0:0|0:0,0:0:0:0:
52,220,3376,1,10,0:0:0:0:
144,189,3603,1,2,0:0:0:0:
245,356,3830,2,0,P|312:354|359:289,1,135,2|0,1:2|0:0,0:0:0:0:
352,253,4285,6,0,L|499:238,1,135,10|0,0:0|0:0,0:0:0:0:
479,252,4739,1,2,1:2:0:0:
267,227,4967,2,0,L|120:212,1,135,2|0,0:0|0:0,0:0:0:0:
140,226,5421,1,2,0:0:0:0:
293,297,5649,1,0,1:0:0:0:
446,53,5876,6,0,P|463:143|505:252,2,180,14|2|10,0:0|0:0|0:0,0:0:0:0:
405,51,7012,2,0,P|364:102|262:89,1,135,8|0,0:0|0:0,0:0:0:0:
215,77,7467,1,2,1:2:0:0:
215,77,7580,1,2,0:0:0:0:
215,77,7694,1,2,0:0:0:0:
215,77,7808,1,2,0:0:0:0:
215,77,7921,6,0,B|169:61|169:61|61:75,1,135,14|0,0:0|0:0,0:0:0:0:
97,83,8376,1,2,1:2:0:0:
297,77,8603,2,0,B|343:61|343:61|451:75,1,135,2|0,0:0|0:0,0:0:0:0:
415,83,9058,1,0,0:0:0:0:
256,192,9285,1,0,1:0:0:0:
256,12,9512,6,0,L|256:204,1,180,14|10,0:0|0:0,0:0:0:0:
256,320,10194,1,2,1:2:0:0:
256,328,10270,1,0,1:0:0:0:
256,336,10345,1,0,1:0:0:0:
256,344,10421,1,2,1:2:0:0:
384,256,10649,1,10,0:0:0:0:
302,222,10876,1,2,0:0:0:0:
114,315,11103,2,0,P|47:301|23:222,1,135,2|0,1:2|0:0,0:0:0:0:
37,197,11558,6,0,P|97:210|174:187,1,135,10|0,0:0|0:0,0:0:0:0:
149,187,12012,1,2,1:2:0:0:
475,196,12239,2,0,P|409:209|345:191,1,135,2|0,0:0|0:0,0:0:0:0:
363,187,12693,1,2,0:0:0:0:
256,96,12921,1,0,1:0:0:0:
256,352,13149,5,14,0:0:0:0:
328,188,13603,1,2,0:0:0:0:
328,188,13830,5,6,1:2:0:0:
372,213,13982,5,8,0:0:0:0:
442,196,14133,5,8,0:0:0:0:
388,136,14285,5,2,1:2:0:0:
384,130,14361,1,0,1:0:0:0:
380,124,14436,1,0,1:0:0:0:
376,118,14512,1,0,1:0:0:0:
456,227,14739,5,10,0:0:0:0:
369,248,14890,5,10,0:0:0:0:
314,217,15042,5,10,0:0:0:0:
487,196,15194,6,0,L|269:182,1,202.500007724762,10|0,0:0|0:0,0:0:0:0:
248,167,15649,6,2,L|331:162,1,67.5,2|0,1:2|0:0,0:1:0:0:
370,159,16103,6,0,P|344:81|156:102,1,236.250002253056,10|0,0:0|0:0,0:0:0:0:
221,62,16558,6,2,L|224:24,1,33.75,2|0,1:2|0:0,0:1:0:0:
223,28,17012,5,2,0:0:0:0:
241,114,17467,1,2,0:0:0:0:
259,200,17921,1,2,0:0:0:0:
277,286,18376,6,0,P|198:230|141:356,1,270,6|0,1:2|0:0,0:0:0:0:
156,344,18830,6,0,P|92:313|27:322,1,112.5,14|2,0:0|0:0,0:0:0:0:
0,373,19171,1,2,0:0:0:0:
0,373,19285,2,0,P|26:346|35:317,1,56.25,2|0,1:2|0:0,0:0:0:0:
26,204,19512,2,0,P|12:169|-9:148,1,56.25,2|2,0:0|0:0,0:0:0:0:
153,12,19739,6,0,L|136:143,1,112.5,10|0,0:0|0:0,0:0:0:0:
162,222,20080,1,0,0:0:0:0:
257,208,20194,2,0,L|331:198,1,56.25,2|0,1:2|0:0,0:0:0:0:
431,85,20421,2,0,L|357:75,1,56.25,2|0,0:0|0:0,0:0:0:0:
440,291,20649,5,10,0:0:0:0:
494,176,20876,1,2,0:0:0:0:
481,140,20989,1,2,0:0:0:0:
440,55,21103,2,0,L|450:-19,1,56.25,2|0,1:2|0:0,0:0:0:0:
297,125,21330,2,0,L|307:51,1,56.25,2|0,0:0|0:0,0:0:0:0:
473,362,21558,6,0,L|326:352,1,112.5,10|0,0:0|0:0,0:0:0:0:
396,341,21899,2,0,L|543:331,1,112.5,2|0,1:2|0:0,0:0:0:0:
489,326,22239,1,2,0:0:0:0:
489,326,22353,1,2,0:0:0:0:
489,326,22467,6,0,P|459:249|465:189,1,112.5,10|2,0:0|0:0,0:0:0:0:
483,94,22808,1,2,0:0:0:0:
407,132,22921,2,0,P|364:141|316:140,1,56.25,2|0,1:2|0:0,0:0:0:0:
230,102,23149,2,0,P|197:72|170:32,1,56.25,2|0,0:0|0:0,0:0:0:0:
394,0,23376,6,0,L|405:123,1,112.5,10|2,0:0|0:0,0:0:0:0:
165,262,23830,1,2,1:2:0:0:
154,149,24058,1,2,0:0:0:0:
480,228,24285,6,2,L|464:386,1,135.000005149842,10|2,0:0|0:0,0:1:0:0:
429,147,24626,1,2,0:0:0:0:
429,147,24739,6,2,L|445:305,1,135.000005149842,2|2,1:2|0:0,0:1:0:0:
476,21,25080,1,2,0:0:0:0:
476,21,25194,6,2,L|460:179,1,135.000005149842,10|0,0:0|1:0,0:1:0:0:
263,80,25649,5,2,1:2:0:0:
253,71,25762,1,2,1:2:0:0:
267,61,25876,2,0,L|226:70,1,22.5,2|0,1:2|0:0,0:0:0:0:
115,99,26103,6,0,L|243:119,1,112.5,14|2,0:0|0:0,0:0:0:0:
351,85,26444,1,2,0:0:0:0:
351,85,26558,2,0,P|325:112|316:141,1,56.25,2|0,1:2|0:0,0:0:0:0:
458,59,26785,2,0,P|444:24|423:3,1,56.25,2|2,0:0|0:0,0:0:0:0:
301,220,27012,6,0,L|443:206,1,112.5,10|0,0:0|0:0,0:0:0:0:
511,159,27353,1,0,0:0:0:0:
503,252,27467,2,0,L|496:341,1,56.25,2|0,1:2|0:0,0:0:0:0:
351,85,27694,2,0,L|358:174,1,56.25,2|0,0:0|0:0,0:0:0:0:
510,8,27922,5,10,0:0:0:0:
433,137,28149,1,2,0:0:0:0:
395,121,28262,1,2,0:0:0:0:
291,139,28376,2,0,P|255:166|232:203,1,56.25,2|0,1:2|0:0,0:0:0:0:
464,172,28603,2,0,P|491:207|503:249,1,56.25,2|0,0:0|0:0,0:0:0:0:
417,337,28831,6,0,L|270:317,1,112.5,10|0,0:0|0:0,0:0:0:0:
181,306,29171,2,0,L|292:290,1,112.5,2|0,1:2|0:0,0:0:0:0:
357,370,29512,1,2,0:0:0:0:
357,370,29626,1,2,0:0:0:0:
357,370,29739,6,0,P|394:310|373:235,1,112.5,10|2,0:0|0:0,0:0:0:0:
345,151,30081,1,2,0:0:0:0:
416,198,30194,2,0,P|458:211|505:214,1,56.25,2|0,1:2|0:0,0:0:0:0:
273,67,30421,2,0,P|245:72|218:81,1,56.25,2|0,0:0|0:0,0:0:0:0:
511,263,30649,6,0,L|489:106,1,112.5,10|2,0:0|0:0,0:0:0:0:
128,257,31103,1,2,1:2:0:0:
143,368,31330,1,2,0:0:0:0:
280,139,31558,6,2,L|123:127,1,135.000005149842,10|2,0:0|0:0,0:1:0:0:
352,99,31899,1,2,0:0:0:0:
352,99,32012,6,2,L|195:111,1,135.000005149842,2|2,1:2|0:0,0:1:0:0:
480,145,32353,1,2,0:0:0:0:
480,145,32467,6,2,L|323:133,1,135.000005149842,10|0,0:0|1:0,0:1:0:0:
206,9,32922,5,2,1:2:0:0:
216,18,33035,1,2,1:2:0:0:
202,28,33149,2,0,L|161:37,1,22.5,2|0,1:2|0:0,0:0:0:0:
46,73,33376,5,14,0:0:0:0:
