osu file format v14

[General]
AudioFilename: audio.mp3
AudioLeadIn: 0
PreviewTime: 15194
Countdown: 0
SampleSet: Soft
StackLeniency: 0.7
Mode: 0
LetterboxInBreaks: 0
WidescreenStoryboard: 0

[Editor]
Bookmarks: 649,4285,7921,11558,15194,18830,33376
DistanceSpacing: 0.8
BeatDivisor: 4
GridSize: 32
TimelineZoom: 1

[Metadata]
Title:Lovefool (30 Byou Ver.)
TitleUnicode:Lovefool (30秒Ver.)
Artist:Perfume
ArtistUnicode:Perfume
Creator:eiri-
Version:Hard
Source:
Tags:Ayyri Trynna Lafayla Cover Second Version 30ser ver Pepsi NEX The Cardigans English Remix Pop
BeatmapID:2065547
BeatmapSetID:987389

[Difficulty]
HPDrainRate:5
CircleSize:4
OverallDifficulty:6
ApproachRate:7.3
SliderMultiplier:1.6
SliderTickRate:1

[Events]
//Background and Video events
0,0,"Lovefool.jpg",0,0
//Break Periods
//Storyboard Layer 0 (Background)
//Storyboard Layer 1 (Fail)
//Storyboard Layer 2 (Pass)
//Storyboard Layer 3 (Foreground)
//Storyboard Sound Samples

[TimingPoints]
649,454.545454545455,4,2,1,90,1,0
18830,-90.9090909090909,4,2,1,100,0,1
33376,-90.9090909090909,4,2,1,100,0,0

[Colours]
Combo1 : 140,206,242
Combo2 : 243,182,209
Combo3 : 225,191,255
Combo4 : 255,128,131

[HitObjects]
43,267,649,6,0,B|132:240|113:302|210:294,1,160,10|2,0:0|1:2,0:0:0:0:
317,258,1330,2,0,P|331:201|255:221,1,160,2|2,0:0|0:0,0:0:0:0:
273,350,2012,1,0,1:0:0:0:
273,350,2239,6,0,L|438:333,2,160,14|2|2,0:0|0:0|0:0,0:0:0:0:
188,306,3376,1,10,0:0:0:0:
118,372,3603,1,2,0:0:0:0:
19,319,3830,2,0,P|-3:263|26:187,1,120,2|0,1:2|0:0,0:0:0:0:
43,167,4285,6,0,B|100:161|100:161|133:134|133:134|202:128,1,160,10|2,0:0|1:2,0:0:0:0:
282,209,4967,2,0,B|313:157|313:157|297:43,1,160,2|0,0:0|0:0,0:0:0:0:
231,132,5649,1,0,1:0:0:0:
231,132,5876,6,0,P|196:113|139:-7,2,160,14|2|10,0:0|0:0|0:0,0:0:0:0:
330,91,7012,2,0,L|339:181,1,80,8|0,0:0|0:0,0:0:0:0:
351,283,7467,2,0,L|405:271,3,40,2|2|2|2,1:2|0:0|0:0|0:0,0:0:0:0:
328,314,7921,6,0,P|417:293|494:268,1,160,14|2,0:0|1:2,0:0:0:0:
503,372,8603,2,0,P|413:351|337:326,1,160,2|0,0:0|0:0,0:0:0:0:
240,266,9285,1,0,1:0:0:0:
240,266,9512,6,0,B|261:211|261:211|239:92,1,160,14|10,0:0|0:0,0:0:0:0:
220,18,10194,2,0,L|183:8,3,26.6666666666667,2|0|0|2,1:2|1:0|1:0|1:2,0:0:0:0:
103,47,10649,1,10,0:0:0:0:
26,8,10876,1,2,0:0:0:0:
0,150,11103,2,0,L|131:131,1,120,2|0,1:2|0:0,0:0:0:0:
172,125,11558,6,0,P|213:88|230:-18,1,160,10|2,0:0|1:2,0:0:0:0:
314,66,12239,2,0,P|382:105|460:95,1,160,2|2,0:0|0:0,0:0:0:0:
406,2,12922,1,0,1:0:0:0:
406,2,13149,6,0,L|237:15,1,160,14|2,0:0|0:0,0:0:0:0:
197,106,13830,2,0,P|202:156|213:180,2,53.3333333333333,6|8|8,1:2|0:0|0:0,0:0:0:0:
282,121,14285,2,0,L|326:113,3,26.6666666666667,2|0|0|0,1:2|1:0|1:0|1:0,0:0:0:0:
381,70,14739,2,0,P|395:118|393:144,2,53.3333333333333,10|10|10,0:0|0:0|0:0,0:0:0:0:
308,4,15194,6,0,P|362:23|483:3,1,160,10|2,0:0|1:2,0:0:0:0:
468,186,16103,2,0,P|414:167|293:187,1,160,10|2,0:0|1:2,0:0:0:0:
141,292,17012,1,2,0:0:0:0:
154,306,17467,1,2,0:0:0:0:
167,320,17921,1,2,0:0:0:0:
180,334,18376,2,0,P|202:255|201:202,1,120,6|0,1:2|0:0,0:0:0:0:
198,159,18830,6,0,P|233:209|282:244,1,88.000002685547,14|2,0:0|0:0,0:0:0:0:
298,257,19171,1,2,0:0:0:0:
298,257,19285,1,2,1:2:0:0:
372,181,19512,1,2,0:0:0:0:
455,285,19739,2,0,L|473:177,1,88.000002685547,10|0,0:0|0:0,0:0:0:0:
451,90,20194,1,2,1:2:0:0:
451,90,20421,1,2,0:0:0:0:
372,181,20649,6,0,P|315:167|263:135,1,88.000002685547,10|2,0:0|0:0,0:0:0:0:
220,90,21103,1,2,1:2:0:0:
180,179,21330,1,2,0:0:0:0:
72,140,21558,2,0,B|59:188|59:188|85:286,2,132.00000402832,10|2|2,0:0|1:2|0:0,0:0:0:0:
120,51,22467,6,0,L|224:46,1,88.000002685547,10|2,0:0|0:0,0:0:0:0:
253,31,22808,1,2,0:0:0:0:
253,31,22921,1,2,1:2:0:0:
307,127,23149,1,2,0:0:0:0:
406,72,23376,2,0,P|468:62|519:77,1,88.000002685547,10|2,0:0|0:0,0:0:0:0:
458,160,23830,1,2,1:2:0:0:
458,160,24058,1,2,0:0:0:0:
352,97,24285,6,2,L|367:-2,1,88.000002685547,10|2,0:0|0:0,0:1:0:0:
260,117,24739,2,2,L|275:18,1,88.000002685547,2|2,1:2|0:0,0:1:0:0:
168,137,25194,2,2,L|190:-11,2,132.00000402832,10|2|2,0:0|0:0|1:2,0:1:0:0:
196,258,26103,6,0,P|149:240|100:245,1,88.000002685547,14|2,0:0|0:0,0:0:0:0:
29,288,26558,1,2,1:2:0:0:
0,181,26785,1,2,0:0:0:0:
124,207,27012,2,0,L|135:100,1,88.000002685547,10|0,0:0|0:0,0:0:0:0:
145,25,27467,1,2,1:2:0:0:
245,67,27694,1,2,0:0:0:0:
357,16,27921,6,0,P|386:70|397:114,1,88.000002685547,10|2,0:0|0:0,0:0:0:0:
400,151,28262,1,2,0:0:0:0:
400,151,28376,1,2,1:2:0:0:
364,255,28603,1,2,0:0:0:0:
266,185,28830,2,0,L|397:173,2,132.00000402832,10|2|2,0:0|1:2|0:0,0:0:0:0:
177,267,29739,6,0,L|64:258,1,88.000002685547,10|2,0:0|0:0,0:0:0:0:
51,239,30080,1,2,0:0:0:0:
51,239,30194,1,2,1:2:0:0:
122,160,30421,1,2,0:0:0:0:
192,283,30649,2,0,P|250:286|290:261,1,88.000002685547,10|2,0:0|0:0,0:0:0:0:
345,188,31103,1,2,1:2:0:0:
345,188,31330,1,2,0:0:0:0:
240,127,31558,6,2,L|253:16,1,88.000002685547,10|2,0:0|0:0,0:1:0:0:
158,140,32012,2,2,L|171:29,1,88.000002685547,2|2,1:2|0:0,0:1:0:0:
76,153,32467,2,2,L|92:10,2,132.00000402832,10|2|2,0:0|0:0|1:2,0:1:0:0:
122,285,33376,5,14,0:0:0:0:
