osu file format v14

[General]
AudioFilename: audio.mp3
AudioLeadIn: 0
PreviewTime: 554
Countdown: 0
SampleSet: Normal
StackLeniency: 0.7
Mode: 1
LetterboxInBreaks: 0
WidescreenStoryboard: 0

[Editor]
Bookmarks: 668,7940,15213,18849,26122,33395
DistanceSpacing: 0.5
BeatDivisor: 4
GridSize: 32
TimelineZoom: 1.7

[Metadata]
Title:Lovefool (30 Byou Ver.)
TitleUnicode:Lovefool (30秒Ver.)
Artist:Perfume
ArtistUnicode:Perfume
Creator:Roger
Version:Oni
Source:
Tags:taiko cover second version 30sec pepsi nex the cardigans english remix electronic pop Volta Blackener ][ -GH- ][
BeatmapID:2281610
BeatmapSetID:1091368

[Difficulty]
HPDrainRate:7
CircleSize:2
OverallDifficulty:5
ApproachRate:0
SliderMultiplier:1.4
SliderTickRate:1

[Events]
//Background and Video events
0,0,"Lovefool.jpg",0,80
//Break Periods
//Storyboard Layer 0 (Background)
//Storyboard Layer 1 (Fail)
//Storyboard Layer 2 (Pass)
//Storyboard Layer 3 (Foreground)
//Storyboard Layer 4 (Overlay)
//Storyboard Sound Samples

[TimingPoints]
668,454.545454545455,4,1,0,80,1,0
18849,454.545454545455,4,1,0,85,1,1
18849,-90.9090909090909,4,1,0,85,0,1
33394,-90.9090909090909,4,1,0,85,0,0

[HitObjects]
416,96,668,5,8,0:0:0:0:
416,96,895,1,0,0:0:0:0:
416,96,1122,1,8,0:0:0:0:
416,96,1349,1,0,0:0:0:0:
416,96,1463,1,8,0:0:0:0:
416,96,1577,1,0,0:0:0:0:
416,96,1804,1,0,0:0:0:0:
416,96,2031,1,8,0:0:0:0:
416,96,2258,1,4,0:0:0:0:
416,96,2713,1,0,0:0:0:0:
416,96,2940,1,8,0:0:0:0:
416,96,3168,1,0,0:0:0:0:
416,96,3281,1,0,0:0:0:0:
416,96,3395,1,0,0:0:0:0:
416,96,3622,1,0,0:0:0:0:
416,96,3849,1,12,0:0:0:0:
416,96,4304,1,0,0:0:0:0:
416,96,4531,1,0,0:0:0:0:
416,96,4758,1,8,0:0:0:0:
416,96,4986,1,8,0:0:0:0:
416,96,5099,1,8,0:0:0:0:
416,96,5213,1,0,0:0:0:0:
416,96,5440,1,8,0:0:0:0:
416,96,5668,1,0,0:0:0:0:
416,96,5895,1,12,0:0:0:0:
416,96,6349,1,0,0:0:0:0:
416,96,6463,1,0,0:0:0:0:
416,96,6577,1,8,0:0:0:0:
416,96,6804,1,8,0:0:0:0:
416,96,7031,1,0,0:0:0:0:
416,96,7486,1,8,0:0:0:0:
416,96,7599,1,8,0:0:0:0:
416,96,7713,1,0,0:0:0:0:
416,96,7940,1,12,0:0:0:0:
416,96,8168,1,0,0:0:0:0:
416,96,8395,1,8,0:0:0:0:
416,96,8622,1,0,0:0:0:0:
416,96,8736,1,8,0:0:0:0:
416,96,8849,1,0,0:0:0:0:
416,96,9077,1,0,0:0:0:0:
416,96,9304,1,8,0:0:0:0:
416,96,9531,1,4,0:0:0:0:
416,96,9986,1,0,0:0:0:0:
416,96,10213,1,8,0:0:0:0:
416,96,10327,1,8,0:0:0:0:
416,96,10440,1,0,0:0:0:0:
416,96,10668,1,8,0:0:0:0:
416,96,10895,1,0,0:0:0:0:
416,96,11122,1,12,0:0:0:0:
416,96,11577,1,0,0:0:0:0:
416,96,11804,1,0,0:0:0:0:
416,96,12031,1,8,0:0:0:0:
416,96,12258,1,8,0:0:0:0:
416,96,12372,1,8,0:0:0:0:
416,96,12486,1,0,0:0:0:0:
416,96,12713,1,8,0:0:0:0:
416,96,12940,1,0,0:0:0:0:
416,96,13168,1,12,0:0:0:0:
416,96,13622,1,0,0:0:0:0:
416,96,13849,1,8,0:0:0:0:
416,96,14001,1,0,0:0:0:0:
416,96,14152,1,0,0:0:0:0:
416,96,14304,1,8,0:0:0:0:
416,96,14418,1,8,0:0:0:0:
416,96,14531,1,0,0:0:0:0:
416,96,14758,1,8,0:0:0:0:
416,96,15213,1,4,0:0:0:0:
416,96,15668,1,8,0:0:0:0:
416,96,15895,1,0,0:0:0:0:
416,96,16122,1,8,0:0:0:0:
416,96,16577,1,8,0:0:0:0:
416,96,16804,1,8,0:0:0:0:
416,96,17031,1,0,0:0:0:0:
416,96,17486,1,0,0:0:0:0:
416,96,17940,1,8,0:0:0:0:
416,96,18168,1,0,0:0:0:0:
416,96,18281,1,0,0:0:0:0:
416,96,18395,1,8,0:0:0:0:
416,96,18849,1,12,0:0:0:0:
416,96,19076,1,0,0:0:0:0:
416,96,19189,1,0,0:0:0:0:
416,96,19303,1,8,0:0:0:0:
416,96,19530,1,0,0:0:0:0:
416,96,19758,1,8,0:0:0:0:
416,96,19985,1,0,0:0:0:0:
416,96,20099,1,0,0:0:0:0:
416,96,20212,1,8,0:0:0:0:
416,96,20326,1,8,0:0:0:0:
416,96,20439,1,0,0:0:0:0:
416,96,20667,1,8,0:0:0:0:
416,96,20894,1,0,0:0:0:0:
416,96,21008,1,0,0:0:0:0:
416,96,21121,1,0,0:0:0:0:
416,96,21349,1,0,0:0:0:0:
416,96,21576,1,8,0:0:0:0:
416,96,21917,1,8,0:0:0:0:
416,96,22258,1,8,0:0:0:0:
416,96,22485,1,0,0:0:0:0:
416,96,22712,1,8,0:0:0:0:
416,96,22826,1,0,0:0:0:0:
416,96,22939,1,8,0:0:0:0:
416,96,23167,1,0,0:0:0:0:
416,96,23394,1,8,0:0:0:0:
416,96,23508,1,8,0:0:0:0:
416,96,23621,1,0,0:0:0:0:
416,96,23735,1,0,0:0:0:0:
416,96,23849,1,8,0:0:0:0:
416,96,24076,1,0,0:0:0:0:
416,96,24303,1,8,0:0:0:0:
416,96,24417,1,8,0:0:0:0:
416,96,24530,1,8,0:0:0:0:
416,96,24758,1,0,0:0:0:0:
416,96,24871,1,0,0:0:0:0:
416,96,24985,1,0,0:0:0:0:
416,96,25212,1,8,0:0:0:0:
416,96,25326,1,0,0:0:0:0:
416,96,25439,1,8,0:0:0:0:
416,96,25667,1,0,0:0:0:0:
416,96,25780,1,8,0:0:0:0:
416,96,25894,1,0,0:0:0:0:
416,96,26121,1,12,0:0:0:0:
416,96,26349,1,0,0:0:0:0:
416,96,26462,1,0,0:0:0:0:
416,96,26576,1,8,0:0:0:0:
416,96,26803,1,0,0:0:0:0:
416,96,27030,1,8,0:0:0:0:
416,96,27258,1,0,0:0:0:0:
416,96,27371,1,0,0:0:0:0:
416,96,27485,1,8,0:0:0:0:
416,96,27599,1,8,0:0:0:0:
416,96,27712,1,0,0:0:0:0:
416,96,27939,1,8,0:0:0:0:
416,96,28167,1,0,0:0:0:0:
416,96,28280,1,0,0:0:0:0:
416,96,28394,1,0,0:0:0:0:
416,96,28621,1,0,0:0:0:0:
416,96,28849,1,8,0:0:0:0:
416,96,29189,1,8,0:0:0:0:
416,96,29530,1,8,0:0:0:0:
416,96,29758,1,0,0:0:0:0:
416,96,29985,1,8,0:0:0:0:
416,96,30099,1,0,0:0:0:0:
416,96,30212,1,8,0:0:0:0:
416,96,30439,1,0,0:0:0:0:
416,96,30667,1,8,0:0:0:0:
416,96,30780,1,8,0:0:0:0:
416,96,30894,1,0,0:0:0:0:
416,96,31008,1,0,0:0:0:0:
416,96,31121,1,8,0:0:0:0:
416,96,31349,1,0,0:0:0:0:
416,96,31576,1,8,0:0:0:0:
416,96,31689,1,8,0:0:0:0:
416,96,31803,1,8,0:0:0:0:
416,96,32030,1,0,0:0:0:0:
416,96,32144,1,0,0:0:0:0:
416,96,32258,1,0,0:0:0:0:
416,96,32485,1,8,0:0:0:0:
416,96,32599,1,0,0:0:0:0:
416,96,32712,1,8,0:0:0:0:
416,96,32939,1,0,0:0:0:0:
416,96,33053,1,8,0:0:0:0:
416,96,33167,1,0,0:0:0:0:
416,96,33394,1,12,0:0:0:0:
