osu file format v14

[General]
AudioFilename: audio.mp3
AudioLeadIn: 0
PreviewTime: 554
Countdown: 0
SampleSet: Normal
StackLeniency: 0.7
Mode: 1
LetterboxInBreaks: 0
WidescreenStoryboard: 0

[Editor]
Bookmarks: 668,7940,15213,18849,26122,33395
DistanceSpacing: 0.5
BeatDivisor: 2
GridSize: 32
TimelineZoom: 1

[Metadata]
Title:Lovefool (30 Byou Ver.)
TitleUnicode:Lovefool (30秒Ver.)
Artist:Perfume
ArtistUnicode:Perfume
Creator:Roger
Version:Futsuu
Source:
Tags:taiko cover second version 30sec pepsi nex the cardigans english remix electronic pop Volta Blackener ][ -GH- ][
BeatmapID:2281607
BeatmapSetID:1091368

[Difficulty]
HPDrainRate:9
CircleSize:2
OverallDifficulty:3
ApproachRate:0
SliderMultiplier:1.4
SliderTickRate:1

[Events]
//Background and Video events
0,0,"Lovefool.jpg",0,80
//Break Periods
//Storyboard Layer 0 (Background)
//Storyboard Layer 1 (Fail)
//Storyboard Layer 2 (Pass)
//Storyboard Layer 3 (Foreground)
//Storyboard Layer 4 (Overlay)
//Storyboard Sound Samples

[TimingPoints]
668,454.545454545455,4,1,0,80,1,0
18849,454.545454545455,4,1,0,85,1,1
33394,-100,4,1,0,85,0,0

[HitObjects]
416,96,668,5,8,0:0:0:0:
416,96,1122,1,0,0:0:0:0:
416,96,1577,1,8,0:0:0:0:
416,96,2031,1,0,0:0:0:0:
416,96,2258,1,12,0:0:0:0:
416,96,2940,1,8,0:0:0:0:
416,96,3395,1,0,0:0:0:0:
416,96,3622,1,0,0:0:0:0:
416,96,3849,1,8,0:0:0:0:
416,96,4304,1,0,0:0:0:0:
416,96,4758,1,8,0:0:0:0:
416,96,5213,1,0,0:0:0:0:
416,96,5668,1,8,0:0:0:0:
416,96,5895,1,4,0:0:0:0:
416,96,6577,1,8,0:0:0:0:
416,96,6804,1,0,0:0:0:0:
416,96,7031,1,0,0:0:0:0:
416,96,7486,1,8,0:0:0:0:
416,96,7940,1,4,0:0:0:0:
416,96,8395,1,8,0:0:0:0:
416,96,8622,1,0,0:0:0:0:
416,96,9077,1,0,0:0:0:0:
416,96,9531,1,12,0:0:0:0:
416,96,10213,1,0,0:0:0:0:
416,96,10668,1,8,0:0:0:0:
416,96,10895,1,8,0:0:0:0:
416,96,11122,1,0,0:0:0:0:
416,96,11577,1,8,0:0:0:0:
416,96,12031,1,0,0:0:0:0:
416,96,12258,1,8,0:0:0:0:
416,96,12713,1,8,0:0:0:0:
416,96,13168,1,4,0:0:0:0:
416,96,13849,1,8,0:0:0:0:
416,96,14077,1,0,0:0:0:0:
416,96,14304,1,8,0:0:0:0:
416,96,14758,1,8,0:0:0:0:
416,96,15213,1,4,0:0:0:0:
416,96,16122,1,8,0:0:0:0:
416,96,16577,1,8,0:0:0:0:
416,96,17031,1,0,0:0:0:0:
416,96,17486,1,8,0:0:0:0:
416,96,17940,1,0,0:0:0:0:
416,96,18395,1,8,0:0:0:0:
416,96,18849,1,12,0:0:0:0:
416,96,19530,1,0,0:0:0:0:
416,96,19758,1,8,0:0:0:0:
416,96,20212,1,0,0:0:0:0:
416,96,20667,1,8,0:0:0:0:
416,96,20894,1,8,0:0:0:0:
416,96,21121,1,0,0:0:0:0:
416,96,21576,1,8,0:0:0:0:
416,96,22030,1,0,0:0:0:0:
416,96,22258,1,0,0:0:0:0:
416,96,22485,1,8,0:0:0:0:
416,96,23167,1,0,0:0:0:0:
416,96,23394,1,8,0:0:0:0:
416,96,23849,1,0,0:0:0:0:
416,96,24303,1,8,0:0:0:0:
416,96,24530,1,0,0:0:0:0:
416,96,24758,1,8,0:0:0:0:
416,96,25212,1,8,0:0:0:0:
416,96,25439,1,8,0:0:0:0:
416,96,25667,1,0,0:0:0:0:
416,96,26121,1,12,0:0:0:0:
416,96,26803,1,0,0:0:0:0:
416,96,27030,1,8,0:0:0:0:
416,96,27485,1,0,0:0:0:0:
416,96,27939,1,8,0:0:0:0:
416,96,28167,1,8,0:0:0:0:
416,96,28394,1,0,0:0:0:0:
416,96,28849,1,8,0:0:0:0:
416,96,29303,1,0,0:0:0:0:
416,96,29530,1,0,0:0:0:0:
416,96,29758,1,8,0:0:0:0:
416,96,30439,1,0,0:0:0:0:
416,96,30667,1,8,0:0:0:0:
416,96,31121,1,0,0:0:0:0:
416,96,31576,1,8,0:0:0:0:
416,96,31803,1,0,0:0:0:0:
416,96,32030,1,8,0:0:0:0:
416,96,32485,1,8,0:0:0:0:
416,96,32712,1,8,0:0:0:0:
416,96,32939,1,0,0:0:0:0:
416,96,33394,1,12,0:0:0:0:
