osu file format v14

[General]
AudioFilename: audio.mp3
AudioLeadIn: 0
PreviewTime: 95822
Countdown: 0
SampleSet: Soft
StackLeniency: 0.7
Mode: 0
LetterboxInBreaks: 0
WidescreenStoryboard: 0

[Editor]
Bookmarks: 14283,30694,47104,63514,79925,96335,112745,129155,145566,161976,178386,194796,211207,227617,244027,260437,276848
DistanceSpacing: 0.4
BeatDivisor: 4
GridSize: 32
TimelineZoom: 1.1

[Metadata]
Title:Kasuka na Kaori
TitleUnicode:微かなカオリ
Artist:Perfume
ArtistUnicode:Perfume
Creator:eiri-
Version:Aroma
Source:
Tags:Ayyri Lafayla J-Pop Japanese Jpop JPN
BeatmapID:1953986
BeatmapSetID:935244

[Difficulty]
HPDrainRate:5
CircleSize:4
OverallDifficulty:8
ApproachRate:8.5
SliderMultiplier:1.8
SliderTickRate:1

[Events]
//Background and Video events
0,0,"Kasuka na Kaori.jpg",0,0
//Break Periods
//Storyboard Layer 0 (Background)
//Storyboard Layer 1 (Fail)
//Storyboard Layer 2 (Pass)
//Storyboard Layer 3 (Foreground)
//Storyboard Sound Samples

[TimingPoints]
14284,512.820512820513,4,2,1,50,1,0
14284,-100,4,2,1,60,0,0
22489,-100,4,2,1,70,0,0
28642,-100,4,2,1,75,0,0
29155,-100,4,2,1,80,0,0
29668,-100,4,2,1,85,0,0
30694,-83.3333333333333,4,2,1,90,0,1
47104,-100,4,2,1,80,0,0
63514,-100,4,2,1,70,0,0
79925,-100,4,2,1,75,0,0
88130,-100,4,2,1,80,0,0
92232,-100,4,2,1,85,0,0
95309,-133.333333333333,4,2,1,75,0,0
95822,-133.333333333333,4,2,1,85,0,0
96335,-83.3333333333333,4,2,1,90,0,1
112232,-83.3333333333333,4,2,1,90,0,0
112745,-83.3333333333333,4,2,1,90,0,1
129155,-100,4,2,1,80,0,0
145566,-100,4,2,1,70,0,0
161976,-100,4,2,1,75,0,0
170181,-100,4,2,1,80,0,0
174284,-100,4,2,1,85,0,0
177360,-100,4,2,1,75,0,0
177873,-100,4,2,1,85,0,0
178386,-83.3333333333333,4,2,1,90,0,1
194284,-83.3333333333333,4,2,1,90,0,0
194796,-83.3333333333333,4,2,1,90,0,1
211207,-86.9565217391304,4,2,1,95,0,0
223514,-86.9565217391304,4,2,1,97,0,0
224540,-86.9565217391304,4,2,1,98,0,0
225566,-86.9565217391304,4,2,1,99,0,0
226591,-86.9565217391304,4,2,1,100,0,0
227617,-117.647058823529,4,2,1,70,0,0
241976,-117.647058823529,4,2,1,75,0,0
242489,-117.647058823529,4,2,1,80,0,0
243001,-117.647058823529,4,2,1,85,0,0
244027,-83.3333333333333,4,2,1,90,0,1
260437,-90.9090909090909,4,2,1,85,0,0
276848,-90.9090909090909,4,2,1,90,0,0

[Colours]
Combo1 : 201,189,160
Combo2 : 204,251,140
Combo3 : 202,203,184
Combo4 : 158,203,170

[HitObjects]
422,354,12232,5,2,0:0:0:0:
433,323,12745,1,2,0:0:0:0:
444,292,13258,1,2,0:0:0:0:
455,261,13771,2,0,L|349:255,1,90,2|2,0:0|0:0,0:0:0:0:
240,248,14283,5,2,1:2:0:0:
312,150,14540,1,2,0:0:0:0:
312,150,14668,2,0,P|260:138|174:98,1,135,2|2,0:0|1:2,0:0:0:0:
314,38,15309,1,2,1:2:0:0:
326,70,15822,2,0,L|428:63,1,90,2|2,0:0|0:0,0:0:0:0:
512,56,16335,5,2,1:2:0:0:
463,167,16591,1,2,0:0:0:0:
463,167,16719,2,0,P|482:220|500:314,1,135,2|2,0:0|1:2,0:0:0:0:
396,266,17360,2,0,P|411:168|434:71,1,180,2|2,1:2|0:0,0:0:0:0:
495,180,18130,1,2,0:0:0:0:
366,235,18386,6,0,L|260:221,1,90,2|0,1:2|0:0,0:0:0:0:
225,243,18771,2,0,L|119:229,1,90,2|0,0:0|0:0,0:0:0:0:
87,223,19155,1,2,1:2:0:0:
68,129,19412,2,0,P|54:77|36:29,1,90,2|0,1:2|0:0,0:0:0:0:
0,183,19925,1,2,0:0:0:0:
119,205,20181,1,2,0:0:0:0:
238,123,20437,6,0,P|286:103|336:91,1,90,2|0,1:2|0:0,0:0:0:0:
355,60,20822,2,0,P|403:79|446:106,1,90,2|0,0:0|0:0,0:0:0:0:
474,136,21207,1,2,1:2:0:0:
388,233,21463,2,0,P|297:230|192:212,1,180,2|2,1:2|1:2,0:0:0:0:
120,184,22232,1,2,0:0:0:0:
197,88,22489,6,0,L|181:-7,1,90,2|0,1:2|0:0,0:0:0:0:
154,24,22873,2,0,P|101:35|43:27,1,90,2|0,0:0|0:0,0:0:0:0:
18,17,23258,1,2,1:2:0:0:
0,118,23514,2,0,P|88:142|200:183,1,180,2|2,1:2|0:0,0:0:0:0:
263,227,24284,1,2,0:0:0:0:
367,122,24540,6,0,P|355:174|352:203,1,45,2|0,1:2|0:0,0:0:0:0:
354,220,24796,1,2,0:0:0:0:
354,220,24925,2,0,P|404:217|455:211,1,90,2|0,0:0|0:0,0:0:0:0:
497,203,25309,1,2,1:2:0:0:
436,313,25566,2,0,P|385:310|243:285,1,180,2|2,1:2|0:0,0:0:0:0:
160,257,26335,1,2,0:0:0:0:
160,257,26463,1,2,0:0:0:0:
160,257,26591,6,0,P|148:194|131:147,1,90,2|0,1:2|0:0,0:0:0:0:
179,174,26976,2,0,P|191:111|208:64,1,90,2|0,0:0|0:0,0:0:0:0:
227,40,27360,1,2,1:2:0:0:
283,152,27617,2,0,P|295:195|302:239,1,90,2|0,1:2|0:0,0:0:0:0:
320,361,28130,2,0,P|332:317|339:273,1,90,2|2,0:0|0:0,0:0:0:0:
322,138,28642,5,2,1:2:0:0:
443,180,28899,1,2,0:0:0:0:
322,138,29155,5,2,1:2:0:0:
483,97,29412,1,10,0:0:0:0:
447,224,29668,5,2,1:2:0:0:
447,224,29796,1,2,1:2:0:0:
447,224,29925,1,2,1:2:0:0:
380,49,30181,1,2,1:2:0:0:
380,49,30309,1,2,1:2:0:0:
380,49,30437,2,0,L|323:43,1,45,2|0,1:2|0:0,0:0:0:0:
256,31,30694,5,14,0:0:0:0:
124,143,30950,1,2,0:0:0:0:
124,142,31078,2,0,P|189:125|237:207,1,161.999995056153,2|2,1:2|0:0,0:0:0:0:
238,364,31719,1,10,0:0:0:0:
398,320,31976,1,2,0:0:0:0:
398,320,32104,1,2,0:0:0:0:
398,320,32232,2,0,L|409:204,1,107.999996704102,2|2,1:2|0:0,0:0:0:0:
408,70,32745,5,10,0:0:0:0:
307,38,33001,1,2,0:0:0:0:
307,38,33130,2,0,B|211:64|241:8|142:31,1,161.999995056153,2|2,1:2|0:0,0:0:0:0:
12,158,33771,2,0,P|90:116|78:210,1,215.999993408203,10|2,0:0|1:2,0:0:0:0:
84,327,34540,1,0,0:0:0:0:
232,266,34796,6,0,P|240:213|223:162,1,107.999996704102,10|0,0:0|0:0,0:0:0:0:
263,170,35181,2,0,P|254:117|271:66,1,107.999996704102,2|0,1:2|0:0,0:0:0:0:
325,17,35566,1,2,0:0:0:0:
471,54,35822,2,0,L|479:166,1,107.999996704102,10|0,0:0|0:0,0:0:0:0:
460,343,36335,1,2,1:2:0:0:
389,251,36591,1,2,0:0:0:0:
275,352,36848,6,0,L|263:240,1,107.999996704102,10|0,0:0|0:0,0:0:0:0:
217,255,37232,2,0,L|228:143,1,107.999996704102,2|0,1:2|0:0,0:0:0:0:
259,71,37617,1,2,0:0:0:0:
117,106,37873,2,0,P|62:109|11:88,1,107.999996704102,10|0,0:0|0:0,0:0:0:0:
85,238,38386,2,0,P|134:218|188:221,1,107.999996704102,2|0,1:2|0:0,0:0:0:0:
339,333,38899,6,0,P|323:276|323:226,1,107.999996704102,10|0,0:0|0:0,0:0:0:0:
372,223,39284,2,0,P|371:169|356:117,1,107.999996704102,2|0,1:2|0:0,0:0:0:0:
312,53,39668,1,2,0:0:0:0:
461,0,39925,2,0,L|472:111,1,107.999996704102,10|0,0:0|0:0,0:0:0:0:
512,244,40437,1,2,1:2:0:0:
363,194,40694,1,2,0:0:0:0:
363,194,40822,1,2,0:0:0:0:
363,194,40950,6,0,P|308:183|255:201,1,107.999996704102,10|0,0:0|0:0,0:0:0:0:
227,250,41335,2,0,P|177:228|124:234,1,107.999996704102,2|0,1:2|0:0,0:0:0:0:
53,261,41719,1,2,0:0:0:0:
0,103,41976,2,0,P|92:143|211:88,1,215.999993408203,10|0,0:0|1:0,0:0:0:0:
289,8,42745,1,2,0:0:0:0:
422,48,43001,6,0,L|410:159,1,107.999996704102,10|0,0:0|0:0,0:0:0:0:
457,145,43386,2,0,L|468:252,1,107.999996704102,2|0,1:2|0:0,0:0:0:0:
482,329,43771,1,2,0:0:0:0:
341,375,44027,2,0,P|355:323|353:269,1,107.999996704102,10|0,0:0|0:0,0:0:0:0:
313,110,44540,1,2,1:2:0:0:
229,176,44796,1,0,0:0:0:0:
153,7,45053,5,10,0:0:0:0:
111,128,45309,1,2,0:0:0:0:
153,7,45566,5,2,1:2:0:0:
194,168,45822,1,2,0:0:0:0:
291,30,46078,2,0,P|275:90|304:132,1,107.999996704102,10|8,0:0|0:0,0:0:0:0:
438,232,46591,6,0,L|384:238,1,53.9999983520508,2|0,1:2|0:0,0:0:0:0:
337,250,46848,1,0,1:0:0:0:
337,250,46976,1,0,1:0:0:0:
337,250,47104,6,0,L|343:141,1,90,14|0,0:0|0:0,0:0:0:0:
234,288,47617,2,0,L|228:179,1,90,2|0,1:2|0:0,0:0:0:0:
99,234,48130,2,0,L|105:125,1,90,10|0,0:0|0:0,0:0:0:0:
114,36,48642,1,2,1:2:0:0:
114,36,48899,1,2,0:0:0:0:
242,104,49155,6,0,P|294:99|364:87,1,90,10|2,0:0|0:0,0:0:0:0:
431,59,49668,1,2,1:2:0:0:
365,0,49925,1,2,0:0:0:0:
383,184,50181,2,0,L|394:299,1,90,10|2,0:0|0:0,0:0:0:0:
397,325,50566,1,2,0:0:0:0:
397,325,50694,1,2,1:2:0:0:
487,239,50950,1,2,0:0:0:0:
300,163,51207,6,0,P|235:152|179:148,1,90,10|0,0:0|0:0,0:0:0:0:
145,261,51719,2,0,P|210:272|266:276,1,90,2|0,1:2|0:0,0:0:0:0:
116,103,52232,2,0,P|51:92|-5:88,1,90,10|0,0:0|0:0,0:0:0:0:
150,0,52745,1,2,1:2:0:0:
150,0,53001,1,2,0:0:0:0:
196,113,53258,6,0,P|232:176|262:211,2,90,10|2|2,0:0|0:0|1:2,0:0:0:0:
150,0,54027,1,2,0:0:0:0:
103,122,54284,2,0,P|38:111|14:108,1,90,10|2,0:0|0:0,0:0:0:0:
44,90,54668,1,2,0:0:0:0:
44,90,54796,2,0,P|26:39|6:6,1,90,2|2,1:2|0:0,0:0:0:0:
125,154,55309,6,0,P|102:193|88:235,1,90,10|0,0:0|0:0,0:0:0:0:
211,90,55822,2,0,P|233:129|247:171,1,90,2|0,1:2|0:0,0:0:0:0:
285,293,56335,2,0,P|339:287|405:276,1,90,10|0,0:0|0:0,0:0:0:0:
483,262,56848,1,2,1:2:0:0:
483,262,57104,1,2,0:0:0:0:
415,109,57360,6,0,P|379:56|351:26,1,90,10|2,0:0|0:0,0:0:0:0:
295,173,57873,1,2,1:2:0:0:
451,128,58130,1,2,0:0:0:0:
361,36,58386,2,0,L|372:151,1,90,10|2,0:0|0:0,0:0:0:0:
375,177,58771,1,2,0:0:0:0:
375,177,58899,1,2,1:2:0:0:
487,239,59155,1,2,0:0:0:0:
392,362,59412,6,0,P|347:356|303:348,1,90,10|0,0:0|0:0,0:0:0:0:
204,245,59925,2,0,P|229:282|257:317,1,90,2|0,1:2|0:0,0:0:0:0:
375,192,60437,2,0,P|368:237|358:281,1,90,10|0,0:0|0:0,0:0:0:0:
286,111,60950,1,2,1:2:0:0:
286,111,61207,1,2,0:0:0:0:
175,174,61463,6,0,L|59:167,2,90,10|2|2,0:0|0:0|1:2,0:0:0:0:
310,96,62232,1,2,0:0:0:0:
408,262,62489,1,10,0:0:0:0:
453,186,62745,1,10,0:0:0:0:
253,159,63001,2,0,L|242:50,1,90,2|2,1:2|0:0,0:0:0:0:
54,267,63514,6,0,B|178:245|100:323|238:301,1,180,14|0,0:0|1:0,0:0:0:0:
344,271,64284,1,10,0:0:0:0:
471,356,64540,2,0,L|461:266,1,90,10|2,0:0|0:0,0:0:0:0:
494,97,65053,1,2,1:2:0:0:
384,148,65309,1,2,0:0:0:0:
283,45,65566,6,0,P|324:28|369:28,1,90,10|2,0:0|0:0,0:0:0:0:
270,154,66078,2,0,P|225:153|183:137,1,90,2|10,1:2|0:0,0:0:0:0:
68,182,66591,2,0,L|73:15,2,135,10|2|2,0:0|1:2|0:0,0:0:0:0:
148,341,67617,6,0,P|139:264|225:284,1,180,10|0,0:0|1:0,0:0:0:0:
355,346,68386,1,10,0:0:0:0:
355,346,68642,2,0,B|321:240|391:271|349:150,1,180,10|0,0:0|1:0,0:0:0:0:
298,65,69412,1,2,0:0:0:0:
464,82,69668,6,0,P|482:123|491:167,1,90,10|2,0:0|0:0,0:0:0:0:
478,338,70181,1,2,1:2:0:0:
413,255,70437,1,10,0:0:0:0:
296,346,70694,2,0,P|207:362|141:312,2,135,10|2|10,0:0|1:2|0:0,0:0:0:0:
439,238,71719,6,0,P|341:256|275:197,1,180,10|0,0:0|1:0,0:0:0:0:
203,114,72489,1,10,0:0:0:0:
67,104,72745,2,0,L|76:193,1,90,10|2,0:0|0:0,0:0:0:0:
133,372,73258,1,2,1:2:0:0:
230,294,73514,1,2,0:0:0:0:
230,294,73771,6,0,P|273:278|339:283,1,90,10|2,0:0|0:0,0:0:0:0:
492,231,74284,2,0,P|447:230|405:214,1,90,2|10,1:2|0:0,0:0:0:0:
290,151,74796,2,0,L|301:-15,2,135,10|2|2,0:0|1:2|0:0,0:0:0:0:
332,295,75822,6,0,B|265:259|265:259|138:277,1,180,10|0,0:0|1:0,0:0:0:0:
12,350,76591,2,0,P|32:315|39:264,1,90,10|10,0:0|0:0,0:0:0:0:
24,101,77104,1,2,0:0:0:0:
127,159,77360,1,2,1:2:0:0:
228,45,77617,6,0,L|237:134,1,90,2|10,0:0|0:0,0:0:0:0:
266,178,78001,1,2,0:0:0:0:
266,178,78130,2,0,L|256:267,1,90,2|2,0:0|1:2,0:0:0:0:
300,378,78642,1,10,0:0:0:0:
388,237,78899,1,10,0:0:0:0:
512,317,79155,1,10,0:0:0:0:
512,317,79284,1,10,0:0:0:0:
512,317,79412,2,0,P|510:267|502:227,1,90,2|10,1:2|0:0,0:0:0:0:
450,95,79925,6,0,P|384:133|387:36,1,180,10|0,0:0|1:0,0:0:0:0:
250,114,80694,1,10,0:0:0:0:
134,16,80950,2,0,L|143:107,1,90,10|2,0:0|0:0,0:0:0:0:
151,159,81335,1,2,0:0:0:0:
151,159,81463,1,2,1:2:0:0:
253,91,81719,1,0,0:0:0:0:
314,201,81976,6,0,P|331:249|346:305,1,90,10|2,0:0|0:0,0:0:0:0:
446,140,82489,2,0,P|429:188|414:244,1,90,2|10,1:2|0:0,0:0:0:0:
371,363,83001,2,0,P|453:354|526:343,2,135,10|2|2,0:0|1:2|0:0,0:0:0:0:
212,337,84027,6,0,P|203:260|289:280,1,180,10|0,0:0|1:0,0:0:0:0:
403,363,84796,1,10,0:0:0:0:
403,363,85053,2,0,B|369:257|439:288|397:167,1,180,10|0,0:0|1:0,0:0:0:0:
346,82,85822,1,2,0:0:0:0:
231,139,86078,6,0,L|108:135,1,90,10|2,0:0|0:0,0:0:0:0:
92,139,86463,1,2,0:0:0:0:
92,139,86591,1,2,1:2:0:0:
177,25,86848,1,8,0:0:0:0:
241,151,87104,2,0,L|229:308,2,135,10|2|10,0:0|1:2|0:0,0:0:0:0:
407,98,88130,5,10,0:0:0:0:
494,227,88386,2,0,L|485:107,1,90,2|2,0:0|1:2,0:0:0:0:
396,246,88899,1,10,0:0:0:0:
268,150,89155,2,0,P|224:136|146:126,1,90,10|2,0:0|0:0,0:0:0:0:
134,139,89540,1,2,0:0:0:0:
134,139,89668,1,2,1:2:0:0:
194,3,89925,1,2,0:0:0:0:
285,179,90181,6,0,P|328:163|394:168,1,90,10|0,0:0|0:0,0:0:0:0:
417,172,90566,2,0,P|395:132|388:88,1,90,2|0,1:2|0:0,0:0:0:0:
402,39,90950,1,10,0:0:0:0:
402,39,91207,2,0,L|292:28,1,90,10|2,0:0|0:0,0:0:0:0:
269,27,91591,1,2,0:0:0:0:
269,27,91719,1,2,1:2:0:0:
178,125,91976,1,2,0:0:0:0:
22,20,92232,6,0,B|1:65|1:65|30:219,1,180,14|2,0:0|0:0,0:0:0:0:
50,318,93001,1,10,0:0:0:0:
186,158,93258,2,0,L|193:266,1,90,14|2,0:0|0:0,0:0:0:0:
200,301,93642,1,2,0:0:0:0:
200,301,93771,1,2,0:0:0:0:
108,216,94027,1,10,0:0:0:0:
108,216,94284,6,0,B|74:110|144:141|102:20,1,180,14|2,0:0|0:0,0:0:0:0:
0,84,95053,1,2,0:0:0:0:
186,163,95309,6,0,P|249:163|314:156,1,101.250003862381,10|0,0:0|0:0,0:0:0:0:
339,143,95822,1,2,0:0:0:0:
425,50,96078,1,2,0:0:0:0:
497,220,96335,5,14,0:0:0:0:
373,289,96591,1,2,0:0:0:0:
373,289,96719,2,0,B|279:326|306:253|197:294,1,161.999995056153,2|2,1:2|0:0,0:0:0:0:
67,342,97360,1,10,0:0:0:0:
35,229,97617,1,2,0:0:0:0:
35,229,97745,1,2,0:0:0:0:
35,229,97873,2,0,L|46:113,1,107.999996704102,2|2,1:2|0:0,0:0:0:0:
168,2,98386,5,10,0:0:0:0:
223,149,98642,1,2,0:0:0:0:
223,149,98771,2,0,P|295:189|359:149,1,161.999995056153,2|2,1:2|0:0,0:0:0:0:
508,13,99412,2,0,L|480:271,1,215.999993408203,10|2,0:0|1:2,0:0:0:0:
438,349,100181,1,0,0:0:0:0:
329,246,100437,6,0,P|278:229|225:237,1,107.999996704102,10|0,0:0|0:0,0:0:0:0:
215,199,100822,2,0,P|164:215|111:206,1,107.999996704102,2|0,1:2|0:0,0:0:0:0:
36,172,101207,1,2,0:0:0:0:
0,338,101463,2,0,L|111:326,1,107.999996704102,10|0,0:0|0:0,0:0:0:0:
276,346,101976,1,2,1:2:0:0:
345,226,102232,1,2,0:0:0:0:
450,356,102489,6,0,P|445:300|457:247,1,107.999996704102,10|0,0:0|0:0,0:0:0:0:
504,245,102873,2,0,P|508:189|497:136,1,107.999996704102,2|0,1:2|0:0,0:0:0:0:
459,69,103258,1,2,0:0:0:0:
300,31,103514,2,0,L|288:144,1,107.999996704102,10|0,0:0|0:0,0:0:0:0:
179,272,104027,2,0,L|167:164,1,107.999996704102,2|0,1:2|0:0,0:0:0:0:
298,274,104540,6,0,P|355:290|401:278,1,107.999996704102,10|0,0:0|0:0,0:0:0:0:
439,305,104925,2,0,L|450:197,1,107.999996704102,2|0,1:2|0:0,0:0:0:0:
455,117,105309,1,2,0:0:0:0:
314,23,105566,2,0,L|303:134,1,107.999996704102,10|0,0:0|0:0,0:0:0:0:
300,171,105950,1,0,0:0:0:0:
300,171,106078,1,2,1:2:0:0:
405,287,106335,1,2,0:0:0:0:
405,287,106463,1,2,0:0:0:0:
405,287,106591,6,0,P|350:276|307:300,1,107.999996704102,10|2,0:0|0:0,0:0:0:0:
275,331,106976,2,0,P|220:342|177:318,1,107.999996704102,2|0,1:2|0:0,0:0:0:0:
129,253,107360,1,2,0:0:0:0:
250,157,107617,2,0,P|271:75|175:105,1,215.999993408203,10|0,0:0|1:0,0:0:0:0:
59,28,108386,1,2,0:0:0:0:
59,28,108514,1,2,0:0:0:0:
59,28,108642,6,0,L|47:139,1,107.999996704102,10|0,0:0|0:0,0:0:0:0:
6,147,109027,2,0,L|17:254,1,107.999996704102,2|0,1:2|0:0,0:0:0:0:
31,331,109412,1,2,0:0:0:0:
177,374,109668,2,0,P|176:320|200:271,1,107.999996704102,10|0,0:0|0:0,0:0:0:0:
354,269,110181,2,0,P|355:215|330:167,1,107.999996704102,2|2,1:2|0:0,0:0:0:0:
168,63,110694,5,10,0:0:0:0:
224,178,110950,1,2,1:2:0:0:
168,63,111207,5,10,0:0:0:0:
310,147,111463,1,2,1:2:0:0:
453,61,111719,1,2,1:2:0:0:
453,61,111848,1,2,1:2:0:0:
453,61,111976,1,2,1:2:0:0:
512,228,112232,6,0,L|458:234,1,53.9999983520508,2|0,1:2|0:0,0:0:0:0:
408,297,112489,2,0,L|354:291,1,53.9999983520508,2|0,0:0|0:0,0:0:0:0:
196,287,112745,5,14,0:0:0:0:
136,161,113001,1,2,0:0:0:0:
136,161,113130,2,0,B|230:198|203:125|312:166,1,161.999995056153,2|2,1:2|0:0,0:0:0:0:
391,256,113771,1,10,0:0:0:0:
491,156,114027,1,2,0:0:0:0:
491,156,114155,1,2,0:0:0:0:
491,156,114284,2,0,L|484:34,1,107.999996704102,2|2,1:2|0:0,0:0:0:0:
397,141,114796,5,10,0:0:0:0:
316,30,115053,1,2,0:0:0:0:
316,30,115181,2,0,P|234:41|144:61,1,161.999995056153,2|2,1:2|0:0,0:0:0:0:
44,4,115822,2,0,L|72:262,1,215.999993408203,10|2,0:0|1:2,0:0:0:0:
79,326,116591,1,0,0:0:0:0:
191,229,116848,6,0,P|242:212|295:220,1,107.999996704102,10|0,0:0|0:0,0:0:0:0:
305,182,117232,2,0,P|356:198|409:189,1,107.999996704102,2|0,1:2|0:0,0:0:0:0:
484,155,117617,1,2,0:0:0:0:
512,300,117873,2,0,L|401:288,1,107.999996704102,10|0,0:0|0:0,0:0:0:0:
276,346,118386,1,2,1:2:0:0:
345,226,118642,1,2,0:0:0:0:
199,174,118899,6,0,P|194:118|206:65,1,107.999996704102,10|0,0:0|0:0,0:0:0:0:
219,28,119284,2,0,P|163:32|110:21,1,107.999996704102,2|0,1:2|0:0,0:0:0:0:
64,0,119668,1,2,0:0:0:0:
80,128,119925,2,0,L|92:241,1,107.999996704102,10|0,0:0|0:0,0:0:0:0:
210,281,120437,2,0,L|198:173,1,107.999996704102,2|0,1:2|0:0,0:0:0:0:
262,66,120950,6,0,P|315:63|362:87,1,107.999996704102,10|0,0:0|0:0,0:0:0:0:
403,81,121335,2,0,L|392:189,1,107.999996704102,2|0,1:2|0:0,0:0:0:0:
384,238,121719,1,2,0:0:0:0:
293,358,121976,2,0,L|282:247,1,107.999996704102,10|0,0:0|0:0,0:0:0:0:
279,210,122360,1,0,0:0:0:0:
279,210,122489,1,2,1:2:0:0:
385,338,122745,1,2,0:0:0:0:
385,338,123001,6,0,P|440:349|483:325,1,107.999996704102,10|2,0:0|0:0,0:0:0:0:
512,291,123386,2,0,L|508:221,1,53.9999983520508,2|0,1:2|0:0,0:0:0:0:
502,129,123771,1,2,0:0:0:0:
338,85,124027,2,0,P|317:3|413:33,1,215.999993408203,10|0,0:0|1:0,0:0:0:0:
400,165,124796,1,2,0:0:0:0:
400,165,125053,6,0,L|388:276,1,107.999996704102,10|0,0:0|0:0,0:0:0:0:
352,230,125437,2,0,L|363:337,1,107.999996704102,2|0,1:2|0:0,0:0:0:0:
369,384,125822,1,2,0:0:0:0:
238,305,126078,2,0,P|176:288|119:285,1,107.999996704102,10|0,0:0|0:0,0:0:0:0:
0,314,126591,1,2,1:2:0:0:
0,314,126848,1,0,0:0:0:0:
88,137,127104,5,10,0:0:0:0:
144,252,127360,1,2,0:0:0:0:
88,137,127617,5,2,1:2:0:0:
231,220,127873,1,2,0:0:0:0:
373,135,128130,1,10,0:0:0:0:
373,135,128386,1,8,0:0:0:0:
437,288,128642,6,0,L|443:234,1,53.9999983520508,2|0,1:2|0:0,0:0:0:0:
457,193,128899,1,0,1:0:0:0:
457,193,129027,1,0,1:0:0:0:
457,193,129155,6,0,P|474:152|463:84,1,90,14|0,0:0|0:0,0:0:0:0:
344,16,129668,2,0,P|365:54|361:123,1,90,2|0,1:2|0:0,0:0:0:0:
227,216,130181,2,0,P|318:184|345:270,1,180,10|2,0:0|1:2,0:0:0:0:
457,193,130950,1,2,0:0:0:0:
466,335,131207,6,0,P|423:349|378:352,1,90,10|2,0:0|0:0,0:0:0:0:
210,336,131719,1,2,1:2:0:0:
268,235,131976,1,2,0:0:0:0:
155,111,132232,2,0,L|144:226,1,90,10|2,0:0|0:0,0:0:0:0:
147,249,132617,1,2,0:0:0:0:
147,249,132745,1,2,1:2:0:0:
59,309,133001,1,2,0:0:0:0:
0,188,133258,6,0,P|4:145|26:102,1,90,10|0,0:0|0:0,0:0:0:0:
175,12,133771,1,2,1:2:0:0:
253,90,134027,1,0,0:0:0:0:
253,90,134284,2,0,L|261:181,1,90,10|0,0:0|0:0,0:0:0:0:
339,341,134796,1,2,1:2:0:0:
428,272,135053,1,2,0:0:0:0:
428,272,135309,6,0,P|437:315|442:360,2,90,10|2|2,0:0|0:0|1:2,0:0:0:0:
397,178,136078,1,2,0:0:0:0:
504,85,136335,2,0,P|439:74|415:71,1,90,10|2,0:0|0:0,0:0:0:0:
377,43,136719,1,2,0:0:0:0:
377,43,136848,2,0,P|332:49|288:56,1,90,2|2,1:2|0:0,0:0:0:0:
155,139,137360,6,0,P|199:133|244:156,1,90,10|0,0:0|0:0,0:0:0:0:
317,297,137873,1,2,1:2:0:0:
219,243,138130,1,0,0:0:0:0:
219,243,138386,2,0,P|174:237|130:260,1,90,10|0,0:0|0:0,0:0:0:0:
27,353,138899,1,2,1:2:0:0:
0,256,139155,1,2,0:0:0:0:
0,256,139412,6,0,L|11:151,1,90,10|2,0:0|0:0,0:0:0:0:
78,16,139925,1,2,1:2:0:0:
151,91,140181,1,2,0:0:0:0:
263,12,140437,6,0,L|272:101,1,90,10|2,0:0|0:0,0:0:0:0:
282,147,140822,1,2,0:0:0:0:
282,147,140950,1,2,1:2:0:0:
205,237,141207,1,2,0:0:0:0:
343,299,141463,6,0,P|387:305|430:293,1,90,10|0,0:0|0:0,0:0:0:0:
302,179,141976,2,0,P|346:172|389:184,1,90,2|0,1:2|0:0,0:0:0:0:
213,287,142489,2,0,P|203:244|202:194,1,90,10|0,0:0|0:0,0:0:0:0:
225,61,143001,1,2,1:2:0:0:
133,18,143258,1,2,0:0:0:0:
22,106,143514,6,0,L|12:-9,2,90,10|2|2,0:0|0:0|1:2,0:0:0:0:
94,186,144284,1,2,0:0:0:0:
0,300,144540,1,10,0:0:0:0:
99,365,144796,1,10,0:0:0:0:
99,365,145053,2,0,P|150:362|193:324,1,90,2|2,1:2|1:2,0:0:0:0:
249,234,145566,6,0,P|225:153|216:39,1,180,14|0,0:0|1:0,0:0:0:0:
182,159,146336,1,10,0:0:0:0:
327,115,146591,2,0,P|382:109|441:107,1,90,10|2,0:0|0:0,0:0:0:0:
512,117,147105,1,2,1:2:0:0:
440,13,147361,1,2,0:0:0:0:
327,115,147618,6,0,P|310:156|310:201,1,90,10|2,0:0|0:0,0:0:0:0:
436,102,148130,2,0,P|435:57|419:15,1,90,2|10,1:2|0:0,0:0:0:0:
252,12,148643,2,0,L|261:177,2,135,10|2|2,0:0|1:2|0:0,0:0:0:0:
182,225,149668,6,0,P|244:254|356:199,1,180,10|0,0:0|1:0,0:0:0:0:
423,119,150438,1,10,0:0:0:0:
423,119,150694,2,0,B|389:225|459:194|417:315,1,180,10|0,0:0|1:0,0:0:0:0:
372,384,151464,1,2,0:0:0:0:
260,324,151720,6,0,P|219:306|175:297,1,90,10|2,0:0|0:0,0:0:0:0:
67,298,152233,1,2,1:2:0:0:
98,177,152489,1,10,0:0:0:0:
265,237,152746,2,0,L|271:68,2,135,10|2|10,0:0|1:2|0:0,0:0:0:0:
421,370,153771,6,0,P|470:297|480:203,1,180,10|0,0:0|1:0,0:0:0:0:
451,103,154541,1,10,0:0:0:0:
335,154,154796,2,0,L|235:146,1,90,10|2,0:0|0:0,0:0:0:0:
140,136,155310,1,2,1:2:0:0:
237,55,155566,1,2,0:0:0:0:
237,55,155823,6,0,P|280:39|346:44,1,90,10|2,0:0|0:0,0:0:0:0:
436,192,156336,2,0,P|391:191|349:175,1,90,2|10,1:2|0:0,0:0:0:0:
482,116,156848,2,0,L|493:282,2,135,10|2|2,0:0|1:2|0:0,0:0:0:0:
371,289,157873,6,0,P|299:276|270:158,1,180,10|0,0:0|1:0,0:0:0:0:
279,78,158642,1,10,0:0:0:0:
279,78,158899,1,10,0:0:0:0:
141,129,159155,1,2,0:0:0:0:
98,34,159412,1,2,1:2:0:0:
20,158,159668,6,0,L|29:247,1,90,2|10,0:0|0:0,0:0:0:0:
58,291,160053,1,2,0:0:0:0:
58,291,160182,2,0,L|48:380,1,90,2|2,0:0|1:2,0:0:0:0:
148,305,160694,1,10,0:0:0:0:
121,170,160951,1,10,0:0:0:0:
298,219,161207,1,10,0:0:0:0:
298,219,161336,1,10,0:0:0:0:
298,219,161463,2,0,L|289:130,1,90,2|10,1:2|0:0,0:0:0:0:
482,15,161976,6,0,P|402:42|400:126,1,180,14|0,0:0|1:0,0:0:0:0:
490,211,162745,1,10,0:0:0:0:
356,263,163001,2,0,P|311:264|267:253,1,90,10|2,0:0|0:0,0:0:0:0:
231,242,163386,1,2,0:0:0:0:
231,242,163514,1,2,1:2:0:0:
302,125,163770,1,0,0:0:0:0:
177,28,164027,6,0,L|165:138,1,90,10|2,0:0|0:0,0:0:0:0:
59,220,164540,2,0,L|49:130,1,90,2|10,1:2|0:0,0:0:0:0:
168,304,165052,2,0,P|116:305|50:351,2,135,10|2|2,0:0|1:2|0:0,0:0:0:0:
361,329,166078,6,0,P|284:337|304:252,1,180,10|0,0:0|1:0,0:0:0:0:
431,151,166847,1,10,0:0:0:0:
431,151,167104,2,0,B|330:190|353:121|234:156,1,180,10|0,0:0|1:0,0:0:0:0:
146,188,167873,1,2,0:0:0:0:
30,84,168129,6,0,L|17:206,1,90,10|2,0:0|0:0,0:0:0:0:
19,217,168514,1,2,0:0:0:0:
19,217,168642,1,2,1:2:0:0:
81,315,168899,1,8,0:0:0:0:
215,226,169155,2,0,P|227:290|200:362,2,135,10|2|10,0:0|1:2|0:0,0:0:0:0:
160,130,170181,5,10,0:0:0:0:
292,70,170437,2,0,P|337:68|379:86,1,90,2|2,0:0|1:2,0:0:0:0:
512,173,170950,1,10,0:0:0:0:
512,173,171207,2,0,P|467:171|425:188,1,90,10|2,0:0|0:0,0:0:0:0:
399,217,171591,1,2,0:0:0:0:
399,217,171719,1,2,1:2:0:0:
422,331,171976,1,2,0:0:0:0:
280,362,172232,6,0,P|279:317|264:276,1,90,10|0,0:0|0:0,0:0:0:0:
221,259,172617,2,0,P|205:217|204:172,1,90,2|0,1:2|0:0,0:0:0:0:
218,132,173001,1,10,0:0:0:0:
337,32,173258,2,0,L|227:21,1,90,10|2,0:0|0:0,0:0:0:0:
204,20,173642,1,2,0:0:0:0:
204,20,173770,1,2,1:2:0:0:
100,121,174027,1,2,0:0:0:0:
100,121,174155,1,2,0:0:0:0:
100,121,174283,6,0,B|107:191|107:191|87:228|87:228|96:315,1,180,14|10,0:0|0:0,0:0:0:0:
206,368,175052,1,10,0:0:0:0:
353,238,175309,2,0,P|311:222|266:223,1,90,14|2,0:0|0:0,0:0:0:0:
228,241,175693,1,2,0:0:0:0:
228,241,175822,1,10,0:0:0:0:
137,155,176078,1,10,0:0:0:0:
247,34,176335,6,0,P|346:28|368:119,1,180,14|10,0:0|0:0,0:0:0:0:
448,225,177104,1,10,0:0:0:0:
448,225,177360,2,0,P|452:180|471:139,1,90,10|0,0:0|0:0,0:0:0:0:
336,235,177873,1,2,0:0:0:0:
255,142,178129,1,2,0:0:0:0:
508,104,178386,5,14,0:0:0:0:
469,268,178642,1,2,0:0:0:0:
469,268,178770,2,0,B|375:305|402:232|293:273,1,161.999995056153,2|2,1:2|0:0,0:0:0:0:
163,321,179411,1,10,0:0:0:0:
209,131,179668,1,2,0:0:0:0:
209,131,179796,1,2,0:0:0:0:
209,131,179924,2,0,L|226:249,1,107.999996704102,2|2,1:2|0:0,0:0:0:0:
242,362,180437,5,10,0:0:0:0:
387,310,180693,1,2,0:0:0:0:
387,310,180822,2,0,P|424:242|414:158,1,161.999995056153,2|2,1:2|0:0,0:0:0:0:
293,28,181463,2,0,L|310:287,1,215.999993408203,10|2,0:0|1:2,0:0:0:0:
316,371,182232,1,0,0:0:0:0:
183,333,182488,6,0,P|166:282|174:229,1,107.999996704102,10|0,0:0|0:0,0:0:0:0:
201,194,182873,2,0,P|217:143|208:90,1,107.999996704102,2|0,1:2|0:0,0:0:0:0:
164,14,183258,1,2,0:0:0:0:
8,149,183514,2,0,L|121:138,1,107.999996704102,10|0,0:0|0:0,0:0:0:0:
262,125,184027,1,2,1:2:0:0:
371,246,184283,1,2,0:0:0:0:
512,151,184540,6,0,P|456:156|403:144,1,107.999996704102,10|0,0:0|0:0,0:0:0:0:
368,119,184925,2,0,P|312:114|259:126,1,107.999996704102,2|0,1:2|0:0,0:0:0:0:
173,169,185309,1,2,0:0:0:0:
43,39,185565,2,0,L|55:152,1,107.999996704102,10|0,0:0|0:0,0:0:0:0:
161,276,186078,2,0,L|173:168,1,107.999996704102,2|0,1:2|0:0,0:0:0:0:
195,27,186591,6,0,P|252:11|298:23,1,107.999996704102,10|0,0:0|0:0,0:0:0:0:
337,7,186976,2,0,L|326:114,1,107.999996704102,2|0,1:2|0:0,0:0:0:0:
311,214,187360,1,2,0:0:0:0:
185,200,187617,2,0,L|74:189,1,107.999996704102,10|0,0:0|0:0,0:0:0:0:
37,186,188001,1,0,0:0:0:0:
37,186,188129,1,2,1:2:0:0:
131,99,188386,1,2,0:0:0:0:
216,290,188642,6,0,P|271:301|314:277,1,107.999996704102,10|2,0:0|0:0,0:0:0:0:
334,235,189027,2,0,P|279:221|250:181,1,107.999996704102,2|0,1:2|0:0,0:0:0:0:
261,87,189411,1,2,0:0:0:0:
464,55,189668,2,0,P|390:96|394:-3,1,215.999993408203,10|0,0:0|1:0,0:0:0:0:
421,206,190437,1,2,0:0:0:0:
421,206,190565,1,2,0:0:0:0:
421,206,190693,6,0,L|433:317,1,107.999996704102,10|0,0:0|0:0,0:0:0:0:
436,355,191078,2,0,L|329:344,1,107.999996704102,2|0,1:2|0:0,0:0:0:0:
243,329,191463,1,2,0:0:0:0:
317,249,191719,2,0,P|346:203|363:152,1,107.999996704102,10|0,0:0|0:0,0:0:0:0:
380,34,192232,2,0,L|250:25,1,107.999996704102,2|2,1:2|0:0,0:0:0:0:
128,17,192745,5,10,0:0:0:0:
184,132,193001,1,2,1:2:0:0:
128,17,193258,5,10,0:0:0:0:
271,100,193514,1,2,1:2:0:0:
413,15,193770,1,2,1:2:0:0:
413,15,193899,1,2,1:2:0:0:
413,15,194027,1,2,1:2:0:0:
275,131,194283,6,0,L|221:137,1,53.9999983520508,2|0,1:2|0:0,0:0:0:0:
134,100,194540,2,0,L|188:94,1,53.9999983520508,2|0,1:2|0:0,0:0:0:0:
315,34,194796,5,14,0:0:0:0:
447,137,195052,1,2,0:0:0:0:
447,137,195181,2,0,P|430:217|336:208,1,161.999995056153,2|2,1:2|0:0,0:0:0:0:
230,156,195821,1,10,0:0:0:0:
122,219,196078,1,2,0:0:0:0:
122,219,196206,1,2,0:0:0:0:
122,219,196334,2,0,L|133:335,1,107.999996704102,2|2,1:2|0:0,0:0:0:0:
9,180,196847,5,10,0:0:0:0:
105,89,197103,1,2,0:0:0:0:
105,89,197232,2,0,B|195:55|178:137|276:92,1,161.999995056153,2|2,1:2|0:0,0:0:0:0:
489,67,197873,2,0,P|390:43|400:139,1,215.999993408203,10|2,0:0|1:2,0:0:0:0:
494,202,198642,1,0,0:0:0:0:
444,326,198898,6,0,P|392:343|336:337,1,107.999996704102,10|0,0:0|0:0,0:0:0:0:
312,301,199284,2,0,P|261:284|207:288,1,107.999996704102,2|0,1:2|0:0,0:0:0:0:
133,323,199668,1,2,0:0:0:0:
0,213,199924,2,0,L|11:320,1,107.999996704102,10|0,0:0|0:0,0:0:0:0:
94,161,200437,1,2,1:2:0:0:
25,81,200693,1,2,0:0:0:0:
202,39,200950,6,0,P|229:88|208:173,1,107.999996704102,10|0,0:0|0:0,0:0:0:0:
200,169,201335,2,0,P|198:222|225:268,1,107.999996704102,2|0,1:2|0:0,0:0:0:0:
302,319,201719,1,2,0:0:0:0:
422,186,201975,2,0,L|314:197,1,107.999996704102,10|0,0:0|0:0,0:0:0:0:
488,79,202489,2,0,L|380:67,1,107.999996704102,2|0,1:2|0:0,0:0:0:0:
158,49,203001,6,0,P|223:48|261:85,1,107.999996704102,10|0,0:0|0:0,0:0:0:0:
276,114,203386,2,0,P|210:113|173:150,1,107.999996704102,2|0,1:2|0:0,0:0:0:0:
135,214,203770,1,2,0:0:0:0:
238,335,204027,2,0,P|291:339|342:323,1,107.999996704102,10|0,0:0|0:0,0:0:0:0:
383,310,204411,1,0,0:0:0:0:
383,310,204539,1,2,1:2:0:0:
495,181,204796,1,2,0:0:0:0:
495,181,204924,1,2,0:0:0:0:
495,181,205053,6,0,P|446:152|392:159,1,107.999996704102,10|0,0:0|0:0,0:0:0:0:
365,173,205437,2,0,P|312:177|266:149,1,107.999996704102,2|0,1:2|0:0,0:0:0:0:
211,83,205821,1,2,0:0:0:0:
64,183,206078,2,0,P|168:204|132:274,1,215.999993408203,10|0,0:0|1:0,0:0:0:0:
284,373,206847,1,2,0:0:0:0:
284,373,206975,1,0,0:0:0:0:
284,373,207103,6,0,L|296:262,1,107.999996704102,10|0,0:0|0:0,0:0:0:0:
330,264,207489,2,0,L|318:153,1,107.999996704102,2|0,1:2|0:0,0:0:0:0:
299,75,207873,1,2,0:0:0:0:
480,13,208129,2,0,P|453:59|449:113,1,107.999996704102,10|0,0:0|0:0,0:0:0:0:
490,285,208642,1,2,1:2:0:0:
490,285,208898,1,0,0:0:0:0:
372,198,209155,5,10,0:0:0:0:
316,313,209411,1,2,1:2:0:0:
372,198,209668,5,10,0:0:0:0:
229,281,209924,1,2,1:2:0:0:
277,113,210180,1,10,0:0:0:0:
132,164,210437,1,8,0:0:0:0:
132,164,210566,1,8,0:0:0:0:
132,164,210694,2,0,L|126:218,3,53.9999983520508,0|8|0|0,1:0|0:0|1:0|1:0,0:0:0:0:
154,261,211207,6,0,B|241:271|206:172|317:209,1,155.250002961159,14|0,0:0|0:0,0:0:0:0:
337,215,211719,1,2,1:2:0:0:
417,312,211976,1,2,0:0:0:0:
511,200,212232,2,0,L|500:72,1,103.500001974106,10|0,0:0|0:0,0:0:0:0:
472,133,212617,2,0,L|483:5,1,103.500001974106,2|0,1:2|0:0,0:0:0:0:
485,0,213001,1,2,0:0:0:0:
383,66,213258,6,0,P|324:80|225:46,1,155.250002961159,10|0,0:0|0:0,0:0:0:0:
200,17,213771,1,2,1:2:0:0:
166,141,214027,1,0,0:0:0:0:
200,17,214284,2,0,P|130:6|95:17,1,103.500001974106,10|0,0:0|0:0,0:0:0:0:
52,10,214668,2,0,P|82:51|92:101,1,103.500001974106,2|0,1:2|0:0,0:0:0:0:
77,152,215053,1,2,0:0:0:0:
200,17,215309,5,10,0:0:0:0:
230,199,215566,2,0,L|269:105,1,51.7500009870529,2|2,0:0|0:0,0:0:0:0:
305,38,215822,1,2,1:2:0:0:
366,244,216078,1,0,0:0:0:0:
311,61,216335,5,10,0:0:0:0:
230,199,216591,2,0,L|325:188,1,51.7500009870529,2|2,0:0|0:0,0:0:0:0:
433,177,216848,1,2,1:2:0:0:
426,343,217104,1,0,0:0:0:0:
436,151,217360,1,10,0:0:0:0:
450,131,217489,1,2,0:0:0:0:
431,104,217617,1,2,0:0:0:0:
456,68,217745,1,2,0:0:0:0:
427,26,217873,6,0,L|312:20,1,103.500001974106,2|0,1:2|0:0,0:0:0:0:
216,12,218386,1,10,0:0:0:0:
150,137,218642,1,2,0:0:0:0:
150,137,218771,1,2,0:0:0:0:
150,137,218899,1,2,1:2:0:0:
105,49,219155,1,0,0:0:0:0:
252,97,219412,6,0,P|264:151|268:204,1,103.500001974106,10|2,0:0|0:0,0:0:0:0:
267,251,219796,1,2,0:0:0:0:
267,251,219925,1,2,1:2:0:0:
377,187,220181,1,0,0:0:0:0:
431,342,220437,6,0,L|316:330,1,103.500001974106,10|0,0:0|0:0,0:0:0:0:
352,300,220822,2,0,L|237:312,1,103.500001974106,2|0,1:2|0:0,0:0:0:0:
201,319,221207,1,2,0:0:0:0:
114,204,221463,1,10,0:0:0:0:
4,336,221719,1,2,0:0:0:0:
4,336,221848,1,2,0:0:0:0:
4,336,221976,6,0,L|119:324,1,103.500001974106,2|0,1:2|0:0,0:0:0:0:
249,310,222489,1,10,0:0:0:0:
176,219,222745,1,2,0:0:0:0:
176,219,222873,1,2,0:0:0:0:
176,219,223001,2,0,P|162:152|162:104,1,103.500001974106,0|0,1:2|0:0,0:0:0:0:
191,0,223514,6,0,B|297:-27|228:47|388:10,1,155.250002961159,14|2,0:0|0:0,0:0:0:0:
382,0,224027,1,2,1:2:0:0:
418,148,224284,1,10,0:0:0:0:
279,115,224540,6,0,B|173:88|242:162|82:125,1,155.250002961159,14|2,0:0|0:0,0:0:0:0:
88,115,225053,1,2,1:2:0:0:
52,263,225310,1,10,0:0:0:0:
271,248,225566,6,0,L|349:240,3,51.7500009870529,6|2|2|2,1:2|0:0|0:0|0:0,0:0:0:0:
398,286,226078,2,0,L|476:278,3,51.7500009870529,2|2|2|2,1:2|0:0|0:0|0:0,0:0:0:0:
497,184,226591,1,14,0:0:0:0:
497,184,227617,6,0,P|510:129|487:77,2,114.750002188683,14|2|10,0:0|0:0|0:0,0:0:0:0:
385,262,228642,1,10,0:0:0:0:
349,277,229155,2,0,L|339:197,1,76.5000014591217,2|0,0:0|0:0,0:0:0:0:
338,53,229668,5,10,0:0:0:0:
245,101,229925,1,2,0:0:0:0:
245,101,230053,2,0,P|188:105|135:81,1,114.750002188683,2|10,0:0|0:0,0:0:0:0:
18,182,230694,2,0,P|93:182|157:223,1,153.000002918243,10|10,0:0|0:0,0:0:0:0:
230,329,231463,1,10,0:0:0:0:
230,329,231719,6,0,L|115:340,2,114.750002188683,10|2|10,0:0|0:0|0:0,0:0:0:0:
362,252,232745,2,0,P|343:293|343:340,1,76.5000014591217,10|0,0:0|0:0,0:0:0:0:
466,260,233258,2,0,P|461:222|444:188,1,76.5000014591217,2|2,0:0|0:0,0:0:0:0:
313,85,233771,6,0,L|449:70,2,114.750002188683,10|2|10,0:0|0:0|0:0,0:0:0:0:
151,129,234796,1,10,0:0:0:0:
143,160,235309,1,10,0:0:0:0:
132,195,235822,6,0,P|74:175|-4:195,2,114.750002188683,10|2|10,0:0|0:0|0:0,0:0:0:0:
234,322,236848,2,0,L|249:165,1,153.000002918243,10|0,0:0|0:0,0:0:0:0:
206,70,237617,1,2,0:0:0:0:
352,28,237873,6,0,P|394:32|426:57,1,76.5000014591217,10|2,0:0|0:0,0:0:0:0:
473,37,238258,2,0,L|458:173,1,114.750002188683,2|10,0:0|0:0,0:0:0:0:
512,322,238899,2,0,P|473:260|398:265,1,153.000002918243,10|0,0:0|0:0,0:0:0:0:
248,182,239668,1,2,0:0:0:0:
248,182,239796,1,2,0:0:0:0:
248,182,239925,6,0,P|303:191|350:161,2,114.750002188683,10|2|10,0:0|0:0|0:0,0:0:0:0:
126,95,240950,1,10,0:0:0:0:
96,105,241463,1,10,0:0:0:0:
64,114,241976,5,10,0:0:0:0:
48,241,242233,1,2,0:0:0:0:
64,114,242489,5,10,0:0:0:0:
137,262,242746,1,10,0:0:0:0:
263,212,243002,5,2,1:2:0:0:
263,212,243130,1,2,1:2:0:0:
263,212,243259,1,2,1:2:0:0:
180,76,243515,1,2,1:2:0:0:
180,76,243643,1,2,1:2:0:0:
180,76,243771,2,0,P|199:70|224:72,1,38.2500007295609,2|0,1:2|0:0,0:0:0:0:
321,79,244028,5,14,0:0:0:0:
243,242,244283,1,2,0:0:0:0:
243,242,244411,2,0,B|149:279|176:206|67:247,1,161.999995056153,2|2,1:2|0:0,0:0:0:0:
122,362,245052,1,10,0:0:0:0:
202,152,245309,1,2,0:0:0:0:
202,152,245437,1,2,0:0:0:0:
202,152,245565,2,0,L|325:146,1,107.999996704102,2|2,1:2|0:0,0:0:0:0:
470,141,246078,5,10,0:0:0:0:
402,41,246334,1,2,0:0:0:0:
402,41,246463,2,0,P|334:4|245:5,1,161.999995056153,2|2,1:2|0:0,0:0:0:0:
134,53,247104,2,0,L|155:313,1,215.999993408203,10|2,0:0|1:2,0:0:0:0:
164,384,247873,1,0,0:0:0:0:
277,276,248129,6,0,P|328:259|381:267,1,107.999996704102,10|0,0:0|0:0,0:0:0:0:
416,243,248514,2,0,P|421:189|449:144,1,107.999996704102,2|0,1:2|0:0,0:0:0:0:
512,89,248899,1,2,0:0:0:0:
305,69,249155,2,0,L|192:58,1,107.999996704102,10|0,0:0|0:0,0:0:0:0:
58,43,249668,1,2,1:2:0:0:
121,159,249924,1,2,0:0:0:0:
315,49,250181,6,0,P|371:44|424:56,1,107.999996704102,10|0,0:0|0:0,0:0:0:0:
462,45,250566,2,0,P|441:94|437:148,1,107.999996704102,2|0,1:2|0:0,0:0:0:0:
447,198,250950,1,2,0:0:0:0:
349,300,251206,2,0,L|236:288,1,107.999996704102,10|0,0:0|0:0,0:0:0:0:
168,173,251719,2,0,L|281:185,1,107.999996704102,2|0,1:2|0:0,0:0:0:0:
447,198,252232,6,0,P|476:153|478:99,1,107.999996704102,10|0,0:0|0:0,0:0:0:0:
454,59,252617,2,0,L|347:48,1,107.999996704102,2|0,1:2|0:0,0:0:0:0:
257,36,253001,1,2,0:0:0:0:
156,133,253258,2,0,L|45:122,1,107.999996704102,10|0,0:0|0:0,0:0:0:0:
8,119,253642,1,0,0:0:0:0:
8,119,253770,1,2,1:2:0:0:
104,22,254027,1,2,0:0:0:0:
183,223,254283,6,0,P|238:234|281:210,1,107.999996704102,10|2,0:0|0:0,0:0:0:0:
319,172,254668,2,0,P|374:161|417:185,1,107.999996704102,2|0,1:2|0:0,0:0:0:0:
466,256,255052,1,2,0:0:0:0:
379,346,255309,2,0,B|325:366|283:319|283:319|231:259|154:302,1,215.999993408203,10|0,0:0|1:0,0:0:0:0:
66,324,256078,1,2,0:0:0:0:
46,175,256334,6,0,L|34:64,1,107.999996704102,10|0,0:0|0:0,0:0:0:0:
31,14,256719,2,0,L|138:21,1,107.999996704102,2|0,1:2|0:0,0:0:0:0:
225,27,257104,1,2,0:0:0:0:
365,147,257360,2,0,P|394:101|411:50,1,107.999996704102,10|0,0:0|0:0,0:0:0:0:
260,119,257873,2,0,L|130:110,1,107.999996704102,2|2,1:2|0:0,0:0:0:0:
8,102,258386,5,10,0:0:0:0:
64,217,258642,1,2,1:2:0:0:
8,102,258899,5,10,0:0:0:0:
151,185,259155,1,2,1:2:0:0:
239,9,259411,1,2,1:2:0:0:
239,9,259668,1,2,1:2:0:0:
294,192,259925,6,0,P|320:188|346:179,1,53.9999983520508,2|0,1:2|0:0,0:0:0:0:
420,105,260181,1,0,1:0:0:0:
420,105,260309,1,0,1:0:0:0:
420,105,260437,6,0,P|446:145|448:194,1,99.0000030212403,14|0,0:0|0:0,0:0:0:0:
391,352,260950,2,0,P|379:304|345:270,1,99.0000030212403,2|0,1:2|0:0,0:0:0:0:
133,236,261463,2,0,P|223:247|255:161,1,198.000006042481,10|2,0:0|1:2,0:0:0:0:
194,67,262232,1,2,0:0:0:0:
45,123,262489,5,10,0:0:0:0:
45,123,262746,1,2,0:0:0:0:
141,226,263001,1,2,1:2:0:0:
61,295,263258,1,2,0:0:0:0:
206,356,263514,2,0,P|254:362|301:349,1,99.0000030212403,10|2,0:0|0:0,0:0:0:0:
335,336,263899,1,2,0:0:0:0:
335,336,264027,1,2,1:2:0:0:
242,237,264283,1,2,0:0:0:0:
381,151,264540,6,0,P|323:132|262:138,1,99.0000030212403,10|0,0:0|0:0,0:0:0:0:
111,64,265053,2,0,P|160:63|206:46,1,99.0000030212403,2|0,1:2|0:0,0:0:0:0:
36,166,265566,2,0,P|85:166|131:183,1,99.0000030212403,10|0,0:0|0:0,0:0:0:0:
283,300,266078,1,2,1:2:0:0:
372,231,266335,1,2,0:0:0:0:
372,231,266591,6,0,L|361:126,1,99.0000030212403,10|2,0:0|0:0,0:0:0:0:
497,36,267104,2,0,L|486:134,1,99.0000030212403,2|2,1:2|0:0,0:0:0:0:
452,320,267617,1,10,0:0:0:0:
345,252,267873,1,2,0:0:0:0:
345,252,268001,1,2,0:0:0:0:
345,252,268130,2,0,P|292:237|246:256,1,99.0000030212403,2|2,1:2|0:0,0:0:0:0:
109,357,268642,6,0,P|131:313|131:264,1,99.0000030212403,10|0,0:0|0:0,0:0:0:0:
0,152,269155,2,0,P|0:201|22:244,1,99.0000030212403,2|0,1:2|0:0,0:0:0:0:
125,85,269668,2,0,B|231:44|217:130|328:84,1,198.000006042481,10|2,0:0|1:2,0:0:0:0:
409,31,270437,1,2,0:0:0:0:
378,200,270694,5,10,0:0:0:0:
378,200,270950,1,2,0:0:0:0:
223,120,271207,1,2,1:2:0:0:
199,224,271463,1,2,0:0:0:0:
75,296,271719,2,0,P|59:249|63:200,1,99.0000030212403,10|2,0:0|0:0,0:0:0:0:
85,168,272104,1,2,0:0:0:0:
85,168,272232,1,2,1:2:0:0:
23,69,272489,1,2,0:0:0:0:
193,16,272745,6,0,L|202:114,1,99.0000030212403,10|0,0:0|0:0,0:0:0:0:
304,252,273258,2,0,L|313:153,1,99.0000030212403,2|0,1:2|0:0,0:0:0:0:
415,16,273771,2,0,L|424:114,1,99.0000030212403,10|0,0:0|0:0,0:0:0:0:
434,154,274155,1,0,0:0:0:0:
434,154,274283,1,2,1:2:0:0:
363,261,274540,1,2,0:0:0:0:
299,105,274796,5,10,0:0:0:0:
243,219,275052,1,2,0:0:0:0:
299,105,275309,5,2,1:2:0:0:
156,187,275565,1,2,0:0:0:0:
83,93,275822,1,10,0:0:0:0:
83,93,276078,1,10,0:0:0:0:
19,211,276334,6,0,P|13:236|13:265,1,49.5000015106202,2|0,1:2|0:0,0:0:0:0:
37,365,276591,1,8,0:0:0:0:
246,286,276848,1,14,0:0:0:0:
