osu file format v14

[General]
AudioFilename: audio.mp3
AudioLeadIn: 0
PreviewTime: 127064
Countdown: 0
SampleSet: Soft
StackLeniency: 0.7
Mode: 0
LetterboxInBreaks: 0
WidescreenStoryboard: 1

[Editor]
Bookmarks: 51564,64364,77164,83564,128364,141164,155364
DistanceSpacing: 1
BeatDivisor: 4
GridSize: 32
TimelineZoom: 1.8

[Metadata]
Title:If You Wanna
TitleUnicode:If You Wanna
Artist:Perfume
ArtistUnicode:Perfume
Creator:Yugu
Version:Normal
Source:
Tags:
BeatmapID:1406779
BeatmapSetID:663738

[Difficulty]
HPDrainRate:3
CircleSize:3
OverallDifficulty:4
ApproachRate:5
SliderMultiplier:1.2
SliderTickRate:1

[Events]
//Background and Video events
0,0,"bg.jpg",0,0
//Break Periods
2,13364,24764
2,26164,37564
2,90164,101564
2,102964,114364
//Storyboard Layer 0 (Background)
//Storyboard Layer 1 (Fail)
//Storyboard Layer 2 (Pass)
//Storyboard Layer 3 (Foreground)
//Storyboard Sound Samples

[TimingPoints]
364,400,4,2,1,30,1,0
25964,-100,4,2,1,100,0,0
38764,-100,4,2,99,40,0,0
45564,-100,4,2,99,45,0,0
45964,-100,4,2,99,50,0,0
46364,-100,4,2,99,55,0,0
46964,-100,4,2,99,60,0,0
47364,-100,4,2,99,65,0,0
47764,-100,4,2,99,70,0,0
48364,-100,4,2,99,75,0,0
48764,-100,4,2,99,80,0,0
49164,-100,4,2,99,85,0,0
49564,-100,4,2,99,90,0,0
49964,-100,4,2,99,95,0,0
51564,-100,4,2,1,100,0,0
52764,-100,4,2,1,100,0,1
53964,-100,4,2,1,100,0,0
55964,-100,4,2,1,100,0,1
57164,-100,4,2,1,100,0,0
59164,-100,4,2,1,100,0,1
60364,-100,4,2,1,100,0,0
62364,-100,4,2,1,100,0,1
62764,-100,4,2,1,100,0,0
63564,-100,4,2,1,100,0,1
63664,-100,4,2,1,100,0,0
63764,-100,4,2,1,100,0,1
64164,-100,4,2,1,100,0,0
65564,-100,4,2,1,100,0,1
66764,-100,4,2,1,100,0,0
68764,-100,4,2,1,100,0,1
69964,-100,4,2,1,100,0,0
71964,-100,4,2,1,100,0,1
73164,-100,4,2,1,100,0,0
75164,-100,4,2,1,100,0,1
75564,-100,4,2,1,100,0,0
76364,-100,4,2,1,50,0,0
77164,-100,4,2,1,30,0,0
83564,-100,4,2,99,40,0,0
86764,-100,4,2,99,50,0,0
87164,-100,4,2,99,55,0,0
87564,-100,4,2,99,60,0,0
87964,-100,4,2,99,65,0,0
88364,-100,4,2,99,70,0,0
88764,-100,4,2,99,75,0,0
89164,-100,4,2,99,80,0,0
89564,-100,4,2,99,85,0,0
89964,-100,4,2,99,90,0,0
102764,-100,4,2,1,100,0,0
115564,-100,4,2,99,40,0,0
121964,-100,4,2,99,45,0,0
122364,-100,4,2,99,50,0,0
122764,-100,4,2,99,55,0,0
123164,-100,4,2,99,60,0,0
123764,-100,4,2,99,65,0,0
124164,-100,4,2,99,70,0,0
124564,-100,4,2,99,75,0,0
125164,-100,4,2,99,80,0,0
125564,-100,4,2,99,85,0,0
125964,-100,4,2,99,90,0,0
126364,-100,4,2,99,95,0,0
126764,-100,4,2,99,100,0,0
128364,-100,4,2,1,100,0,0
129564,-100,4,2,1,100,0,1
130764,-100,4,2,1,100,0,0
132764,-100,4,2,1,100,0,1
133964,-100,4,2,1,100,0,0
135964,-100,4,2,1,100,0,1
137164,-100,4,2,1,100,0,0
139164,-100,4,2,1,100,0,1
139564,-100,4,2,1,100,0,0
140364,-100,4,2,1,100,0,1
140464,-100,4,2,1,100,0,0
140564,-100,4,2,1,100,0,1
140964,-100,4,2,1,100,0,0
142364,-100,4,2,1,100,0,1
143564,-100,4,2,1,100,0,0
145564,-100,4,2,1,100,0,1
146364,-100,4,2,1,100,0,0
148764,-100,4,2,1,100,0,1
149964,-100,4,2,1,100,0,0
151964,-100,4,2,1,100,0,1
152364,-100,4,2,1,100,0,0
153164,-100,4,2,1,50,0,0
153967,-100,4,2,1,30,0,0

[HitObjects]
119,37,364,6,0,B|45:68|46:178|145:181|145:181|235:141|235:141|299:133|337:182,1,420,2|0,0:0|0:0,0:0:0:0:
449,38,2364,1,8,0:0:0:0:
242,333,3564,6,0,B|134:338|128:255|128:255|170:163|170:163|169:57|60:58,1,420,2|0,0:0|0:0,0:0:0:0:
3,224,5564,1,8,0:0:0:0:
340,99,6764,6,0,B|394:51|463:103|448:157|448:157|406:189|379:260|379:260|303:240|246:258,1,420,2|0,0:0|0:0,0:0:0:0:
86,329,8764,1,8,0:0:0:0:
312,49,9964,6,0,B|243:171|403:171|288:335|288:335|207:253,1,420
256,192,11464,12,4,13164,0:0:0:0:
208,254,25964,5,4,0:0:0:0:
208,254,38764,5,8,0:0:0:0:
92,222,39164,1,8,0:0:0:0:
123,107,39564,5,8,0:0:0:0:
239,138,39964,1,8,0:0:0:0:
311,42,40364,5,8,0:0:0:0:
358,151,40764,1,8,0:0:0:0:
311,260,41164,5,8,0:0:0:0:
358,369,41564,1,8,0:0:0:0:
238,355,41964,6,8,P|179:345|114:360,1,120
36,270,42764,2,8,P|46:211|31:146,1,120
121,68,43564,6,8,P|180:78|245:63,1,120
323,152,44364,1,8,0:0:0:0:
239,238,44764,6,8,L|158:230,1,60
147,181,45164,2,8,P|120:181|82:200,2,60
180,130,45764,5,8,0:0:0:0:
238,144,45964,2,8,P|297:155|363:142,1,120
411,122,46564,5,10,0:0:0:0:
463,151,46764,1,14,0:0:0:0:
472,210,46964,5,8,0:0:0:0:
441,261,47164,2,8,L|382:253,1,60
335,291,47564,6,8,L|276:299,2,60
362,344,48164,1,10,0:0:0:0:
419,361,48364,6,8,L|435:291,1,60,14|8,0:0|0:0,0:0:0:0:
479,266,48764,2,8,L|463:196,1,60
426,162,49164,6,8,L|442:92,1,60
407,52,49564,2,8,L|332:26,1,60
293,50,49964,5,12,0:0:0:0:
293,50,51564,6,8,L|219:48,1,60
135,117,52164,2,0,L|52:123,2,60,8|2|8,0:0|0:0|0:0,0:0:0:0:
170,167,52764,6,0,B|205:237|155:312|155:312|243:378|352:315,1,360,4|0,0:0|0:0,0:0:0:0:
397,282,54164,1,8,0:0:0:0:
341,175,54564,6,0,L|261:164,2,60,8|2|8,0:0|0:0|0:0,0:0:0:0:
420,85,55364,2,0,L|500:74,2,60,8|2|8,0:0|0:0|0:0,0:0:0:0:
366,58,55964,6,0,B|249:22|249:117|119:47,1,240,4|0,0:0|0:0,0:0:0:0:
139,174,57164,2,0,P|190:186|243:170,2,90,2|8|8,0:0|0:0|0:0,0:0:0:0:
104,223,57964,6,8,L|33:215,1,60
68,98,58564,2,0,L|54:19,2,60,8|2|8,0:0|0:0|0:0,0:0:0:0:
120,68,59164,6,0,B|237:25|237:131|366:64|366:64|402:117|369:174,1,360,4|2,0:0|0:0,0:0:0:0:
354,218,60564,1,8,0:0:0:0:
179,260,61164,6,0,P|177:199|186:163,2,90,8|8|8,0:0|0:0|0:0,0:0:0:0:
214,308,61964,2,8,L|289:323,1,60,2|8,0:0|0:0,0:0:0:0:
331,309,62364,5,4,0:0:0:0:
331,309,63564,5,4,0:0:0:0:
345,250,63764,2,0,P|353:188|333:116,1,120,4|2,0:0|0:0,0:0:0:0:
287,103,64364,6,8,L|275:32,1,60
167,93,64964,2,0,L|155:22,2,60,8|2|8,0:0|0:0|0:0,0:0:0:0:
128,138,65564,6,0,P|76:229|262:315,1,360,4|0,0:0|0:0,0:0:0:0:
298,279,66964,1,8,0:0:0:0:
356,174,67364,6,0,L|437:162,2,60,8|2|8,0:0|0:0|0:0,0:0:0:0:
294,70,68164,2,0,L|213:58,2,60,8|2|8,0:0|0:0|0:0,0:0:0:0:
342,33,68764,6,0,P|426:44|353:137,1,240,4|0,0:0|0:0,0:0:0:0:
275,218,69964,2,0,B|286:277|286:277|280:328,2,90,2|8|8,0:0|0:0|0:0,0:0:0:0:
223,187,70764,6,8,P|213:155|222:109,1,60
99,96,71364,2,8,P|109:64|100:18,2,60,8|2|8,0:0|0:0|0:0,0:0:0:0:
58,140,71964,6,0,B|6:196|45:267|45:267|160:218|160:317|285:269,1,360,4|2,0:0|0:0,0:0:0:0:
305,238,73364,1,8,0:0:0:0:
387,78,73964,5,8,0:0:0:0:
430,252,74564,2,0,L|420:333,2,60,8|2|8,0:0|0:0|0:0,0:0:0:0:
473,210,75164,5,4,0:0:0:0:
129,101,76364,1,8,0:0:0:0:
79,135,76564,6,0,P|65:180|69:204,1,60
95,244,76964,1,8,0:0:0:0:
81,302,77164,6,0,B|127:337|223:308|223:308|237:249|200:195|200:195|301:200|336:104,1,420
446,260,79164,1,0,0:0:0:0:
119,107,80364,6,0,B|327:-9|327:249|511:88,1,420
446,260,82364,1,0,0:0:0:0:
93,332,83564,5,8,0:0:0:0:
53,218,83964,1,8,0:0:0:0:
171,241,84364,5,8,0:0:0:0:
131,127,84764,1,8,0:0:0:0:
222,49,85164,5,8,0:0:0:0:
341,33,85564,1,8,0:0:0:0:
411,129,85964,5,8,0:0:0:0:
292,113,86364,1,8,0:0:0:0:
256,192,86764,12,4,89964,0:0:0:0:
292,113,102764,5,4,0:0:0:0:
292,113,115564,5,8,0:0:0:0:
373,201,115964,1,8,0:0:0:0:
253,203,116364,5,8,0:0:0:0:
172,115,116764,1,8,0:0:0:0:
163,234,117164,5,8,0:0:0:0:
97,334,117564,1,8,0:0:0:0:
214,310,117964,5,8,0:0:0:0:
329,341,118364,2,8,L|400:360,1,60
445,343,118764,6,8,P|435:268|447:200,1,120
491,115,119564,2,8,L|359:133,1,120
261,85,120364,6,8,P|277:142|255:215,1,120
168,273,121164,1,8,0:0:0:0:
87,183,121564,6,8,L|96:112,1,60
148,97,121964,2,8,L|139:26,2,60
199,128,122564,5,8,0:0:0:0:
250,97,122764,2,8,P|297:83|372:120,1,120
382,163,123364,5,10,0:0:0:0:
371,222,123564,1,14,0:0:0:0:
328,264,123764,5,8,0:0:0:0:
268,267,123964,2,8,L|199:253,1,60
169,209,124364,6,8,L|100:223,2,60
203,159,124964,1,10,0:0:0:0:
169,109,125164,6,8,L|240:60,1,60,14|8,0:0|0:0,0:0:0:0:
278,69,125564,2,8,L|346:112,1,60
377,136,125964,6,8,L|369:219,1,60
337,245,126364,2,8,L|345:328,1,60
379,352,126764,5,12,0:0:0:0:
379,352,128364,6,8,L|306:339,1,60
206,301,128964,2,0,L|133:314,2,60,8|2|8,0:0|0:0|0:0,0:0:0:0:
258,272,129564,6,0,P|296:188|114:195,1,360,4|0,0:0|0:0,0:0:0:0:
115,243,130964,1,8,0:0:0:0:
223,293,131364,6,0,L|211:369,2,60,8|2|8,0:0|0:0|0:0,0:0:0:0:
333,246,132164,2,0,L|321:170,2,60,8|2|8,0:0|0:0|0:0,0:0:0:0:
369,293,132764,6,0,P|434:271|376:130,1,240,4|0,0:0|0:0,0:0:0:0:
298,75,133964,2,0,P|314:22|368:2,2,90,2|8|8,0:0|0:0|0:0,0:0:0:0:
244,103,134764,6,8,P|221:130|219:161,1,60
231,272,135364,2,0,L|241:358,2,60,8|2|8,0:0|0:0|0:0,0:0:0:0:
279,236,135964,6,0,P|295:197|372:331,1,360,4|2,0:0|0:0,0:0:0:0:
326,329,137364,1,8,0:0:0:0:
165,247,137964,6,8,P|153:295|168:357,2,90
189,192,138764,2,0,P|209:143|209:123,1,60,2|8,0:0|0:0,0:0:0:0:
204,76,139164,5,4,0:0:0:0:
204,76,140364,5,4,0:0:0:0:
148,53,140564,2,0,P|64:45|8:70,1,120,4|2,0:0|0:0,0:0:0:0:
0,107,141164,6,8,P|0:142|21:183,1,60
93,250,141764,2,0,P|93:285|72:326,2,60,8|2|8,0:0|0:0|0:0,0:0:0:0:
136,208,142364,6,0,P|164:173|198:323,1,360,4|0,0:0|0:0,0:0:0:0:
152,316,143764,1,8,0:0:0:0:
44,262,144164,6,0,P|31:305|33:343,2,60,8|2|8,0:0|0:0|0:0,0:0:0:0:
30,142,144964,2,0,P|43:99|41:61,2,60,8|2|8,0:0|0:0|0:0,0:0:0:0:
78,178,145564,6,0,B|194:117|194:234|332:170,1,240,4|0,0:0|0:0,0:0:0:0:
256,71,146764,2,0,P|221:54|163:55,2,90,2|8|8,0:0|0:0|0:0,0:0:0:0:
309,44,147564,6,8,P|338:58|389:57,1,60
446,150,148164,2,0,L|517:142,2,60,8|2|8,0:0|0:0|0:0,0:0:0:0:
413,200,148764,6,0,P|322:202|424:331,1,360,4|2,0:0|0:0,0:0:0:0:
459,289,150164,1,8,0:0:0:0:
511,116,150764,5,8,0:0:0:0:
349,194,151364,2,0,P|339:237|346:275,2,60,8|2|8,0:0|0:0|0:0,0:0:0:0:
322,140,151964,5,4,0:0:0:0:
322,140,153164,5,8,0:0:0:0:
272,106,153364,2,0,P|234:93|192:101,1,60
156,108,153764,5,8,0:0:0:0:
122,157,153964,2,0,B|112:189|112:189|75:165|35:184|16:232|45:283|62:275|99:273|144:310|144:310|165:269|202:262|230:225|185:174,1,420
