osu file format v14

[General]
AudioFilename: audio.mp3
AudioLeadIn: 0
PreviewTime: 127064
Countdown: 0
SampleSet: Soft
StackLeniency: 0.3
Mode: 0
LetterboxInBreaks: 0
WidescreenStoryboard: 0

[Editor]
Bookmarks: 51564,64364,77164,128364,141164,155364
DistanceSpacing: 2.1
BeatDivisor: 4
GridSize: 32
TimelineZoom: 1.8

[Metadata]
Title:If You Wanna
TitleUnicode:If You Wanna
Artist:Perfume
ArtistUnicode:Perfume
Creator:Yugu
Version:Love Me
Source:
Tags:
BeatmapID:1404874
BeatmapSetID:663738

[Difficulty]
HPDrainRate:6
CircleSize:4.2
OverallDifficulty:8
ApproachRate:9.3
SliderMultiplier:2.1
SliderTickRate:1

[Events]
//Background and Video events
0,0,"bg.jpg",0,0
//Break Periods
2,13364,25410
2,26164,38210
2,90164,102210
2,102964,115010
//Storyboard Layer 0 (Background)
//Storyboard Layer 1 (Fail)
//Storyboard Layer 2 (Pass)
//Storyboard Layer 3 (Foreground)
//Storyboard Sound Samples

[TimingPoints]
364,400,4,2,1,30,1,0
364,-200,4,2,1,30,0,0
25964,-200,4,2,1,100,0,0
38764,-200,4,2,99,40,0,0
39064,-200,4,2,99,5,0,0
39164,-200,4,2,99,40,0,0
39464,-200,4,2,99,5,0,0
39564,-200,4,2,99,40,0,0
39864,-200,4,2,99,5,0,0
39964,-200,4,2,99,40,0,0
40264,-200,4,2,99,5,0,0
40364,-200,4,2,99,40,0,0
40664,-200,4,2,99,5,0,0
40764,-200,4,2,99,40,0,0
41064,-200,4,2,99,5,0,0
41164,-200,4,2,99,40,0,0
41464,-200,4,2,99,5,0,0
41564,-200,4,2,99,40,0,0
41864,-200,4,2,99,5,0,0
41964,-200,4,2,99,40,0,0
42264,-200,4,2,99,5,0,0
42364,-200,4,2,99,40,0,0
42664,-200,4,2,99,5,0,0
42764,-200,4,2,99,40,0,0
43064,-200,4,2,99,5,0,0
43164,-200,4,2,99,40,0,0
43464,-200,4,2,99,5,0,0
43564,-200,4,2,99,40,0,0
43864,-200,4,2,99,5,0,0
43964,-200,4,2,99,40,0,0
44264,-200,4,2,99,5,0,0
44364,-200,4,2,99,40,0,0
44664,-200,4,2,99,5,0,0
44764,-200,4,2,99,40,0,0
45564,-200,4,2,99,45,0,0
45964,-200,4,2,99,50,0,0
46364,-200,4,2,99,55,0,0
46964,-200,4,2,99,60,0,0
47364,-200,4,2,99,65,0,0
47764,-200,4,2,99,70,0,0
48364,-200,4,2,99,75,0,0
48764,-200,4,2,99,80,0,0
49164,-200,4,2,99,85,0,0
49564,-200,4,2,99,90,0,0
49964,-200,4,2,99,95,0,0
51564,-66.6666666666667,4,2,1,100,0,0
51764,-200,4,2,1,100,0,0
52164,-50,4,2,1,100,0,0
52364,-57.1428571428571,4,2,1,100,0,0
52564,-66.6666666666667,4,2,1,100,0,0
52764,-500,4,2,1,100,0,1
53964,-500,4,2,1,100,0,0
54164,-200,4,2,1,100,0,0
54564,-100,4,2,1,100,0,0
54764,-83.3333333333333,4,2,1,100,0,0
54964,-71.4285714285714,4,2,1,100,0,0
55364,-50,4,2,1,100,0,0
55564,-57.1428571428571,4,2,1,100,0,0
55764,-66.6666666666667,4,2,1,100,0,0
55964,-500,4,2,1,100,0,1
57164,-500,4,2,1,100,0,0
57964,-66.6666666666667,4,2,1,100,0,0
58164,-200,4,2,1,100,0,0
58564,-50,4,2,1,100,0,0
58764,-57.1428571428571,4,2,1,100,0,0
58964,-66.6666666666667,4,2,1,100,0,0
59164,-500,4,2,1,100,0,1
60364,-500,4,2,1,100,0,0
61164,-100,4,2,1,100,0,0
61464,-83.3333333333333,4,2,1,100,0,0
61764,-71.4285714285714,4,2,1,100,0,0
61964,-57.1428571428571,4,2,1,100,0,0
62164,-66.6666666666667,4,2,1,100,0,0
62364,-200,4,2,1,100,0,1
62764,-200,4,2,1,100,0,0
63164,-200,4,2,0,100,0,0
63564,-66.6666666666667,4,2,1,100,0,1
63664,-66.6666666666667,4,2,1,100,0,0
63764,-133.333333333333,4,2,1,100,0,1
64164,-133.333333333333,4,2,1,100,0,0
64364,-66.6666666666667,4,2,1,100,0,0
64564,-200,4,2,1,100,0,0
64964,-50,4,2,1,100,0,0
65164,-57.1428571428571,4,2,1,100,0,0
65364,-66.6666666666667,4,2,1,100,0,0
65564,-500,4,2,1,100,0,1
66764,-500,4,2,1,100,0,0
66964,-200,4,2,1,100,0,0
67364,-100,4,2,1,100,0,0
67564,-83.3333333333333,4,2,1,100,0,0
67764,-71.4285714285714,4,2,1,100,0,0
68164,-50,4,2,1,100,0,0
68364,-57.1428571428571,4,2,1,100,0,0
68564,-66.6666666666667,4,2,1,100,0,0
68764,-500,4,2,1,100,0,1
69964,-500,4,2,1,100,0,0
70764,-66.6666666666667,4,2,1,100,0,0
70964,-200,4,2,1,100,0,0
71364,-50,4,2,1,100,0,0
71564,-57.1428571428571,4,2,1,100,0,0
71764,-66.6666666666667,4,2,1,100,0,0
71964,-500,4,2,1,100,0,1
73164,-500,4,2,1,100,0,0
73964,-66.6666666666667,4,2,1,100,0,0
74164,-200,4,2,1,100,0,0
74564,-71.4285714285714,4,2,1,100,0,0
74764,-57.1428571428571,4,2,1,100,0,0
74964,-66.6666666666667,4,2,1,100,0,0
75164,-200,4,2,1,100,0,1
75564,-200,4,2,1,100,0,0
76364,-133.333333333333,4,2,1,50,0,0
77164,-200,4,2,1,30,0,0
83564,-200,4,2,99,40,0,0
83864,-200,4,2,99,5,0,0
83964,-200,4,2,99,40,0,0
84264,-200,4,2,99,5,0,0
84364,-200,4,2,99,40,0,0
84664,-200,4,2,99,5,0,0
84764,-200,4,2,99,40,0,0
85064,-200,4,2,99,5,0,0
85164,-200,4,2,99,40,0,0
85464,-200,4,2,99,5,0,0
85564,-200,4,2,99,40,0,0
85864,-200,4,2,99,5,0,0
85964,-200,4,2,99,40,0,0
86264,-200,4,2,99,5,0,0
86364,-200,4,2,99,40,0,0
87164,-200,4,2,99,50,0,0
87564,-200,4,2,99,55,0,0
87964,-200,4,2,99,60,0,0
88364,-200,4,2,99,65,0,0
88764,-200,4,2,99,70,0,0
89564,-100,4,2,99,70,0,0
89964,-100,4,2,99,100,0,0
102764,-100,4,2,1,100,0,0
115564,-200,4,2,99,40,0,0
115864,-200,4,2,99,5,0,0
115964,-200,4,2,99,40,0,0
116264,-200,4,2,99,5,0,0
116364,-200,4,2,99,40,0,0
116664,-200,4,2,99,5,0,0
116764,-200,4,2,99,40,0,0
117064,-200,4,2,99,5,0,0
117164,-200,4,2,99,40,0,0
117464,-200,4,2,99,5,0,0
117564,-200,4,2,99,40,0,0
117864,-200,4,2,99,5,0,0
117964,-200,4,2,99,40,0,0
118264,-200,4,2,99,5,0,0
118364,-200,4,2,99,40,0,0
118764,-200,4,2,99,40,0,0
119064,-200,4,2,99,5,0,0
119164,-200,4,2,99,40,0,0
119464,-200,4,2,99,5,0,0
119564,-200,4,2,99,40,0,0
119864,-200,4,2,99,5,0,0
119964,-200,4,2,99,40,0,0
120264,-200,4,2,99,5,0,0
120364,-200,4,2,99,40,0,0
120664,-200,4,2,99,5,0,0
120764,-200,4,2,99,40,0,0
121064,-200,4,2,99,5,0,0
121164,-200,4,2,99,40,0,0
121464,-200,4,2,99,5,0,0
121564,-200,4,2,99,40,0,0
122364,-200,4,2,99,45,0,0
122764,-200,4,2,99,50,0,0
123164,-200,4,2,99,55,0,0
123764,-200,4,2,99,60,0,0
124164,-200,4,2,99,65,0,0
124564,-200,4,2,99,70,0,0
125164,-200,4,2,99,75,0,0
125564,-200,4,2,99,80,0,0
125964,-200,4,2,99,85,0,0
126364,-200,4,2,99,90,0,0
126764,-200,4,2,99,95,0,0
128364,-66.6666666666667,4,2,1,100,0,0
128564,-200,4,2,1,100,0,0
129164,-57.1428571428571,4,2,1,100,0,0
129364,-66.6666666666667,4,2,1,100,0,0
129564,-500,4,2,1,100,0,1
130764,-500,4,2,1,100,0,0
130964,-100,4,2,1,80,0,0
131364,-100,4,2,1,100,0,0
131564,-83.3333333333333,4,2,1,100,0,0
131764,-71.4285714285714,4,2,1,100,0,0
132164,-50,4,2,1,100,0,0
132364,-71.4285714285714,4,2,1,100,0,0
132764,-500,4,2,1,100,0,1
133964,-500,4,2,1,100,0,0
134764,-66.6666666666667,4,2,1,100,0,0
134964,-200,4,2,1,100,0,0
135564,-57.1428571428571,4,2,1,100,0,0
135764,-66.6666666666667,4,2,1,100,0,0
135964,-500,4,2,1,100,0,1
137164,-500,4,2,1,100,0,0
137964,-100,4,2,1,100,0,0
138264,-83.3333333333333,4,2,1,100,0,0
138564,-71.4285714285714,4,2,1,100,0,0
138764,-57.1428571428571,4,2,1,100,0,0
138964,-66.6666666666667,4,2,1,100,0,0
139164,-200,4,2,1,100,0,1
139564,-200,4,2,1,100,0,0
139964,-200,4,2,0,100,0,0
140364,-66.6666666666667,4,2,1,100,0,1
140464,-66.6666666666667,4,2,1,100,0,0
140564,-133.333333333333,4,2,1,100,0,1
140964,-133.333333333333,4,2,1,100,0,0
141164,-66.6666666666667,4,2,1,100,0,0
141364,-200,4,2,1,100,0,0
141964,-57.1428571428571,4,2,1,100,0,0
142164,-66.6666666666667,4,2,1,100,0,0
142364,-500,4,2,1,100,0,1
143564,-500,4,2,1,100,0,0
143764,-100,4,2,1,80,0,0
144164,-100,4,2,1,100,0,0
144364,-83.3333333333333,4,2,1,100,0,0
144564,-71.4285714285714,4,2,1,100,0,0
144964,-50,4,2,1,100,0,0
145164,-71.4285714285714,4,2,1,100,0,0
145564,-500,4,2,1,100,0,1
146764,-500,4,2,1,100,0,0
147564,-66.6666666666667,4,2,1,100,0,0
147764,-200,4,2,1,100,0,0
148364,-57.1428571428571,4,2,1,100,0,0
148564,-66.6666666666667,4,2,1,100,0,0
148764,-500,4,2,1,100,0,1
149964,-500,4,2,1,100,0,0
150764,-66.6666666666667,4,2,1,100,0,0
150964,-200,4,2,1,100,0,0
151364,-71.4285714285714,4,2,1,100,0,0
151564,-57.1428571428571,4,2,1,100,0,0
151764,-66.6666666666667,4,2,1,100,0,0
151964,-200,4,2,1,100,0,1
152364,-200,4,2,1,100,0,0
153164,-133.333333333333,4,2,1,50,0,0
153964,-126.582278481013,4,2,1,30,0,0
155164,-126.582278481013,4,2,1,10,0,0
155364,-126.582278481013,4,2,1,5,0,0

[HitObjects]
75,82,364,6,0,B|136:91|173:34|173:34|126:145|167:207|167:207|245:198|259:133,1,420,2|0,0:0|0:0,0:0:0:0:
253,116,2364,6,0,B|312:164|392:116|392:116|356:137|326:119,1,210,8|0,0:0|0:0,0:0:0:0:
322,105,3564,6,0,B|332:26|446:52|417:129|417:129|446:181|413:235|413:235|396:198,1,315
381,211,5164,6,0,B|406:261|406:261|334:246|321:324|321:324|401:313|385:377|459:353,1,315
463,341,6764,6,0,B|262:233|262:377|51:305,1,420,2|0,0:0|0:0,0:0:0:0:
48,286,8764,6,0,B|125:232|61:198|128:162|128:162|171:191|158:228,1,210,8|0,0:0|0:0,0:0:0:0:
178,214,9964,6,0,B|259:206|259:137|259:137|283:104|245:63|245:63|173:82|185:143,1,315
184,137,11364,2,0,P|233:126|305:148,1,105
256,192,11964,12,4,13164,0:0:0:0:
285,137,25964,5,4,0:0:0:0:
191,149,38764,6,0,P|231:177|235:218,1,78.75,12|0,0:0|0:0,0:0:0:0:
221,122,39164,2,0,P|241:166|224:204,1,78.75,8|0,0:0|0:0,0:0:0:0:
260,114,39564,2,0,P|256:162|222:186,1,78.75,8|0,0:0|0:0,0:0:0:0:
299,126,39964,2,0,P|271:167|230:171,1,78.75,8|0,0:0|0:0,0:0:0:0:
103,267,40364,6,0,P|131:227|172:223,1,78.75,8|0,0:0|0:0,0:0:0:0:
141,279,40764,2,0,P|145:230|178:206,1,78.75,8|0,0:0|0:0,0:0:0:0:
180,271,41164,2,0,P|159:226|176:189,1,78.75,8|0,0:0|0:0,0:0:0:0:
211,245,41564,2,0,P|171:217|167:176,1,78.75,8|0,0:0|0:0,0:0:0:0:
198,17,41964,6,0,L|192:106,1,78.75,8|0,0:0|0:0,0:0:0:0:
186,39,42364,2,0,L|157:123,1,78.75,8|0,0:0|0:0,0:0:0:0:
169,58,42764,2,0,L|119:132,1,78.75,8|0,0:0|0:0,0:0:0:0:
148,72,43164,2,0,L|80:130,1,78.75,8|0,0:0|0:0,0:0:0:0:
27,228,43564,6,0,L|107:267,1,78.75,8|0,0:0|0:0,0:0:0:0:
52,228,43964,2,0,L|139:245,1,78.75,8|0,0:0|0:0,0:0:0:0:
77,223,44364,2,0,L|166:216,1,78.75,8|0,0:0|0:0,0:0:0:0:
99,212,44764,2,8,L|171:187,1,52.5
258,186,45164,5,12,0:0:0:0:
148,195,45364,1,8,0:0:0:0:
276,196,45564,5,8,0:0:0:0:
158,194,45764,1,8,0:0:0:0:
291,210,45964,5,8,0:0:0:0:
168,193,46164,1,8,0:0:0:0:
304,227,46364,5,8,0:0:0:0:
178,192,46564,1,10,0:0:0:0:
178,192,46664,1,2,0:0:0:0:
178,192,46764,1,14,0:0:0:0:
313,245,46964,5,8,0:0:0:0:
188,191,47164,1,8,0:0:0:0:
319,266,47364,5,8,0:0:0:0:
198,190,47564,1,8,0:0:0:0:
320,286,47764,5,8,0:0:0:0:
208,190,47964,1,8,0:0:0:0:
318,307,48164,5,2,0:0:0:0:
318,307,48264,1,2,0:0:0:0:
318,307,48364,1,14,0:0:0:0:
320,286,48464,1,0,0:0:0:0:
319,266,48564,1,0,0:0:0:0:
313,245,48664,1,0,0:0:0:0:
274,176,48764,5,8,0:0:0:0:
292,162,48864,1,0,0:0:0:0:
312,152,48964,1,0,0:0:0:0:
335,146,49064,1,0,0:0:0:0:
381,82,49164,5,8,0:0:0:0:
361,66,49264,1,0,0:0:0:0:
339,55,49364,1,0,0:0:0:0:
313,49,49464,1,0,0:0:0:0:
236,65,49564,5,8,0:0:0:0:
208,69,49664,1,0,0:0:0:0:
181,68,49764,1,0,0:0:0:0:
153,60,49864,1,0,0:0:0:0:
82,95,49964,5,12,0:0:0:0:
203,292,51564,6,0,P|250:293|290:269,1,78.7500030040742,8|0,0:0|0:0,0:0:0:0:
356,288,51764,6,0,P|370:251|364:219,1,52.5,8|0,0:0|0:0,0:0:0:0:
410,22,52164,6,0,P|445:71|449:121,1,105,8|0,0:0|0:0,0:0:0:0:
184,186,52364,2,0,P|233:168|295:186,1,91.8750008761883,2|0,0:0|0:0,0:0:0:0:
298,99,52564,2,0,P|338:132|353:195,1,78.7500030040742,8|0,0:0|0:0,0:0:0:0:
168,340,52764,6,0,P|188:279|241:246,1,126,4|0,0:0|0:0,0:0:0:0:
303,207,54164,6,0,P|264:240|214:243,1,78.75,8|0,0:0|0:0,0:0:0:0:
185,216,54564,6,0,L|275:227,1,52.5,8|0,0:0|0:0,0:0:0:0:
198,172,54764,2,0,L|253:243,1,62.9999980773926,2|0,0:0|0:0,0:0:0:0:
246,149,54964,2,0,L|235:239,1,73.4999977569581,8|0,0:0|0:0,0:0:0:0:
261,315,55164,1,0,0:0:0:0:
332,122,55364,6,0,P|298:73|208:68,1,105,8|0,0:0|0:0,0:0:0:0:
399,188,55564,2,0,P|424:134|383:53,1,91.8750008761883,2|0,0:0|0:0,0:0:0:0:
246,149,55764,2,0,P|186:153|137:229,1,78.7500030040742,8|0,0:0|0:0,0:0:0:0:
352,320,55964,6,0,P|403:272|460:276,1,126,4|2,0:0|0:0,0:0:0:0:
370,42,57464,1,8,0:0:0:0:
427,351,57764,1,8,0:0:0:0:
297,175,57964,6,0,L|287:290,1,78.7500030040742,8|0,0:0|0:0,0:0:0:0:
218,300,58164,6,0,L|263:345,1,52.5,8|0,0:0|0:0,0:0:0:0:
370,222,58564,6,0,P|383:171|352:109,1,105,8|0,0:0|0:0,0:0:0:0:
221,219,58764,2,0,P|271:203|309:146,1,91.8750008761883,2|0,0:0|0:0,0:0:0:0:
446,74,58964,2,0,P|407:37|338:33,1,78.7500030040742,8|0,0:0|0:0,0:0:0:0:
138,217,59164,6,0,P|161:274|217:299,1,126,4|2,0:0|0:0,0:0:0:0:
350,363,60564,1,8,0:0:0:0:
350,363,61164,6,0,P|364:315|336:251,1,105,8|0,0:0|0:0,0:0:0:0:
353,246,61464,2,0,P|337:192|368:120,1,125.999996154785,8|0,0:0|0:0,0:0:0:0:
383,131,61764,6,0,L|284:149,1,73.4999977569581,8|0,0:0|0:0,0:0:0:0:
211,191,61964,2,0,P|169:198|123:174,1,91.8750008761883,2|0,0:0|0:0,0:0:0:0:
31,121,62164,2,0,L|141:83,1,78.7500030040742,8|0,0:0|0:0,0:0:0:0:
262,37,62364,6,0,P|238:82|192:106,1,105,4|0,0:0|0:0,0:0:0:0:
356,41,63164,5,2,0:0:0:0:
383,131,63364,1,2,0:0:0:0:
305,186,63564,6,0,P|271:179|234:129,1,78.7500030040742,4|0,0:0|0:0,0:0:0:0:
262,37,63764,6,0,P|280:128|252:213,1,157.500006008148,4|2,0:0|0:0,0:0:0:0:
472,338,64364,6,0,P|426:314|360:329,1,78.7500030040742,8|0,0:0|0:0,0:0:0:0:
353,244,64564,6,0,P|325:261|313:301,1,52.5,8|0,0:0|0:0,0:0:0:0:
82,362,64964,6,0,P|49:315|70:237,1,105,8|0,0:0|0:0,0:0:0:0:
287,152,65164,2,0,P|252:199|183:209,1,91.8750008761883,2|0,0:0|0:0,0:0:0:0:
223,317,65364,2,0,P|166:301|133:239,1,78.7500030040742,8|0,0:0|0:0,0:0:0:0:
131,92,65564,6,0,P|172:51|243:53,1,126,4|0,0:0|0:0,0:0:0:0:
314,58,66964,6,0,P|275:61|237:50,1,78.75,8|0,0:0|0:0,0:0:0:0:
248,101,67364,6,0,L|237:50,1,52.5,8|0,0:0|0:0,0:0:0:0:
203,103,67564,2,0,L|237:50,1,62.9999980773926,2|0,0:0|0:0,0:0:0:0:
165,65,67764,2,0,L|238:49,1,73.4999977569581,8|0,0:0|0:0,0:0:0:0:
331,65,67964,1,0,0:0:0:0:
408,211,68164,6,0,P|383:255|315:280,1,105,8|0,0:0|0:0,0:0:0:0:
479,145,68364,2,0,P|504:188|492:260,1,91.8750008761883,2|0,0:0|0:0,0:0:0:0:
315,183,68564,2,0,P|264:183|208:136,1,78.7500030040742,8|0,0:0|0:0,0:0:0:0:
86,294,68764,6,0,P|140:250|197:259,1,126,4|2,0:0|0:0,0:0:0:0:
96,45,70264,1,8,0:0:0:0:
156,330,70564,1,8,0:0:0:0:
211,160,70764,6,0,P|250:168|306:148,1,78.7500030040742,8|0,0:0|0:0,0:0:0:0:
357,212,70964,6,0,L|390:159,1,52.5,8|0,0:0|0:0,0:0:0:0:
408,345,71364,6,0,P|344:360|261:328,1,105,8|0,0:0|0:0,0:0:0:0:
357,212,71564,2,0,P|422:209|494:157,1,91.8750008761883,2|0,0:0|0:0,0:0:0:0:
346,70,71764,2,0,P|291:53|242:-6,1,78.7500030040742,8|0,0:0|0:0,0:0:0:0:
109,133,71964,6,0,P|134:118|212:165,1,126,4|2,0:0|0:0,0:0:0:0:
153,295,73364,1,8,0:0:0:0:
153,295,73964,6,0,L|228:273,1,78.7500030040742,8|0,0:0|0:0,0:0:0:0:
256,191,74164,6,0,P|286:207|307:235,1,52.5,8|0,0:0|0:0,0:0:0:0:
461,347,74564,6,0,P|432:313|436:270,1,73.4999977569581,8|0,0:0|0:0,0:0:0:0:
267,67,74764,2,0,P|317:73|368:104,1,91.8750008761883,2|0,0:0|0:0,0:0:0:0:
499,182,74964,2,0,L|379:170,1,78.7500030040742,8|0,0:0|0:0,0:0:0:0:
155,204,75164,6,0,P|196:186|262:193,1,105,4|0,0:0|0:0,0:0:0:0:
30,242,76364,2,0,L|31:298,1,39.3750015020371,8|0,0:0|0:0,0:0:0:0:
155,204,76564,5,0,0:0:0:0:
135,127,76664,1,0,0:0:0:0:
80,184,76764,1,0,0:0:0:0:
190,70,76964,5,8,0:0:0:0:
177,279,77164,6,0,B|237:320|295:277|295:277|297:195|383:191|383:191|433:274|351:321,1,420
347,340,79164,6,0,B|362:242|428:249|407:146,1,210,8|0,0:0|0:0,0:0:0:0:
401,125,80364,6,0,B|441:153|473:148|473:148|441:153|409:169|409:169|331:125|245:169,1,315
230,154,81964,6,0,B|176:131|197:82|244:67|297:89|283:144|243:186|204:239|219:293|241:325,1,315
247,320,83564,6,0,L|332:300,1,78.75,8|0,0:0|0:0,0:0:0:0:
270,329,83964,2,0,L|333:269,1,78.75,8|0,0:0|0:0,0:0:0:0:
294,325,84364,2,0,L|319:241,1,78.75,8|0,0:0|0:0,0:0:0:0:
312,309,84764,2,0,L|292:224,1,78.75,8|0,0:0|0:0,0:0:0:0:
276,93,85164,6,0,L|191:113,1,78.75,8|0,0:0|0:0,0:0:0:0:
253,84,85564,2,0,L|189:143,1,78.75,8|0,0:0|0:0,0:0:0:0:
229,88,85964,2,0,L|203:171,1,78.75,8|0,0:0|0:0,0:0:0:0:
211,104,86364,2,8,L|227:174,1,52.5
170,252,86764,5,8,0:0:0:0:
293,232,86964,1,8,0:0:0:0:
144,233,87164,5,8,0:0:0:0:
293,245,87364,1,8,0:0:0:0:
123,209,87564,5,8,0:0:0:0:
291,258,87764,1,8,0:0:0:0:
111,179,87964,5,8,0:0:0:0:
287,270,88164,1,8,0:0:0:0:
108,147,88364,5,10,0:0:0:0:
108,131,88464,1,2,0:0:0:0:
113,116,88564,1,2,0:0:0:0:
122,103,88664,1,2,0:0:0:0:
158,87,88764,5,10,0:0:0:0:
194,102,88864,1,2,0:0:0:0:
232,107,88964,1,2,0:0:0:0:
271,106,89064,1,2,0:0:0:0:
339,78,89164,5,10,0:0:0:0:
485,34,89364,5,10,0:0:0:0:
468,57,89464,1,2,0:0:0:0:
460,84,89564,2,0,B|505:191|427:191|477:320,1,210,10|4,0:0|0:0,0:0:0:0:
466,289,102764,5,4,0:0:0:0:
385,246,115564,6,0,P|345:226|295:232,1,78.75,12|0,0:0|0:0,0:0:0:0:
394,174,115964,2,0,P|350:176|309:207,1,78.75,8|0,0:0|0:0,0:0:0:0:
367,107,116364,2,0,P|329:131|310:178,1,78.75,8|0,0:0|0:0,0:0:0:0:
310,62,116764,2,0,P|290:102|296:153,1,78.75,8|0,0:0|0:0,0:0:0:0:
198,289,117164,6,0,P|217:249|212:199,1,78.75,8|0,0:0|0:0,0:0:0:0:
235,317,117564,2,0,P|232:272|202:232,1,78.75,8|0,0:0|0:0,0:0:0:0:
281,323,117964,2,0,P|256:285|210:265,1,78.75,8|0,0:0|0:0,0:0:0:0:
325,306,118364,2,8,P|295:291|259:295,1,52.5
143,228,118764,6,0,P|176:211|218:216,1,78.75,8|0,0:0|0:0,0:0:0:0:
140,166,119164,2,0,P|177:168|211:194,1,78.75,8|0,0:0|0:0,0:0:0:0:
168,112,119564,2,0,P|199:132|216:171,1,78.75,8|0,0:0|0:0,0:0:0:0:
220,79,119964,2,0,P|236:112|231:154,1,78.75,8|0,0:0|0:0,0:0:0:0:
325,287,120364,6,0,P|308:245|318:196,1,78.75,8|0,0:0|0:0,0:0:0:0:
286,311,120764,2,0,P|292:266|326:229,1,78.75,8|0,0:0|0:0,0:0:0:0:
239,313,121164,2,0,P|266:277|314:262,1,78.75,8|0,0:0|0:0,0:0:0:0:
197,293,121564,2,8,P|227:281|262:288,1,52.5
355,263,121964,5,12,0:0:0:0:
246,282,122164,1,8,0:0:0:0:
369,248,122364,5,8,0:0:0:0:
256,281,122564,1,8,0:0:0:0:
380,231,122764,5,8,0:0:0:0:
266,279,122964,1,8,0:0:0:0:
388,211,123164,5,8,0:0:0:0:
276,277,123364,1,10,0:0:0:0:
276,277,123464,1,2,0:0:0:0:
276,277,123564,1,14,0:0:0:0:
392,191,123764,5,8,0:0:0:0:
286,276,123964,1,8,0:0:0:0:
393,169,124164,5,8,0:0:0:0:
296,274,124364,1,8,0:0:0:0:
389,150,124564,5,8,0:0:0:0:
305,272,124764,1,8,0:0:0:0:
381,130,124964,5,10,0:0:0:0:
381,130,125064,1,2,0:0:0:0:
381,130,125164,1,14,0:0:0:0:
366,115,125264,1,0,0:0:0:0:
348,103,125364,1,0,0:0:0:0:
329,95,125464,1,0,0:0:0:0:
260,58,125564,5,8,0:0:0:0:
254,81,125664,1,0,0:0:0:0:
253,104,125764,1,0,0:0:0:0:
256,127,125864,1,0,0:0:0:0:
282,201,125964,5,8,0:0:0:0:
289,226,126064,1,0,0:0:0:0:
290,252,126164,1,0,0:0:0:0:
287,277,126264,1,0,0:0:0:0:
236,337,126364,5,8,0:0:0:0:
216,317,126464,1,0,0:0:0:0:
200,293,126564,1,0,0:0:0:0:
189,268,126664,1,0,0:0:0:0:
202,190,126764,5,12,0:0:0:0:
380,74,128364,6,0,P|412:72|457:37,1,78.7500030040742,8|0,0:0|0:0,0:0:0:0:
219,102,128564,6,0,P|259:104|316:148,1,105,8|8,0:0|0:0,0:0:0:0:
227,333,129164,6,0,B|208:373|208:373|217:255,1,91.8750008761883,2|0,0:0|0:0,0:0:0:0:
355,287,129364,2,0,B|390:305|390:305|277:297,1,78.7500030040742,8|0,0:0|0:0,0:0:0:0:
102,191,129564,6,0,B|52:166|52:166|130:170,1,126,4|0,0:0|0:0,0:0:0:0:
217,107,130964,6,0,L|208:64,6,26.25,8|0|0|0|0|0|0,0:0|0:0|0:0|0:0|0:0|0:0|0:0,0:0:0:0:
271,189,131364,2,0,L|254:280,1,52.5,8|0,0:0|0:0,0:0:0:0:
350,122,131564,2,0,L|333:31,1,62.9999980773926,2|0,0:0|0:0,0:0:0:0:
413,213,131764,2,0,L|396:304,1,73.4999977569581,8|0,0:0|0:0,0:0:0:0:
433,375,131964,1,0,0:0:0:0:
174,295,132164,6,0,P|222:301|274:382,1,105,8|0,0:0|0:0,0:0:0:0:
362,287,132364,2,0,L|215:298,1,146.999995513916,2|8,0:0|0:0,0:0:0:0:
60,384,132764,6,0,L|186:374,1,126,4|2,0:0|0:0,0:0:0:0:
445,253,134264,1,8,0:0:0:0:
174,295,134564,1,8,0:0:0:0:
257,180,134764,6,0,P|303:180|362:155,1,78.7500030040742,8|0,0:0|0:0,0:0:0:0:
452,362,134964,6,0,P|412:339|348:331,1,105,8|8,0:0|0:0,0:0:0:0:
174,295,135564,6,0,P|140:315|180:301,1,91.8750008761883,2|0,0:0|0:0,0:0:0:0:
334,170,135764,2,0,P|352:204|325:172,1,78.7500030040742,8|0,0:0|0:0,0:0:0:0:
163,75,135964,6,0,P|163:24|188:66,1,126,4|2,0:0|0:0,0:0:0:0:
146,199,137364,1,8,0:0:0:0:
146,199,137964,6,0,L|131:331,1,105,8|0,0:0|0:0,0:0:0:0:
185,132,138264,2,0,L|170:264,1,125.999996154785,8|0,0:0|0:0,0:0:0:0:
225,64,138564,2,0,L|210:196,1,73.4999977569581,8|0,0:0|0:0,0:0:0:0:
314,235,138764,6,0,L|299:103,1,91.8750008761883,2|0,0:0|0:0,0:0:0:0:
399,42,138964,2,0,L|384:174,1,78.7500030040742,8|0,0:0|0:0,0:0:0:0:
512,256,139164,6,0,P|468:201|432:199,1,105,4|0,0:0|0:0,0:0:0:0:
399,42,139964,5,2,0:0:0:0:
303,143,140164,1,2,0:0:0:0:
438,176,140364,6,0,L|537:170,1,78.7500030040742,4|0,0:0|0:0,0:0:0:0:
390,251,140564,6,0,B|312:206|312:282|213:235,1,157.500006008148,4|2,0:0|0:0,0:0:0:0:
225,375,141164,6,0,P|274:372|330:337,1,78.7500030040742,8|0,0:0|0:0,0:0:0:0:
183,180,141364,6,8,P|157:220|163:284,1,105
390,251,141964,6,0,B|448:246|448:246|402:267,1,91.8750008761883,2|0,0:0|0:0,0:0:0:0:
307,143,142164,2,0,B|304:95|304:95|323:131,1,78.7500030040742,8|0,0:0|0:0,0:0:0:0:
159,275,142364,6,0,B|86:279|86:279|140:250,1,126,4|0,0:0|0:0,0:0:0:0:
248,333,143764,6,0,L|285:338,6,26.25,8|0|0|0|0|0|0,0:0|0:0|0:0|0:0|0:0|0:0|0:0,0:0:0:0:
390,263,144164,2,0,L|315:273,1,52.5,8|0,0:0|0:0,0:0:0:0:
227,176,144364,2,0,L|301:186,1,62.9999980773926,2|0,0:0|0:0,0:0:0:0:
432,83,144564,2,0,L|357:93,1,73.4999977569581,8|0,0:0|0:0,0:0:0:0:
275,45,144764,1,0,0:0:0:0:
149,120,144964,6,0,L|23:137,1,105,8|0,0:0|0:0,0:0:0:0:
96,268,145164,2,8,P|110:197|88:128,1,146.999995513916
194,354,145564,6,0,P|263:363|319:336,1,126,4|2,0:0|0:0,0:0:0:0:
492,163,147064,1,8,0:0:0:0:
246,269,147364,1,8,0:0:0:0:
350,226,147564,6,0,P|403:231|461:273,1,78.7500030040742,8|0,0:0|0:0,0:0:0:0:
261,157,147764,6,8,P|256:101|271:48,1,105
140,277,148364,6,0,B|93:288|93:288|13:268,1,91.8750008761883,2|0,0:0|0:0,0:0:0:0:
350,226,148564,2,0,B|397:215|397:215|477:235,1,78.7500030040742,8|0,0:0|0:0,0:0:0:0:
245,366,148764,6,0,B|239:313|239:313|251:263|251:263|248:235,1,126,4|2,0:0|0:0,0:0:0:0:
261,157,150164,1,8,0:0:0:0:
261,157,150764,6,0,B|265:115|265:115|261:35,1,78.7500030040742,8|0,0:0|0:0,0:0:0:0:
345,50,150964,6,8,P|330:17|310:2,1,52.5,8|0,0:0|0:0,0:0:0:0:
177,200,151364,6,0,P|207:234|296:248,1,73.4999977569581,8|0,0:0|0:0,0:0:0:0:
428,172,151564,2,0,L|324:179,1,91.8750008761883,2|0,0:0|0:0,0:0:0:0:
334,383,151764,2,0,P|341:336|339:294,1,78.7500030040742,8|0,0:0|0:0,0:0:0:0:
422,69,151964,6,0,P|416:120|427:171,1,105,4|0,0:0|0:0,0:0:0:0:
304,48,153164,2,0,L|300:-12,1,39.3750015020371,8|0,0:0|0:0,0:0:0:0:
313,204,153364,5,0,0:0:0:0:
380,161,153464,1,0,0:0:0:0:
309,127,153564,1,0,0:0:0:0:
317,281,153764,5,8,0:0:0:0:
238,93,153964,6,0,B|208:73|176:82|176:82|138:113|135:170|216:216|236:186|280:197|302:203|302:203|307:181|319:138|355:136|356:42|305:17|261:33|261:33|235:57|238:93,1,580.650014176026
