osu file format v14

[General]
AudioFilename: audio.mp3
AudioLeadIn: 0
PreviewTime: 52623
Countdown: 0
SampleSet: Soft
StackLeniency: 0.7
Mode: 0
LetterboxInBreaks: 0
WidescreenStoryboard: 1

[Editor]
Bookmarks: 10873,32206,35956,42873,50873,52206,53539,75040,80206,85540,90873,101540,112206,122873,130873,132206,133539,155039,162873,165539,175706
DistanceSpacing: 1.3
BeatDivisor: 4
GridSize: 8
TimelineZoom: 3.739999

[Metadata]
Title:Future Pop
TitleUnicode:Future Pop
Artist:Perfume
ArtistUnicode:Perfume
Creator:Mixagji
Version:Insane
Source:
Tags:japanese pop jpop j-pop electronic future bass
BeatmapID:3076132
BeatmapSetID:1500361

[Difficulty]
HPDrainRate:6
CircleSize:4
OverallDifficulty:8
ApproachRate:9
SliderMultiplier:1.8
SliderTickRate:1

[Events]
//Background and Video events
0,0,"perfume-electroworld_02.jpg",0,0
//Break Periods
//Storyboard Layer 0 (Background)
//Storyboard Layer 1 (Fail)
//Storyboard Layer 2 (Pass)
//Storyboard Layer 3 (Foreground)
//Storyboard Layer 4 (Overlay)
//Storyboard Sound Samples

[TimingPoints]
290,333.333333333333,4,2,3,50,1,0
290,-222.222222222223,4,2,3,50,0,0
32289,-153.846153846154,4,2,1,50,0,0
42623,-66.6666666666667,4,2,1,70,0,0
42956,-222.222222222221,4,2,1,55,0,0
45623,-153.846153846153,4,2,1,60,0,0
48289,-125,4,2,1,70,0,0
52289,-222.222222222221,4,2,1,70,0,0
52623,-117.647058823529,4,2,1,70,0,0
53289,-153.846153846154,4,2,1,70,0,0
53623,-100,4,2,1,75,0,1
58289,-100,4,2,3,75,0,1
58956,-100,4,2,1,75,0,1
63956,-222.222222222221,4,2,1,65,0,0
64289,-100,4,2,1,75,0,1
68789,-100,4,2,3,75,0,1
69623,-100,4,2,1,75,0,1
74956,-222.222222222221,4,2,1,60,0,0
80289,-153.846153846153,4,2,1,65,0,0
82956,-58.8235294117647,4,1,2,50,0,0
83956,-1000,4,2,1,25,0,0
85623,-333.333333333333,4,2,1,25,0,0
90956,-222.222222222223,4,2,3,50,0,0
112289,-153.846153846154,4,2,1,50,0,0
122956,-133.333333333333,4,2,1,55,0,0
125623,-133.333333333333,4,2,1,60,0,0
128289,-117.647058823529,4,2,1,70,0,0
132289,-222.222222222221,4,2,1,70,0,0
132623,-117.647058823529,4,2,1,70,0,0
133289,-153.846153846154,4,2,1,50,0,0
133623,-100,4,2,1,75,0,1
138289,-100,4,2,3,75,0,1
138956,-100,4,2,1,75,0,1
143956,-222.222222222221,4,2,1,75,0,0
144289,-100,4,2,1,75,0,1
148789,-100,4,2,3,75,0,1
149623,-100,4,2,1,75,0,1
154956,-222.222222222221,4,2,1,60,0,0
160289,-153.846153846153,4,2,1,60,0,0
162956,-58.8235294117647,4,1,2,50,0,0
163956,-1000,4,2,1,25,0,0

[Colours]
Combo1 : 255,128,64
Combo2 : 128,255,255
Combo3 : 255,255,128
Combo4 : 128,255,0

[HitObjects]
344,135,290,6,0,P|291:151|261:147,1,80.9999975280762,0|0,0:0|0:0,0:0:0:0:
181,92,789,2,0,P|142:80|100:86,1,80.9999975280762,0|0,0:0|0:0,0:0:0:0:
27,208,1289,2,0,L|37:294,1,80.9999975280763,0|0,0:0|0:0,0:0:0:0:
134,314,1789,2,0,L|124:228,1,80.9999975280763,0|0,0:0|0:0,0:0:0:0:
235,361,2289,5,2,0:0:0:0:
328,354,2456,1,2,0:0:0:0:
420,343,2623,2,0,L|470:338,1,40.4999987640381,0|0,0:0|0:0,0:0:0:0:
476,176,2956,6,0,P|489:213|481:252,1,80.9999975280763,0|0,0:0|0:0,0:0:0:0:
396,214,3456,2,0,P|382:176|390:137,1,80.9999975280763,0|0,0:0|0:0,0:0:0:0:
295,6,3956,2,0,L|381:11,1,80.9999975280763,0|0,0:0|0:0,0:0:0:0:
444,92,4456,2,0,L|358:87,1,80.9999975280763,0|0,0:0|0:0,0:0:0:0:
180,66,4956,5,2,0:0:0:0:
221,149,5123,2,0,P|222:171|213:194,1,40.4999987640381,0|0,0:0|0:0,0:0:0:0:
154,258,5456,1,2,0:0:0:0:
25,188,5623,6,0,L|113:177,1,80.9999975280763,0|0,0:0|0:0,0:0:0:0:
154,258,6123,2,0,L|242:247,1,80.9999975280763,0|0,0:0|0:0,0:0:0:0:
435,267,6623,2,0,P|453:303|447:343,1,80.9999975280763,0|0,0:0|0:0,0:0:0:0:
355,326,7123,2,0,P|337:290|343:250,1,80.9999975280763,0|0,0:0|0:0,0:0:0:0:
430,63,7623,5,2,0:0:0:0:
401,151,7790,1,2,0:0:0:0:
310,173,7956,1,0,0:0:0:0:
228,126,8123,1,2,0:0:0:0:
198,38,8289,6,0,L|108:52,1,80.9999975280763,0|0,0:0|0:0,0:0:0:0:
44,154,8789,2,0,P|40:180|54:197,1,40.4999987640381,0|0,0:0|0:0,0:0:0:0:
108,262,9123,1,0,0:0:0:0:
95,353,9289,2,0,L|189:340,1,80.9999975280763,0|0,0:0|0:0,0:0:0:0:
255,294,9789,2,0,L|351:300,1,80.9999975280763,0|0,0:0|0:0,0:0:0:0:
427,291,10289,6,0,P|439:287|449:286,1,20.2499993820191,2|0,0:0|0:0,0:0:0:0:
433,305,10456,2,0,P|445:307|454:312,1,20.2499993820191,0|0,0:0|0:0,0:0:0:0:
429,316,10623,2,0,P|438:324|443:333,1,20.2499993820191,2|0,0:0|0:0,0:0:0:0:
420,333,10789,2,0,P|423:345|424:355,1,20.2499993820191,0|0,0:0|0:0,0:0:0:0:
407,368,10956,6,0,P|369:342|334:274,1,121.499996292114,4|0,0:0|0:0,0:0:0:0:
317,184,11623,2,0,P|318:160|327:143,1,40.4999987640381,0|0,0:0|0:0,0:0:0:0:
475,75,11956,2,0,P|434:88|391:79,1,80.9999975280763,2|0,0:0|0:0,0:0:0:0:
306,58,12456,2,0,P|264:43|244:4,1,80.9999975280763,2|0,0:0|0:0,0:0:0:0:
325,145,12956,6,0,P|306:158|282:164,1,40.4999987640381,0|0,0:0|0:0,0:0:0:0:
197,171,13289,2,0,P|171:171|155:162,1,40.4999987640381,0|0,0:0|0:0,0:0:0:0:
27,77,13623,2,0,P|73:41|138:50,1,121.499996292114,2|0,0:0|0:0,0:0:0:0:
217,77,14289,2,0,P|237:91|241:110,1,40.4999987640381,0|0,0:0|0:0,0:0:0:0:
226,198,14623,1,0,0:0:0:0:
145,244,14789,6,0,L|78:235,1,60.7499981460572,2|0,0:0|0:0,0:0:0:0:
70,233,15123,2,0,P|65:208|71:189,1,40.4999987640381,2|0,0:0|0:0,0:0:0:0:
144,138,15456,1,0,0:0:0:0:
226,198,15623,5,2,0:0:0:0:
145,244,15789,1,0,0:0:0:0:
218,300,15956,1,2,0:0:0:0:
139,351,16123,1,0,0:0:0:0:
288,356,16289,6,0,B|335:365|372:323|372:323|373:358,1,121.499996292114,0|0,0:0|0:0,0:0:0:0:
302,271,16956,2,0,P|332:242|372:236,1,80.9999975280763,2|0,0:0|0:0,0:0:0:0:
482,247,17456,2,0,L|502:305,1,60.7499981460572,2|0,0:0|0:0,0:0:0:0:
506,318,17789,2,0,P|486:331|465:332,1,40.4999987640381,2|0,0:0|0:0,0:0:0:0:
376,324,18123,1,0,0:0:0:0:
262,274,18289,6,0,P|285:268|313:277,1,40.4999987640381,0|0,0:0|0:0,0:0:0:0:
262,356,18623,2,0,P|239:362|211:353,1,40.4999987640381,0|0,0:0|0:0,0:0:0:0:
135,322,18956,2,0,B|89:308|78:262|78:262|55:302,1,121.499996292114,2|0,0:0|0:0,0:0:0:0:
20,362,19623,2,0,P|40:371|63:369,1,40.4999987640381,2|2,0:0|0:0,0:0:0:0:
135,322,19956,1,0,0:0:0:0:
151,230,20123,6,0,P|138:202|113:186,1,60.7499981460572,2|0,0:0|0:0,0:0:0:0:
100,180,20456,2,0,P|78:180|60:186,1,40.4999987640381,2|0,0:0|0:0,0:0:0:0:
15,104,20789,1,0,0:0:0:0:
128,44,20956,2,0,L|88:46,1,40.4999987640381,2|2,0:0|0:0,0:0:0:0:
206,96,21289,1,0,0:0:0:0:
206,96,21456,1,2,0:0:0:0:
374,136,21623,6,0,P|313:141|259:167,1,121.499996292114,2|0,0:0|0:0,0:0:0:0:
214,248,22289,2,0,L|224:296,1,40.4999987640381,2|0,0:0|0:0,0:0:0:0:
164,167,22623,1,2,0:0:0:0:
87,219,22789,2,0,P|50:260|38:324,1,121.499996292114,2|0,0:0|0:0,0:0:0:0:
190,373,23456,1,0,0:0:0:0:
156,296,23623,6,0,P|154:268|163:249,1,40.4999987640381,2|0,0:0|0:0,0:0:0:0:
211,180,23956,2,0,P|225:163|247:156,1,40.4999987640381,2|0,0:0|0:0,0:0:0:0:
343,63,24289,2,0,L|221:75,1,121.499996292114,2|0,0:0|0:0,0:0:0:0:
372,160,24956,6,0,L|332:158,1,40.4999987640381,2|2,0:0|0:0,0:0:0:0:
241,156,25289,1,0,0:0:0:0:
320,264,25456,2,0,L|385:257,1,60.7499981460572,2|0,0:0|0:0,0:0:0:0:
395,256,25789,2,0,L|439:251,1,40.4999987640381,0|0,0:0|0:0,0:0:0:0:
485,172,26123,1,0,0:0:0:0:
361,51,26289,5,0,0:0:0:0:
286,107,26456,2,0,P|263:116|236:116,1,40.4999987640381,2|0,0:0|0:0,0:0:0:0:
159,86,26789,1,0,0:0:0:0:
60,82,26956,6,0,B|17:143|67:191|67:191|127:151|181:196,1,242.999992584229,2|0,0:0|0:0,0:0:0:0:
235,273,28123,1,0,0:0:0:0:
206,361,28289,6,0,L|159:358,1,40.4999987640381,0|0,0:0|0:0,0:0:0:0:
118,256,28623,2,0,L|114:304,1,40.4999987640381,0|0,0:0|0:0,0:0:0:0:
235,273,28956,2,0,P|258:267|274:254,1,40.4999987640381,2|0,0:0|0:0,0:0:0:0:
343,327,29289,2,0,P|364:317|371:287,1,40.4999987640381,2|2,0:0|0:0,0:0:0:0:
395,204,29623,6,0,L|388:162,1,40.4999987640381,0|0,0:0|0:0,0:0:0:0:
440,86,29956,1,0,0:0:0:0:
497,159,30123,1,0,0:0:0:0:
469,247,30289,2,0,P|457:272|439:283,1,40.4999987640381,8|0,0:0|0:0,0:0:0:0:
318,208,30623,6,0,P|279:192|238:197,1,80.9999975280763,0|0,0:0|0:0,0:0:0:0:
149,212,31123,1,0,0:0:0:0:
77,152,31289,1,0,0:0:0:0:
110,64,31456,1,0,0:0:0:0:
203,61,31623,2,0,P|203:81|195:100,1,40.4999987640381,8|0,0:0|0:0,0:0:0:0:
77,152,31956,2,0,L|35:146,1,40.4999987640381,0|0,0:0|0:0,0:0:0:0:
110,64,32289,6,0,P|168:61|228:83,1,116.999994644165,4|0,0:3|0:0,0:0:0:0:
265,157,32789,1,0,0:0:0:0:
388,105,32956,6,0,P|375:131|352:148,1,58.4999973220826,8|0,0:0|0:0,0:0:0:0:
198,233,33289,2,0,P|167:229|144:211,1,58.4999973220826,0|0,0:0|0:0,0:0:0:0:
183,86,33623,2,0,P|196:112|197:141,1,58.4999973220826,0|0,0:0|0:0,0:0:0:0:
306,278,33956,2,0,P|298:310|279:331,1,58.4999973220826,0|0,0:0|0:0,0:0:0:0:
156,370,34289,2,0,L|41:342,1,116.999994644165,8|0,0:0|0:0,0:0:0:0:
207,310,34789,1,0,0:0:0:0:
306,278,34956,6,0,P|350:275|390:299,1,87.749995983124,4|0,0:1|0:0,0:0:0:0:
400,318,35289,1,0,0:0:0:0:
329,370,35456,1,0,0:0:0:0:
306,278,35623,2,0,L|313:216,1,58.4999973220826,8|0,0:0|0:0,0:0:0:0:
447,106,35956,2,0,L|454:44,1,58.4999973220826,0|0,0:0|0:0,0:0:0:0:
315,8,36289,6,0,P|344:5|372:14,1,58.4999973220826,0|0,0:0|0:0,0:0:0:0:
280,91,36623,1,8,0:0:0:0:
192,91,36789,1,0,0:0:0:0:
104,90,36956,2,0,L|41:87,1,58.4999973220826,8|0,0:0|0:0,0:0:0:0:
149,14,37289,1,0,0:0:0:0:
192,91,37456,1,0,0:0:0:0:
135,174,37623,6,0,L|17:172,1,116.999994644165,4|0,0:1|0:0,0:0:0:0:
191,256,38123,1,0,0:0:0:0:
278,256,38289,2,0,P|313:253|334:238,1,58.4999973220826,8|0,0:1|0:0,0:0:0:0:
219,343,38623,2,0,P|191:351|160:344,1,58.4999973220826,0|0,0:0|0:0,0:0:0:0:
45,251,38956,6,0,P|73:243|104:250,1,58.4999973220826,0|0,0:0|0:0,0:0:0:0:
191,256,39289,1,0,0:0:0:0:
191,256,39456,1,0,0:0:0:0:
244,81,39623,2,0,P|267:134|246:187,1,116.999994644165,8|0,0:0|0:0,0:0:0:0:
177,131,40123,1,0,0:0:0:0:
303,181,40289,6,0,L|245:185,1,58.4999973220826,4|0,1:0|0:0,0:0:0:0:
334,87,40623,1,0,0:0:0:0:
421,80,40789,1,0,0:0:0:0:
431,167,40956,2,0,L|437:228,1,58.4999973220826,8|0,1:2|0:0,0:0:0:0:
334,87,41289,2,0,L|345:186,1,87.749995983124,0|0,0:0|0:0,0:0:0:0:
348,218,41623,5,2,0:0:0:0:
431,167,41789,1,0,0:0:0:0:
334,87,41956,1,4,0:3:0:0:
250,184,42123,1,0,0:0:0:0:
431,167,42289,2,0,P|405:183|371:176,1,58.4999973220826,8|0,0:1|0:0,0:0:0:0:
250,184,42623,6,0,P|336:137|436:171,1,202.500007724762,8|0,0:3|0:0,0:0:0:0:
449,190,42956,6,0,P|467:170|463:153,1,40.4999987640381,0|2,3:0|3:0,0:0:0:0:
417,294,43289,2,0,P|441:304|456:294,1,40.4999987640381,0|2,3:0|3:0,0:0:0:0:
280,349,43623,2,0,P|279:375|293:386,1,40.4999987640381,8|0,0:1|0:0,0:0:0:0:
362,374,43956,2,0,P|362:347|348:336,1,40.4999987640381,8|0,0:1|0:0,0:0:0:0:
242,267,44289,6,0,L|188:274,1,40.4999987640381,8|0,0:1|0:0,0:0:0:0:
97,174,44623,2,0,L|41:172,1,40.4999987640381,8|0,0:1|0:0,0:0:0:0:
85,312,44956,2,0,L|96:268,1,40.4999987640381,8|0,0:1|0:0,0:0:0:0:
186,164,45289,2,0,L|175:119,1,40.4999987640381,0|0,0:0|0:0,0:0:0:0:
116,33,45623,6,0,P|88:29|56:50,1,58.4999973220826,0|2,3:0|3:0,0:0:0:0:
257,104,45956,2,0,P|285:108|317:87,1,58.4999973220826,0|2,3:0|3:0,0:0:0:0:
494,73,46289,2,0,L|480:12,1,58.4999973220826,8|0,0:0|0:0,0:0:0:0:
411,111,46623,2,0,L|425:172,1,58.4999973220826,8|0,0:1|0:0,0:0:0:0:
298,281,46956,6,0,P|327:276|350:258,1,58.4999973220826,8|0,0:1|0:0,0:0:0:0:
143,316,47289,2,0,P|161:338|188:348,1,58.4999973220826,8|0,0:1|0:0,0:0:0:0:
34,199,47623,2,0,P|23:226|28:254,1,58.4999973220826,8|0,0:1|0:0,0:0:0:0:
237,186,47956,2,0,P|241:157|231:130,1,58.4999973220826,8|8,0:1|0:0,0:0:0:0:
77,36,48289,6,0,P|112:35|145:67,1,72,2|0,0:0|0:0,0:0:0:0:
135,158,48623,2,0,L|116:229,1,72,0|0,1:0|0:0,0:0:0:0:
236,348,48956,6,0,L|165:329,1,72,2|0,0:0|0:0,0:0:0:0:
346,211,49289,2,0,L|327:282,1,72,0|0,1:0|0:0,0:0:0:0:
378,368,49623,6,0,P|405:348|422:307,1,72,2|0,0:0|0:0,0:0:0:0:
308,137,49956,2,0,P|281:157|264:198,1,72,0|0,1:0|0:0,0:0:0:0:
346,211,50206,1,0,0:0:0:0:
346,211,50289,6,0,L|418:210,1,72,2|0,0:0|0:0,0:0:0:0:
251,78,50623,2,0,L|141:79,1,108,0|0,1:0|0:0,0:0:0:0:
92,80,50956,5,0,1:0:0:0:
40,166,51123,1,0,0:0:0:0:
167,152,51289,1,0,1:0:0:0:
154,252,51456,1,0,0:0:0:0:
283,162,51623,5,0,1:0:0:0:
292,185,51706,1,2,0:0:0:0:
297,209,51789,1,2,0:0:0:0:
297,234,51873,1,2,0:0:0:0:
291,258,51956,5,0,1:0:0:0:
279,280,52039,1,2,0:0:0:0:
274,305,52123,1,2,0:0:0:0:
276,329,52206,1,2,0:0:0:0:
285,351,52289,2,0,P|309:355|345:338,1,60.7499981460572,4|0,1:2|0:0,0:0:0:0:
350,315,52623,6,0,P|360:350|336:382,1,76.5000014591217,2|0,0:1|0:0,0:0:0:0:
185,337,52956,1,0,3:0:0:0:
332,226,53123,1,2,0:0:0:0:
332,226,53206,1,2,0:0:0:0:
332,226,53289,2,0,P|376:227|414:257,1,87.749995983124,4|0,1:3|0:0,0:0:0:0:
420,240,53623,6,0,L|416:337,1,90,4|0,0:1|0:0,0:0:0:0:
228,249,53956,1,0,1:0:0:0:
233,158,54123,2,0,L|237:61,1,90,0|0,0:0|0:0,0:0:0:0:
52,149,54456,1,2,0:0:0:0:
143,154,54623,2,0,L|240:158,1,90,0|0,1:0|0:0,0:0:0:0:
52,149,54956,5,2,0:0:0:0:
145,252,55123,1,0,0:0:0:0:
247,159,55289,1,0,1:0:0:0:
154,56,55456,1,0,0:0:0:0:
143,75,55539,1,0,0:0:0:0:
139,97,55623,1,0,0:0:0:0:
139,119,55706,1,0,0:0:0:0:
143,140,55789,1,2,0:0:0:0:
247,159,55956,2,0,L|337:152,1,90,0|0,1:0|0:0,0:0:0:0:
454,51,56289,5,4,0:0:0:0:
325,46,56456,1,4,0:0:0:0:
437,153,56623,1,0,1:0:0:0:
336,152,56789,1,4,0:3:0:0:
459,259,56956,2,0,P|412:264|375:237,1,90,4|2,0:3|0:0,0:0:0:0:
243,288,57289,2,0,P|169:296|130:342,1,135,4|0,1:3|0:0,0:0:0:0:
105,349,57623,5,2,0:0:0:0:
28,214,57789,2,0,P|72:223|101:258,1,90,0|0,0:0|1:0,0:0:0:0:
188,154,58123,1,0,0:0:0:0:
79,104,58289,1,2,0:3:0:0:
79,104,58373,1,2,0:0:0:0:
79,104,58456,1,2,0:0:0:0:
28,214,58623,1,2,1:0:0:0:
188,154,58789,1,2,0:0:0:0:
97,19,58956,6,0,P|53:16|17:41,1,90,4|0,0:1|0:0,0:0:0:0:
188,154,59289,1,0,1:0:0:0:
277,147,59456,2,0,P|316:126|334:83,1,90,0|0,0:0|0:0,0:0:0:0:
469,213,59789,1,2,0:0:0:0:
401,273,59956,2,0,P|356:278|316:256,1,90,0|0,1:0|0:0,0:0:0:0:
374,187,60289,5,2,0:0:0:0:
471,320,60456,1,0,0:0:0:0:
312,356,60623,2,0,L|220:344,1,90,0|0,1:0|0:0,0:0:0:0:
196,319,60873,1,0,0:0:0:0:
163,304,60956,1,0,0:0:0:0:
127,306,61039,1,0,0:0:0:0:
95,324,61123,1,2,0:0:0:0:
44,249,61289,2,0,P|11:278|6:328,1,90,0|0,1:0|0:0,0:0:0:0:
151,382,61623,5,4,0:0:0:0:
193,303,61789,1,4,0:0:0:0:
164,207,61956,1,0,1:0:0:0:
83,159,62123,1,4,0:3:0:0:
212,122,62289,1,4,0:3:0:0:
248,252,62456,1,2,0:0:0:0:
92,309,62623,2,0,B|55:338|8:320|8:320|35:315|51:297,1,135,4|0,1:3|0:0,0:0:0:0:
90,238,62956,5,2,0:0:0:0:
248,252,63123,2,0,B|294:237|325:207,1,90,0|0,0:0|1:0,0:0:0:0:
256,80,63456,1,0,1:0:0:0:
256,80,63539,1,0,0:0:0:0:
256,80,63623,5,0,3:0:0:0:
168,60,63789,5,0,3:0:0:0:
79,45,63956,6,0,L|91:113,1,60.7499981460572,2|0,0:3|0:0,0:0:0:0:
93,129,64289,6,0,P|127:159|170:161,1,90,4|0,0:1|0:0,0:0:0:0:
262,259,64623,1,0,1:0:0:0:
350,246,64789,2,0,P|393:230|418:194,1,90,0|0,0:0|0:0,0:0:0:0:
248,64,65123,1,2,0:0:0:0:
160,77,65289,2,0,P|117:93|92:129,1,90,0|0,1:0|0:0,0:0:0:0:
175,192,65623,5,2,0:0:0:0:
258,159,65789,1,0,0:0:0:0:
160,77,65956,1,0,1:0:0:0:
319,74,66123,1,0,0:0:0:0:
341,74,66206,1,0,0:0:0:0:
363,70,66289,1,0,0:0:0:0:
384,63,66373,1,0,0:0:0:0:
404,54,66456,1,2,0:0:0:0:
482,148,66623,2,0,L|382:145,1,90,0|0,1:0|0:0,0:0:0:0:
259,263,66956,5,4,0:0:0:0:
281,350,67123,1,4,0:0:0:0:
259,263,67289,1,0,1:0:0:0:
410,266,67456,1,4,0:3:0:0:
388,353,67623,1,4,0:3:0:0:
410,266,67789,1,2,0:0:0:0:
335,214,67956,2,0,P|270:223|231:275,1,135,4|0,1:3|0:0,0:0:0:0:
231,303,68289,5,2,0:0:0:0:
388,353,68456,2,0,L|409:264,1,90,0|0,0:0|1:0,0:0:0:0:
429,177,68789,1,0,0:0:0:0:
316,292,68956,1,2,0:1:0:0:
316,292,69039,1,2,0:0:0:0:
316,292,69123,1,2,0:0:0:0:
487,241,69289,1,0,1:0:0:0:
325,201,69456,1,2,0:0:0:0:
233,238,69623,6,0,P|216:280|227:324,1,90,4|0,0:1|0:0,0:0:0:0:
408,265,69956,1,0,1:0:0:0:
418,166,70123,2,0,L|431:73,1,90,0|0,0:0|0:0,0:0:0:0:
210,49,70456,1,2,0:0:0:0:
220,148,70623,2,0,L|233:241,1,90,0|0,1:0|0:0,0:0:0:0:
325,201,70956,5,2,0:0:0:0:
134,225,71123,1,0,0:0:0:0:
210,49,71289,2,0,L|223:142,1,90,0|0,1:0|0:0,0:0:0:0:
205,170,71539,1,0,0:0:0:0:
169,164,71623,1,0,0:0:0:0:
137,146,71706,1,0,0:0:0:0:
124,112,71789,1,2,0:0:0:0:
214,32,71956,2,0,L|306:39,1,90,0|0,1:0|0:0,0:0:0:0:
439,154,72289,5,4,0:0:0:0:
349,163,72456,1,4,0:0:0:0:
456,34,72623,1,0,1:0:0:0:
303,38,72789,1,4,0:3:0:0:
380,84,72956,1,4,0:3:0:0:
456,34,73123,1,2,0:0:0:0:
303,38,73289,2,0,P|258:86|226:158,1,135,4|0,1:3|0:0,0:0:0:0:
230,175,73623,5,2,0:0:0:0:
99,232,73789,1,0,0:0:0:0:
20,113,73956,2,0,L|116:128,1,90,0|0,1:0|1:0,0:0:0:0:
108,126,74206,1,0,0:0:0:0:
108,126,74289,1,0,1:0:0:0:
192,252,74456,1,0,1:0:0:0:
192,252,74539,1,0,0:0:0:0:
192,252,74623,1,0,1:0:0:0:
94,348,74789,1,0,1:0:0:0:
94,348,74873,1,0,1:0:0:0:
94,348,74956,6,0,L|47:338,1,40.4999987640381,2|4,0:0|0:0,0:0:0:0:
25,232,75289,2,0,L|72:242,1,40.4999987640381,2|0,0:0|0:0,0:0:0:0:
192,252,75623,2,0,L|190:202,1,40.4999987640381,2|0,0:0|0:0,0:0:0:0:
278,146,75956,2,0,L|276:96,1,40.4999987640381,2|0,0:0|0:0,0:0:0:0:
281,236,76289,5,2,0:0:0:0:
369,250,76456,2,0,P|400:251|417:243,1,40.4999987640381,4|2,0:3|0:0,0:0:0:0:
487,206,76789,1,0,0:0:0:0:
406,168,76956,2,0,P|375:167|358:175,1,40.4999987640381,4|0,0:3|0:0,0:0:0:0:
309,320,77289,6,0,P|323:337|350:336,1,40.4999987640381,0|0,0:0|0:0,0:0:0:0:
485,314,77623,2,0,P|471:331|444:330,1,40.4999987640381,2|4,0:0|0:0,0:0:0:0:
369,250,77956,2,0,P|361:225|365:198,1,40.4999987640381,2|0,0:0|0:0,0:0:0:0:
320,109,78289,2,0,P|326:82|338:70,1,40.4999987640381,2|0,0:0|0:0,0:0:0:0:
415,34,78623,5,0,3:0:0:0:
445,108,78789,1,0,0:0:0:0:
477,182,78956,1,2,0:0:0:0:
395,178,79123,5,0,3:0:0:0:
314,169,79289,1,2,0:0:0:0:
233,159,79456,1,0,0:0:0:0:
278,91,79623,6,0,L|324:96,1,40.4999987640381,2|0,3:2|0:0,0:0:0:0:
389,250,79956,2,0,L|325:245,1,60.7499981460572,4|0,0:3|0:0,0:0:0:0:
304,243,80289,6,0,P|289:270|292:300,1,58.4999973220826,0|4,1:0|0:0,0:0:0:0:
152,348,80623,2,0,P|161:317|182:298,1,58.4999973220826,0|0,1:0|0:0,0:0:0:0:
197,154,80956,2,0,P|181:181|155:195,1,58.4999973220826,0|0,1:0|0:0,0:0:0:0:
10,99,81289,2,0,P|29:117|69:115,1,58.4999973220826,0|0,1:0|0:0,0:0:0:0:
207,19,81623,6,0,P|178:19|156:39,1,58.4999973220826,0|0,1:0|0:0,0:0:0:0:
301,144,81956,2,0,P|329:143|351:123,1,58.4999973220826,0|0,1:0|0:0,0:0:0:0:
464,17,82289,2,0,P|486:40|489:72,1,58.4999973220826,0|0,1:0|0:0,0:0:0:0:
410,272,82623,2,0,P|389:251|383:223,1,58.4999973220826,0|0,1:0|0:0,0:0:0:0:
464,208,82956,6,0,B|466:222|466:222|457:219|457:219|462:233|462:233|452:228|452:228|458:241|458:241|447:237|447:237|452:249|452:249|440:244|440:244|445:256|445:256|434:251|434:251|437:261|437:261|427:256|427:256|430:267|430:267|419:262|419:262|422:272|422:272|410:265|410:265|413:275|413:275|399:267|399:267|403:278|403:278|389:268|389:268|392:278|392:278|381:273|381:273|386:284|386:284|374:280|374:280|377:289|377:289|367:287|367:287|373:297|373:297|361:298|361:298|368:308|368:308|357:311|357:311|364:320|364:320|357:332,1,382.500007295609,8|0,0:0|0:0,0:0:0:0:
318,376,83456,6,0,B|315:371|315:371|322:362|322:362|311:359|311:359|318:349|318:349|306:348|306:348|312:338|312:338|302:340|302:340|305:331|305:331|293:335|293:335|298:324|298:324|287:329|287:329|290:319|290:319|276:329|276:329|280:318|280:318|266:326|266:326|269:316|269:316|257:323|257:323|260:313|260:313|249:318|249:318|252:307|252:307|242:312|242:312|245:302|245:302|234:307|234:307|239:295|239:295|227:300|227:300|232:288|232:288|221:292|221:292|227:279|227:279|217:284|217:284|222:270|222:270|213:273|213:273|215:259,1,382.500007295609,2|0,0:0|0:0,0:0:0:0:
229,193,83956,6,0,P|196:178|200:213,1,85.5,2|0,0:0|0:0,0:0:0:0:
215,259,85623,6,0,B|195:357|62:268|45:363,2,215.999993408203,0|0|0,0:0|0:0|0:0,0:0:0:0:
212,237,88623,5,0,0:0:0:0:
200,218,88956,5,0,0:0:0:0:
182,205,89289,5,0,0:0:0:0:
161,199,89623,6,0,L|80:212,1,80.9999975280763,0|0,0:0|0:0,0:0:0:0:
59,216,90289,1,0,0:0:0:0:
37,88,90956,6,0,P|91:70|163:88,1,121.499996292114,2|0,0:1|0:0,0:0:0:0:
210,134,91623,2,0,P|252:145|290:128,1,80.9999975280763,2|2,0:1|0:0,0:0:0:0:
324,64,92123,1,0,0:0:0:0:
247,64,92289,2,0,P|245:127|296:173,1,121.499996292114,2|0,0:1|0:0,0:0:0:0:
358,182,92956,6,0,P|388:177|397:162,1,40.4999987640381,2|0,0:1|0:0,0:0:0:0:
461,206,93289,2,0,P|480:189|483:175,1,40.4999987640381,2|0,0:0|0:0,0:0:0:0:
504,274,93623,2,0,B|459:298|416:272|416:272|427:306,1,121.499996292114,2|0,0:1|0:0,0:0:0:0:
420,376,94289,2,0,P|449:376|468:364,1,40.4999987640381,2|0,0:1|0:0,0:0:0:0:
346,315,94623,2,0,P|317:315|298:327,1,40.4999987640381,2|2,0:0|0:0,0:0:0:0:
242,278,94956,6,0,P|186:292|138:340,1,121.499996292114,2|0,0:1|0:0,0:0:0:0:
22,313,95623,2,0,P|21:334|32:355,1,40.4999987640381,2|0,0:0|0:0,0:0:0:0:
59,349,95956,2,0,P|60:328|49:307,1,40.4999987640381,2|0,0:0|0:0,0:0:0:0:
14,208,96289,6,0,B|36:227|36:227|81:204|73:149,1,121.499996292114,2|0,0:1|0:0,0:0:0:0:
149,139,96956,2,0,P|135:100|102:81,1,80.9999975280763,2|2,0:1|0:0,0:0:0:0:
25,87,97456,1,0,0:0:0:0:
102,81,97623,2,0,B|139:73|151:17|151:17|186:51,1,121.499996292114,2|0,0:1|0:0,0:0:0:0:
253,35,98289,6,0,P|254:57|246:78,1,40.4999987640381,2|0,0:1|0:0,0:0:0:0:
279,145,98623,2,0,P|270:164|254:177,1,40.4999987640381,2|0,0:0|0:0,0:0:0:0:
137,275,98956,2,0,P|181:244|246:253,1,121.499996292114,2|0,0:1|0:0,0:0:0:0:
309,295,99623,2,0,P|333:299|353:297,1,40.4999987640381,2|2,0:1|0:0,0:0:0:0:
418,330,99956,2,0,P|441:324|459:311,1,40.4999987640381,0|2,0:0|0:0,0:0:0:0:
485,204,100289,6,0,P|446:221|380:182,1,121.499996292114,2|0,0:1|0:0,0:0:0:0:
316,143,100956,2,0,P|303:119|307:103,1,40.4999987640381,2|0,0:0|0:0,0:0:0:0:
254,48,101289,2,0,P|263:28|283:15,1,40.4999987640381,2|0,0:0|0:0,0:0:0:0:
422,31,101623,6,0,P|400:43|380:43,1,40.4999987640381,2|2,0:1|0:0,0:0:0:0:
277,17,101956,2,0,P|229:12|200:28,1,80.9999975280763,0|2,0:0|0:1,0:0:0:0:
155,87,102456,1,2,0:0:0:0:
94,135,102623,2,0,P|72:139|50:135,1,40.4999987640381,0|0,0:0|0:0,0:0:0:0:
12,201,102956,5,2,0:1:0:0:
10,68,103123,2,0,P|46:49|94:70,1,80.9999975280763,2|0,0:0|0:0,0:0:0:0:
203,26,103623,2,0,P|211:48|208:66,1,40.4999987640381,2|2,0:1|0:0,0:0:0:0:
177,135,103956,2,0,P|178:155|189:175,1,40.4999987640381,0|2,0:0|0:0,0:0:0:0:
305,264,104289,5,2,0:1:0:0:
337,194,104456,2,0,P|336:174|325:154,1,40.4999987640381,2|0,0:0|0:0,0:0:0:0:
260,196,104789,1,0,0:0:0:0:
305,264,104956,1,2,0:1:0:0:
382,265,105123,1,2,0:0:0:0:
437,317,105289,2,0,P|429:335|426:361,1,40.4999987640381,0|0,0:0|0:0,0:0:0:0:
469,232,105623,5,0,0:0:0:0:
425,168,105789,2,0,P|390:141|351:133,1,80.9999975280763,2|0,0:0|0:0,0:0:0:0:
259,33,106289,2,0,P|279:45|289:62,1,40.4999987640381,2|2,0:1|0:0,0:0:0:0:
243,123,106623,1,0,0:0:0:0:
187,70,106789,1,2,0:0:0:0:
259,33,106956,6,0,B|280:18|320:31|320:31|369:89|321:166,1,202.499993820191,2|0,0:1|0:0,0:0:0:0:
255,210,107956,2,0,L|212:204,1,40.4999987640381,0|0,0:0|0:0,0:0:0:0:
138,190,108289,5,0,0:0:0:0:
411,230,108623,1,0,0:0:0:0:
98,375,108956,2,0,P|142:366|166:334,1,80.9999975280763,2|2,0:1|0:0,0:0:0:0:
167,262,109456,1,2,0:0:0:0:
123,198,109623,6,0,L|35:215,1,80.9999975280763,2|0,0:1|0:0,0:0:0:0:
167,262,110123,2,0,L|255:245,1,80.9999975280763,0|0,0:0|0:0,0:0:0:0:
320,178,110623,2,0,L|334:272,1,80.9999975280763,2|2,0:0|0:1,0:0:0:0:
342,336,111123,6,0,P|306:355|269:346,1,80.9999975280763,2|0,0:0|0:0,0:0:0:0:
404,234,111623,2,0,P|440:215|477:224,1,80.9999975280763,2|8,0:1|0:0,0:0:0:0:
452,297,112123,1,0,0:0:0:0:
316,366,112289,6,0,L|195:349,1,116.999994644165,4|0,0:3|0:0,0:0:0:0:
114,331,112789,1,0,0:0:0:0:
45,275,112956,6,0,P|28:301|26:330,1,58.4999973220826,8|0,0:0|0:0,0:0:0:0:
140,231,113289,2,0,P|156:257|181:271,1,58.4999973220826,0|0,0:0|0:0,0:0:0:0:
215,114,113623,1,2,0:0:0:0:
131,88,113789,1,0,0:0:0:0:
58,137,113956,2,0,P|52:167|66:197,1,58.4999973220826,0|0,0:0|0:0,0:0:0:0:
215,114,114289,2,0,P|274:113|317:74,1,116.999994644165,8|0,0:0|0:0,0:0:0:0:
242,27,114789,1,0,0:0:0:0:
363,169,114956,6,0,P|382:144|384:113,1,58.4999973220826,2|0,0:0|0:0,0:0:0:0:
391,253,115289,2,0,P|424:254|447:243,1,58.4999973220826,0|0,0:0|0:0,0:0:0:0:
331,312,115623,2,0,P|351:360|418:373,1,116.999994644165,10|0,0:0|0:0,0:0:0:0:
493,347,116123,1,0,0:0:0:0:
468,192,116289,6,0,P|463:223|441:246,1,58.4999973220826,2|0,0:0|0:0,0:0:0:0:
345,162,116623,2,0,P|334:133|339:105,1,58.4999973220826,8|2,0:0|0:0,0:0:0:0:
239,22,116956,1,10,0:0:0:0:
171,78,117123,1,0,0:0:0:0:
164,165,117289,2,0,P|171:194|196:218,1,58.4999973220826,0|0,0:0|0:0,0:0:0:0:
98,313,117623,6,0,L|222:299,1,116.999994644165,2|0,0:0|0:0,0:0:0:0:
301,293,118123,1,0,0:0:0:0:
326,209,118289,2,0,L|262:214,1,58.4999973220826,10|0,0:0|0:0,0:0:0:0:
164,165,118623,2,0,L|103:157,1,58.4999973220826,0|0,0:0|0:0,0:0:0:0:
19,216,118956,5,2,0:0:0:0:
89,162,119123,1,0,0:0:0:0:
98,75,119289,2,0,P|92:44|73:23,1,58.4999973220826,0|0,0:0|0:0,0:0:0:0:
204,22,119623,2,0,P|206:75|258:120,1,116.999994644165,10|0,0:0|0:0,0:0:0:0:
282,42,120123,1,0,0:0:0:0:
195,132,120289,6,0,P|224:131|250:117,1,58.4999973220826,2|0,0:0|0:0,0:0:0:0:
336,116,120623,1,0,0:0:0:0:
375,37,120789,1,0,0:0:0:0:
440,95,120956,2,0,P|457:122|460:153,1,58.4999973220826,10|0,0:0|0:0,0:0:0:0:
486,251,121289,6,0,L|369:244,1,116.999994644165,0|2,0:0|0:0,0:0:0:0:
225,331,121789,1,0,0:0:0:0:
310,309,121956,1,8,0:0:0:0:
293,224,122123,1,0,0:0:0:0:
177,225,122289,6,0,P|183:243|220:243,1,58.4999973220826,10|0,0:0|0:0,0:0:0:0:
132,136,122623,2,0,P|104:131|90:155,1,58.4999973220826,0|0,0:0|0:0,0:0:0:0:
231,139,122956,6,0,P|226:103|208:77,1,67.5000025749208,0|0,0:0|0:0,0:0:0:0:
92,54,123289,2,0,L|21:65,1,67.5000025749208,0|0,0:0|0:0,0:0:0:0:
132,136,123623,1,8,0:1:0:0:
132,136,123789,1,0,0:0:0:0:
132,136,123956,2,0,L|203:125,1,67.5000025749208,0|0,0:0|0:0,0:0:0:0:
344,18,124289,5,0,0:0:0:0:
272,69,124456,1,0,0:0:0:0:
291,154,124623,1,0,0:0:0:0:
370,189,124789,1,0,0:0:0:0:
412,265,124956,2,0,L|403:343,1,67.5000025749208,8|0,0:1|0:0,0:0:0:0:
488,307,125289,1,0,0:0:0:0:
411,346,125623,5,0,0:0:0:0:
411,346,125789,1,0,0:0:0:0:
306,297,125956,1,0,0:0:0:0:
306,297,126123,1,0,0:0:0:0:
198,365,126289,2,0,P|230:376|267:356,1,67.5000025749208,8|0,0:1|0:0,0:0:0:0:
335,218,126623,2,0,L|314:150,1,67.5000025749208,0|0,0:0|0:0,0:0:0:0:
228,54,126956,5,0,0:0:0:0:
140,44,127123,1,0,0:0:0:0:
174,124,127289,1,0,0:0:0:0:
86,121,127456,1,0,0:0:0:0:
123,200,127623,2,0,L|51:206,1,67.5000025749208,8|0,0:1|0:0,0:0:0:0:
166,284,127956,2,0,L|61:283,1,101.250003862381,0|0,0:0|0:0,0:0:0:0:
36,280,128289,6,0,P|19:306|29:355,1,76.5000014591217,2|0,0:0|0:0,0:0:0:0:
180,356,128623,2,0,P|197:330|187:281,1,76.5000014591217,0|0,1:0|0:0,0:0:0:0:
75,188,128956,6,0,L|152:194,1,76.5000014591217,2|0,0:0|0:0,0:0:0:0:
236,141,129289,2,0,L|245:63,1,76.5000014591217,0|0,1:0|0:0,0:0:0:0:
279,246,129623,6,0,L|270:324,1,76.5000014591217,2|0,0:0|0:0,0:0:0:0:
436,195,129956,2,0,L|360:190,1,76.5000014591217,0|0,1:0|0:0,0:0:0:0:
396,282,130289,6,0,L|472:287,1,76.5000014591217,2|0,0:0|0:0,0:0:0:0:
406,112,130623,1,0,1:0:0:0:
406,112,130789,1,0,0:0:0:0:
234,53,130956,5,0,1:0:0:0:
333,47,131123,1,0,0:0:0:0:
289,159,131289,1,0,1:0:0:0:
406,112,131456,1,0,0:0:0:0:
234,53,131623,5,0,1:0:0:0:
207,51,131706,1,2,0:0:0:0:
181,58,131789,1,2,0:0:0:0:
162,77,131873,1,2,0:0:0:0:
145,97,131956,5,0,1:0:0:0:
121,109,132039,1,2,0:0:0:0:
94,113,132123,1,2,0:0:0:0:
67,110,132206,1,2,0:0:0:0:
48,95,132289,2,0,P|41:66|65:47,1,60.7499981460572,4|0,1:2|0:0,0:0:0:0:
79,26,132623,6,0,B|126:24|126:24|105:48,1,76.5000014591217,2|0,0:1|0:0,0:0:0:0:
21,172,132956,1,0,3:0:0:0:
68,302,133123,1,2,0:0:0:0:
68,302,133206,1,2,0:0:0:0:
68,302,133289,2,0,L|164:283,1,87.749995983124,4|0,1:3|0:0,0:0:0:0:
179,287,133623,6,0,P|195:324|181:382,1,90,4|0,0:1|0:0,0:0:0:0:
98,212,133956,1,0,1:0:0:0:
41,141,134123,2,0,L|70:52,1,90,0|0,0:0|0:0,0:0:0:0:
248,16,134456,1,2,0:0:0:0:
305,87,134623,2,0,L|276:176,1,90,0|0,1:0|0:0,0:0:0:0:
248,16,134956,5,2,0:0:0:0:
395,39,135123,1,0,0:0:0:0:
373,185,135289,1,0,1:0:0:0:
226,158,135456,1,0,0:0:0:0:
237,177,135539,1,0,0:0:0:0:
241,199,135623,1,0,0:0:0:0:
241,221,135706,1,0,0:0:0:0:
237,242,135789,1,0,0:0:0:0:
177,324,135956,2,0,L|267:331,1,90,0|0,1:0|0:0,0:0:0:0:
468,282,136289,5,4,0:0:0:0:
339,287,136456,1,4,0:0:0:0:
451,180,136623,1,0,1:0:0:0:
350,181,136789,1,4,0:3:0:0:
467,77,136956,2,0,L|378:86,1,90,4|2,0:3|0:0,0:0:0:0:
167,55,137289,2,0,P|241:63|280:109,1,135,4|0,1:3|0:0,0:0:0:0:
305,116,137623,5,2,0:0:0:0:
228,205,137789,2,0,P|188:227|141:219,1,90,0|0,0:0|1:0,0:0:0:0:
177,136,138123,1,0,0:0:0:0:
324,257,138289,1,0,0:1:0:0:
324,257,138373,1,2,0:0:0:0:
324,257,138456,1,2,0:0:0:0:
295,138,138623,1,2,1:0:0:0:
220,318,138789,1,2,0:0:0:0:
324,257,138956,6,0,P|368:254|404:279,1,90,4|0,0:1|0:0,0:0:0:0:
492,126,139289,1,0,1:0:0:0:
403,119,139456,2,0,P|364:98|346:55,1,90,0|0,0:0|0:0,0:0:0:0:
127,117,139789,1,2,0:0:0:0:
195,177,139956,2,0,P|240:182|280:160,1,90,0|0,1:0|0:0,0:0:0:0:
222,91,140289,5,2,0:0:0:0:
108,197,140456,1,0,0:0:0:0:
178,335,140623,2,0,L|270:323,1,90,0|0,1:0|0:0,0:0:0:0:
294,298,140873,1,0,0:0:0:0:
327,283,140956,1,0,0:0:0:0:
363,285,141039,1,0,0:0:0:0:
395,303,141123,1,2,0:0:0:0:
437,237,141289,2,0,P|470:266|475:316,1,90,0|0,1:0|0:0,0:0:0:0:
339,362,141623,5,4,0:0:0:0:
279,294,141789,1,4,0:0:0:0:
316,211,141956,1,0,1:0:0:0:
397,171,142123,1,4,0:3:0:0:
262,145,142289,1,4,0:3:0:0:
367,277,142456,1,2,0:0:0:0:
253,263,142623,2,0,B|116:245,1,135,4|0,1:3|0:0,0:0:0:0:
85,239,142956,5,2,0:0:0:0:
241,338,143123,2,0,B|201:360|201:360|155:345,1,90,0|0,0:0|1:0,0:0:0:0:
85,239,143456,1,0,1:0:0:0:
85,239,143539,1,0,0:0:0:0:
85,239,143623,5,0,3:0:0:0:
128,142,143789,5,0,3:0:0:0:
80,47,143956,6,0,L|33:58,1,40.4999987640381,2|0,0:3|0:0,0:0:0:0:
23,127,144206,1,0,0:0:0:0:
23,127,144289,6,0,P|69:135|110:114,1,90,4|0,0:1|0:0,0:0:0:0:
227,252,144623,1,0,1:0:0:0:
283,182,144789,2,0,P|298:139|292:96,1,90,0|0,0:0|0:0,0:0:0:0:
386,264,145123,1,2,0:0:0:0:
460,214,145289,2,0,P|489:179|490:135,1,90,0|0,1:0|0:0,0:0:0:0:
467,305,145623,5,2,0:0:0:0:
380,172,145789,1,0,0:0:0:0:
263,257,145956,1,0,1:0:0:0:
234,102,146123,1,0,0:0:0:0:
222,83,146206,1,0,0:0:0:0:
204,68,146289,1,0,0:0:0:0:
183,58,146373,1,0,0:0:0:0:
161,51,146456,1,2,0:0:0:0:
73,94,146623,2,0,P|93:131|150:142,1,90,0|0,1:0|0:0,0:0:0:0:
253,263,146956,5,4,0:0:0:0:
231,350,147123,1,4,0:0:0:0:
253,263,147289,1,0,1:0:0:0:
102,266,147456,1,4,0:3:0:0:
124,353,147623,1,4,0:3:0:0:
102,266,147789,1,2,0:0:0:0:
177,214,147956,2,0,P|242:223|281:275,1,135,4|0,1:3|0:0,0:0:0:0:
281,303,148289,5,2,0:0:0:0:
124,353,148456,2,0,L|103:264,1,90,0|0,0:0|1:0,0:0:0:0:
83,177,148789,1,0,0:0:0:0:
196,292,148956,1,2,0:1:0:0:
196,292,149039,1,2,0:0:0:0:
196,292,149123,1,2,0:0:0:0:
25,241,149289,1,0,1:0:0:0:
187,201,149456,1,2,0:0:0:0:
279,238,149623,6,0,P|296:280|285:324,1,90,4|0,0:1|0:0,0:0:0:0:
104,265,149956,1,0,1:0:0:0:
94,166,150123,2,0,L|81:73,1,90,0|0,0:0|0:0,0:0:0:0:
302,49,150456,1,2,0:0:0:0:
292,148,150623,2,0,L|279:241,1,90,0|0,1:0|0:0,0:0:0:0:
187,201,150956,5,2,0:0:0:0:
378,225,151123,1,0,0:0:0:0:
302,49,151289,2,0,L|289:142,1,90,0|0,1:0|0:0,0:0:0:0:
307,170,151539,1,0,0:0:0:0:
343,164,151623,1,0,0:0:0:0:
375,146,151706,1,0,0:0:0:0:
388,112,151789,1,2,0:0:0:0:
298,32,151956,2,0,L|206:39,1,90,0|0,1:0|0:0,0:0:0:0:
73,154,152289,5,4,0:0:0:0:
163,163,152456,1,4,0:0:0:0:
56,34,152623,1,0,1:0:0:0:
209,38,152789,1,4,0:3:0:0:
132,84,152956,1,4,0:3:0:0:
56,34,153123,1,2,0:0:0:0:
209,38,153289,2,0,P|254:86|286:158,1,135,4|0,1:3|0:0,0:0:0:0:
282,175,153623,5,2,0:0:0:0:
413,232,153789,1,0,0:0:0:0:
492,113,153956,2,0,L|396:128,1,90,0|0,1:0|1:0,0:0:0:0:
404,126,154206,1,0,0:0:0:0:
404,126,154289,1,0,1:0:0:0:
320,252,154456,1,0,1:0:0:0:
320,252,154539,1,0,0:0:0:0:
320,252,154623,1,0,1:0:0:0:
418,348,154789,1,0,1:0:0:0:
418,348,154873,1,0,1:0:0:0:
418,348,154956,6,0,L|465:338,1,40.4999987640381,2|0,0:0|0:0,0:0:0:0:
487,232,155289,2,0,L|440:242,1,40.4999987640381,2|0,0:0|0:0,0:0:0:0:
320,252,155623,2,0,L|322:202,1,40.4999987640381,2|0,0:0|0:0,0:0:0:0:
234,146,155956,2,0,L|236:96,1,40.4999987640381,2|0,0:0|0:0,0:0:0:0:
231,236,156289,5,2,0:0:0:0:
143,250,156456,2,0,P|112:251|95:243,1,40.4999987640381,4|2,0:3|0:0,0:0:0:0:
25,206,156789,1,0,0:0:0:0:
106,168,156956,2,0,P|137:167|154:175,1,40.4999987640381,4|0,0:3|0:0,0:0:0:0:
203,320,157289,6,0,P|189:337|162:336,1,40.4999987640381,0|0,0:0|0:0,0:0:0:0:
27,314,157623,2,0,P|41:331|68:330,1,40.4999987640381,2|4,0:0|0:0,0:0:0:0:
143,250,157956,2,0,P|151:225|147:198,1,40.4999987640381,2|0,0:0|0:0,0:0:0:0:
192,109,158289,2,0,P|186:82|174:70,1,40.4999987640381,2|0,0:0|0:0,0:0:0:0:
97,34,158623,5,0,3:0:0:0:
67,108,158789,1,0,0:0:0:0:
35,182,158956,1,2,0:0:0:0:
117,178,159123,5,0,3:0:0:0:
198,169,159289,1,2,0:0:0:0:
279,159,159456,1,0,0:0:0:0:
234,91,159623,6,0,L|188:96,1,40.4999987640381,2|0,3:2|0:0,0:0:0:0:
123,250,159956,2,0,L|187:245,1,60.7499981460572,4|0,0:3|0:0,0:0:0:0:
208,243,160289,6,0,P|223:270|220:300,1,58.4999973220826,0|4,1:0|0:0,0:0:0:0:
360,348,160623,2,0,P|351:317|330:298,1,58.4999973220826,0|0,1:0|0:0,0:0:0:0:
315,154,160956,2,0,P|331:181|357:195,1,58.4999973220826,0|0,1:0|0:0,0:0:0:0:
502,99,161289,2,0,P|483:117|443:115,1,58.4999973220826,0|0,1:0|0:0,0:0:0:0:
305,19,161623,6,0,P|334:19|356:39,1,58.4999973220826,0|0,1:0|0:0,0:0:0:0:
211,144,161956,2,0,P|183:143|161:123,1,58.4999973220826,0|0,1:0|0:0,0:0:0:0:
48,17,162289,2,0,P|26:40|23:72,1,58.4999973220826,0|0,1:0|0:0,0:0:0:0:
102,272,162623,2,0,P|123:251|129:223,1,58.4999973220826,0|0,1:0|0:0,0:0:0:0:
48,208,162956,6,0,B|46:222|46:222|55:219|55:219|50:233|50:233|60:228|60:228|54:241|54:241|65:237|65:237|60:249|60:249|72:244|72:244|67:256|67:256|78:251|78:251|75:261|75:261|85:256|85:256|82:267|82:267|93:262|93:262|90:272|90:272|102:265|102:265|99:275|99:275|113:267|113:267|109:278|109:278|123:268|123:268|120:278|120:278|131:273|131:273|126:284|126:284|138:280|138:280|135:289|135:289|145:287|145:287|139:297|139:297|151:298|151:298|144:308|144:308|155:311|155:311|148:320|148:320|155:332,1,382.500007295609,8|0,0:0|0:0,0:0:0:0:
194,376,163456,6,0,B|197:371|197:371|190:362|190:362|201:359|201:359|194:349|194:349|206:348|206:348|200:338|200:338|210:340|210:340|207:331|207:331|219:335|219:335|214:324|214:324|225:329|225:329|222:319|222:319|236:329|236:329|232:318|232:318|246:326|246:326|243:316|243:316|255:323|255:323|252:313|252:313|263:318|263:318|260:307|260:307|270:312|270:312|267:302|267:302|278:307|278:307|273:295|273:295|285:300|285:300|280:288|280:288|291:292|291:292|285:279|285:279|295:284|295:284|290:270|290:270|299:273|299:273|297:259,1,382.500007295609,2|0,0:0|0:0,0:0:0:0:
283,193,163956,6,0,P|318:176|312:213,1,90,2|0,0:0|0:0,0:0:0:0:
